osu file format v14

[General]
AudioFilename: audio.mp3
AudioLeadIn: 0
PreviewTime: 48427
Countdown: 0
SampleSet: Normal
StackLeniency: 0.7
Mode: 1
LetterboxInBreaks: 0
WidescreenStoryboard: 1

[Editor]
DistanceSpacing: 1.5
BeatDivisor: 4
GridSize: 32
TimelineZoom: 3.199999

[Metadata]
Title:overcomplexification
TitleUnicode:overcomplexification
Artist:Camellia
ArtistUnicode:かめりあ
Creator:-Dusk
Version:Muzukashii
Source:jubeat prop
Tags:かめるかめりあ cametek kamelcamellia masaya oya 大箭将也 ost original soundtrack galaxy burst electronic instrumental _dusk_ featured artist fa
BeatmapID:3089869
BeatmapSetID:1484214

[Difficulty]
HPDrainRate:6
CircleSize:4
OverallDifficulty:5
ApproachRate:9
SliderMultiplier:1.3
SliderTickRate:1

[Events]
//Background and Video events
0,0,"destruction.jpg",0,92
//Break Periods
//Storyboard Layer 0 (Background)
//Storyboard Layer 1 (Fail)
//Storyboard Layer 2 (Pass)
//Storyboard Layer 3 (Foreground)
//Storyboard Layer 4 (Overlay)
//Storyboard Sound Samples

[TimingPoints]
901,315.78947368421,4,1,0,60,1,0
901,-125,4,1,0,60,0,0
10216,-121.951219512195,4,1,0,60,0,0
10374,-119.047619047619,4,1,0,60,0,0
10690,-113.636363636364,4,1,0,60,0,0
10848,-111.111111111111,4,1,0,60,0,0
11006,-108.695652173913,4,1,0,100,0,0
16058,-108.695652173913,4,1,0,100,0,0
16216,-106.742838356118,4,1,0,100,0,0
16374,-104.858954220678,4,1,0,100,0,0
16690,-101.283771807662,4,1,0,100,0,0
16848,-99.586120084927,4,1,0,100,0,0
17006,-97.9444400369446,4,1,0,100,0,0
17322,-94.8182760330688,4,1,0,100,0,0
17479,-93.3287664456953,4,1,0,100,0,0
17637,-91.8854152118143,4,1,0,100,0,0
17795,-90.4860276000481,4,1,0,100,0,0
17953,-89.1286250840037,4,1,0,100,0,0
18032,-88.4650430382434,4,1,0,100,0,0
18111,-87.8113461040301,4,1,0,100,0,0
18269,-86.5324375495398,4,1,0,100,0,0
18322,-86.1143236537963,4,1,0,100,0,0
18427,-85.2901742307679,4,1,0,100,0,0
18585,-84.0831447768812,4,1,0,100,0,0
19848,-125,4,1,0,100,0,0
20006,-121.212121212121,4,1,0,100,0,0
20164,-117.647058823529,4,1,0,100,0,0
20322,-114.285714285714,4,1,0,100,0,0
20479,-111.111111111111,4,1,0,100,0,0
20558,-109.58904109589,4,1,0,100,0,0
20637,-108.108108108108,4,1,0,100,0,0
20795,-105.263157894737,4,1,0,100,0,0
21111,-90.9090909090909,4,1,0,100,0,0
21585,-95.2380952380952,4,1,0,100,0,0
24269,-86.9565217391304,4,1,0,100,0,0
24348,-87.719298245614,4,1,0,100,0,0
24427,-88.4955752212389,4,1,0,100,0,0
24585,-90.0900900900901,4,1,0,100,0,0
24743,-90.9090909090909,4,1,0,100,0,0
24822,-91.743119266055,4,1,0,100,0,0
24900,-92.5925925925926,4,1,0,100,0,0
25058,-94.3396226415094,4,1,0,100,0,0
25216,-95.2380952380952,4,1,0,100,0,0
25295,-96.1538461538461,4,1,0,100,0,0
25374,-97.0873786407767,4,1,0,100,0,0
25532,-99.009900990099,4,1,0,100,0,0
25690,-100,4,1,0,100,0,0
26164,-90.9090909090909,4,1,0,100,0,0
26637,-95.2380952380952,4,1,0,100,0,0
28690,-105.263157894737,4,1,0,100,0,0
31216,-90.9090909090909,4,1,0,100,0,0
31690,-95.2380952380952,4,1,0,100,0,0
33743,-95.2380952380952,4,1,0,100,0,0
34374,-86.9565217391304,4,1,0,100,0,0
34453,-87.719298245614,4,1,0,100,0,0
34532,-88.4955752212389,4,1,0,100,0,0
34690,-90.0900900900901,4,1,0,100,0,0
34848,-90.9090909090909,4,1,0,100,0,0
34927,-91.743119266055,4,1,0,100,0,0
35006,-92.5925925925926,4,1,0,100,0,0
35164,-94.3396226415094,4,1,0,100,0,0
35322,-95.2380952380952,4,1,0,100,0,0
35400,-96.1538461538461,4,1,0,100,0,0
35479,-97.0873786407767,4,1,0,100,0,0
35637,-99.009900990099,4,1,0,100,0,0
35795,-100,4,1,0,100,0,0
36585,-90.9090909090909,4,1,0,100,0,0
36900,-95.2380952380952,4,1,0,100,0,0
37216,-90.9090909090909,4,1,0,100,0,0
37848,-90.9090909090909,4,1,0,100,0,0
38164,-89.2857142857143,4,1,0,100,0,0
38322,-87.719298245614,4,1,0,100,0,0
38479,-86.2068965517241,4,1,0,100,0,0
38716,-84.7457627118644,4,1,0,100,0,0
39269,-100,4,1,0,100,0,0
40532,-103.092783505155,4,1,0,100,0,0
40690,-106.382978723404,4,1,0,100,0,0
40848,-109.89010989011,4,1,0,100,0,0
41006,-113.636363636364,4,1,0,100,0,0
41164,-117.647058823529,4,1,0,100,0,0
41322,-121.951219512195,4,1,0,100,0,0
42900,-121.951219512195,4,1,0,100,0,0
43058,-118.833012286145,4,1,0,100,0,0
43137,-117.332882775063,4,1,0,100,0,0
43216,-115.870290162381,4,1,0,100,0,0
43374,-113.051578652244,4,1,0,100,0,0
43532,-110.366870514276,4,1,0,100,0,0
43611,-109.071712469514,4,1,0,100,0,0
43690,-107.806715495922,4,1,0,100,0,0
43848,-105.362642410782,4,1,0,100,0,0
44322,-121.951219512195,4,1,0,100,0,0
45111,-121.951219512195,4,1,0,100,0,0
45269,-121.951219512195,4,1,0,100,0,0
45427,-118.243283190298,4,1,0,100,0,0
45585,-114.754041924242,4,1,0,100,0,0
45637,-113.636363636364,4,1,0,100,0,0
45743,-111.46495040367,4,1,0,100,0,0
45900,-108.359149900797,4,1,0,100,0,0
46058,-105.42173437729,4,1,0,100,0,0
46137,-104.011840707946,4,1,0,100,0,0
46216,-102.639266088192,4,1,0,100,0,0
46374,-100,4,1,0,100,0,0
46848,-117.647058823529,4,1,0,100,0,0
48427,-114.942528735632,4,1,0,100,0,0
48506,-111.111111111111,4,1,0,100,0,0
48585,-107.52688172043,4,1,0,100,0,0
48743,-105.263157894737,4,1,0,100,0,0
48900,-100,4,1,0,100,0,0
59006,-98.0392156862745,4,1,0,100,0,0
59164,-97.0873786407767,4,1,0,100,0,0
59322,-96.1538461538461,4,1,0,100,0,0
59479,-95.2380952380952,4,1,0,100,0,0
59795,-93.4579439252336,4,1,0,100,0,0
60111,-91.743119266055,4,1,0,100,0,0
60190,-91.324200913242,4,1,0,100,0,0
60269,-90.9090909090909,4,1,0,100,0,0
60348,-90.4977375565611,4,1,0,100,0,0
60585,-89.2857142857143,4,1,0,100,0,0
60743,-88.495575221239,4,1,0,100,0,0
61058,-86.9565217391304,4,1,0,100,0,0
61216,-86.2068965517241,4,1,0,100,0,0
61374,-85.4700854700855,4,1,0,100,0,0
61453,-85.1063829787234,4,1,0,100,0,0
61532,-84.7457627118644,4,1,0,100,0,0
61690,-84.7457627118644,4,1,0,100,0,0
61769,-85.1516764236296,4,1,0,100,0,0
61848,-85.5614973262032,4,1,0,100,0,0
61900,-85.8369098712446,4,1,0,100,0,0
61953,-86.1141011840689,4,1,0,100,0,0
62006,-86.3930885529158,4,1,0,100,0,0
62085,-86.8149755832881,4,1,0,100,0,0
62164,-87.2410032715376,4,1,0,100,0,0
62243,-87.6712328767123,4,1,0,100,0,0
62322,-88.1057268722467,4,1,0,100,0,0
62400,-88.5445489762037,4,1,0,100,0,0
62479,-88.9877641824249,4,1,0,100,0,0
62558,-89.4354387926216,4,1,0,100,0,0
62637,-89.8876404494382,4,1,0,100,0,0
62716,-90.3444381705251,4,1,0,100,0,0
62795,-90.8059023836549,4,1,0,100,0,0
62848,-91.1161731207289,4,1,0,100,0,0
62900,-91.4285714285714,4,1,0,100,0,0
62953,-91.743119266055,4,1,0,100,0,0
63032,-92.2190201729107,4,1,0,100,0,0
63111,-92.6998841251448,4,1,0,100,0,0
63190,-93.185789167152,4,1,0,100,0,0
63269,-93.6768149882904,4,1,0,100,0,0
63348,-94.1730429664509,4,1,0,100,0,0
63427,-94.6745562130178,4,1,0,100,0,0
63506,-95.1814396192742,4,1,0,100,0,0
63585,-95.6937799043062,4,1,0,100,0,0
63664,-96.2116656644618,4,1,0,100,0,0
63743,-96.7351874244256,4,1,0,100,0,0
63795,-97.0873786407767,4,1,0,100,0,0
63848,-97.442143727162,4,1,0,100,0,0
63900,-97.799511002445,4,1,0,100,0,0
63979,-98.340503995083,4,1,0,100,0,0
64058,-98.8875154511743,4,1,0,100,0,0
64137,-99.4406463642014,4,1,0,100,0,0
64216,-100,4,1,0,100,0,0
66269,-96.1538461538461,4,1,0,100,0,0
66374,-92.5925925925926,4,1,0,100,0,0
66479,-89.2857142857143,4,1,0,100,0,0
66585,-84.7457627118644,4,1,0,100,0,0
66743,-84.7457627118644,4,1,0,100,0,0
66822,-85.1516764236296,4,1,0,100,0,0
66900,-85.5614973262032,4,1,0,100,0,0
66953,-85.8369098712446,4,1,0,100,0,0
67006,-86.1141011840689,4,1,0,100,0,0
67058,-86.3930885529158,4,1,0,100,0,0
67137,-86.8149755832881,4,1,0,100,0,0
67216,-87.2410032715376,4,1,0,100,0,0
67295,-87.6712328767123,4,1,0,100,0,0
67374,-88.1057268722467,4,1,0,100,0,0
67453,-88.5445489762037,4,1,0,100,0,0
67532,-88.9877641824249,4,1,0,100,0,0
67611,-89.4354387926216,4,1,0,100,0,0
67690,-89.8876404494382,4,1,0,100,0,0
67769,-90.3444381705251,4,1,0,100,0,0
67848,-90.8059023836549,4,1,0,100,0,0
67900,-91.1161731207289,4,1,0,100,0,0
67953,-91.4285714285714,4,1,0,100,0,0
68006,-91.743119266055,4,1,0,100,0,0
68085,-92.2190201729107,4,1,0,100,0,0
68164,-92.6998841251448,4,1,0,100,0,0
68243,-93.185789167152,4,1,0,100,0,0
68322,-93.6768149882904,4,1,0,100,0,0
68400,-94.1730429664509,4,1,0,100,0,0
68479,-94.6745562130178,4,1,0,100,0,0
68558,-95.1814396192742,4,1,0,100,0,0
68637,-95.6937799043062,4,1,0,100,0,0
68716,-96.2116656644618,4,1,0,100,0,0
68795,-96.7351874244256,4,1,0,100,0,0
68848,-97.0873786407767,4,1,0,100,0,0
68900,-97.442143727162,4,1,0,100,0,0
68953,-97.799511002445,4,1,0,100,0,0
69032,-98.340503995083,4,1,0,100,0,0
69111,-98.8875154511743,4,1,0,100,0,0
69190,-99.4406463642014,4,1,0,100,0,0
69269,-100,4,1,0,100,0,0
72585,-125,4,1,0,100,0,0
76690,-123.456790123457,4,1,0,100,0,0
76848,-120.894863781712,4,1,0,100,0,0
77006,-118.437103975934,4,1,0,100,0,0
77164,-116.077284255858,4,1,0,100,0,0
77243,-114.932224467232,4,1,0,100,0,0
77322,-113.809535190477,4,1,0,100,0,0
77479,-111.628820775463,4,1,0,100,0,0
77637,-109.530104896981,4,1,0,100,0,0
77795,-107.508847978189,4,1,0,100,0,0
77874,-106.525882060935,4,1,0,100,0,0
77953,-105.56083946202,4,1,0,100,0,0
78111,-103.682168533291,4,1,0,100,0,0
78269,-101.869197912496,4,1,0,100,0,0
78348,-100.986231537192,4,1,0,100,0,0
78427,-100.118440114656,4,1,0,100,0,0
78506,-99.2655343116283,4,1,0,100,0,0
78585,-98.426940634775,4,1,0,100,0,0
78743,-96.7916472680074,4,1,0,100,0,0
78822,-95.9941635548559,4,1,0,100,0,0
78900,-95.2098043248102,4,1,0,100,0,0
78979,-94.4380698747279,4,1,0,100,0,0
79058,-93.6788333612809,4,1,0,100,0,0
79216,-92.1963191541541,4,1,0,100,0,0
79295,-91.4724782181161,4,1,0,100,0,0
79374,-90.7599146130723,4,1,0,100,0,0
79453,-90.0584479327083,4,1,0,100,0,0
79532,-89.3676612393686,4,1,0,100,0,0
79611,-88.6874697908306,4,1,0,100,0,0
79690,-88.0174767501835,4,1,0,100,0,0
79769,-87.3576071004263,4,1,0,100,0,0
79848,-86.7074827690555,4,1,0,100,0,0
79927,-86.0669635403129,4,1,0,100,0,0
80006,-85.4359111056432,4,1,0,100,0,0
80085,-84.8139732717245,4,1,0,100,0,0
80164,-84.2010957930607,4,1,0,100,0,0
80243,-83.5969423582363,4,1,0,100,0,0
80322,-83.0014658058861,4,1,0,100,0,0
80400,-82.414344711183,4,1,0,100,0,0
80479,-81.8354714214167,4,1,0,100,0,0
80558,-81.2647393921072,4,1,0,100,0,0
80637,-80.7018478302098,4,1,0,100,0,0
80716,-80.1467647556205,4,1,0,100,0,0
80795,-79.5992020975982,4,1,0,100,0,0
80874,-79.0591330691704,4,1,0,100,0,0
80953,-78.5262815685468,4,1,0,100,0,0
81032,-78.0005647240886,4,1,0,100,0,0
81111,-77.4819002281067,4,1,0,100,0,0
81190,-76.9700286405477,4,1,0,100,0,0
81269,-76.4649343280911,4,1,0,100,0,0
81348,-75.966368169484,4,1,0,100,0,0
81427,-75.4743183536938,4,1,0,100,0,0
81506,-74.9885454996749,4,1,0,100,0,0
81585,-74.5089857836855,4,1,0,100,0,0
81664,-74.0355755747752,4,1,0,100,0,0
81743,-73.5680891056695,4,1,0,100,0,0
81782,-14.2857142857143,4,1,0,40,0,0
83006,-125,4,1,0,40,0,0
84269,-125,4,1,0,80,0,0
84506,-121.739066918748,4,1,0,80,0,0
84743,-118.644087905778,4,1,0,80,0,0
84900,-116.666647222225,4,1,0,80,0,0
84979,-115.702441090102,4,1,0,80,0,0
85137,-113.821193733916,4,1,0,80,0,0
85216,-112.903262226859,4,1,0,80,0,0
85295,-112.000017920003,4,1,0,80,0,0
85374,-111.111111111111,4,1,0,80,0,0
85532,-109.374965820323,4,1,0,80,0,0
85611,-108.527081305233,4,1,0,80,0,0
85690,-107.692357396473,4,1,0,80,0,0
85769,-106.870261639775,4,1,0,80,0,0
85848,-106.060622130397,4,1,0,80,0,0
86006,-104.477596346627,4,1,0,80,0,0
86085,-103.703672976689,4,1,0,80,0,0
86164,-102.941131055383,4,1,0,80,0,0
86243,-102.189825776566,4,1,0,80,0,0
86322,-101.449304767914,4,1,0,80,0,0
86479,-100,4,1,0,80,0,0
86795,-93.4579439252336,4,1,0,100,0,1
103848,-93.4579439252336,4,1,0,100,0,0
104479,-90.9090909090909,4,1,0,100,0,1
105427,-90.9090909090909,4,1,0,100,0,1
105506,-90.0127277997109,4,1,0,100,0,1
105585,-89.1337889258398,4,1,0,100,0,1
105664,-88.2719269673385,4,1,0,100,0,1
105743,-87.4265726073314,4,1,0,100,0,1
105822,-86.5971810885612,4,1,0,100,0,1
105900,-85.7834516859022,4,1,0,100,0,1
105979,-84.9848726926607,4,1,0,100,0,1
106058,-84.2009539968088,4,1,0,100,0,1
106137,-83.4314347954136,4,1,0,100,0,1
106216,-82.6757852546084,4,1,0,100,0,1
106295,-81.9337680192839,4,1,0,100,0,1
106374,-81.2049515531259,4,1,0,100,0,1
106453,-80.4889219072333,4,1,0,100,0,1
106532,-79.7854728206798,4,1,0,100,0,1
106611,-79.0942130719006,4,1,0,100,0,1
106690,-78.4147670689344,4,1,0,100,0,1
106769,-77.7469554292254,4,1,0,100,0,1
106848,-77.0904224400969,4,1,0,100,0,1
106900,-76.6588397991232,4,1,0,100,0,1
106953,-76.2320625956712,4,1,0,100,0,1
107006,-75.7575757575758,4,1,0,100,0,0
107953,-125,4,1,0,60,0,0

[HitObjects]
256,192,901,5,0,0:0:0:0:
256,192,1848,1,8,0:0:0:0:
256,192,2479,1,0,0:0:0:0:
256,192,2637,1,8,0:0:0:0:
256,192,2795,1,0,0:0:0:0:
256,192,2953,1,8,0:0:0:0:
256,192,3111,1,0,0:0:0:0:
256,192,3427,1,8,0:0:0:0:
256,192,4374,1,0,0:0:0:0:
256,192,4690,1,8,0:0:0:0:
256,192,4848,1,8,0:0:0:0:
256,192,5006,1,8,0:0:0:0:
256,192,5479,1,8,0:0:0:0:
256,192,5795,1,8,0:0:0:0:
256,192,5953,1,0,0:0:0:0:
256,192,6900,1,8,0:0:0:0:
256,192,7532,1,0,0:0:0:0:
256,192,7690,1,8,0:0:0:0:
256,192,7848,1,8,0:0:0:0:
256,192,8006,1,0,0:0:0:0:
256,192,8164,1,8,0:0:0:0:
256,192,8322,1,8,0:0:0:0:
256,192,8479,1,0,0:0:0:0:
256,192,8953,1,8,0:0:0:0:
256,192,9427,1,8,0:0:0:0:
256,192,9900,1,0,0:0:0:0:
256,192,10216,1,8,0:0:0:0:
256,192,10374,1,0,0:0:0:0:
256,192,10690,1,8,0:0:0:0:
256,192,10848,1,8,0:0:0:0:
256,192,11006,1,4,0:0:0:0:
256,192,11322,1,8,0:0:0:0:
256,192,11637,1,0,0:0:0:0:
256,192,11953,1,8,0:0:0:0:
256,192,12269,1,0,0:0:0:0:
256,192,12585,1,8,0:0:0:0:
256,192,12743,1,0,0:0:0:0:
256,192,12900,1,8,0:0:0:0:
256,192,13058,1,8,0:0:0:0:
256,192,13216,1,0,0:0:0:0:
256,192,13532,1,8,0:0:0:0:
256,192,13848,1,0,0:0:0:0:
256,192,14164,1,8,0:0:0:0:
256,192,14479,1,0,0:0:0:0:
256,192,14795,1,8,0:0:0:0:
256,192,14953,1,8,0:0:0:0:
256,192,15111,1,8,0:0:0:0:
256,192,15427,1,0,0:0:0:0:
256,192,15900,1,8,0:0:0:0:
256,192,16058,5,0,0:0:0:0:
256,192,16216,1,0,0:0:0:0:
256,192,16374,1,8,0:0:0:0:
256,192,16690,1,0,0:0:0:0:
256,192,16848,1,8,0:0:0:0:
256,192,17006,1,8,0:0:0:0:
256,192,17322,1,0,0:0:0:0:
256,192,17479,1,0,0:0:0:0:
256,192,17637,1,8,0:0:0:0:
256,192,17795,1,8,0:0:0:0:
256,192,17953,1,0,0:0:0:0:
256,192,18032,1,0,0:0:0:0:
256,192,18111,1,0,0:0:0:0:
256,192,18269,1,8,0:0:0:0:
256,192,18348,1,8,0:0:0:0:
256,192,18427,1,8,0:0:0:0:
256,192,18585,1,0,0:0:0:0:
256,192,19848,1,0,0:0:0:0:
256,192,20006,1,8,0:0:0:0:
256,192,20164,1,8,0:0:0:0:
256,192,20322,1,0,0:0:0:0:
256,192,20479,1,8,0:0:0:0:
256,192,20558,1,8,0:0:0:0:
256,192,20637,1,8,0:0:0:0:
256,192,20795,1,8,0:0:0:0:
256,192,21111,1,4,0:0:0:0:
256,192,21585,1,0,0:0:0:0:
256,192,21743,1,8,0:0:0:0:
256,192,21900,1,0,0:0:0:0:
256,192,21979,1,0,0:0:0:0:
256,192,22058,1,0,0:0:0:0:
256,192,22216,1,8,0:0:0:0:
256,192,22374,1,0,0:0:0:0:
256,192,22532,1,8,0:0:0:0:
256,192,22690,1,0,0:0:0:0:
256,192,22848,1,0,0:0:0:0:
256,192,23006,1,8,0:0:0:0:
256,192,23164,1,8,0:0:0:0:
256,192,23243,1,8,0:0:0:0:
256,192,23322,1,8,0:0:0:0:
256,192,23479,1,8,0:0:0:0:
256,192,23637,1,0,0:0:0:0:
256,192,24111,1,0,0:0:0:0:
256,192,24269,1,8,0:0:0:0:
256,192,24348,1,8,0:0:0:0:
256,192,24427,1,8,0:0:0:0:
256,192,24585,1,0,0:0:0:0:
256,192,24743,1,8,0:0:0:0:
256,192,24822,1,8,0:0:0:0:
256,192,24900,1,8,0:0:0:0:
256,192,25058,1,0,0:0:0:0:
256,192,25216,1,8,0:0:0:0:
256,192,25295,1,8,0:0:0:0:
256,192,25374,1,8,0:0:0:0:
256,192,25532,1,0,0:0:0:0:
256,192,25690,1,8,0:0:0:0:
256,192,26164,1,4,0:0:0:0:
256,192,26637,1,0,0:0:0:0:
256,192,26795,1,8,0:0:0:0:
256,192,26953,1,0,0:0:0:0:
256,192,27032,1,0,0:0:0:0:
256,192,27111,1,0,0:0:0:0:
256,192,27269,1,8,0:0:0:0:
256,192,27427,1,0,0:0:0:0:
256,192,27585,1,8,0:0:0:0:
256,192,27743,1,0,0:0:0:0:
256,192,27900,1,0,0:0:0:0:
256,192,28058,1,8,0:0:0:0:
256,192,28137,1,8,0:0:0:0:
256,192,28216,1,8,0:0:0:0:
256,192,28374,1,8,0:0:0:0:
256,192,28690,1,0,0:0:0:0:
256,192,28848,1,0,0:0:0:0:
256,192,29006,1,8,0:0:0:0:
256,192,29322,1,0,0:0:0:0:
256,192,29637,1,8,0:0:0:0:
256,192,29795,1,0,0:0:0:0:
256,192,29953,1,0,0:0:0:0:
256,192,30269,1,8,0:0:0:0:
256,192,30585,1,0,0:0:0:0:
256,192,31216,1,4,0:0:0:0:
256,192,31690,1,0,0:0:0:0:
256,192,31848,1,8,0:0:0:0:
256,192,32006,1,0,0:0:0:0:
256,192,32085,1,0,0:0:0:0:
256,192,32164,1,0,0:0:0:0:
256,192,32322,1,8,0:0:0:0:
256,192,32479,1,0,0:0:0:0:
256,192,32637,1,8,0:0:0:0:
256,192,32795,1,0,0:0:0:0:
256,192,32953,1,0,0:0:0:0:
256,192,33111,1,8,0:0:0:0:
256,192,33269,1,8,0:0:0:0:
256,192,33348,1,8,0:0:0:0:
256,192,33427,1,8,0:0:0:0:
256,192,33585,1,8,0:0:0:0:
256,192,33743,1,0,0:0:0:0:
256,192,34374,1,8,0:0:0:0:
256,192,34453,1,8,0:0:0:0:
256,192,34532,1,8,0:0:0:0:
256,192,34690,1,0,0:0:0:0:
256,192,34848,1,8,0:0:0:0:
256,192,34927,1,8,0:0:0:0:
256,192,35006,1,8,0:0:0:0:
256,192,35164,1,0,0:0:0:0:
256,192,35322,1,8,0:0:0:0:
256,192,35400,1,8,0:0:0:0:
256,192,35479,1,8,0:0:0:0:
256,192,35637,1,0,0:0:0:0:
256,192,35795,1,8,0:0:0:0:
256,192,36269,1,8,0:0:0:0:
256,192,36427,1,8,0:0:0:0:
256,192,36585,1,4,0:0:0:0:
256,192,36900,1,8,0:0:0:0:
256,192,37058,1,0,0:0:0:0:
256,192,37216,1,4,0:0:0:0:
256,192,37532,1,8,0:0:0:0:
256,192,37690,1,8,0:0:0:0:
256,192,37848,1,4,0:0:0:0:
256,192,38164,1,4,0:0:0:0:
256,192,38374,1,4,0:0:0:0:
256,192,38585,1,4,0:0:0:0:
256,192,38795,1,12,0:0:0:0:
256,192,39269,1,0,0:0:0:0:
256,192,39427,1,8,0:0:0:0:
256,192,39743,1,8,0:0:0:0:
256,192,39900,1,0,0:0:0:0:
256,192,40058,1,8,0:0:0:0:
256,192,40374,1,0,0:0:0:0:
256,192,40690,1,8,0:0:0:0:
256,192,40848,1,0,0:0:0:0:
256,192,41006,1,8,0:0:0:0:
256,192,41164,1,8,0:0:0:0:
256,192,41322,1,4,0:0:0:0:
256,192,41795,1,0,0:0:0:0:
256,192,41953,1,8,0:0:0:0:
256,192,42111,1,8,0:0:0:0:
256,192,42269,1,0,0:0:0:0:
256,192,42427,1,0,0:0:0:0:
256,192,42506,1,0,0:0:0:0:
256,192,42900,1,8,0:0:0:0:
256,192,43058,1,8,0:0:0:0:
256,192,43137,1,8,0:0:0:0:
256,192,43216,1,8,0:0:0:0:
256,192,43374,1,8,0:0:0:0:
256,192,43532,1,0,0:0:0:0:
256,192,43611,1,0,0:0:0:0:
256,192,43690,1,0,0:0:0:0:
256,192,43848,1,4,0:0:0:0:
256,192,44322,1,0,0:0:0:0:
256,192,44479,1,8,0:0:0:0:
256,192,44637,1,8,0:0:0:0:
256,192,44795,1,0,0:0:0:0:
256,192,44953,1,0,0:0:0:0:
256,192,45269,1,0,0:0:0:0:
256,192,45427,1,8,0:0:0:0:
256,192,45585,1,0,0:0:0:0:
256,192,45664,1,0,0:0:0:0:
256,192,45743,1,0,0:0:0:0:
256,192,45900,1,0,0:0:0:0:
256,192,46058,1,8,0:0:0:0:
256,192,46137,1,8,0:0:0:0:
256,192,46216,1,8,0:0:0:0:
256,192,46374,1,4,0:0:0:0:
256,192,46848,1,0,0:0:0:0:
256,192,47006,1,8,0:0:0:0:
256,192,47164,1,8,0:0:0:0:
256,192,47322,1,0,0:0:0:0:
256,192,47479,1,0,0:0:0:0:
256,192,47558,1,0,0:0:0:0:
256,192,47953,1,8,0:0:0:0:
256,192,48190,1,8,0:0:0:0:
256,192,48269,1,8,0:0:0:0:
256,192,48427,1,8,0:0:0:0:
256,192,48585,1,0,0:0:0:0:
256,192,48743,1,8,0:0:0:0:
256,192,48900,1,4,0:0:0:0:
256,192,49058,1,8,0:0:0:0:
256,192,49216,1,0,0:0:0:0:
256,192,49374,1,8,0:0:0:0:
256,192,49532,1,8,0:0:0:0:
256,192,49848,1,0,0:0:0:0:
256,192,50006,1,8,0:0:0:0:
256,192,50085,1,8,0:0:0:0:
256,192,50322,1,0,0:0:0:0:
256,192,50479,1,8,0:0:0:0:
256,192,50637,1,8,0:0:0:0:
256,192,50795,1,0,0:0:0:0:
256,192,50953,1,8,0:0:0:0:
256,192,51111,1,8,0:0:0:0:
256,192,51190,1,8,0:0:0:0:
256,192,51269,1,8,0:0:0:0:
256,192,51427,1,4,0:0:0:0:
256,192,51900,1,0,0:0:0:0:
256,192,52058,1,8,0:0:0:0:
256,192,52216,1,8,0:0:0:0:
256,192,52374,1,0,0:0:0:0:
256,192,52532,1,8,0:0:0:0:
256,192,52690,1,0,0:0:0:0:
256,192,52848,1,8,0:0:0:0:
256,192,53006,1,0,0:0:0:0:
256,192,53164,1,0,0:0:0:0:
256,192,53322,1,8,0:0:0:0:
256,192,53479,1,0,0:0:0:0:
256,192,53637,1,8,0:0:0:0:
256,192,53716,1,8,0:0:0:0:
256,192,53795,1,8,0:0:0:0:
256,192,53953,1,0,0:0:0:0:
256,192,54427,1,0,0:0:0:0:
256,192,54585,1,8,0:0:0:0:
256,192,54743,1,8,0:0:0:0:
256,192,54900,1,0,0:0:0:0:
256,192,55058,1,8,0:0:0:0:
256,192,55374,1,0,0:0:0:0:
256,192,55532,1,8,0:0:0:0:
256,192,55769,1,0,0:0:0:0:
256,192,56006,1,0,0:0:0:0:
256,192,56164,1,8,0:0:0:0:
256,192,56243,1,8,0:0:0:0:
256,192,56322,1,8,0:0:0:0:
256,192,56479,1,4,0:0:0:0:
256,192,56953,1,0,0:0:0:0:
256,192,57111,1,8,0:0:0:0:
256,192,57269,1,8,0:0:0:0:
256,192,57427,1,0,0:0:0:0:
256,192,57585,1,8,0:0:0:0:
256,192,57743,1,0,0:0:0:0:
256,192,57900,1,8,0:0:0:0:
256,192,58058,1,0,0:0:0:0:
256,192,58216,1,0,0:0:0:0:
256,192,58374,1,8,0:0:0:0:
256,192,58690,1,8,0:0:0:0:
256,192,58848,1,8,0:0:0:0:
256,192,59006,1,4,0:0:0:0:
256,192,59322,1,8,0:0:0:0:
256,192,59479,1,4,0:0:0:0:
256,192,59795,1,8,0:0:0:0:
256,192,60111,1,8,0:0:0:0:
256,192,60269,1,4,0:0:0:0:
256,192,60585,1,8,0:0:0:0:
256,192,60743,1,4,0:0:0:0:
256,192,61058,1,8,0:0:0:0:
256,192,61374,1,8,0:0:0:0:
256,192,61532,1,4,0:0:0:0:
256,192,61848,1,8,0:0:0:0:
256,192,62006,1,8,0:0:0:0:
256,192,62164,1,0,0:0:0:0:
256,192,62243,1,0,0:0:0:0:
256,192,62322,1,0,0:0:0:0:
256,192,62479,1,8,0:0:0:0:
256,192,62795,1,0,0:0:0:0:
256,192,62874,1,0,0:0:0:0:
256,192,62953,1,0,0:0:0:0:
256,192,63111,1,8,0:0:0:0:
256,192,63269,1,8,0:0:0:0:
256,192,63427,1,0,0:0:0:0:
256,192,63506,1,0,0:0:0:0:
256,192,63585,1,0,0:0:0:0:
256,192,63743,1,8,0:0:0:0:
256,192,63900,1,8,0:0:0:0:
256,192,64058,1,0,0:0:0:0:
256,192,64690,1,8,0:0:0:0:
256,192,65006,1,0,0:0:0:0:
256,192,65479,1,0,0:0:0:0:
256,192,65637,1,0,0:0:0:0:
256,192,65953,1,8,0:0:0:0:
256,192,66111,1,0,0:0:0:0:
256,192,66269,1,8,0:0:0:0:
256,192,66427,1,8,0:0:0:0:
256,192,66585,1,4,0:0:0:0:
256,192,66900,1,8,0:0:0:0:
256,192,67058,1,8,0:0:0:0:
256,192,67216,1,0,0:0:0:0:
256,192,67295,1,0,0:0:0:0:
256,192,67374,1,0,0:0:0:0:
256,192,67532,1,8,0:0:0:0:
256,192,67848,1,0,0:0:0:0:
256,192,67927,1,0,0:0:0:0:
256,192,68006,1,0,0:0:0:0:
256,192,68164,1,8,0:0:0:0:
256,192,68322,1,8,0:0:0:0:
256,192,68479,1,0,0:0:0:0:
256,192,68637,1,8,0:0:0:0:
256,192,68795,1,8,0:0:0:0:
256,192,68874,1,8,0:0:0:0:
256,192,68953,1,8,0:0:0:0:
256,192,69111,1,0,0:0:0:0:
256,192,69269,1,8,0:0:0:0:
256,192,69585,1,8,0:0:0:0:
256,192,69743,1,8,0:0:0:0:
256,192,70058,1,0,0:0:0:0:
256,192,70216,1,8,0:0:0:0:
256,192,70374,1,8,0:0:0:0:
256,192,70453,1,8,0:0:0:0:
256,192,70532,1,8,0:0:0:0:
256,192,70690,1,0,0:0:0:0:
256,192,70769,1,0,0:0:0:0:
256,192,70848,1,0,0:0:0:0:
256,192,71006,1,8,0:0:0:0:
256,192,71637,1,4,0:0:0:0:
256,192,72585,1,8,0:0:0:0:
256,192,73216,1,0,0:0:0:0:
256,192,73374,1,8,0:0:0:0:
256,192,73532,1,0,0:0:0:0:
256,192,73690,1,8,0:0:0:0:
256,192,73848,1,0,0:0:0:0:
256,192,74164,1,8,0:0:0:0:
256,192,75111,1,0,0:0:0:0:
256,192,75427,1,8,0:0:0:0:
256,192,75585,1,8,0:0:0:0:
256,192,75743,1,8,0:0:0:0:
256,192,76058,1,8,0:0:0:0:
256,192,76216,1,0,0:0:0:0:
256,192,76532,1,8,0:0:0:0:
256,192,76690,1,0,0:0:0:0:
256,192,77006,1,8,0:0:0:0:
256,192,77322,1,0,0:0:0:0:
256,192,77479,1,0,0:0:0:0:
256,192,77637,1,8,0:0:0:0:
256,192,77953,1,0,0:0:0:0:
256,192,78269,1,8,0:0:0:0:
256,192,78427,1,8,0:0:0:0:
256,192,78585,1,0,0:0:0:0:
256,192,78743,1,0,0:0:0:0:
256,192,78900,1,8,0:0:0:0:
256,192,79216,1,8,0:0:0:0:
256,192,79374,1,0,0:0:0:0:
256,192,79532,1,8,0:0:0:0:
256,192,79848,1,8,0:0:0:0:
256,192,80006,1,0,0:0:0:0:
256,192,80164,1,8,0:0:0:0:
256,192,80322,1,0,0:0:0:0:
256,192,80479,1,8,0:0:0:0:
256,192,80716,1,8,0:0:0:0:
256,192,80953,1,8,0:0:0:0:
256,192,81190,1,8,0:0:0:0:
256,192,81427,1,8,0:0:0:0:
256,192,81585,1,8,0:0:0:0:
256,192,81743,1,4,0:0:0:0:
256,192,81900,12,0,83953,0:0:0:0:
256,192,84269,5,0,0:0:0:0:
256,192,85532,1,0,0:0:0:0:
256,192,85690,1,8,0:0:0:0:
256,192,85848,1,8,0:0:0:0:
256,192,86006,1,0,0:0:0:0:
256,192,86164,1,8,0:0:0:0:
256,192,86243,1,8,0:0:0:0:
256,192,86322,1,8,0:0:0:0:
256,192,86479,1,8,0:0:0:0:
256,192,86795,1,4,0:0:0:0:
256,192,87032,1,0,0:0:0:0:
256,192,87111,1,0,0:0:0:0:
256,192,87269,1,8,0:0:0:0:
256,192,87427,1,0,0:0:0:0:
256,192,87506,1,0,0:0:0:0:
256,192,87585,1,0,0:0:0:0:
256,192,87743,1,8,0:0:0:0:
256,192,87900,1,8,0:0:0:0:
256,192,88058,1,0,0:0:0:0:
256,192,88295,1,8,0:0:0:0:
256,192,88374,1,8,0:0:0:0:
256,192,88532,1,0,0:0:0:0:
256,192,88690,1,8,0:0:0:0:
256,192,88769,1,8,0:0:0:0:
256,192,88848,1,8,0:0:0:0:
256,192,89006,1,0,0:0:0:0:
256,192,89164,1,8,0:0:0:0:
256,192,89322,1,0,0:0:0:0:
256,192,89558,1,0,0:0:0:0:
256,192,89637,1,0,0:0:0:0:
256,192,89795,1,8,0:0:0:0:
256,192,89953,1,0,0:0:0:0:
256,192,90032,1,0,0:0:0:0:
256,192,90111,1,0,0:0:0:0:
256,192,90269,1,8,0:0:0:0:
256,192,90427,1,8,0:0:0:0:
256,192,90585,1,0,0:0:0:0:
256,192,90822,1,8,0:0:0:0:
256,192,90900,1,8,0:0:0:0:
256,192,91058,1,8,0:0:0:0:
256,192,91216,1,0,0:0:0:0:
256,192,91295,1,0,0:0:0:0:
256,192,91374,1,0,0:0:0:0:
256,192,91532,1,8,0:0:0:0:
256,192,91611,1,8,0:0:0:0:
256,192,91690,1,8,0:0:0:0:
256,192,91848,1,4,0:0:0:0:
256,192,92322,1,8,0:0:0:0:
256,192,92479,1,0,0:0:0:0:
256,192,92716,1,8,0:0:0:0:
256,192,92795,1,8,0:0:0:0:
256,192,92953,1,8,0:0:0:0:
256,192,93111,1,0,0:0:0:0:
256,192,93348,1,0,0:0:0:0:
256,192,93427,1,0,0:0:0:0:
256,192,93585,1,8,0:0:0:0:
256,192,93743,1,0,0:0:0:0:
256,192,93822,1,0,0:0:0:0:
256,192,93900,1,0,0:0:0:0:
256,192,94058,1,8,0:0:0:0:
256,192,94216,1,8,0:0:0:0:
256,192,94374,1,0,0:0:0:0:
256,192,94611,1,0,0:0:0:0:
256,192,94690,1,0,0:0:0:0:
256,192,94848,1,8,0:0:0:0:
256,192,95006,1,0,0:0:0:0:
256,192,95243,1,8,0:0:0:0:
256,192,95322,1,8,0:0:0:0:
256,192,95479,1,8,0:0:0:0:
256,192,95637,1,0,0:0:0:0:
256,192,95874,1,8,0:0:0:0:
256,192,95953,1,8,0:0:0:0:
256,192,96111,1,0,0:0:0:0:
256,192,96427,1,0,0:0:0:0:
256,192,96585,1,8,0:0:0:0:
256,192,96664,1,8,0:0:0:0:
256,192,96743,1,8,0:0:0:0:
256,192,96900,1,4,0:0:0:0:
256,192,97374,1,0,0:0:0:0:
256,192,97532,1,8,0:0:0:0:
256,192,97611,1,8,0:0:0:0:
256,192,97690,1,8,0:0:0:0:
256,192,97848,1,0,0:0:0:0:
256,192,98006,1,8,0:0:0:0:
256,192,98164,1,0,0:0:0:0:
256,192,98400,1,0,0:0:0:0:
256,192,98479,1,0,0:0:0:0:
256,192,98637,1,8,0:0:0:0:
256,192,98795,1,0,0:0:0:0:
256,192,98874,1,0,0:0:0:0:
256,192,98953,1,0,0:0:0:0:
256,192,99111,1,8,0:0:0:0:
256,192,99269,1,0,0:0:0:0:
256,192,99585,1,0,0:0:0:0:
256,192,99743,1,8,0:0:0:0:
256,192,99900,1,0,0:0:0:0:
256,192,100058,1,8,0:0:0:0:
256,192,100216,1,8,0:0:0:0:
256,192,100295,1,8,0:0:0:0:
256,192,100374,1,8,0:0:0:0:
256,192,100532,1,8,0:0:0:0:
256,192,100690,1,0,0:0:0:0:
256,192,100927,1,8,0:0:0:0:
256,192,101006,1,8,0:0:0:0:
256,192,101164,1,8,0:0:0:0:
256,192,101322,1,0,0:0:0:0:
256,192,101400,1,0,0:0:0:0:
256,192,101479,1,0,0:0:0:0:
256,192,101637,1,8,0:0:0:0:
256,192,101716,1,8,0:0:0:0:
256,192,101795,1,8,0:0:0:0:
256,192,101953,1,4,0:0:0:0:
256,192,102190,1,0,0:0:0:0:
256,192,102427,1,0,0:0:0:0:
256,192,102585,1,8,0:0:0:0:
256,192,102822,1,8,0:0:0:0:
256,192,103058,1,8,0:0:0:0:
256,192,103216,1,0,0:0:0:0:
256,192,103295,1,0,0:0:0:0:
256,192,103453,1,0,0:0:0:0:
256,192,103690,1,0,0:0:0:0:
256,192,103848,1,8,0:0:0:0:
256,192,104479,1,8,0:0:0:0:
256,192,104637,1,0,0:0:0:0:
256,192,104795,1,8,0:0:0:0:
256,192,105111,1,8,0:0:0:0:
256,192,105269,1,0,0:0:0:0:
256,192,105427,1,8,0:0:0:0:
256,192,105585,1,0,0:0:0:0:
256,192,105743,1,8,0:0:0:0:
256,192,105979,1,8,0:0:0:0:
256,192,106216,1,8,0:0:0:0:
256,192,106453,1,8,0:0:0:0:
256,192,106690,1,8,0:0:0:0:
256,192,106848,1,8,0:0:0:0:
256,192,107006,1,4,0:0:0:0:
256,192,107953,1,8,0:0:0:0:
256,192,108585,1,0,0:0:0:0:
256,192,108743,1,8,0:0:0:0:
256,192,108900,1,0,0:0:0:0:
256,192,109058,1,8,0:0:0:0:
256,192,109216,1,0,0:0:0:0:
256,192,109532,1,8,0:0:0:0:
256,192,110479,1,0,0:0:0:0:
256,192,111269,1,8,0:0:0:0:
256,192,111427,1,8,0:0:0:0:
256,192,111506,1,8,0:0:0:0:
256,192,111585,1,8,0:0:0:0:
