osu file format v14

[General]
AudioFilename: audio.mp3
AudioLeadIn: 0
PreviewTime: 48427
Countdown: 0
SampleSet: Normal
StackLeniency: 0.7
Mode: 1
LetterboxInBreaks: 0
WidescreenStoryboard: 1

[Editor]
DistanceSpacing: 1.5
BeatDivisor: 4
GridSize: 32
TimelineZoom: 3.199999

[Metadata]
Title:overcomplexification
TitleUnicode:overcomplexification
Artist:Camellia
ArtistUnicode:かめりあ
Creator:-Dusk
Version:Kantan
Source:jubeat prop
Tags:かめるかめりあ cametek kamelcamellia masaya oya 大箭将也 ost original soundtrack galaxy burst electronic instrumental _dusk_ featured artist fa
BeatmapID:3089899
BeatmapSetID:1484214

[Difficulty]
HPDrainRate:8
CircleSize:4
OverallDifficulty:3
ApproachRate:9
SliderMultiplier:1.3
SliderTickRate:1

[Events]
//Background and Video events
0,0,"destruction.jpg",0,92
//Break Periods
//Storyboard Layer 0 (Background)
//Storyboard Layer 1 (Fail)
//Storyboard Layer 2 (Pass)
//Storyboard Layer 3 (Foreground)
//Storyboard Layer 4 (Overlay)
//Storyboard Sound Samples

[TimingPoints]
901,315.78947368421,4,1,0,60,1,0
901,-100,4,1,0,60,0,0
11006,-100,4,1,0,100,0,0
81782,-100,4,1,0,40,0,0
84269,-100,4,1,0,80,0,0
86795,-100,4,1,0,100,0,1
103848,-100,4,1,0,100,0,0
104479,-100,4,1,0,100,0,1
107006,-100,4,1,0,100,0,0
107085,-100,4,1,0,60,0,0

[HitObjects]
256,192,901,5,0,0:0:0:0:
256,192,1848,1,8,0:0:0:0:
256,192,2479,1,0,0:0:0:0:
256,192,2795,1,8,0:0:0:0:
256,192,3111,1,0,0:0:0:0:
256,192,3427,1,8,0:0:0:0:
256,192,4374,1,0,0:0:0:0:
256,192,4690,1,8,0:0:0:0:
256,192,5006,1,8,0:0:0:0:
256,192,5479,1,8,0:0:0:0:
256,192,5953,1,0,0:0:0:0:
256,192,6900,1,8,0:0:0:0:
256,192,7532,1,0,0:0:0:0:
256,192,7848,1,8,0:0:0:0:
256,192,8164,1,0,0:0:0:0:
256,192,8479,1,0,0:0:0:0:
256,192,8953,1,8,0:0:0:0:
256,192,9427,1,8,0:0:0:0:
256,192,9900,1,0,0:0:0:0:
256,192,10374,1,8,0:0:0:0:
256,192,11006,1,4,0:0:0:0:
256,192,11953,1,8,0:0:0:0:
256,192,12585,1,0,0:0:0:0:
256,192,12900,1,8,0:0:0:0:
256,192,13216,1,0,0:0:0:0:
256,192,13532,1,8,0:0:0:0:
256,192,14479,1,8,0:0:0:0:
256,192,14795,1,0,0:0:0:0:
256,192,15111,1,8,0:0:0:0:
256,192,15427,1,8,0:0:0:0:
256,192,16058,1,0,0:0:0:0:
256,192,16374,1,0,0:0:0:0:
256,192,16690,1,8,0:0:0:0:
256,192,17006,1,0,0:0:0:0:
256,192,17637,1,0,0:0:0:0:
256,192,17953,1,8,0:0:0:0:
256,192,18269,1,8,0:0:0:0:
256,192,18585,1,0,0:0:0:0:
256,192,19848,1,0,0:0:0:0:
256,192,20479,1,0,0:0:0:0:
256,192,20795,1,8,0:0:0:0:
256,192,21111,1,4,0:0:0:0:
256,192,21743,1,8,0:0:0:0:
256,192,22216,1,8,0:0:0:0:
256,192,22532,1,8,0:0:0:0:
256,192,23006,1,8,0:0:0:0:
256,192,23322,1,8,0:0:0:0:
256,192,23637,1,0,0:0:0:0:
256,192,24269,1,8,0:0:0:0:
256,192,24743,1,8,0:0:0:0:
256,192,25216,1,8,0:0:0:0:
256,192,26164,1,4,0:0:0:0:
256,192,26795,1,8,0:0:0:0:
256,192,27269,1,8,0:0:0:0:
256,192,27585,1,8,0:0:0:0:
256,192,28058,1,8,0:0:0:0:
256,192,28690,1,0,0:0:0:0:
256,192,29006,1,0,0:0:0:0:
256,192,29322,1,8,0:0:0:0:
256,192,29953,1,0,0:0:0:0:
256,192,30269,1,8,0:0:0:0:
256,192,30585,1,0,0:0:0:0:
256,192,31216,1,4,0:0:0:0:
256,192,31848,1,8,0:0:0:0:
256,192,32322,1,8,0:0:0:0:
256,192,32637,1,8,0:0:0:0:
256,192,33111,1,8,0:0:0:0:
256,192,33427,1,8,0:0:0:0:
256,192,33743,1,0,0:0:0:0:
256,192,34374,1,8,0:0:0:0:
256,192,34848,1,8,0:0:0:0:
256,192,35322,1,8,0:0:0:0:
256,192,36269,1,8,0:0:0:0:
256,192,36585,1,0,0:0:0:0:
256,192,37216,1,0,0:0:0:0:
256,192,37532,1,8,0:0:0:0:
256,192,37848,1,0,0:0:0:0:
256,192,38795,1,12,0:0:0:0:
256,192,40058,1,8,0:0:0:0:
256,192,40374,1,0,0:0:0:0:
256,192,40690,1,8,0:0:0:0:
256,192,41006,1,8,0:0:0:0:
256,192,41322,1,4,0:0:0:0:
256,192,41953,1,8,0:0:0:0:
256,192,42269,1,0,0:0:0:0:
256,192,42900,1,8,0:0:0:0:
256,192,43374,1,8,0:0:0:0:
256,192,43848,1,0,0:0:0:0:
256,192,44322,1,8,0:0:0:0:
256,192,44637,1,8,0:0:0:0:
256,192,44953,1,0,0:0:0:0:
256,192,45743,1,8,0:0:0:0:
256,192,46058,1,8,0:0:0:0:
256,192,46374,1,0,0:0:0:0:
256,192,47006,1,8,0:0:0:0:
256,192,47322,1,0,0:0:0:0:
256,192,48585,1,8,0:0:0:0:
256,192,48900,1,4,0:0:0:0:
256,192,49216,1,0,0:0:0:0:
256,192,49532,1,8,0:0:0:0:
256,192,50006,1,8,0:0:0:0:
256,192,50479,1,8,0:0:0:0:
256,192,50953,1,8,0:0:0:0:
256,192,51427,1,0,0:0:0:0:
256,192,52058,1,8,0:0:0:0:
256,192,52532,1,8,0:0:0:0:
256,192,52848,1,8,0:0:0:0:
256,192,53322,1,8,0:0:0:0:
256,192,53953,1,0,0:0:0:0:
256,192,54585,1,8,0:0:0:0:
256,192,55058,1,8,0:0:0:0:
256,192,55848,1,0,0:0:0:0:
256,192,56164,1,8,0:0:0:0:
256,192,56479,1,0,0:0:0:0:
256,192,57111,1,8,0:0:0:0:
256,192,57585,1,8,0:0:0:0:
256,192,57900,1,8,0:0:0:0:
256,192,58374,1,8,0:0:0:0:
256,192,59006,1,0,0:0:0:0:
256,192,59479,1,8,0:0:0:0:
256,192,60269,1,8,0:0:0:0:
256,192,60743,1,8,0:0:0:0:
256,192,61532,1,0,0:0:0:0:
256,192,61848,1,0,0:0:0:0:
256,192,62164,1,8,0:0:0:0:
256,192,62795,1,8,0:0:0:0:
256,192,63111,1,0,0:0:0:0:
256,192,63427,1,8,0:0:0:0:
256,192,63743,1,8,0:0:0:0:
256,192,64058,1,0,0:0:0:0:
256,192,64690,1,8,0:0:0:0:
256,192,65006,1,0,0:0:0:0:
256,192,65637,1,0,0:0:0:0:
256,192,65953,1,8,0:0:0:0:
256,192,66269,1,8,0:0:0:0:
256,192,66585,1,0,0:0:0:0:
256,192,66900,1,0,0:0:0:0:
256,192,67216,1,8,0:0:0:0:
256,192,67532,1,0,0:0:0:0:
256,192,68164,1,0,0:0:0:0:
256,192,68479,1,8,0:0:0:0:
256,192,68795,1,8,0:0:0:0:
256,192,69111,1,0,0:0:0:0:
256,192,69743,1,8,0:0:0:0:
256,192,70058,1,0,0:0:0:0:
256,192,70374,1,8,0:0:0:0:
256,192,70690,1,8,0:0:0:0:
256,192,71006,1,0,0:0:0:0:
256,192,71637,1,4,0:0:0:0:
256,192,72585,1,8,0:0:0:0:
256,192,73216,1,0,0:0:0:0:
256,192,73532,1,8,0:0:0:0:
256,192,73848,1,0,0:0:0:0:
256,192,74164,1,8,0:0:0:0:
256,192,75111,1,0,0:0:0:0:
256,192,75427,1,8,0:0:0:0:
256,192,75743,1,8,0:0:0:0:
256,192,76058,1,8,0:0:0:0:
256,192,76690,1,0,0:0:0:0:
256,192,77006,1,0,0:0:0:0:
256,192,77322,1,8,0:0:0:0:
256,192,77953,1,8,0:0:0:0:
256,192,78269,1,0,0:0:0:0:
256,192,78585,1,8,0:0:0:0:
256,192,79216,1,8,0:0:0:0:
256,192,79532,1,8,0:0:0:0:
256,192,79848,1,8,0:0:0:0:
256,192,80479,1,8,0:0:0:0:
256,192,80953,1,8,0:0:0:0:
256,192,81427,1,8,0:0:0:0:
256,192,81743,1,4,0:0:0:0:
256,192,81900,12,0,83952,0:0:0:0:
256,192,84269,5,0,0:0:0:0:
256,192,85532,1,0,0:0:0:0:
256,192,86164,1,0,0:0:0:0:
256,192,86479,1,8,0:0:0:0:
256,192,86795,1,4,0:0:0:0:
256,192,87427,1,8,0:0:0:0:
256,192,87743,1,8,0:0:0:0:
256,192,88058,1,0,0:0:0:0:
256,192,88374,1,0,0:0:0:0:
256,192,88690,1,8,0:0:0:0:
256,192,89322,1,0,0:0:0:0:
256,192,89637,1,0,0:0:0:0:
256,192,89953,1,8,0:0:0:0:
256,192,90269,1,8,0:0:0:0:
256,192,90585,1,0,0:0:0:0:
256,192,91532,1,8,0:0:0:0:
256,192,91848,1,4,0:0:0:0:
256,192,92479,1,0,0:0:0:0:
256,192,92795,1,8,0:0:0:0:
256,192,93111,1,0,0:0:0:0:
256,192,93427,1,0,0:0:0:0:
256,192,93743,1,8,0:0:0:0:
256,192,94374,1,8,0:0:0:0:
256,192,94690,1,0,0:0:0:0:
256,192,95006,1,8,0:0:0:0:
256,192,95322,1,8,0:0:0:0:
256,192,95637,1,0,0:0:0:0:
256,192,96585,1,8,0:0:0:0:
256,192,96900,1,4,0:0:0:0:
256,192,97532,1,8,0:0:0:0:
256,192,97848,1,8,0:0:0:0:
256,192,98164,1,0,0:0:0:0:
256,192,98795,1,8,0:0:0:0:
256,192,99111,1,0,0:0:0:0:
256,192,99743,1,8,0:0:0:0:
256,192,100058,1,8,0:0:0:0:
256,192,100374,1,0,0:0:0:0:
256,192,100690,1,8,0:0:0:0:
256,192,101006,1,8,0:0:0:0:
256,192,101322,1,0,0:0:0:0:
256,192,101953,1,4,0:0:0:0:
256,192,102585,1,0,0:0:0:0:
256,192,103216,1,0,0:0:0:0:
256,192,103532,1,0,0:0:0:0:
256,192,103848,1,8,0:0:0:0:
256,192,104479,1,8,0:0:0:0:
256,192,104795,1,8,0:0:0:0:
256,192,105111,1,8,0:0:0:0:
256,192,105743,1,8,0:0:0:0:
256,192,106216,1,8,0:0:0:0:
256,192,106690,1,8,0:0:0:0:
256,192,107006,1,4,0:0:0:0:
256,192,107164,12,0,111585,0:0:0:0:
