osu file format v14

[General]
AudioFilename: audio.mp3
AudioLeadIn: 0
PreviewTime: 204956
Countdown: 0
SampleSet: Soft
StackLeniency: 0.2
Mode: 0
LetterboxInBreaks: 0
WidescreenStoryboard: 1

[Editor]
Bookmarks: 1199,29056,35913,42770,54770,79841,95484,124627,152056,204770,235199,261556,294341
DistanceSpacing: 0.3
BeatDivisor: 8
GridSize: 32
TimelineZoom: 2.8

[Metadata]
Title:liquated
TitleUnicode:liquated
Artist:Camellia
ArtistUnicode:かめりあ
Creator:Sebu
Version:insane
Source:osu!
Tags:cametek kamelcamellia crystallized -pc dubstep featured artist fa electronic instrumental
BeatmapID:2617072
BeatmapSetID:595512

[Difficulty]
HPDrainRate:4
CircleSize:3.5
OverallDifficulty:8
ApproachRate:9
SliderMultiplier:1.8
SliderTickRate:1

[Events]
//Background and Video events
0,0,"pink-liquid-26990-1920x1200.jpg",0,0
//Break Periods
//Storyboard Layer 0 (Background)
//Storyboard Layer 1 (Fail)
//Storyboard Layer 2 (Pass)
//Storyboard Layer 3 (Foreground)
//Storyboard Layer 4 (Overlay)
//Storyboard Sound Samples

[TimingPoints]
1199,428.571428571429,4,2,0,100,1,0
1199,-200,4,2,0,50,0,0
27984,-133.333333333333,4,2,1,60,0,0
28199,-100,4,2,1,70,0,0
28413,-66.6666666666667,4,2,1,80,0,0
28627,-100,4,2,1,100,0,0
33770,-333.333333333333,4,2,1,100,0,0
35913,-100,4,2,1,100,0,0
40199,-333.333333333333,4,2,1,100,0,0
42770,-100,4,2,1,100,0,0
47484,-333.333333333333,4,2,1,100,0,0
49627,-100,4,2,1,100,0,0
56056,-166.666666666667,4,2,1,100,0,0
59056,-100,4,2,1,100,0,0
59484,-50,4,2,1,100,0,0
59913,-100,4,2,1,100,0,0
60341,-50,4,2,1,100,0,0
60502,-50,4,2,1,5,0,0
60556,-133.333333333333,4,2,1,100,0,0
61199,-100,4,2,1,100,0,0
62913,-133.333333333333,4,2,1,100,0,0
66341,-200,4,2,1,100,0,0
66770,-50,4,2,1,100,0,0
67841,-66.6666666666667,4,2,1,100,0,0
68270,-50,4,2,1,100,0,0
68913,-100,4,2,1,100,0,0
69770,-133.333333333333,4,2,1,100,0,0
73199,-50,4,2,1,100,0,0
73627,-100,4,2,1,100,0,0
74270,-133.333333333333,4,2,1,100,0,0
74913,-50,4,2,1,100,0,0
75341,-100,4,2,1,100,0,0
76627,-100,4,2,1,100,0,0
78127,-133.333333333333,4,2,1,100,0,0
79841,-200,4,2,1,100,0,0
81341,-200,4,2,1,5,0,0
81556,-200,4,2,1,100,0,0
81984,-200,4,2,1,80,0,0
82413,-200,4,2,1,60,0,0
82841,-200,4,2,1,50,0,0
83270,-200,4,2,1,5,0,0
83484,-333.333333333333,4,2,1,30,0,0
85199,-200,4,2,1,40,0,0
86913,-133.333333333333,4,2,1,60,0,0
88627,-100,4,2,1,70,0,0
90341,-133.333333333333,4,2,1,80,0,0
91199,-100,4,2,1,90,0,0
92056,-50,4,2,1,75,0,0
92484,-50,4,2,1,70,0,0
92913,-50,4,2,1,65,0,0
93341,-50,4,2,1,60,0,0
93770,-100,4,2,1,50,0,0
94199,-100,4,2,1,40,0,0
94627,-100,4,2,1,30,0,0
95056,-100,4,2,1,20,0,0
95484,-100,4,2,1,20,0,0
95699,-100,4,2,1,100,0,0
95913,-50,4,2,1,100,0,0
96770,-50,4,2,1,40,0,0
96985,-50,4,2,1,60,0,0
97092,-50,4,2,1,80,0,0
97199,-500,4,2,1,100,0,1
98056,-50,4,2,1,100,0,1
98431,-50,4,2,1,5,0,1
98484,-50,4,2,1,100,0,1
98913,-100,4,2,1,100,0,1
99770,-333.333333333333,4,2,1,100,0,1
100306,-333.333333333333,4,2,1,5,0,1
100413,-333.333333333333,4,2,1,100,0,1
100627,-200,4,2,1,100,0,1
101163,-200,4,2,1,5,0,1
101270,-50,4,2,1,100,0,1
101484,-100,4,2,1,100,0,1
102556,-50,4,2,1,100,0,1
102984,-100,4,2,1,100,0,1
103199,-50,4,2,1,100,0,1
103520,-66.6666666666667,4,2,1,100,0,1
103841,-100,4,2,1,100,0,1
104484,-200,4,2,1,100,0,1
104913,-66.6666666666667,4,2,1,100,0,1
105074,-66.6666666666667,4,2,1,5,0,1
105127,-66.6666666666667,4,2,1,100,0,1
105931,-66.6666666666667,4,2,1,5,0,1
105984,-66.6666666666667,4,2,1,100,0,1
106145,-66.6666666666667,4,2,1,5,0,1
106199,-66.6666666666667,4,2,1,100,0,1
106627,-500,4,2,1,100,0,1
107163,-500,4,2,1,5,0,1
107270,-200,4,2,1,100,0,1
107591,-200,4,2,1,5,0,1
107699,-100,4,2,1,100,0,1
107913,-50,4,2,1,100,0,1
108074,-50,4,2,1,5,0,1
108127,-50,4,2,1,100,0,1
108288,-50,4,2,1,5,0,1
108341,-50,4,2,1,100,0,1
108556,-66.6666666666667,4,2,1,100,0,1
108770,-100,4,2,1,100,0,1
108984,-133.333333333333,4,2,1,100,0,1
109199,-100,4,2,1,100,0,1
110270,-50,4,2,1,100,0,1
110591,-66.6666666666667,4,2,1,100,0,1
110913,-100,4,2,1,100,0,1
111234,-50,4,2,1,100,0,1
111556,-100,4,2,1,100,0,1
111770,-1000,4,2,1,100,0,1
112306,-1000,4,2,1,5,0,1
112413,-50,4,2,1,100,0,1
112841,-100,4,2,1,100,0,1
113484,-500,4,2,1,100,0,1
114020,-500,4,2,1,5,0,1
114127,-200,4,2,1,100,0,1
114341,-100,4,2,1,100,0,1
114770,-50,4,2,1,100,0,1
114984,-100,4,2,1,100,0,1
116270,-50,4,2,1,100,0,1
116913,-50,4,2,1,100,0,1
117234,-66.6666666666667,4,2,1,100,0,1
117556,-100,4,2,1,100,0,1
117770,-333.333333333333,4,2,1,100,0,1
118091,-333.333333333333,4,2,1,5,0,1
118199,-200,4,2,1,100,0,1
118520,-200,4,2,1,5,0,1
118627,-66.6666666666667,4,2,1,100,0,1
118788,-66.6666666666667,4,2,1,5,0,1
118841,-66.6666666666667,4,2,1,100,0,1
119645,-66.6666666666667,4,2,1,5,0,1
119699,-66.6666666666667,4,2,1,100,0,1
119859,-66.6666666666667,4,2,1,5,0,1
119913,-66.6666666666667,4,2,1,100,0,1
120341,-500,4,2,1,100,0,1
120877,-500,4,2,1,5,0,1
120984,-1000,4,2,1,100,0,1
121841,-100,4,2,1,100,0,1
122056,-100,4,2,1,100,0,1
122913,-66.6666666666667,4,2,1,100,0,0
124627,-50,4,2,1,100,0,1
124949,-100,4,2,1,100,0,1
126341,-50,4,2,1,100,0,1
126663,-100,4,2,1,100,0,1
128056,-500,4,2,1,100,0,1
128377,-50,4,2,1,100,0,1
128699,-200,4,2,1,100,0,1
128913,-100,4,2,1,100,0,1
129127,-50,4,2,1,100,0,1
129288,-50,4,2,1,5,0,1
129341,-50,4,2,1,100,0,1
129502,-50,4,2,1,5,0,1
129556,-50,4,2,1,100,0,1
129716,-50,4,2,1,5,0,1
129770,-285.714285714286,4,2,1,100,0,1
130199,-100,4,2,1,100,0,1
130627,-500,4,2,1,100,0,1
131377,-500,4,2,1,5,0,1
131484,-50,4,2,1,100,0,1
131806,-100,4,2,1,100,0,1
133199,-50,4,2,1,100,0,1
133520,-100,4,2,1,100,0,1
134913,-133.333333333333,4,2,1,100,0,1
135341,-43.4782608695652,4,2,1,100,0,1
135663,-100,4,2,1,100,0,1
136091,-50,4,2,1,100,0,1
136627,-250,4,2,1,100,0,1
136949,-50,4,2,1,100,0,1
137484,-200,4,2,1,100,0,1
138341,-50,4,2,1,100,0,1
138663,-100,4,2,1,100,0,1
140056,-50,4,2,1,100,0,1
140377,-100,4,2,1,100,0,1
141770,-500,4,2,1,100,0,1
142091,-50,4,2,1,100,0,1
142627,-100,4,2,1,100,0,1
142841,-50,4,2,1,100,0,1
143002,-50,4,2,1,5,0,1
143056,-50,4,2,1,100,0,1
143216,-50,4,2,1,5,0,1
143270,-50,4,2,1,100,0,1
143431,-50,4,2,1,5,0,1
143484,-500,4,2,1,100,0,1
143806,-500,4,2,1,5,0,1
143913,-100,4,2,1,100,0,1
144341,-1000,4,2,1,100,0,1
145091,-1000,4,2,1,5,0,1
145199,-500,4,2,1,100,0,1
145949,-500,4,2,1,5,0,1
146056,-100,4,2,1,100,0,1
146699,-1000,4,2,1,100,0,1
147663,-1000,4,2,1,5,0,1
147770,-100,4,2,1,100,0,1
148520,-100,4,2,1,30,0,0
149056,-100,4,2,1,40,0,0
149484,-100,4,2,1,50,0,0
149913,-100,4,2,1,70,0,0
150341,-100,4,2,1,80,0,0
150770,-100,4,2,1,100,0,0
151199,-100,4,2,1,75,0,0
151627,-100,4,2,1,50,0,0
151841,-100,4,2,1,5,0,0
152056,-217.391304347826,4,2,1,60,0,0
158699,-212.765957446809,4,2,1,5,0,0
158913,-247.218788627936,4,2,1,60,0,0
165556,-224.719101123595,4,2,1,5,0,0
165770,-200,4,2,1,40,0,0
170913,-333.333333333333,4,2,1,40,0,0
173056,-200,4,2,1,40,0,0
176913,-133.333333333333,4,2,1,60,0,0
178734,-100,4,2,1,80,0,0
200056,-133.333333333333,4,2,1,80,0,0
200913,-100,4,2,1,90,0,0
201770,-50,4,2,1,75,0,0
202198,-50,4,2,1,70,0,0
202627,-50,4,2,1,65,0,0
203055,-50,4,2,1,60,0,0
203484,-100,4,2,1,50,0,0
203913,-100,4,2,1,40,0,0
204341,-100,4,2,1,30,0,0
204770,-100,4,2,1,20,0,0
205198,-100,4,2,1,20,0,0
205413,-100,4,2,1,100,0,0
205627,-50,4,2,1,100,0,0
206484,-50,4,2,1,40,0,0
206699,-50,4,2,1,60,0,0
206806,-50,4,2,1,80,0,0
206913,-1000,4,2,1,100,0,1
207663,-1000,4,2,1,5,0,1
207770,-100,4,2,1,100,0,1
208091,-50,4,2,1,100,0,1
209484,-100,4,2,1,100,0,1
210341,-50,4,2,1,100,0,1
210984,-100,4,2,1,100,0,1
211199,-666.666666666667,4,2,1,100,0,1
211949,-666.666666666667,4,2,1,5,0,1
212056,-100,4,2,1,100,0,1
212270,-50,4,2,1,100,0,1
212699,-100,4,2,1,100,0,1
212913,-50,4,2,1,100,0,1
213341,-100,4,2,1,100,0,1
213556,-50,4,2,1,100,0,1
213770,-333.333333333333,4,2,1,100,0,1
214091,-333.333333333333,4,2,1,5,0,1
214199,-166.666666666667,4,2,1,100,0,1
214520,-166.666666666667,4,2,1,5,0,1
214627,-50,4,2,1,100,0,1
214788,-50,4,2,1,5,0,1
214841,-50,4,2,1,100,0,1
214895,-50,4,2,1,5,0,1
215056,-50,4,2,1,100,0,1
215270,-50,4,2,1,80,0,1
215645,-50,4,2,1,5,0,1
215699,-50,4,2,1,100,0,1
215859,-50,4,2,1,5,0,1
215913,-50,4,2,1,100,0,1
216341,-666.666666666667,4,2,1,100,0,1
216877,-666.666666666667,4,2,1,5,0,1
216984,-666.666666666667,4,2,1,100,0,1
217199,-100,4,2,1,100,0,1
217627,-90.9090909090909,4,2,1,100,0,1
218056,-100,4,2,1,100,0,1
218270,-66.6666666666667,4,2,1,100,0,1
218484,-100,4,2,1,100,0,1
218699,-133.333333333333,4,2,1,100,0,1
218913,-100,4,2,1,100,0,1
221056,-500,4,2,1,100,0,1
221377,-500,4,2,1,5,0,1
221484,-100,4,2,1,100,0,1
221913,-1000,4,2,1,100,0,1
222449,-1000,4,2,1,5,0,1
222556,-66.6666666666667,4,2,1,100,0,1
222877,-33.3333333333333,4,2,1,100,0,1
223199,-500,4,2,1,100,0,1
223734,-500,4,2,1,5,0,1
223841,-500,4,2,1,100,0,1
224591,-500,4,2,1,5,0,1
224699,-100,4,2,1,100,0,1
225984,-50,4,2,1,100,0,1
226949,-66.6666666666667,4,2,1,100,0,1
227270,-100,4,2,1,100,0,1
227484,-333.333333333333,4,2,1,100,0,1
227806,-333.333333333333,4,2,1,5,0,1
227913,-200,4,2,1,100,0,1
228234,-200,4,2,1,5,0,1
228341,-50,4,2,1,100,0,1
228770,-100,4,2,1,100,0,1
230699,-500,4,2,1,100,0,1
231020,-500,4,2,1,5,0,1
231127,-100,4,2,1,100,0,1
231341,-50,4,2,1,100,0,1
231663,-50,4,2,1,5,0,1
231770,-133.333333333333,4,2,1,100,0,1
232199,-100,4,2,1,100,0,1
232627,-66.6666666666667,4,2,1,100,0,0
234341,-1000,4,2,1,100,0,1
235091,-1000,4,2,1,5,0,1
235199,-50,4,2,1,100,0,1
235841,-100,4,2,1,100,0,1
236913,-400,4,2,1,100,0,1
237234,-400,4,2,1,5,0,1
237341,-333.333333333333,4,2,1,100,0,1
237663,-333.333333333333,4,2,1,5,0,1
237770,-66.6666666666667,4,2,1,100,0,1
238038,-66.6666666666667,4,2,1,5,0,1
238091,-66.6666666666667,4,2,1,100,0,1
238306,-100,4,2,1,100,0,1
239699,-50,4,2,1,100,0,1
240127,-100,4,2,1,100,0,1
240341,-50,4,2,1,100,0,1
240984,-100,4,2,1,100,0,1
241199,-50,4,2,1,100,0,1
243502,-50,4,2,1,5,0,1
243556,-50,4,2,1,100,0,1
243716,-50,4,2,1,5,0,1
243770,-133.333333333333,4,2,1,100,0,1
244413,-66.6666666666667,4,2,1,100,0,1
244841,-100,4,2,1,100,0,1
245484,-50,4,2,1,100,0,1
245699,-66.6666666666667,4,2,1,100,0,1
245913,-100,4,2,1,100,0,1
246127,-133.333333333333,4,2,1,100,0,1
246556,-100,4,2,1,100,0,1
246770,-50,4,2,1,100,0,1
247841,-100,4,2,1,100,0,1
248056,-500,4,2,1,100,0,1
248377,-500,4,2,1,5,0,1
248484,-50,4,2,1,100,0,1
248913,-100,4,2,1,100,0,1
249341,-50,4,2,1,100,0,1
249627,-100,4,2,1,100,0,1
249770,-500,4,2,1,100,0,1
250091,-500,4,2,1,5,0,1
250199,-100,4,2,1,100,0,1
250627,-1000,4,2,1,100,0,1
251163,-1000,4,2,1,5,0,1
251270,-333.333333333333,4,2,1,100,0,1
251699,-333.333333333333,4,2,1,5,0,1
251770,-50,4,2,1,100,0,1
253199,-100,4,2,1,100,0,1
253413,-50,4,2,1,100,0,1
253841,-100,4,2,1,100,0,1
254056,-50,4,2,1,100,0,1
254699,-66.6666666666667,4,2,1,100,0,1
254913,-133.333333333333,4,2,1,100,0,1
255341,-500,4,2,1,100,0,1
255663,-500,4,2,1,5,0,1
255770,-50,4,2,1,100,0,1
256306,-100,4,2,1,100,0,1
256841,-66.6666666666667,4,2,1,100,0,1
257056,-100,4,2,1,100,0,1
257806,-66.6666666666667,4,2,1,100,0,1
258127,-40,4,2,1,100,0,1
258984,-100,4,2,1,100,0,1
260056,-100,4,2,1,100,0,0
261556,-100,4,2,1,5,0,0
261770,-200,4,2,1,50,0,0
266806,-200,4,2,1,5,0,0
266913,-200,4,2,1,50,0,0
280520,-200,4,2,1,5,0,0
280627,-200,4,2,1,50,0,0
290056,-500,4,2,1,40,0,0
290484,-500,4,2,1,30,0,0
290913,-500,4,2,1,20,0,0
291341,-500,4,2,1,15,0,0
291770,-500,4,2,1,10,0,0
292627,-500,4,2,1,5,0,0

[Colours]
Combo1 : 249,19,82
Combo2 : 89,63,139
Combo3 : 177,34,100
Combo4 : 253,179,166

[HitObjects]
390,48,1199,6,0,P|384:69|382:92,3,45,2|0|2|0,0:0|0:0|0:0|0:0,0:0:0:0:
249,84,2056,6,0,P|270:90|291:99,1,45,2|0,0:0|0:0,0:0:0:0:
473,155,2484,2,0,P|451:161|430:170,1,45,0|2,0:0|0:0,0:0:0:0:
300,256,2913,6,0,P|294:277|292:300,3,45,2|0|2|0,0:0|0:0|0:0|0:0,0:0:0:0:
341,376,3770,6,0,P|361:367|383:360,1,45,2|0,0:0|0:0,0:0:0:0:
202,305,4199,2,0,P|181:296|159:289,1,45,2|0,0:0|0:0,3:0:0:0:
83,209,4627,6,0,P|88:187|90:164,3,45,2|0|2|0,0:0|0:0|0:0|0:0,0:0:0:0:
224,173,5484,6,0,P|202:166|181:157,1,45,2|0,0:0|0:0,0:0:0:0:
0,102,5912,2,0,P|21:95|42:86,1,45,0|2,0:0|0:0,0:0:0:0:
98,11,6341,5,2,0:0:0:0:
224,173,7199,1,2,0:0:0:0:
359,65,8056,6,0,P|364:87|366:110,3,45,2|0|2|0,0:0|0:0|0:0|0:0,0:0:0:0:
342,186,8912,5,2,0:0:0:0:
344,198,9126,1,0,0:0:0:0:
255,178,9340,1,0,0:0:0:0:
268,87,9555,1,2,0:0:0:0:
184,57,9770,6,0,P|189:35|191:12,3,45,2|0|2|0,0:0|0:0|0:0|0:0,0:0:0:0:
107,84,10626,5,2,0:0:0:0:
97,75,10840,1,0,0:0:0:0:
117,173,11055,5,2,0:0:0:0:
104,176,11269,1,0,0:0:0:0:
15,227,11484,6,0,P|20:249|22:272,3,45,2|0|2|0,0:0|0:0|0:0|0:0,0:0:0:0:
11,353,12341,5,2,0:0:0:0:
5,364,12556,1,0,0:0:0:0:
97,367,12770,1,0,0:0:0:0:
108,276,12984,1,2,0:0:0:0:
219,219,13199,6,0,P|220:196|225:174,3,45,2|2|2|0,0:0|0:0|0:0|0:0,0:0:0:0:
306,277,14056,2,0,P|308:300|313:322,3,45,2|0|2|0,0:0|0:0|0:0|0:0,0:0:0:0:
428,372,14912,6,0,P|430:349|435:327,1,45,2|0,0:0|0:0,0:0:0:0:
443,310,15341,2,0,P|445:333|450:355,1,45,2|0,0:0|0:0,0:0:0:0:
512,230,15769,5,2,0:0:0:0:
405,204,15983,1,0,0:0:0:0:
394,94,16199,5,0,0:0:0:0:
315,103,16413,1,2,0:0:0:0:
240,30,16627,6,0,P|217:32|195:37,1,45,2|0,0:0|0:0,0:0:0:0:
178,44,17056,2,0,P|201:47|223:52,1,45,2|0,0:0|0:0,0:0:0:0:
296,123,17484,5,2,0:0:0:0:
243,182,17699,1,0,0:0:0:0:
139,149,17913,5,2,0:0:0:0:
62,167,18127,1,0,0:0:0:0:
30,265,18341,6,0,P|33:288|38:310,1,45,2|0,0:0|0:0,0:0:0:0:
46,326,18770,2,0,P|47:304|52:282,1,45,2|0,0:0|0:0,0:0:0:0:
171,262,19199,5,2,0:0:0:0:
279,284,19413,1,0,0:0:0:0:
354,203,19626,5,0,0:0:0:0:
432,183,19841,1,2,0:0:0:0:
505,278,20055,6,0,P|499:299|497:322,1,45,2|2,0:0|0:0,0:0:0:0:
512,281,20484,2,0,P|506:302|504:325,1,45,2|0,0:0|0:0,0:0:0:0:
432,183,20913,2,0,P|437:204|439:227,1,45,2|0,0:0|0:0,0:0:0:0:
425,186,21342,2,0,P|430:207|432:230,1,45,2|0,0:0|0:0,0:0:0:0:
486,115,21770,6,0,P|488:92|493:70,1,45,2|0,0:0|0:0,0:0:0:0:
360,14,22199,2,0,P|365:35|367:58,1,45,2|0,0:0|0:0,0:0:0:0:
493,118,22627,2,0,P|495:95|500:73,1,45,2|0,0:0|0:0,0:0:0:0:
353,17,23056,2,0,P|358:38|360:61,1,45,0|2,0:0|0:0,0:0:0:0:
301,173,23484,6,0,P|279:178|256:180,1,45,2|0,0:0|0:0,0:0:0:0:
141,266,23913,2,0,P|119:260|96:258,1,45,2|0,0:0|0:0,0:0:0:0:
301,181,24341,2,0,P|279:186|257:189,1,45,2|0,0:0|0:0,0:0:0:0:
140,274,24770,2,0,P|118:268|95:266,1,45,2|0,0:0|0:0,0:0:0:0:
52,132,25199,6,0,P|54:109|59:87,1,45,2|0,0:0|0:0,0:0:0:0:
237,51,25627,2,0,P|242:72|244:95,1,45,2|0,0:0|0:0,0:0:0:0:
45,129,26056,2,0,P|47:106|52:84,1,45,2|0,0:0|0:0,0:0:0:0:
244,48,26484,2,0,P|249:69|251:92,1,45,0|2,0:0|0:0,0:0:0:0:
251,291,26913,6,0,P|249:314|244:336,1,45,2|0,0:0|0:0,0:0:0:0:
448,384,27341,2,0,P|442:362|440:339,1,45,2|0,0:0|0:0,0:0:0:0:
329,258,27770,5,2,0:0:0:0:
505,273,27984,6,2,P|505:261|511:249,3,16.8750006437302
439,195,28199,6,2,P|435:183|410:180,3,22.5
483,98,28413,6,2,P|504:84|526:83,3,33.7500012874604
389,41,28627,6,0,P|334:86|267:70,1,135
225,149,29056,6,0,P|218:222|216:347,1,180
219,352,30127,2,0,P|156:320|119:317,1,90
38,355,30556,1,0,0:0:0:0:
125,228,30770,2,0,P|126:184|122:120,1,90
91,53,31199,6,0,P|27:47|0:104,2,135
213,143,32270,2,0,P|226:143|246:138,1,22.5
244,61,32484,2,0,P|385:55|490:317,1,450
416,318,33770,6,0,P|399:313|385:311,3,26.9999991760254,2|0|0|0,0:0|0:0|0:0|0:0,0:0:0:0:
318,276,34627,2,0,P|313:259|311:245,3,26.9999991760254,2|0|0|0,0:0|0:0|0:0|0:0,0:0:0:0:
258,332,35484,2,0,P|241:336|227:338,1,26.9999991760254,2|0,0:0|0:0,0:0:0:0:
120,384,35913,6,0,P|88:294|10:312,1,180
8,322,36984,2,0,P|14:277|14:232,1,90
0,126,37413,1,0,0:0:0:0:
95,172,37627,2,0,P|139:174|174:147,1,90
217,13,38056,6,0,P|283:25|350:29,1,135
360,49,38699,2,0,P|374:11|432:11,1,90
449,78,39127,2,0,B|450:132|450:132|447:174,2,90
377,209,40199,6,0,P|362:205|350:198,1,26.9999991760254,2|0,0:0|0:0,0:0:0:0:
283,238,40627,2,0,P|279:251|273:263,1,26.9999991760254,2|0,0:0|0:0,0:0:0:0:
353,300,41056,1,0,0:0:0:0:
490,254,41270,6,0,L|491:260,3,6.74999979400635
475,244,41484,2,0,P|461:244|448:248,3,26.9999991760254,2|0|0|0,0:0|0:0|0:0|0:0,0:0:0:0:
378,209,42341,2,0,P|365:204|351:204,1,26.9999991760254,2|0,0:0|0:0,0:0:0:0:
234,162,42770,6,0,P|225:72|165:-9,1,180
152,0,43841,2,0,P|115:22|116:65,1,90
234,162,44270,1,0,0:0:0:0:
113,161,44484,2,0,P|71:181|35:222,1,90
48,327,44913,6,0,P|80:342|102:260,2,135
211,259,45984,2,0,P|226:261|248:267,1,22.5
287,323,46199,2,0,B|339:365|475:376|505:226|505:226|422:204|378:230|360:274,1,450
315,190,47484,6,0,P|298:195|284:197,3,26.9999991760254,2|0|0|0,0:0|0:0|0:0|0:0,0:0:0:0:
217,232,48341,2,0,P|212:249|210:263,3,26.9999991760254,2|0|0|0,0:0|0:0|0:0|0:0,0:0:0:0:
157,176,49198,2,0,P|140:172|126:170,1,26.9999991760254,2|0,0:0|0:0,0:0:0:0:
0,129,49627,6,0,P|21:54|112:79,1,180
114,92,50699,2,0,P|112:136|107:181,1,90
70,296,51127,1,0,0:0:0:0:
205,175,51341,2,0,P|246:185|274:231,1,90
173,351,51770,6,0,P|175:306|185:262,1,90
265,97,52091,2,0,P|298:66|336:43,1,90
367,259,52413,2,0,P|305:275|273:220,1,135
368,151,52841,6,0,P|412:158|454:175,1,90
512,284,53270,1,0,0:0:0:0:
256,192,53377,12,0,54770,0:0:0:0:
65,198,54984,5,0,1:0:0:0:
65,198,55091,1,0,1:0:0:0:
65,198,55199,1,0,1:0:0:0:
142,174,55306,2,0,P|150:171|168:168,2,22.5,8|8|8,0:3|0:3|0:3,0:0:0:0:
107,268,55520,5,8,0:3:0:0:
99,312,55627,1,8,0:3:0:0:
127,346,55734,1,8,0:3:0:0:
171,346,55841,1,4,0:3:0:0:
199,310,55949,1,4,0:3:0:0:
276,349,56056,6,0,P|409:341|507:318,1,215.999993408203,4|0,3:1|0:0,0:0:0:0:
502,209,57127,2,0,P|504:172|504:151,1,53.9999983520508
458,89,57556,2,0,P|457:23|364:19,1,161.999995056153
314,102,58413,1,0,0:0:0:0:
210,57,58627,2,0,P|179:66|142:71,1,53.9999983520508
33,161,59056,5,0,1:0:0:0:
77,163,59163,1,0,1:0:0:0:
121,165,59270,1,0,1:0:0:0:
165,167,59377,1,0,1:0:0:0:
198,243,59484,6,0,B|182:369|182:369|184:325|148:301,1,180,0|0,3:0|0:0,0:0:0:0:
100,362,59806,1,0,0:0:0:0:
90,355,59913,2,0,L|84:302,1,45
285,186,60127,2,0,L|279:230,1,45
346,279,60341,6,0,P|402:243|468:231,1,135,2|0,0:1|0:0,0:0:0:0:
484,236,60556,2,0,L|494:332,2,67.5000025749208,0|0|0,3:0|3:0|3:0,0:0:0:0:
470,89,61199,6,0,L|370:77,1,90,0|0,1:0|0:0,0:0:0:0:
335,12,61520,1,0,3:0:0:0:
331,4,61627,2,0,L|247:13,1,45
206,16,61841,2,0,L|162:22,1,45,0|0,3:0|0:0,0:0:0:0:
36,34,62056,5,0,1:0:0:0:
11,110,62377,1,0,1:0:0:0:
73,162,62591,1,0,1:0:0:0:
72,170,62698,1,0,1:0:0:0:
8,273,62913,6,0,B|148:239|103:411|261:369,1,270.000010299683,4|0,3:1|0:0,0:0:0:0:
273,301,63984,2,0,P|274:267|270:233,1,67.5000025749208
215,175,64413,2,0,P|167:185|156:231,1,101.250003862381
342,345,64841,6,0,L|442:355,1,101.250003862381
470,361,65270,1,0,3:0:0:0:
470,361,65377,1,0,3:0:0:0:
414,257,65484,5,0,1:0:0:0:
411,177,65806,1,0,1:0:0:0:
408,97,66127,1,0,1:0:0:0:
324,24,66341,6,0,L|277:21,1,45,0|0,3:0|0:0,0:0:0:0:
179,166,66770,2,0,L|-12:179,1,180,0|0,3:0|0:0,0:0:0:0:
7,55,67091,5,0,0:0:0:0:
5,44,67199,2,0,P|80:11|113:107,1,180,0|0,1:0|0:0,1:0:0:0:
59,264,67520,1,2,1:0:0:0:
53,283,67841,6,0,P|170:296|255:355,1,202.500007724762,0|0,3:0|0:0,1:0:0:0:
306,269,68270,2,0,B|371:256|371:256|407:301|407:301|481:287,1,180,4|0,3:1|0:0,0:0:0:0:
483,157,68699,5,0,3:0:0:0:
484,147,68806,1,0,3:0:0:0:
450,74,68913,6,0,P|398:69|368:18,1,90,0|0,1:0|0:0,0:0:0:0:
298,16,69234,2,0,P|266:46|221:47,1,90
145,69,69556,2,0,P|108:61|67:66,1,45
16,2,69770,6,0,P|23:113|21:275,1,270.000010299683,4|0,3:1|0:0,0:0:0:0:
108,352,70841,2,0,P|163:348|198:351,1,67.5000025749208
242,303,71270,2,0,P|323:324|398:236,1,202.500007724762
354,136,72127,1,0,0:0:0:0:
417,79,72341,5,0,1:0:0:0:
425,71,72449,1,0,1:0:0:0:
427,57,72556,1,0,1:0:0:0:
418,32,72663,1,0,1:0:0:0:
378,24,72770,1,0,1:0:0:0:
337,47,72877,1,0,1:0:0:0:
280,60,72984,1,0,1:0:0:0:
212,27,73091,1,0,1:0:0:0:
112,66,73199,6,0,B|63:73|63:73|75:213,1,180,4|0,3:1|0:0,0:0:0:0:
143,243,73520,1,0,0:0:0:0:
150,253,73627,2,0,L|203:259,1,45
405,281,73841,1,2,0:0:0:0:
418,283,73949,1,2,0:0:0:0:
431,285,74056,2,0,L|425:329,1,45,0|0,1:0|0:0,0:0:0:0:
346,202,74270,6,0,L|357:107,2,67.5000025749208,0|0|0,3:0|3:0|3:0,0:0:0:0:
224,146,74913,2,0,P|140:145|111:65,1,180,0|0,3:0|0:0,0:0:0:0:
186,36,75234,1,0,3:0:0:0:
190,28,75341,2,0,L|274:37,1,45
315,40,75555,2,0,L|359:46,1,45,0|0,3:0|0:0,0:0:0:0:
485,58,75770,5,0,1:0:0:0:
450,130,76091,1,0,1:0:0:0:
487,202,76306,1,0,1:0:0:0:
484,211,76413,1,0,1:0:0:0:
437,328,76627,6,0,B|286:386|268:240|105:278|110:399|287:374|330:281,1,450,4|0,3:1|0:0,0:0:0:0:
330,265,77913,1,0,3:0:0:0:
240,42,78127,6,0,B|266:226|29:180|74:390,1,405.000015449525,4|0,3:1|0:0,0:0:0:0:
91,384,79627,1,0,3:0:0:0:
33,89,79841,6,0,P|28:33|48:103,1,315,4|0,3:1|0:0,0:0:0:0:
256,192,81556,12,0,83270,0:0:0:0:
278,239,83484,6,0,P|293:235|309:229,1,26.9999991760254
323,153,83913,2,0,P|312:142|298:131,1,26.9999991760254
226,156,84341,2,0,P|221:170|219:187,1,26.9999991760254
285,250,84770,2,0,P|295:239|306:225,1,26.9999991760254
246,80,85199,6,0,L|195:71,1,45
119,119,85627,2,0,L|136:167,1,45
217,210,86056,2,0,L|250:170,1,45
244,56,86484,2,0,L|195:73,1,45
156,262,86913,6,0,P|182:283|226:287,1,67.5000025749208
378,236,87341,2,0,P|383:202|364:162,1,67.5000025749208
244,56,87770,2,0,P|212:67|186:104,1,67.5000025749208
151,296,88199,2,0,P|184:301|224:282,1,67.5000025749208
421,97,88627,6,0,P|387:69|328:41,1,90
113,128,89056,2,0,P|105:171|111:236,1,90
294,380,89484,2,0,P|335:364|388:327,1,90
436,53,89913,2,0,P|392:45|327:51,1,90
107,217,90341,6,0,L|105:180,1,33.7500012874604,0|0,1:0|0:0,0:0:0:0:
137,89,90556,2,0,L|136:56,1,33.7500012874604,0|0,1:0|0:0,0:0:0:0:
211,29,90770,2,0,L|213:63,1,33.7500012874604,0|0,1:0|0:0,0:0:0:0:
219,227,90984,2,0,L|220:260,1,33.7500012874604,0|0,1:0|0:0,0:0:0:0:
299,271,91199,6,0,L|296:226,1,45,0|0,1:0|0:0,0:0:0:0:
350,92,91413,2,0,L|347:47,1,45,0|0,1:0|0:0,0:0:0:0:
424,24,91627,2,0,L|426:68,1,45,0|0,1:0|0:0,0:0:0:0:
434,275,91841,2,0,L|436:319,1,45,0|0,1:0|0:0,0:0:0:0:
429,348,92056,5,0,1:0:0:0:
401,352,92163,1,0,1:0:0:0:
373,348,92270,1,0,1:0:0:0:
347,337,92377,1,0,1:0:0:0:
325,320,92484,1,0,1:0:0:0:
309,297,92591,1,0,1:0:0:0:
299,271,92698,1,0,1:0:0:0:
296,243,92805,1,0,1:0:0:0:
301,216,92913,1,0,1:0:0:0:
313,190,93020,1,0,1:0:0:0:
332,169,93127,1,0,1:0:0:0:
355,154,93234,1,0,1:0:0:0:
382,146,93341,1,0,1:0:0:0:
410,145,93448,1,0,1:0:0:0:
437,151,93555,1,0,1:0:0:0:
462,165,93663,1,0,1:0:0:0:
482,185,93770,6,0,L|475:214,7,22.5,0|0|0|0|0|0|0|0,1:0|1:0|1:0|1:0|1:0|1:0|1:0|1:0,1:0:0:0:
404,242,94199,2,0,L|382:247,7,22.5,0|0|0|0|0|0|0|0,1:0|1:0|1:0|1:0|1:0|1:0|1:0|1:0,1:0:0:0:
320,298,94627,2,0,L|325:319,7,22.5,0|0|0|0|0|0|0|0,1:0|1:0|1:0|1:0|1:0|1:0|1:0|1:0,1:0:0:0:
242,280,95056,2,0,L|220:285,7,22.5,0|0|0|0|0|0|0|0,1:0|1:0|1:0|1:0|1:0|1:0|1:0|1:0,1:0:0:0:
156,338,95484,6,0,L|101:324,1,45
17,304,95699,1,0,3:0:0:0:
15,295,95806,1,0,3:0:0:0:
43,221,95913,6,0,P|39:178|38:113,1,90,0|0,1:0|0:0,0:0:0:0:
73,62,96127,6,0,P|93:54|110:67,3,45,0|0|0|0,3:0|3:0|3:0|3:0,0:0:0:0:
200,109,96341,5,8,0:3:0:0:
209,107,96448,1,4,0:3:0:0:
255,73,96556,5,4,3:0:0:0:
264,75,96663,1,4,0:3:0:0:
346,120,96770,6,0,L|355:234,1,90
360,213,96984,2,0,L|352:123,1,90
423,5,97199,6,0,L|479:-1,1,54,4|0,3:1|0:0,0:0:0:0:
436,123,98056,6,0,L|322:118,1,90,0|0,1:0|0:0,0:0:0:0:
172,118,98270,6,0,P|232:131|261:65,1,135
263,74,98484,2,0,L|149:79,1,90
106,178,98699,2,0,P|62:180|29:120,1,90
25,19,98913,6,0,L|26:63,1,45,0|0,3:0|0:0,0:0:0:0:
106,178,99127,2,0,L|104:222,1,45
99,353,99341,2,0,L|100:308,1,45
175,270,99556,5,2,0:1:0:0:
244,311,99663,1,0,3:0:0:0:
342,237,99770,6,0,L|409:230,1,67.4999979400635,0|0,1:0|0:0,0:0:0:0:
413,239,100413,1,2,0:0:0:0:
401,352,100627,6,0,L|512:364,1,112.5,0|0,3:0|0:0,0:0:0:0:
512,209,101270,6,0,P|491:170|442:171,1,90
413,239,101484,2,0,L|366:234,1,45,0|0,1:0|0:0,0:0:0:0:
401,56,101699,5,2,0:0:0:0:
402,44,101806,2,0,L|449:39,1,45
312,45,102020,1,2,0:0:0:0:
311,57,102127,2,0,L|266:61,1,45
187,156,102341,6,0,B|197:177|197:177|221:171,1,45,0|0,3:0|0:0,0:0:0:0:
180,71,102556,2,0,P|156:44|87:177,1,270,0|0,3:0|0:0,0:0:0:0:
45,244,102984,2,0,B|35:265|35:265|11:259,1,45,0|0,3:0|0:0,0:0:0:0:
126,266,103199,6,0,B|191:261|191:261|221:313|221:313|288:320,1,180,0|0,1:0|0:0,0:0:0:0:
347,282,103520,2,0,P|381:327|459:332,1,135.000005149842
499,266,103841,2,0,L|493:219,1,45,2|0,0:0|0:0,0:0:0:0:
483,142,104056,5,2,3:1:0:0:
385,106,104163,2,0,B|385:135|385:135|392:150|392:150|388:171|388:171|397:205,1,90,2|0,0:0|0:0,0:0:0:0:
347,282,104484,6,0,L|302:287,1,45,4|0,3:1|0:0,0:0:0:0:
263,150,104913,6,0,L|156:138,1,101.250003862381,0|0,1:0|0:0,0:0:0:0:
150,133,105127,2,0,P|133:103|132:70,1,67.5000025749208
288,15,105341,2,0,P|305:44|306:77,1,67.5000025749208
263,150,105556,6,0,L|268:202,3,33.7500012874604
274,269,105770,6,0,P|227:284|184:260,1,101.250003862381,0|0,3:0|0:0,0:0:0:0:
45,342,105984,2,2,P|91:357|134:333,1,101.250003862381,2|0,0:0|0:0,0:0:0:0:
113,212,106199,1,0,0:0:0:0:
343,219,106413,5,0,0:0:0:0:
352,217,106520,1,0,3:0:0:0:
428,255,106627,6,0,L|433:302,1,45,0|0,1:0|0:0,0:0:0:0:
346,369,107270,6,0,L|353:302,1,67.5,0|0,3:0|0:0,0:0:0:0:
274,269,107699,6,0,L|229:273,1,45,0|0,3:0|0:0,0:0:0:0:
136,219,107913,6,0,P|177:170|240:185,1,135,0|0,3:0|0:0,0:0:0:0:
244,354,108127,2,0,P|187:383|134:346,1,135
51,320,108341,6,0,P|52:298|46:277,3,45,0|0|0|0,1:0|0:0|0:0|0:0,0:0:0:0:
136,219,108556,6,0,P|150:210|167:207,3,33.7500012874604
114,116,108770,6,0,P|107:106|99:99,3,22.5
156,37,108984,6,0,P|164:35|172:32,3,16.8750006437302
302,76,109199,6,0,L|361:66,1,45,0|0,3:0|0:0,0:0:0:0:
475,44,109413,1,0,3:0:0:0:
491,70,109520,5,2,0:0:0:0:
478,75,109627,1,2,0:0:0:0:
465,72,109734,1,2,0:0:0:0:
457,64,109841,5,0,3:0:0:0:
429,140,109949,1,0,3:0:0:0:
482,214,110056,6,0,L|472:273,1,45,0|0,1:0|0:0,0:0:0:0:
384,350,110270,6,0,B|288:374|315:261|181:321,1,180,2|0,0:0|0:0,0:0:0:0:
141,367,110591,2,0,P|73:368|7:355,1,135.000005149842,2|0,0:0|0:0,0:0:0:0:
166,240,110913,6,0,P|205:247|220:299,1,90,0|0,3:0|0:0,0:0:0:0:
141,367,111234,6,0,P|102:360|87:308,1,90,0|0,3:0|0:0,0:0:0:0:
355,214,111449,1,0,3:0:0:0:
361,220,111556,2,0,L|366:290,1,45,0|0,3:0|0:0,0:0:0:0:
475,354,111770,6,0,L|498:356,1,22.5,4|0,1:0|0:0,0:0:0:0:
447,276,112413,6,0,P|451:225|474:163,1,90,0|0,3:0|0:0,0:0:0:0:
347,68,112627,5,0,3:0:0:0:
426,103,112734,1,0,3:0:0:0:
470,82,112841,2,0,L|404:77,1,45,0|2,0:0|0:0,0:0:0:0:
283,163,113056,6,0,L|217:168,1,45,0|0,3:0|0:0,0:0:0:0:
158,176,113270,2,0,L|92:181,1,45,0|0,3:0|0:0,0:0:0:0:
26,101,113484,6,0,L|29:56,1,45,0|0,1:0|0:0,0:0:0:0:
38,52,114127,1,2,0:0:0:0:
113,179,114341,6,0,B|161:189|161:189|188:164|188:164|243:175,1,135,0|0,3:0|0:0,0:0:0:0:
301,232,114770,6,0,P|311:275|285:310,1,90,6|0,1:0|0:0,0:0:0:0:
205,309,114984,2,0,P|202:282|212:259,1,45
376,331,115199,2,0,P|364:355|344:369,1,45,0|0,1:0|0:0,0:0:0:0:
108,313,115413,5,2,0:0:0:0:
95,314,115520,2,0,L|90:361,1,45
97,224,115734,1,2,0:0:0:0:
109,223,115841,2,0,L|113:178,1,45
236,173,116056,6,0,B|227:192|227:192|195:181,1,45,0|0,3:0|0:0,0:0:0:0:
24,195,116270,2,0,P|20:151|47:115,1,90,0|0,3:0|0:0,0:0:0:0:
119,81,116484,2,0,P|162:77|198:104,1,90,0|0,3:0|0:0,0:0:0:0:
208,265,116699,5,0,3:0:0:0:
286,283,116806,1,0,3:0:0:0:
334,187,116913,6,0,L|322:-1,1,180,0|0,1:0|0:0,0:0:0:0:
473,111,117234,2,0,P|475:168|399:203,1,135.000005149842,0|0,1:0|0:0,0:0:0:0:
286,283,117556,2,0,P|262:266|228:269,1,45,0|0,1:0|0:0,0:0:0:0:
20,320,117770,6,0,L|18:362,1,40.4999987640381,4|0,3:1|0:0,0:0:0:0:
103,373,118199,6,0,L|99:305,1,67.5,4|0,3:1|0:0,0:0:0:0:
247,264,118627,6,0,L|361:272,1,101.250003862381,0|0,1:0|0:0,0:0:0:0:
355,282,118841,6,0,P|357:323|315:347,1,67.5000025749208
99,306,119056,2,0,P|97:265|139:241,1,67.5000025749208
247,264,119270,6,0,L|252:316,3,33.7500012874604
236,179,119484,6,0,P|194:176|159:108,1,101.250003862381,0|0,3:0|0:0,0:0:0:0:
17,116,119699,2,0,P|59:113|94:45,1,101.250003862381,2|0,0:0|0:0,0:0:0:0:
184,47,119913,1,0,0:0:0:0:
364,104,120127,5,0,0:0:0:0:
373,106,120234,1,0,3:0:0:0:
449,68,120341,6,0,L|454:21,1,45,0|0,1:0|0:0,0:0:0:0:
390,221,120984,6,0,L|386:189,1,31.5,4|0,3:1|0:0,0:0:0:0:
467,172,121841,6,0,L|495:179,2,30,0|0|0,3:0|3:0|3:0,0:0:0:0:
326,133,122056,6,0,B|282:140|249:117|249:117|246:169|195:197|195:197|190:183|190:183|155:215|114:216|66:184,1,315,0|0,1:0|0:0,0:0:0:0:
129,112,122913,6,0,P|105:52|41:47,1,135.000005149842,2|0,0:0|0:0,0:0:0:0:
0,116,123234,2,0,P|0:185|15:259,1,135.000005149842,2|0,0:0|0:0,0:0:0:0:
74,347,123556,2,0,P|87:301|109:258,1,67.5000025749208,2|0,0:0|0:0,0:0:0:0:
173,246,123770,5,2,3:1:0:0:
179,229,123877,1,0,3:0:0:0:
203,211,123984,1,0,3:0:0:0:
245,219,124091,1,0,3:0:0:0:
277,255,124199,1,2,3:1:0:0:
329,274,124306,1,0,3:0:0:0:
399,252,124413,1,0,3:0:0:0:
423,175,124520,1,0,3:0:0:0:
381,93,124627,6,0,L|183:106,1,180,4|0,3:1|0:0,0:0:0:0:
134,61,124949,2,0,P|128:39|130:16,1,45,2|0,0:0|0:0,0:0:0:0:
284,21,125163,1,0,0:0:0:0:
284,21,125270,2,0,P|289:42|287:65,1,45,2|0,0:0|0:0,0:0:0:0:
127,141,125484,5,0,1:0:0:0:
47,135,125591,2,0,L|3:132,1,45,2|0,0:0|0:0,0:0:0:0:
173,246,125806,1,0,0:0:0:0:
173,246,125913,2,0,L|217:243,1,45,2|0,0:0|0:0,0:0:0:0:
398,236,126127,1,0,0:0:0:0:
312,136,126341,6,0,P|230:159|218:243,1,180,0|0,3:0|0:0,0:0:0:0:
262,309,126663,2,0,L|306:306,1,45,2|0,0:0|0:0,0:0:0:0:
379,345,126877,5,0,0:0:0:0:
388,343,126984,1,2,0:0:0:0:
435,309,127092,5,0,3:0:0:0:
443,311,127199,1,0,1:0:0:0:
491,345,127306,6,0,L|494:301,1,45,2|0,0:0|0:0,0:0:0:0:
506,116,127520,1,0,0:0:0:0:
506,116,127627,2,0,L|503:160,1,45,2|0,0:0|0:0,0:0:0:0:
398,236,127841,1,0,0:0:0:0:
383,71,128056,6,0,L|366:70,1,18,0|0,3:0|0:0,0:0:0:0:
292,35,128377,6,0,P|217:64|154:-5,1,180
76,28,128699,6,0,L|51:26,1,22.5
47,112,128913,6,2,L|92:108,1,45,2|0,1:0|0:0,1:0:0:0:
187,101,129127,6,0,P|231:47|301:36,1,135,0|0,3:0|0:0,0:0:0:0:
362,74,129341,2,0,P|388:139|362:205,1,135,0|0,3:0|0:0,0:0:0:0:
299,239,129556,2,0,P|231:229|186:174,1,135,0|0,3:0|0:0,0:0:0:0:
280,128,129770,6,0,P|289:147|273:141,1,47.2499985580445,4|0,3:1|0:0,0:0:0:0:
189,181,130199,6,0,L|120:170,1,45
27,204,130413,5,0,0:0:0:0:
25,213,130520,1,0,3:0:0:0:
0,294,130627,6,0,L|13:360,1,63,4|0,1:0|0:0,0:0:0:0:
96,331,131484,6,0,B|213:303|157:399|306:369,1,180,0|0,3:0|0:0,0:0:0:0:
323,322,131806,2,0,L|320:259,1,45,2|0,0:0|0:0,0:0:0:0:
171,255,132020,1,0,0:0:0:0:
171,255,132127,2,0,L|173:299,1,45,2|0,0:0|0:0,0:0:0:0:
394,359,132341,5,0,1:0:0:0:
474,353,132448,2,0,P|469:322|452:306,1,45,2|0,0:0|0:0,0:0:0:0:
291,169,132663,1,0,0:0:0:0:
283,170,132770,2,0,P|270:188|269:210,1,45,2|0,0:0|0:0,0:0:0:0:
480,234,132984,1,0,0:0:0:0:
498,97,133199,6,0,P|456:143|345:104,1,180,0|0,3:0|0:0,0:0:0:0:
357,36,133520,2,0,L|401:34,1,45,2|0,0:0|0:0,0:0:0:0:
269,210,133734,5,0,0:0:0:0:
267,201,133841,1,2,0:0:0:0:
233,154,133949,5,0,3:0:0:0:
235,146,134056,1,0,1:0:0:0:
266,100,134163,6,0,L|268:56,1,45,2|0,0:0|0:0,0:0:0:0:
44,29,134377,1,0,0:0:0:0:
44,29,134484,2,0,L|42:73,1,45,2|0,0:0|0:0,0:0:0:0:
144,154,134699,1,0,0:0:0:0:
141,268,134913,6,0,L|66:259,1,67.5000025749208,0|0,3:0|0:0,0:0:0:0:
13,312,135234,1,0,0:0:0:0:
0,185,135341,6,0,B|64:177|64:177|115:171|158:218|140:271,1,207.000003948212
128,347,135663,1,0,0:0:0:0:
128,347,135770,2,0,L|173:342,1,45,0|0,1:0|0:0,0:0:0:0:
429,321,135984,5,0,0:0:0:0:
363,365,136091,2,0,P|325:344|326:287,1,90,2|0,1:0|0:0,0:0:0:0:
328,294,136413,6,0,P|321:337|283:358,1,90,0|0,1:0|0:0,0:0:0:0:
141,268,136627,6,0,L|134:229,1,36,0|0,3:0|0:0,0:0:0:0:
95,161,136949,6,0,P|116:122|159:116,1,90
333,180,137163,5,0,3:0:0:0:
359,214,137270,1,0,3:0:0:0:
353,176,137377,1,0,3:0:0:0:
414,116,137484,6,0,L|485:107,2,67.5,4|0|0,3:1|3:0|3:0,3:0:0:0:
273,83,138341,6,0,P|198:132|112:156,1,180,4|0,3:1|0:0,3:0:0:0:
34,136,138663,2,0,P|26:114|26:92,1,45,2|0,0:0|0:0,0:0:0:0:
178,54,138877,1,0,0:0:0:0:
178,54,138984,2,0,P|185:75|186:97,1,45,2|0,0:0|0:0,0:0:0:0:
95,236,139199,5,0,1:0:0:0:
165,274,139306,2,0,P|190:274|210:262,1,45,2|0,0:0|0:0,0:0:0:0:
356,184,139521,1,0,0:0:0:0:
353,176,139627,2,0,P|333:165|310:166,1,45,2|0,0:0|0:0,0:0:0:0:
112,156,139842,1,0,0:0:0:0:
178,54,140056,6,0,B|243:43|243:43|277:82|277:82|338:85,1,180,0|0,3:0|0:0,0:0:0:0:
410,48,140377,2,0,L|413:4,1,45,2|0,0:0|0:0,0:0:0:0:
512,103,140591,5,0,0:0:0:0:
510,112,140698,1,2,0:0:0:0:
476,159,140806,5,0,3:0:0:0:
478,167,140913,1,0,1:0:0:0:
509,213,141020,6,0,L|465:216,1,45,2|0,0:0|0:0,0:0:0:0:
263,229,141234,1,0,0:0:0:0:
263,229,141341,2,0,L|307:226,1,45,2|0,0:0|0:0,0:0:0:0:
339,85,141556,1,0,0:0:0:0:
391,286,141770,6,0,L|389:304,1,18,0|0,3:0|0:0,0:0:0:0:
310,355,142091,6,0,B|231:314|231:314|263:228,1,180
436,213,142413,5,2,0:0:0:0:
438,221,142520,1,2,0:0:0:0:
391,286,142627,6,0,L|322:278,1,45,2|2,1:2|0:0,0:0:0:0:
166,213,142841,6,0,L|32:200,1,135,0|0,3:0|0:0,0:0:0:0:
6,125,143056,2,0,L|85:16,1,135,0|0,3:0|0:0,0:0:0:0:
162,30,143270,2,0,L|218:153,1,135,0|0,3:0|0:0,0:0:0:0:
105,128,143484,6,0,B|113:117|113:117|118:128,1,27,4|0,3:1|0:0,0:0:0:0:
218,153,143913,6,0,L|287:145,1,45
456,125,144127,5,0,0:0:0:0:
458,133,144234,1,0,3:0:0:0:
512,195,144341,6,0,L|508:227,1,31.5,4|0,1:0|0:0,0:0:0:0:
265,291,145199,6,0,L|272:229,1,63,4|0,3:1|0:0,0:0:0:0:
338,181,146056,6,0,P|374:182|414:263,1,135
345,298,146484,1,0,1:0:0:0:
118,270,146699,6,0,L|77:265,1,40.5,4|0,3:1|0:0,0:0:0:0:
11,312,147770,6,0,P|21:358|73:375,1,90,0|0,1:0|0:0,0:0:0:0:
131,348,148091,2,0,P|141:301|101:263,1,90,0|0,1:0|0:0,0:0:0:0:
32,200,148413,5,4,3:1:0:0:
256,192,148520,12,0,151841,0:0:0:0:
381,216,152056,6,0,B|386:262|358:293|358:293|420:226|489:241|526:309|476:357|433:349|433:349|426:358|426:358|346:291|293:362|293:362|194:307|175:387|137:366|137:366|136:318|136:318|142:281|110:239|49:251|35:294|35:294|20:340|62:388|128:370|136:318|136:318|178:302|122:230|238:183|270:262|270:262|278:240|296:228,1,1283.39995691712,4|0,0:1|0:0,0:0:0:0:
267,137,158913,6,0,B|278:67|193:56|180:115|180:115|136:64|73:119|108:166|108:166|15:138|13:81|40:22|91:18|150:52|165:93|165:93|194:11|279:63|269:89|269:89|311:135|272:75|340:53|375:81|379:119|379:119|441:79|509:136|438:133|438:133|488:136|506:176|506:176|489:164|469:163,1,1128.55496736738
455,244,165770,5,0,0:0:0:0:
455,244,166199,2,0,P|467:288|470:333,1,90
376,229,167056,1,0,0:0:0:0:
317,284,167270,2,0,P|272:276|255:236,1,90
262,226,167913,1,0,0:0:0:0:
380,82,168341,6,0,P|370:114|369:148,2,67.5
227,46,169413,2,0,P|214:43|202:40,1,22.5
141,88,169627,2,0,P|80:83|90:212,1,225
153,245,170913,6,0,P|150:262|147:282,1,26.9999991760254
219,311,171341,2,0,P|232:313|245:315,1,26.9999991760254
322,377,171770,6,0,P|319:360|316:340,1,26.9999991760254
388,311,172198,2,0,P|401:308|414:306,1,26.9999991760254
487,273,172627,5,0,0:0:0:0:
487,273,173056,2,0,P|483:225|467:171,1,90
419,75,173913,1,0,0:0:0:0:
397,152,174127,2,0,P|368:169|319:127,1,90
322,129,174770,1,0,0:0:0:0:
219,0,175199,6,0,P|229:32|229:66,2,67.5
54,71,176056,2,0,P|39:99|34:128,1,45
176,147,176484,2,0,P|169:125|157:106,1,45
26,194,176913,6,0,P|59:218|97:207,1,67.5000025749208
230,66,177341,2,0,P|254:87|287:87,1,67.5000025749208
356,14,177770,5,0,0:0:0:0:
342,151,177984,1,0,0:0:0:0:
371,27,178199,1,0,0:0:0:0:
482,120,178413,5,0,1:0:0:0:
482,120,178520,1,0,1:0:0:0:
482,120,178627,1,0,1:0:0:0:
439,186,178734,2,0,P|431:183|413:180,2,22.5,8|8|8,0:3|0:3|0:3,0:0:0:0:
504,235,178948,5,8,0:3:0:0:
512,279,179055,1,8,0:3:0:0:
484,313,179162,1,8,0:3:0:0:
440,313,179269,1,4,0:3:0:0:
412,277,179377,1,4,0:3:0:0:
332,311,179484,6,0,P|284:307|234:320,1,90,4|0,3:1|0:0,0:0:0:0:
99,384,179913,2,0,P|153:378|168:331,1,90,0|0,3:0|0:0,0:0:0:0:
222,236,180341,2,0,P|211:169|220:102,1,135,0|0,3:0|0:0,0:0:0:0:
260,33,180770,1,0,3:0:0:0:
132,208,180984,6,0,P|78:202|63:155,1,90,0|0,0:0|3:0,0:0:0:0:
91,62,181413,1,0,0:0:0:0:
222,236,181627,2,0,P|265:216|332:207,1,90,0|0,3:0|0:0,0:0:0:0:
472,312,182056,6,0,P|448:326|401:274,1,90,0|0,3:0|0:0,0:0:0:0:
388,216,182377,1,0,0:0:0:0:
388,207,182484,2,0,P|392:159|417:97,1,90,0|0,3:0|0:0,0:0:0:0:
479,13,182913,1,0,3:0:0:0:
315,126,183127,6,0,P|294:122|276:116,1,22.5
288,44,183341,2,0,P|266:6|223:2,1,90,0|0,3:0|0:0,0:0:0:0:
84,104,183770,2,0,P|105:66|148:62,1,90,0|2,3:0|0:0,0:0:0:0:
247,208,184199,2,0,P|225:170|182:166,1,90,0|2,3:0|0:0,0:0:0:0:
44,294,184627,6,0,P|51:338|50:383,1,90,0|2,3:0|0:0,0:0:0:0:
149,245,185056,2,0,P|141:289|142:334,1,90,0|2,3:0|0:0,0:0:0:0:
231,384,185484,5,0,3:0:0:0:
228,367,185699,1,2,0:0:0:0:
352,297,185913,5,0,3:0:0:0:
349,314,186128,1,2,0:0:0:0:
420,372,186341,6,0,P|469:375|497:347,1,90,0|0,3:0|0:0,0:0:0:0:
489,179,186770,2,0,P|448:151|409:161,1,90,0|0,3:0|0:0,0:0:0:0:
310,207,187199,2,0,P|243:193|181:165,1,135,0|0,3:0|0:0,0:0:0:0:
121,114,187628,1,0,3:0:0:0:
281,70,187841,6,0,P|321:87|335:128,1,90,0|0,0:0|3:0,0:0:0:0:
305,221,188270,1,0,0:0:0:0:
106,192,188484,2,0,P|61:193|17:206,1,90,0|0,3:0|0:0,0:0:0:0:
61,331,188913,6,0,P|101:313|115:272,1,90,0|0,3:0|0:0,0:0:0:0:
193,250,189234,1,0,0:0:0:0:
195,259,189341,2,0,P|221:292|265:295,1,90,0|0,3:0|0:0,0:0:0:0:
447,227,189770,5,0,3:0:0:0:
348,329,189984,1,0,0:0:0:0:
305,221,190199,2,0,P|295:215|284:212,1,22.5,0|0,3:0|0:0,0:0:0:0:
425,146,190413,6,0,P|425:101|438:58,1,90,0|0,0:0|3:0,0:0:0:0:
512,0,190841,1,2,0:0:0:0:
345,81,191056,2,0,P|308:86|267:46,1,90,0|2,3:0|0:0,0:0:0:0:
90,104,191484,6,0,P|134:104|179:100,1,90,0|2,3:0|0:0,0:0:0:0:
25,225,191913,2,0,P|69:224|114:228,1,90,0|2,3:0|0:0,0:0:0:0:
310,367,192341,5,0,3:0:0:0:
307,384,192556,1,2,0:0:0:0:
189,314,192770,5,0,3:0:0:0:
186,297,192985,1,2,0:0:0:0:
364,259,193199,5,0,1:0:0:0:
377,167,193413,1,0,3:0:0:0:
371,272,193627,5,0,1:0:0:0:
463,285,193841,1,0,3:0:0:0:
351,266,194056,5,0,1:0:0:0:
259,253,194270,1,0,3:0:0:0:
358,279,194485,5,0,1:0:0:0:
345,371,194699,1,0,3:0:0:0:
453,184,194913,6,0,L|439:88,1,90,0|0,1:0|3:0,0:0:0:0:
346,0,195342,2,0,L|250:14,1,90,0|0,1:0|3:0,0:0:0:0:
162,107,195770,2,0,L|176:203,1,90,0|0,1:0|3:0,0:0:0:0:
269,291,196199,2,0,L|365:277,1,90,0|0,1:0|3:0,0:0:0:0:
366,139,196627,5,0,1:0:0:0:
274,126,196841,1,0,3:0:0:0:
280,21,197056,5,0,1:0:0:0:
267,113,197270,1,0,3:0:0:0:
248,225,197484,5,0,1:0:0:0:
261,133,197698,1,0,3:0:0:0:
162,107,197913,5,0,1:0:0:0:
254,120,198127,1,0,3:0:0:0:
263,371,198342,6,0,L|174:384,1,90,0|0,1:0|3:0,0:0:0:0:
79,289,198770,2,0,L|67:200,1,90,0|0,1:0|3:0,0:0:0:0:
161,105,199199,2,0,L|251:93,1,90,0|0,1:0|3:0,0:0:0:0:
345,187,199627,2,0,L|358:277,1,90,0|0,1:0|3:0,0:0:0:0:
471,232,200056,6,0,L|473:195,1,33.7500012874604,0|0,1:0|3:0,0:0:0:0:
441,104,200271,2,0,L|442:71,1,33.7500012874604,0|0,1:0|3:0,0:0:0:0:
367,44,200485,2,0,L|365:78,1,33.7500012874604,0|0,1:0|3:0,0:0:0:0:
359,242,200699,2,0,L|358:275,1,33.7500012874604,0|0,1:0|3:0,0:0:0:0:
279,286,200914,6,0,L|282:241,1,45,0|0,1:0|3:0,0:0:0:0:
228,107,201128,2,0,L|231:62,1,45,0|0,1:0|3:0,0:0:0:0:
154,39,201342,2,0,L|152:83,1,45,0|0,1:0|3:0,0:0:0:0:
144,290,201556,2,0,L|142:334,1,45,0|0,1:0|3:0,0:0:0:0:
123,360,201770,5,0,1:0:0:0:
92,367,201877,1,0,1:0:0:0:
61,363,201984,1,0,1:0:0:0:
34,347,202091,1,0,1:0:0:0:
15,322,202198,1,0,1:0:0:0:
7,292,202305,1,0,1:0:0:0:
11,261,202412,1,0,1:0:0:0:
27,234,202520,1,0,1:0:0:0:
52,215,202627,1,0,1:0:0:0:
78,221,202734,1,0,1:0:0:0:
104,227,202841,1,0,1:0:0:0:
130,231,202949,1,0,1:0:0:0:
156,236,203056,1,0,1:0:0:0:
182,240,203163,1,0,1:0:0:0:
208,244,203270,1,0,1:0:0:0:
234,247,203377,1,0,1:0:0:0:
254,251,203484,6,0,L|247:222,7,22.5,0|0|0|0|0|0|0|0,1:0|1:0|1:0|1:0|1:0|1:0|1:0|1:0,1:0:0:0:
317,177,203913,2,0,L|339:172,7,22.5,0|0|0|0|0|0|0|0,1:0|1:0|1:0|1:0|1:0|1:0|1:0|1:0,1:0:0:0:
315,92,204341,2,0,L|294:97,7,22.5,0|0|0|0|0|0|0|0,1:0|1:0|1:0|1:0|1:0|1:0|1:0|1:0,1:0:0:0:
381,38,204770,2,0,L|386:16,7,22.5,0|0|0|0|0|0|0|0,3:0|3:0|3:0|3:0|3:0|3:0|3:0|3:0,3:0:0:0:
496,81,205199,6,0,L|489:137,1,45
477,222,205414,1,0,3:0:0:0:
473,230,205521,1,0,3:0:0:0:
425,294,205627,6,0,P|367:296|333:251,1,90,0|0,1:0|0:0,0:0:0:0:
339,197,205841,2,0,P|355:189|380:205,3,45,0|0|0|0,3:0|3:0|3:0|3:0,3:0:0:0:
254,291,206056,5,8,0:3:0:0:
245,289,206163,1,0,0:0:0:0:
199,255,206271,5,4,3:0:0:0:
190,257,206378,1,4,0:3:0:0:
103,291,206485,6,0,L|94:405,1,90
89,384,206699,2,0,L|97:294,1,90
58,143,206913,6,0,L|27:138,1,31.5,4|0,3:1|0:0,0:0:0:0:
57,54,207770,6,0,L|121:51,1,45,0|0,1:0|0:0,0:0:0:0:
191,50,207984,1,0,1:0:0:0:
216,127,208091,6,0,B|283:136|283:136|319:88|319:88|385:85,1,180,0|0,1:0|0:0,0:0:0:0:
479,90,208413,2,0,P|453:170|368:173,1,180,0|0,1:0|0:0,0:0:0:0:
138,221,208734,2,0,P|112:141|27:138,1,180,0|0,1:0|0:0,0:0:0:0:
11,270,209056,2,0,P|48:296|92:289,1,90,0|0,1:0|0:0,0:0:0:0:
296,224,209270,6,0,L|293:269,3,45,0|0|0|0,3:0|3:0|3:0|3:0,3:0:0:0:
362,319,209484,6,0,L|482:336,1,90,0|0,1:0|0:0,0:0:0:0:
479,90,209806,2,0,L|358:73,1,90,0|0,1:0|0:0,0:0:0:0:
350,8,210127,2,0,L|279:18,1,45,0|0,1:0|0:0,0:0:0:0:
123,79,210341,6,0,B|76:-33|243:65|134:227,1,269.999991760254,0|4,3:0|3:0,0:0:0:0:
129,223,210770,1,8,0:3:0:0:
17,148,210984,2,0,L|88:158,1,45,4|0,0:3|0:0,0:0:0:0:
240,229,211199,6,0,L|287:222,1,47.2499985580445,4|0,1:0|0:0,0:0:0:0:
353,333,212056,6,0,B|363:354|363:354|387:348,1,45,0|0,3:0|0:0,0:0:0:0:
430,283,212271,2,0,P|433:165|516:32,1,270,0|0,3:0|0:0,0:0:0:0:
414,22,212699,2,0,B|404:1|404:1|380:7,1,45,0|0,3:0|0:0,0:0:0:0:
262,147,212913,6,0,P|345:155|333:70,1,180,0|0,1:0|0:0,0:0:0:0:
271,46,213234,1,2,0:0:0:0:
183,79,213341,6,0,L|177:144,1,45,0|0,1:0|0:0,0:0:0:0:
84,54,213556,2,0,L|94:157,1,90,2|0,0:0|0:0,0:0:0:0:
18,299,213770,6,0,L|21:258,1,40.4999987640381,4|0,3:1|0:0,0:0:0:0:
105,231,214199,6,0,L|112:311,1,80.9999975280763,4|0,3:1|0:0,3:0:0:0:
186,352,214627,6,0,P|248:347|230:266,1,135,0|0,1:0|0:0,0:0:0:0:
248,273,214841,6,0,L|203:277,1,45,2|0,0:0|0:0,0:0:0:0:
392,322,215056,5,0,0:0:0:0:
401,324,215163,1,0,0:0:0:0:
425,304,215270,6,0,L|470:300,3,45,0|0|0|0,1:0|1:0|1:0|1:0,1:0:0:0:
380,237,215484,6,0,P|317:231|311:169,1,135,0|0,3:0|0:0,0:0:0:0:
430,116,215699,2,0,P|481:151|455:208,1,135
324,159,215913,6,0,L|251:152,3,60
183,79,216234,1,0,3:0:0:0:
108,113,216341,6,0,L|111:146,1,33.7499989700318,4|0,3:1|0:0,0:0:0:0:
120,257,216984,5,0,1:0:0:0:
111,259,217091,1,0,1:0:0:0:
55,317,217199,6,0,L|50:354,5,30
185,355,217627,6,0,B|233:344|233:344|273:374|273:374|320:365,1,148.50000453186
445,383,218056,6,0,P|447:361|460:343,1,45,0|0,1:0|0:0,0:0:0:0:
342,288,218270,6,0,P|326:280|297:280,3,33.7500012874604
391,192,218484,6,0,P|400:181|421:176,3,22.5
360,108,218699,6,0,P|358:97|350:86,3,16.8750006437302
436,30,218913,6,0,L|391:22,1,45,0|0,1:0|0:0,0:0:0:0:
259,2,219127,1,0,3:0:0:0:
243,35,219234,5,2,0:0:0:0:
256,40,219341,1,2,0:0:0:0:
269,37,219448,1,2,0:0:0:0:
277,29,219555,5,0,1:0:0:0:
172,2,219663,1,0,1:0:0:0:
134,74,219770,6,0,L|141:118,1,45,0|0,1:0|0:0,0:0:0:0:
269,134,219984,1,0,1:0:0:0:
269,134,220091,2,0,L|265:179,1,45,0|0,1:0|0:0,0:0:0:0:
28,174,220306,1,0,1:0:0:0:
28,174,220413,2,0,L|47:215,1,45,0|0,3:0|0:0,0:0:0:0:
326,262,220627,6,0,L|331:233,5,30,4|0|0|0|0|0,3:1|0:0|0:0|0:0|0:0|0:0,0:0:0:0:
415,134,221056,6,0,L|445:130,1,27,4|0,3:1|0:0,0:0:0:0:
457,52,221484,2,0,P|434:16|391:22,1,90,0|0,1:0|3:0,0:0:0:0:
157,75,221913,6,0,L|134:73,1,22.5,4|0,3:1|0:0,0:0:0:0:
24,121,222556,6,0,P|49:176|104:149,1,135.000005149842,0|0,3:0|0:0,3:0:0:0:
172,203,222877,6,0,B|282:193|449:348|192:430|330:159,1,337.500012874604,0|0,3:0|0:0,0:0:0:0:
311,211,223199,6,0,L|355:207,1,45,4|0,1:0|0:0,0:0:0:0:
362,212,223841,1,2,0:0:0:0:
453,97,224056,6,0,L|457:53,1,45,4|0,3:1|0:0,0:0:0:0:
391,3,224699,5,0,0:0:0:0:
382,5,224806,1,0,3:0:0:0:
333,69,224913,2,0,P|335:90|365:103,1,45,0|0,1:0|0:0,0:0:0:0:
446,198,225127,5,2,0:0:0:0:
448,209,225234,2,0,L|495:207,1,45
359,222,225448,1,2,0:0:0:0:
356,209,225555,2,0,L|310:211,1,45
239,301,225770,6,0,B|248:320|248:320|280:309,1,45,0|0,3:0|0:0,0:0:0:0:
451,323,225984,2,0,P|455:279|428:243,1,90,0|0,3:0|0:0,0:0:0:0:
356,209,226198,2,0,P|313:205|277:232,1,90,0|0,3:0|0:0,0:0:0:0:
109,291,226413,5,0,3:0:0:0:
91,369,226520,1,0,3:0:0:0:
205,381,226627,6,0,L|180:176,1,180,0|0,1:0|0:0,0:0:0:0:
0,156,226949,2,0,B|-17:226|-17:226|59:244,1,135.000005149842,0|0,1:0|0:0,0:0:0:0:
232,133,227270,2,0,L|299:125,1,45,0|0,1:0|0:0,0:0:0:0:
428,54,227484,6,0,L|426:12,1,40.4999987640381,4|0,3:1|0:0,0:0:0:0:
511,1,227913,6,0,L|507:69,1,67.5,4|0,3:1|0:0,0:0:0:0:
439,182,228341,6,0,B|340:195|380:106|256:131,1,180,0|0,1:0|0:0,3:0:0:0:
209,83,228663,1,0,0:0:0:0:
199,88,228770,2,0,L|192:132,1,45,0|0,1:0|0:0,0:3:0:0:
176,269,228984,2,0,L|170:314,1,45,0|0,1:0|0:0,0:3:0:0:
107,369,229199,6,0,L|74:373,4,22.5,2|0|0|0|0,3:1|0:0|0:0|0:0|0:0,0:0:0:0:
321,355,229627,5,8,3:3:0:0:
330,353,229734,1,8,3:3:0:0:
376,319,229842,5,8,3:3:0:0:
385,321,229949,1,8,3:3:0:0:
431,352,230056,6,0,L|437:260,1,90,0|0,3:0|0:0,0:0:0:0:
375,214,230377,2,0,L|368:122,1,90,0|0,1:0|0:0,0:0:0:0:
431,0,230699,6,0,L|463:4,1,27,4|0,3:1|0:0,0:0:0:0:
508,69,231127,6,0,B|516:91|516:91|495:98,1,45,0|0,3:0|0:0,0:0:0:0:
368,124,231341,2,0,B|371:57|371:57|251:9|251:9|198:59,1,270,0|0,1:0|0:0,0:0:0:0:
198,60,231770,6,0,L|284:71,1,67.5000025749208,0|0,3:0|0:0,0:0:0:0:
276,174,232091,5,0,3:0:0:0:
276,174,232199,2,0,B|297:166|297:166|289:144,1,45,0|0,1:0|0:0,0:0:0:0:
129,13,232413,6,2,L|99:16,2,30,2|0|0,0:0|0:0|0:0,0:0:0:0:
142,119,232627,6,0,P|76:106|9:100,2,135.000005149842,0|0|0,1:0|3:0|1:0,0:0:0:0:
375,214,233270,1,0,3:0:0:0:
431,0,233484,2,0,P|363:6|297:19,1,135.000005149842,0|0,1:0|3:0,0:0:0:0:
122,201,233913,5,0,1:0:0:0:
195,272,234020,1,0,1:0:0:0:
290,250,234127,5,0,3:0:0:0:
295,237,234234,1,0,3:0:0:0:
375,214,234341,6,0,L|380:245,1,31.5,4|0,3:1|0:0,0:0:0:0:
460,263,235199,6,0,P|484:227|452:175,1,90,0|0,1:0|0:0,0:0:0:0:
404,139,235413,1,0,0:0:0:0:
295,237,235520,6,0,B|194:261|227:182|124:205,1,180
77,267,235841,6,0,L|82:297,2,30,2|2|2,0:0|0:0|0:0,0:0:0:0:
215,317,236056,5,0,3:0:0:0:
215,317,236163,2,0,L|206:368,2,45
284,384,236484,5,0,1:0:0:0:
404,320,236627,1,0,3:0:0:0:
353,200,236770,1,4,1:2:0:0:
405,140,236913,6,0,L|438:145,1,33.75,0|0,1:0|0:0,0:0:0:0:
500,257,237341,6,0,L|456:263,1,40.4999987640381,0|0,1:0|1:0,0:0:0:0:
326,317,237770,6,0,B|247:288|247:288|192:352,1,168.750006437302,0|0,3:0|0:0,0:0:0:0:
197,359,238091,1,0,3:0:0:0:
460,325,238306,5,2,3:2:0:0:
500,257,238413,2,0,P|484:241|463:234,1,45,0|0,3:0|0:0,0:0:0:0:
362,50,238627,6,0,B|295:152|464:201|352:237|387:99,1,225,4|0,1:0|0:0,0:0:0:0:
487,115,239270,2,0,P|479:136|464:151,1,45,2|0,0:0|0:0,0:0:0:0:
218,45,239484,6,0,B|228:24|228:24|252:30,1,45,0|0,3:0|0:0,0:0:0:0:
266,113,239699,2,0,P|131:50|-3:66,1,270,0|0,3:0|0:0,0:0:0:0:
0,139,240127,2,0,B|10:160|10:160|31:154,1,45,0|0,3:0|0:0,0:0:0:0:
113,153,240341,6,0,P|161:221|241:190,1,180,0|0,1:0|0:0,0:0:0:0:
295,248,240663,2,0,B|356:244|356:244|384:293|384:293|445:300,1,180,0|0,1:0|0:0,0:0:0:0:
512,257,240984,2,0,P|509:234|491:204,1,45,0|0,1:0|0:0,0:0:0:0:
418,165,241199,5,0,3:0:0:0:
113,153,241413,6,0,B|165:172|212:141|212:141|237:165|237:165|270:90|342:106,1,270,4|0,3:2|0:0,0:0:0:0:
418,165,241841,5,0,3:0:0:0:
512,257,242056,6,0,B|529:328|400:271|398:160|525:167|502:94|451:71,1,270,4|0,3:2|0:0,0:0:0:0:
418,165,242484,5,0,3:0:0:0:
153,75,242699,6,0,B|131:47|131:47|233:45|233:45|259:86|259:86|342:106,1,270,4|0,3:2|0:0,0:0:0:0:
418,165,243127,6,0,L|426:224,3,45,0|0|0|0,3:0|3:0|3:0|3:0,0:0:0:0:
322,241,243341,6,0,P|316:304|372:336,1,135,4|0,1:2|0:0,0:0:0:0:
447,313,243556,2,0,P|469:253|424:209,1,135,0|0,3:0|0:0,0:0:0:0:
322,241,243770,6,0,L|251:235,1,67.5000025749208,0|0,1:0|0:0,0:0:0:0:
221,81,244091,2,0,L|153:75,1,67.5000025749208,0|0,1:0|0:0,0:0:0:0:
50,4,244413,6,0,P|64:73|77:221,1,202.500007724762,4|0,3:1|0:0,0:0:0:0:
132,263,244841,2,0,P|163:257|185:243,1,45,0|0,3:0|0:0,0:0:0:0:
45,333,245056,2,0,P|14:327|-8:313,1,45,0|0,3:0|0:0,0:0:0:0:
4,240,245270,1,2,0:0:0:0:
209,356,245484,6,0,P|231:355|252:361,3,45,0|0|0|0,1:0|0:0|0:0|0:0,0:0:0:0:
310,272,245699,6,0,P|319:258|322:241,3,33.7500012874604
422,279,245913,6,0,P|432:286|439:294,3,22.5
487,218,246127,6,0,P|492:212|499:206,3,16.8750006437302
512,131,246341,5,0,3:0:0:0:
477,51,246448,1,0,1:0:0:0:
498,7,246556,2,0,L|501:51,1,45,0|0,3:0|0:0,0:0:0:0:
422,124,246770,6,0,P|380:144|338:147,1,90,0|0,1:0|0:0,0:0:0:0:
255,77,246984,5,0,3:0:0:0:
253,68,247091,1,0,3:0:0:0:
181,33,247199,6,0,P|99:74|-12:85,1,180,0|0,1:0|0:0,0:0:0:0:
0,165,247520,2,0,P|35:268|102:204,1,180,0|0,1:0|0:0,0:0:0:0:
126,193,247841,2,0,L|182:199,1,45,0|0,1:0|0:0,0:0:0:0:
298,307,248056,6,0,L|303:337,1,27,4|0,3:1|0:0,0:0:0:0:
384,347,248484,6,0,B|427:333|427:333|443:375,1,90,4|0,3:2|0:0,0:0:0:0:
503,223,248699,2,0,B|486:265|486:265|443:251,1,90,2|0,0:2|0:0,0:0:0:0:
274,226,248913,6,0,L|244:229,5,30,0|8|8|8|8|8,0:0|0:3|0:3|0:3|0:3|0:3,0:0:0:0:
251,150,249341,6,0,P|227:201|170:198,1,120,4|4,0:3|0:3,0:0:0:0:
138,127,249556,1,0,0:0:0:0:
133,123,249627,2,0,L|136:94,1,30,4|0,0:3|0:0,0:0:0:0:
335,8,249770,6,0,L|336:34,1,27,4|0,3:1|0:0,0:0:0:0:
402,82,250199,6,0,L|446:89,1,45,2|0,0:3|0:0,0:0:0:0:
509,159,250413,5,2,0:0:0:0:
443,205,250520,1,0,3:0:0:0:
409,186,250627,6,0,L|407:163,1,22.5,0|0,1:0|0:0,0:0:0:0:
509,159,251270,6,0,L|505:212,1,53.9999983520508,0|0,3:0|0:0,0:0:0:0:
496,299,251770,6,0,B|475:298|459:287|459:287|443:328|394:334|394:334|338:278|338:278|381:287,2,240,4|4|0,3:2|3:2|1:0,0:0:0:0:
505,213,252449,5,0,0:0:0:0:
498,134,252556,1,2,0:0:0:0:
472,100,252663,1,2,0:0:0:0:
442,98,252770,1,0,0:0:0:0:
428,110,252877,1,2,0:0:0:0:
426,121,252984,1,2,0:0:0:0:
430,127,253091,1,0,0:0:0:0:
435,128,253199,6,0,B|425:107|425:107|401:113,1,45,0|0,3:0|0:0,0:0:0:0:
321,125,253413,5,0,0:0:0:0:
247,33,253520,2,0,P|161:73|40:88,1,180,0|0,3:0|0:0,0:0:0:0:
26,27,253841,2,0,B|36:6|36:6|60:12,1,45,0|0,3:0|0:0,0:0:0:0:
97,236,254056,6,0,P|9:219|57:136,1,180,0|0,1:0|0:0,0:0:0:0:
171,156,254377,2,0,B|191:347,1,180,0|0,1:0|0:0,0:0:0:0:
270,330,254699,2,0,P|289:357|335:364,1,67.5000025749208,0|0,1:0|0:0,0:0:0:0:
487,293,254913,6,0,P|491:242|510:195,1,101.250003862381
474,49,255341,6,0,L|448:43,1,27,4|0,3:1|0:0,0:0:0:0:
376,0,255770,6,0,B|429:18|424:97|366:105|366:105|332:73,1,180,0|2,1:0|0:0,0:0:0:0:
263,100,256091,1,0,0:0:0:0:
272,2,256199,5,4,1:2:0:0:
281,0,256306,2,0,L|286:30,6,22.5
263,100,256841,6,0,P|235:110|204:111,1,45.0000017166138,8|8,0:3|0:3,0:0:0:0:
145,86,256984,1,8,0:3:0:0:
137,96,257056,2,0,L|140:140,2,45,4|0|8,0:3|3:0|0:3,0:0:0:0:
58,119,257377,5,4,0:3:0:0:
12,54,257484,1,0,1:0:0:0:
17,51,257591,1,0,0:3:0:0:
22,48,257699,1,4,0:3:0:0:
51,130,257806,6,0,L|38:264,1,135.000005149842,4|0,3:2|0:0,0:0:0:0:
30,275,258127,6,0,B|130:263|168:349|168:349|138:261|208:198,2,337.5,4|4|4,3:2|3:2|3:2,0:0:0:0:
268,296,258984,2,0,L|276:316,1,22.5,2|0,3:1|0:0,0:0:0:0:
97,183,259199,6,0,P|99:155|136:136,3,45,0|0|2|2,1:0|0:0|0:0|0:0,0:0:0:0:
207,156,259627,2,0,P|215:176|209:198,3,45,0|2|2|0,0:0|0:0|0:0|0:0,0:0:0:0:
141,279,260056,5,0,3:0:0:0:
256,192,260163,12,0,261663,0:0:0:0:
256,192,261770,5,4,3:1:0:0:
322,112,262199,2,0,P|363:128|399:94,1,90
399,79,263270,2,0,P|399:56|395:21,2,45
475,102,263913,1,0,0:0:0:0:
383,267,264341,2,0,P|372:235|364:202,2,67.5
401,345,265199,5,0,0:0:0:0:
461,289,265413,2,0,L|483:293,1,22.5
324,322,265627,2,0,B|300:373|226:387|189:324|189:324|216:276|269:289,1,247.5
257,279,266913,5,2,0:0:0:0:
232,204,267770,1,2,0:0:0:0:
265,131,268627,1,2,0:0:0:0:
240,23,269056,6,0,P|211:61|161:64,1,90
152,52,270127,2,0,P|151:29|147:7,2,45
112,121,270770,1,0,0:0:0:0:
206,224,271199,6,0,P|183:199|150:192,1,67.5
56,242,271841,2,0,P|55:272|64:286,1,45
141,269,272270,5,0,0:0:0:0:
174,342,272484,2,0,L|196:346,1,22.5
270,311,272699,2,0,P|300:366|363:358,1,135,0|2,0:0|0:0,0:0:0:0:
366,349,273770,5,2,0:0:0:0:
341,274,274627,1,2,0:0:0:0:
374,201,275484,1,2,0:0:0:0:
280,119,275913,6,0,P|294:77|301:27,1,90
297,8,276984,2,0,P|275:1|253:0,2,45
350,66,277627,1,0,0:0:0:0:
500,65,278056,2,0,P|488:33|482:0,2,67.5
447,126,278913,5,0,0:0:0:0:
374,92,279127,2,0,L|352:96,1,22.5
277,201,279341,2,0,P|156:175|32:176,1,247.5
27,169,280627,5,2,0:0:0:0:
52,94,281484,1,2,0:0:0:0:
19,21,282341,1,2,0:0:0:0:
179,80,282770,6,0,P|220:90|281:90,1,90
289,82,283841,2,0,P|292:60|302:40,2,45
336,147,284484,1,0,0:0:0:0:
421,68,284913,6,0,P|443:57|478:58,1,45
506,147,285234,2,0,P|484:136|449:137,1,45
421,226,285556,2,0,P|443:215|478:216,1,45
512,334,285984,5,0,0:0:0:0:
437,309,286199,1,0,0:0:0:0:
365,342,286413,6,0,B|322:381|251:350|255:270|310:237|378:261|378:261|350:134|487:211|426:-16|290:-17|237:123|276:197|347:176|357:244|357:244|216:175|175:345|90:369|-8:309|-15:219|15:144|107:129|210:162|210:162|74:59|114:-24|205:-55|264:28|193:122,1,1665
