osu file format v14

[General]
AudioFilename: Camellia - kannabis kultivation.mp3
AudioLeadIn: 0
PreviewTime: 116552
Countdown: 0
SampleSet: Soft
StackLeniency: 0.3
Mode: 0
LetterboxInBreaks: 1
WidescreenStoryboard: 0

[Editor]
Bookmarks: 13694,39817,65939,92062,118184,144307,170429,183490,209613,235735,261858,287980,314103,340225,353286,379409,405531,433286
DistanceSpacing: 0.6
BeatDivisor: 4
GridSize: 4
TimelineZoom: 5.199997

[Metadata]
Title:kannabis kultivation
TitleUnicode:kannabis kultivation
Artist:Camellia
ArtistUnicode:かめりあ
Creator:winber1
Version:germination
Source:
Tags:electronic instrumental Ultra Hitech 02 edm megarex hardcore techno trance cametek cannabis cultivation
BeatmapID:1102712
BeatmapSetID:519026

[Difficulty]
HPDrainRate:5.2
CircleSize:4.6
OverallDifficulty:8.3
ApproachRate:9.4
SliderMultiplier:1.4
SliderTickRate:1

[Events]
//Background and Video events
0,0,"bg.jpg",0,0
//Break Periods
2,40017,51522
2,262058,274379
//Storyboard Layer 0 (Background)
//Storyboard Layer 1 (Fail)
//Storyboard Layer 2 (Pass)
//Storyboard Layer 3 (Foreground)
//Storyboard Layer 4 (Overlay)
//Storyboard Sound Samples

[TimingPoints]
13695,408.163265306122,4,2,1,20,1,0
13695,-200,4,2,1,20,0,0
14375,-100,4,2,1,20,0,0
14511,-200,4,2,1,20,0,0
17640,-100,4,2,1,20,0,0
17776,-200,4,2,1,20,0,0
20905,-100,4,2,1,20,0,0
21041,-200,4,2,1,20,0,0
25429,-200,4,2,1,10,0,0
25531,-200,4,2,1,20,0,0
26756,-200,4,2,1,20,0,0
52062,-200,4,2,1,20,0,0
52266,-100,4,2,1,20,0,0
53082,-100,4,2,0,5,0,0
65939,-100,4,1,0,80,0,0
66041,-100,4,2,0,50,0,0
69205,-83.3333333333333,4,2,0,80,0,0
69511,-100,4,2,0,50,0,0
72470,-76.9230769230769,4,2,0,80,0,0
72776,-90.9090909090909,4,2,0,50,0,0
75735,-71.4285714285714,4,2,0,80,0,0
76041,-83.3333333333333,4,2,0,50,0,0
79001,-66.6666666666667,4,2,0,90,0,0
79613,-76.9230769230769,4,2,0,90,0,0
80939,-80,4,2,0,90,0,0
81756,-83.3333333333333,4,2,0,90,0,0
83184,-86.9565217391304,4,2,0,90,0,0
85531,-90.9090909090909,4,2,0,90,0,0
87470,-95.2380952380952,4,2,0,90,0,0
88797,-100,4,1,0,50,0,0
88899,-100,4,1,0,50,0,0
89205,-83.3333333333333,4,1,0,55,0,0
89613,-71.4285714285714,4,1,0,65,0,0
90021,-62.5,4,1,0,70,0,0
90429,-100,4,2,0,75,0,0
90531,-100,4,2,0,5,0,0
90633,-50,4,2,0,50,0,0
92062,-100,4,2,0,50,0,0
92266,-90.9090909090909,4,2,0,75,0,0
104307,-62.5,4,2,0,75,0,0
104715,-71.4285714285714,4,2,0,75,0,0
107572,-71.4285714285714,4,2,0,65,0,0
112062,-66.6666666666667,4,2,0,70,0,0
112470,-62.5,4,2,0,75,0,0
112878,-58.8235294117647,4,2,0,80,0,0
113286,-71.4285714285714,4,2,0,85,0,0
116552,-33.3333333333333,4,2,0,50,0,1
116756,-33.3333333333333,4,2,0,5,0,1
116858,-33.3333333333333,4,2,0,50,0,1
117062,-33.3333333333333,4,2,0,5,0,1
117164,-33.3333333333333,4,2,0,50,0,1
117368,-33.3333333333333,4,2,0,50,0,0
117572,-40,4,2,0,50,0,0
117776,-40,4,2,0,50,0,0
118184,-50,4,1,1,75,0,1
120225,-100,4,1,1,75,0,1
120633,-50,4,1,1,75,0,1
121246,-40,4,1,1,75,0,1
121654,-80,4,1,1,75,0,1
121858,-50,4,1,1,75,0,1
122674,-40,4,1,1,75,0,1
124307,-66.6666666666667,4,1,1,75,0,1
124715,-50,4,1,1,75,0,1
126756,-100,4,1,1,75,0,1
127368,-50,4,1,1,75,0,1
129205,-100,4,1,1,75,0,1
129613,-66.6666666666667,4,1,1,75,0,0
130633,-40,4,1,1,75,0,0
131246,-100,4,1,1,75,0,1
131654,-50,4,1,1,75,0,1
133286,-100,4,1,1,75,0,1
133694,-50,4,1,1,75,0,1
134715,-80,4,1,1,75,0,1
134919,-50,4,1,1,75,0,1
136143,-40,4,1,1,75,0,1
137776,-100,4,1,1,75,0,0
138082,-100,4,1,1,5,0,0
138184,-50,4,1,1,75,0,1
139817,-100,4,1,1,75,0,1
140633,-50,4,1,1,75,0,1
142674,-50,4,1,1,75,0,0
143082,-66.6666666666667,4,1,1,75,0,0
143286,-50,4,1,1,75,0,0
143490,-75.187969924812,4,1,1,75,0,0
143694,-50,4,1,1,75,0,0
144307,-50,4,1,1,75,0,1
145939,-100,4,1,1,75,0,1
146143,-50,4,1,1,75,0,1
149205,-33.3333333333333,4,1,1,75,0,1
149613,-50,4,1,1,75,0,1
150531,-40,4,1,1,75,0,1
150837,-100,4,1,1,75,0,1
151246,-50,4,1,1,75,0,1
152470,-80,4,1,1,75,0,1
152878,-50,4,1,1,75,0,1
153694,-75.187969924812,4,1,1,75,0,1
154103,-50,4,1,1,75,0,1
155735,-33.3333333333333,4,1,1,75,0,1
156143,-40,4,1,1,75,0,1
157266,-40,4,1,1,75,0,0
157368,-50,4,1,1,75,0,1
159001,-100,4,1,1,75,0,1
159409,-50,4,1,1,75,0,1
160633,-100,4,1,1,75,0,1
160837,-50,4,1,1,75,0,1
162266,-33.3333333333333,4,1,1,75,0,1
162470,-50,4,1,1,75,0,1
163286,-100,4,1,1,75,0,1
163899,-100,4,1,1,75,0,1
164103,-50,4,1,1,75,0,1
166756,-100,4,1,1,75,0,1
167164,-66.6666666666667,4,1,1,75,0,1
168797,-66.6666666666667,4,1,1,50,0,0
170429,-100,4,2,2,50,0,1
170531,-100,4,2,2,70,0,0
176960,-66.6666666666667,4,1,1,70,0,0
181450,-50,4,1,1,70,0,0
181858,-33.3333333333333,4,1,1,70,0,0
182674,-50,4,1,1,70,0,0
183490,-40,4,2,2,65,0,1
183899,-50,4,2,2,65,0,0
184715,-66.6666666666667,4,2,2,65,0,0
184817,-66.6666666666667,4,2,2,5,0,0
184919,-66.6666666666667,4,2,2,65,0,0
187266,-50,4,2,2,65,0,0
187470,-50,4,2,2,65,0,0
187776,-66.6666666666667,4,2,2,65,0,0
188082,-100,4,2,2,65,0,0
188388,-50,4,2,2,65,0,0
190225,-33.3333333333333,4,2,2,65,0,0
190429,-50,4,2,2,65,0,0
192368,-60.2409638554217,4,2,2,65,0,0
192674,-75.187969924812,4,2,2,65,0,0
192980,-100,4,2,2,65,0,0
193694,-83.3333333333333,4,2,2,65,0,0
194919,-50,4,2,2,65,0,0
196552,-50,4,2,2,65,0,0
197776,-66.6666666666667,4,2,2,65,0,0
199205,-58.8235294117647,4,2,2,65,0,0
205531,-50,4,2,2,65,0,0
206348,-50,4,2,2,35,0,0
206756,-50,4,2,2,45,0,0
207164,-50,4,2,2,65,0,0
207572,-50,4,2,2,65,0,0
208082,-66.6666666666667,4,2,2,65,0,0
208797,-100,4,2,2,65,0,0
209613,-50,4,1,1,65,0,1
222266,-50,4,1,1,65,0,0
222674,-50,4,1,1,65,0,1
224715,-100,4,1,1,65,0,1
225123,-50,4,1,1,65,0,1
229205,-66.6666666666667,4,1,1,65,0,0
232572,-50,4,1,1,65,0,0
233797,-100,4,1,1,65,0,0
234307,-33.3333333333333,4,1,1,65,0,0
234511,-50,4,1,1,65,0,0
235735,-50,4,1,1,65,0,1
237776,-100,4,1,1,65,0,1
238286,-50,4,1,1,65,0,1
238592,-100,4,1,1,65,0,1
239001,-50,4,1,1,65,0,1
242878,-100,4,1,1,65,0,1
243082,-50,4,1,1,65,0,1
246756,-66.6666666666667,4,1,1,65,0,1
247164,-66.6666666666667,4,1,1,65,0,1
248797,-50,4,1,1,65,0,0
249205,-100,4,2,0,50,0,0
249613,-75.187969924812,4,2,0,50,0,0
252062,-50,4,2,0,50,0,0
252878,-75.187969924812,4,2,0,50,0,0
255327,-50,4,2,0,40,0,0
255735,-75.187969924812,4,2,0,30,0,0
256960,-100,4,2,0,30,0,0
261858,-100,4,2,0,30,0,0
274919,-100,4,2,1,20,0,0
284715,-200,4,2,1,20,0,0
287980,-100,4,1,0,80,0,0
288082,-100,4,2,0,50,0,0
291246,-83.3333333333333,4,2,0,80,0,0
291552,-100,4,2,0,50,0,0
294511,-76.9230769230769,4,2,0,80,0,0
294817,-90.9090909090909,4,2,0,50,0,0
297776,-71.4285714285714,4,2,0,80,0,0
298082,-83.3333333333333,4,2,0,50,0,0
301041,-83.3333333333333,4,2,0,80,0,0
301144,-76.9230769230769,4,2,0,90,0,0
302980,-80,4,2,0,90,0,0
303797,-83.3333333333333,4,2,0,90,0,0
305225,-86.9565217391304,4,2,0,90,0,0
307572,-90.9090909090909,4,2,0,90,0,0
309511,-95.2380952380952,4,2,0,90,0,0
310838,-100,4,1,0,50,0,0
311246,-83.3333333333333,4,1,0,55,0,0
311654,-71.4285714285714,4,1,0,60,0,0
312062,-62.5,4,1,0,65,0,0
312470,-100,4,1,0,70,0,0
312572,-100,4,2,0,5,0,0
312674,-50,4,2,0,50,0,0
314103,-66.6666666666667,4,2,0,80,0,0
327164,-66.6666666666667,4,1,1,70,0,0
330021,-133.333333333333,4,1,1,70,0,0
330055,-133.333333333333,4,1,1,5,0,0
330429,-66.6666666666667,4,1,1,70,0,0
332878,-66.6666666666667,4,1,1,70,0,0
333184,-50,4,1,1,70,0,0
336960,-66.6666666666667,4,1,1,70,0,0
340225,-66.6666666666667,4,1,1,70,0,0
350021,-50,4,1,1,70,0,0
351246,-50,4,1,0,70,0,0
351654,-33.3333333333333,4,1,0,50,0,1
352878,-33.3333333333333,4,1,0,50,0,0
353286,-45.4545454545455,4,1,1,80,0,1
353899,-76.9230769230769,4,1,1,80,0,1
354103,-45.4545454545455,4,1,1,80,0,1
355531,-76.9230769230769,4,1,1,80,0,1
355735,-45.4545454545455,4,1,1,80,0,1
356552,-33.3333333333333,4,1,1,80,0,1
356858,-45.4545454545455,4,1,1,80,0,1
358797,-66.6666666666667,4,1,1,80,0,1
359001,-45.4545454545455,4,1,1,80,0,1
360429,-76.9230769230769,4,1,1,80,0,1
360633,-45.4545454545455,4,1,1,80,0,1
362062,-76.9230769230769,4,1,1,80,0,1
362266,-45.4545454545455,4,1,1,80,0,1
363184,-33.3333333333333,4,1,1,80,0,1
363490,-45.4545454545455,4,1,1,80,0,1
365327,-66.6666666666667,4,1,1,80,0,1
365531,-100,4,1,1,80,0,1
365837,-45.4545454545455,4,1,1,80,0,1
365939,-45.4545454545455,4,1,1,80,0,0
366348,-45.4545454545455,4,1,1,80,0,1
366960,-76.9230769230769,4,1,1,80,0,1
367164,-45.4545454545455,4,1,1,80,0,1
368592,-76.9230769230769,4,1,1,80,0,1
368797,-45.4545454545455,4,1,1,80,0,1
371858,-33.3333333333333,4,1,1,80,0,1
372470,-33.3333333333333,4,1,1,80,0,0
372878,-33.3333333333333,4,1,1,80,0,1
374103,-50,4,1,1,80,0,1
377776,-100,4,1,1,80,0,0
378592,-50,4,1,1,80,0,0
379409,-33.3333333333333,4,1,1,80,0,1
379511,-33.3333333333333,4,1,1,80,0,0
379817,-45.4545454545455,4,1,1,80,0,1
381450,-83.3333333333333,4,1,1,80,0,1
381654,-45.4545454545455,4,1,1,80,0,1
382266,-100,4,1,1,80,0,1
382674,-45.4545454545455,4,1,1,80,0,1
384307,-36.3636363636364,4,1,1,80,0,1
385939,-45.4545454545455,4,1,1,80,0,1
386552,-76.9230769230769,4,1,1,80,0,1
386756,-45.4545454545455,4,1,1,80,0,1
387980,-100,4,1,1,80,0,1
388388,-45.4545454545455,4,1,1,80,0,1
390837,-45.4545454545455,4,1,1,80,0,0
391858,-36.3636363636364,4,1,1,80,0,0
392470,-133.333333333333,4,1,1,80,0,1
392674,-133.333333333333,4,1,1,80,0,0
392878,-45.4545454545455,4,1,1,80,0,1
394511,-100,4,1,1,80,0,1
394817,-45.4545454545455,4,1,1,80,0,1
397368,-33.3333333333333,4,1,1,80,0,1
399001,-100,4,1,1,80,0,0
399409,-40,4,1,1,80,0,1
399715,-45.4545454545455,4,1,1,80,0,1
401041,-100,4,1,1,80,0,1
401552,-45.4545454545455,4,1,1,80,0,1
401858,-100,4,1,1,80,0,1
402266,-45.4545454545455,4,1,1,80,0,0
402674,-45.4545454545455,4,1,1,80,0,1
402980,-45.4545454545455,4,1,1,80,0,0
403082,-40,4,1,1,80,0,1
403286,-40,4,1,1,80,0,0
403388,-40,4,1,1,80,0,1
403592,-40,4,1,1,80,0,0
403694,-40,4,1,1,80,0,1
403797,-40,4,1,1,80,0,0
403899,-40,4,1,1,80,0,1
404001,-40,4,1,0,50,0,0
404715,-58.8235294117647,4,1,0,50,0,0
405225,-100,4,1,0,50,0,0
405939,-62.5,4,1,0,50,0,0
406756,-100,4,1,0,50,0,0
407164,-62.5,4,1,0,50,0,0
407674,-66.6666666666667,4,1,0,50,0,0
408797,-66.6666666666667,4,1,0,50,0,0
409511,-71.4285714285714,4,1,0,50,0,0
412062,-100,4,1,0,50,0,0
412470,-76.9230769230769,4,1,0,45,0,0
413286,-100,4,1,0,45,0,0
413694,-83.3333333333333,4,1,0,40,0,0
415327,-90.9090909090909,4,1,0,30,0,0
416960,-90.9090909090909,4,2,0,50,0,0
418592,-100,4,2,0,50,0,0
421858,-111.111111111111,4,2,0,50,0,0
423490,-111.111111111111,4,2,0,25,0,0
424409,-125,4,2,0,20,0,0
424817,-142.857142857143,4,2,0,20,0,0
425837,-166.666666666667,4,2,0,20,0,0
427436,-250,4,2,0,20,0,0
430378,-166.666666666667,4,2,0,10,0,0

[Colours]
Combo1 : 244,244,244
Combo2 : 53,109,140
Combo3 : 48,189,201
Combo4 : 189,38,34

[HitObjects]
136,200,13695,6,0,P|129:147|120:96,1,105
120,96,14375,2,0,L|132:72,2,23.3333333333333
136,200,15735,5,0,0:0:0:0:
140,172,16143,1,0,0:0:0:0:
204,264,16552,1,0,0:0:0:0:
212,292,16960,6,0,P|159:285|108:276,1,105
108,276,17640,2,0,L|96:252,2,23.3333333333333
344,356,20225,6,0,P|390:326|445:331,1,105
438,328,20905,2,0,L|452:300,2,23.3333333333333
438,328,22266,5,0,0:0:0:0:
432,296,22674,1,0,0:0:0:0:
384,196,23082,1,0,0:0:0:0:
378,228,23490,6,0,P|406:183|392:136,1,105
412,68,24205,1,0,0:0:0:0:
420,40,24307,2,0,P|379:67|320:60,1,105
308,48,25021,1,0,0:0:0:0:
288,32,25123,2,0,L|280:92,1,52.5,0|2,0:0|0:0,0:0:0:0:
228,132,25531,2,0,L|236:208,1,70
244,276,26348,1,0,0:0:0:0:
456,312,26756,5,0,0:0:0:0:
288,356,27572,1,0,0:0:0:0:
336,196,28184,1,0,0:0:0:0:
344,220,28388,1,8,0:0:0:0:
456,312,29205,1,2,0:0:0:0:
336,196,30021,5,0,0:0:0:0:
288,356,30837,1,0,0:0:0:0:
456,312,31450,1,2,0:0:0:0:
424,304,31654,1,8,0:0:0:0:
228,280,32062,5,0,0:0:0:0:
212,200,32470,1,0,0:0:0:0:
424,304,32878,1,0,0:0:0:0:
180,344,33286,6,0,P|148:288|160:242,1,105
155,250,34103,1,0,0:0:0:0:
56,64,34919,1,2,0:0:0:0:
72,240,35327,5,0,0:0:0:0:
192,176,35735,1,0,0:0:0:0:
112,168,36143,1,0,0:0:0:0:
72,240,36552,6,0,P|78:297|84:348,1,105,8|0,0:0|0:0,0:0:0:0:
156,364,37266,1,0,0:0:0:0:
184,368,37368,2,0,P|178:311|172:260,1,105,8|0,0:0|0:0,0:0:0:0:
212,196,38082,1,0,0:0:0:0:
240,184,38184,2,0,P|242:158|244:128,1,52.5,8|2,0:0|0:0,0:0:0:0:
316,172,38592,2,0,P|327:207|320:252,1,70
292,304,39409,1,0,0:0:0:0:
40,360,39817,5,0,0:0:0:0:
248,132,52062,5,0,0:0:0:0:
312,80,52266,2,0,B|332:116|332:116|312:212,1,140
311,212,52776,1,0,0:0:0:0:
311,212,52878,1,0,0:0:0:0:
256,192,53082,12,0,65735,0:0:0:0:
448,56,65939,6,0,P|442:92|440:128,1,70,4|0,0:0|0:0,0:0:0:0:
448,204,66246,2,0,P|397:208|332:224,1,105,2|0,0:0|0:0,0:0:0:0:
64,148,66858,5,0,0:0:0:0:
140,108,67062,2,0,P|175:113|216:116,1,70,2|0,0:0|0:0,0:0:0:0:
296,164,67368,2,0,P|289:114|284:56,1,105,2|0,0:0|0:0,0:0:0:0:
228,228,67776,5,0,0:0:0:0:
208,240,67878,2,0,P|241:246|280:252,1,70,2|0,0:0|0:0,0:0:0:0:
360,228,68184,2,0,P|368:263|376:296,1,70
376,296,68490,5,2,0:0:0:0:
381,134,68694,2,0,P|408:109|419:69,1,70,2|0,0:0|0:0,0:0:0:0:
419,78,69001,1,0,0:0:0:0:
464,312,69205,6,0,P|423:305|370:299,1,83.9999974365235,4|0,1:0|0:0,0:0:0:0:
294,339,69511,2,0,P|285:284|275:229,1,105,2|0,0:0|0:0,0:0:0:0:
60,48,70123,5,0,0:0:0:0:
104,128,70327,2,0,P|103:164|100:204,1,70,2|0,0:0|0:0,0:0:0:0:
124,280,70633,2,0,P|87:283|36:300,1,70,0|2,0:0|0:0,0:0:0:0:
180,220,70939,5,0,0:0:0:0:
196,200,71041,1,0,0:0:0:0:
212,180,71143,2,0,L|220:260,1,70,2|0,0:0|0:0,0:0:0:0:
200,332,71450,2,0,P|235:336|272:344,1,70,2|0,0:0|0:0,0:0:0:0:
268,343,71756,1,0,0:0:0:0:
468,288,71960,2,0,P|430:286|398:299,1,70,2|0,0:0|0:0,0:0:0:0:
400,297,72266,1,2,0:0:0:0:
376,292,72368,1,0,0:0:0:0:
336,208,72470,6,0,P|331:162|328:112,1,90.9999958343508,4|0,1:0|0:0,0:0:0:0:
340,44,72776,2,0,P|301:38|256:32,1,77.0000023498536,2|0,0:0|0:0,0:0:0:0:
263,32,73082,1,0,0:0:0:0:
492,16,73388,5,2,0:0:0:0:
432,92,73592,2,0,P|436:132|439:172,1,77.0000023498536,2|0,0:0|0:0,0:0:0:0:
438,168,73899,1,0,0:0:0:0:
408,304,74103,5,2,0:0:0:0:
408,304,74205,2,0,L|340:288,1,38.5000011749268
464,360,74409,2,0,P|483:322|481:279,1,77.0000023498536,2|0,0:0|0:0,0:0:0:0:
312,240,74715,2,0,P|293:278|295:321,1,77.0000023498536
300,336,75021,5,2,0:0:0:0:
352,160,75225,2,0,L|344:72,1,77.0000023498536,2|0,0:0|0:0,0:0:0:0:
345,83,75531,1,0,0:0:0:0:
148,332,75735,6,0,P|98:328|52:355,1,97.9999970092774,4|0,1:0|0:0,0:0:0:0:
4,236,76041,2,0,P|44:241|92:244,1,83.9999974365235,2|0,0:0|0:0,0:0:0:0:
87,243,76348,1,0,0:0:0:0:
272,136,76654,5,2,0:0:0:0:
188,64,76858,2,0,P|147:62|100:86,1,83.9999974365235,2|0,0:0|0:0,0:0:0:0:
108,78,77164,2,0,L|96:144,1,41.9999987182618
364,188,77368,6,0,L|356:136,1,41.9999987182618,2|0,0:0|0:0,0:0:0:0:
232,276,77572,1,0,0:0:0:0:
232,276,77674,2,0,P|273:278|320:254,1,83.9999974365235,2|0,0:0|0:0,0:0:0:0:
392,272,77980,2,0,P|387:315|384:368,1,83.9999974365235
384,355,78286,5,2,0:0:0:0:
472,200,78490,2,0,P|480:158|460:111,1,83.9999974365235,2|0,0:0|0:0,0:0:0:0:
466,119,78797,1,2,0:0:0:0:
480,92,78899,1,0,0:0:0:0:
424,24,79001,6,0,L|356:16,1,52.5000020027161,4|0,1:0|0:0,0:0:0:0:
336,88,79205,2,0,L|404:96,1,52.5000020027161,0|2,0:0|0:0,0:0:0:0:
108,52,79511,1,0,0:0:0:0:
80,40,79613,2,0,P|84:84|88:136,1,90.9999958343508,2|0,0:0|0:0,0:0:0:0:
87,130,79919,5,2,0:0:0:0:
228,256,80123,1,2,0:0:0:0:
40,316,80327,1,0,0:0:0:0:
60,296,80429,2,0,P|105:286|154:303,1,90.9999958343508,2|0,0:0|0:0,0:0:0:0:
344,252,80735,5,0,0:0:0:0:
344,252,80837,1,0,0:0:0:0:
344,252,80939,2,0,P|348:296|352:344,1,87.5,2|0,0:0|0:0,0:0:0:0:
351,339,81246,1,2,0:0:0:0:
440,40,81552,5,2,0:0:0:0:
344,88,81756,2,0,P|300:84|246:81,1,83.9999974365235,2|0,0:0|0:0,0:0:0:0:
260,81,82062,1,0,0:0:0:0:
452,228,82266,6,0,P|454:185|432:139,1,83.9999974365235,4|0,1:0|0:0,0:0:0:0:
384,296,82572,2,0,P|382:339|404:385,1,83.9999974365235,2|0,0:0|0:0,0:0:0:0:
456,324,82878,1,0,0:0:0:0:
72,264,83184,5,2,0:0:0:0:
148,308,83388,2,0,P|189:304|232:304,1,80.5000015354157,2|0,0:0|0:0,0:0:0:0:
228,303,83694,1,0,0:0:0:0:
320,236,83899,2,0,P|342:204|340:160,1,80.5000015354157,2|0,0:0|0:0,0:0:0:0:
334,146,84205,1,2,0:0:0:0:
208,100,84409,5,2,0:0:0:0:
188,120,84511,2,0,P|126:115|52:112,1,120.750002303124,0|2,0:0|0:0,0:0:0:0:
252,32,85021,1,2,0:0:0:0:
236,216,85225,1,0,0:0:0:0:
236,216,85327,1,2,0:0:0:0:
236,216,85429,1,0,0:0:0:0:
296,264,85531,6,0,P|338:261|378:260,1,77.0000023498536,4|0,1:0|0:0,0:0:0:0:
452,284,85837,2,0,P|458:230|468:168,1,115.50000352478,2|0,0:0|0:0,0:0:0:0:
488,368,86450,5,2,0:0:0:0:
400,356,86654,2,0,P|360:358|324:361,1,77.0000023498536,2|0,0:0|0:0,0:0:0:0:
323,361,86960,1,0,0:0:0:0:
80,328,87164,5,2,0:0:0:0:
80,328,87266,1,0,0:0:0:0:
80,328,87368,1,0,0:0:0:0:
80,328,87470,2,0,L|161:320,1,73.4999977569581,2|0,0:0|0:0,0:0:0:0:
240,344,87776,2,0,P|244:310|256:260,1,73.4999977569581,2|0,0:0|0:0,0:0:0:0:
184,124,88082,5,2,0:0:0:0:
344,176,88286,2,0,P|304:173|268:172,1,73.4999977569581,2|0,0:0|0:0,0:0:0:0:
270,172,88592,1,2,0:0:0:0:
416,80,88797,6,0,P|411:103|412:128,1,35,4|0,1:0|1:0,0:0:0:0:
480,328,89001,2,0,P|484:305|484:280,1,35,0|0,1:0|1:0,1:0:0:0:
424,95,89205,6,0,P|424:122|432:144,1,41.9999987182618,0|0,1:0|1:0,1:0:0:0:
471,314,89409,2,0,P|471:290|464:264,1,41.9999987182618,0|0,1:0|1:0,1:0:0:0:
436,107,89613,6,0,P|440:131|456:160,1,48.9999985046387,0|0,1:0|1:0,1:0:0:0:
459,302,89817,2,0,P|455:274|440:252,1,48.9999985046387,0|0,1:0|1:0,1:0:0:0:
450,116,90021,6,0,P|458:141|484:160,1,56,0|0,1:0|1:0,1:0:0:0:
445,293,90225,2,0,P|436:265|408:240,1,56,0|0,1:0|1:0,1:0:0:0:
344,208,90429,6,0,L|288:212,1,35,0|0,1:0|0:0,0:0:0:0:
56,224,90633,1,2,0:0:0:0:
96,160,91041,5,0,0:0:0:0:
56,224,91246,2,0,B|109:252|152:212|152:212|197:169|254:194,1,210,2|0,0:0|0:0,0:0:0:0:
249,192,92062,5,0,1:0:0:0:
242,157,92164,1,0,0:0:0:0:
236,122,92266,2,0,P|240:85|244:40,2,77.0000023498536,0|0|0,0:0|1:0|0:0,0:0:0:0:
336,68,92776,1,0,0:0:0:0:
360,80,92878,2,0,P|400:75|439:72,1,77.0000023498536,0|0,1:0|0:0,0:0:0:0:
120,224,93286,2,0,P|80:219|41:216,1,77.0000023498536,0|0,1:0|0:0,0:0:0:0:
196,192,93592,1,0,0:0:0:0:
188,280,93694,6,0,P|204:315|200:360,1,77.0000023498536,0|0,1:0|0:0,0:0:0:0:
202,352,94001,1,0,0:0:0:0:
202,352,94103,1,0,1:0:0:0:
124,332,94307,1,0,0:0:0:0:
380,280,94511,2,0,P|396:245|392:200,1,77.0000023498536,0|0,1:0|0:0,0:0:0:0:
56,48,94919,2,0,P|54:86|70:120,1,77.0000023498536,0|0,1:0|0:0,0:0:0:0:
160,160,95327,6,0,P|218:152|280:148,1,115.50000352478,0|0,1:0|0:0,0:0:0:0:
274,148,95735,1,0,1:0:0:0:
428,84,95939,1,0,0:0:0:0:
436,108,96041,1,0,0:0:0:0:
444,136,96143,2,0,P|439:179|436:216,1,77.0000023498536,0|0,1:0|0:0,0:0:0:0:
244,328,96552,2,0,P|239:285|236:248,1,77.0000023498536,0|0,1:0|0:0,0:0:0:0:
172,192,96858,1,0,0:0:0:0:
140,272,96960,6,0,P|149:308|160:346,1,77.0000023498536,0|0,1:0|0:0,0:0:0:0:
44,69,97368,1,0,1:0:0:0:
76,49,97470,1,0,0:0:0:0:
113,48,97572,1,0,0:0:0:0:
148,64,97674,1,0,0:0:0:0:
170,95,97776,1,0,1:0:0:0:
195,123,97878,1,0,0:0:0:0:
231,136,97980,1,0,0:0:0:0:
269,135,98082,1,0,0:0:0:0:
303,117,98184,5,0,1:0:0:0:
301,140,98286,1,0,0:0:0:0:
298,162,98388,1,0,0:0:0:0:
295,184,98490,1,0,0:0:0:0:
312,264,98592,6,0,P|272:267|232:272,1,77.0000023498536,0|0,1:0|0:0,0:0:0:0:
28,328,99001,2,0,P|68:331|108:336,1,77.0000023498536,0|0,1:0|0:0,0:0:0:0:
208,368,99307,1,0,0:0:0:0:
208,368,99409,1,0,1:0:0:0:
208,368,99511,2,0,P|247:362|288:360,1,77.0000023498536
400,264,99817,2,0,P|438:269|484:272,1,77.0000023498536,0|0,1:0|0:0,0:0:0:0:
360,196,100123,5,0,0:0:0:0:
372,164,100225,1,0,1:0:0:0:
320,104,100327,2,0,P|279:101|241:135,1,77.0000023498536
196,184,100633,2,0,P|155:187|117:153,1,77.0000023498536,0|0,1:0|0:0,0:0:0:0:
421,41,101041,5,0,1:0:0:0:
452,63,101143,1,0,0:0:0:0:
466,98,101246,1,0,0:0:0:0:
464,136,101348,1,0,0:0:0:0:
393,198,101450,5,0,1:0:0:0:
395,220,101552,1,0,0:0:0:0:
397,242,101654,1,0,0:0:0:0:
400,264,101756,1,0,0:0:0:0:
465,342,101858,5,0,1:0:0:0:
489,362,101960,2,0,P|485:326|477:274,1,77.0000023498536
393,198,102266,2,0,P|389:234|381:286,1,77.0000023498536,0|0,1:0|0:0,0:0:0:0:
64,332,102674,5,0,1:0:0:0:
40,352,102776,2,0,P|44:316|52:264,1,77.0000023498536
118,171,103082,2,0,P|122:207|130:259,1,77.0000023498536,0|0,1:0|0:0,0:0:0:0:
260,328,103388,5,0,0:0:0:0:
260,328,103490,2,0,P|221:320|176:312,1,77.0000023498536,0|0,1:0|0:0,0:0:0:0:
404,288,103899,2,0,L|416:332,1,38.5000011749268,0|0,1:0|0:0,0:0:0:0:
421,345,104103,1,0,0:0:0:0:
433,154,104307,5,0,1:0:0:0:
444,113,104409,2,0,P|414:115|392:135,1,56
182,222,104613,1,0,0:0:0:0:
192,248,104715,2,0,P|233:223|247:175,1,97.9999970092774,0|0,1:0|0:0,0:0:0:0:
232,60,105021,1,0,0:0:0:0:
232,60,105123,5,0,1:0:0:0:
183,50,105225,1,0,1:0:0:0:
134,57,105327,1,0,1:0:0:0:
94,86,105429,1,0,1:0:0:0:
70,129,105531,1,0,1:0:0:0:
68,177,105633,1,0,1:0:0:0:
84,223,105735,1,0,1:0:0:0:
119,256,105837,1,0,1:0:0:0:
165,272,105939,5,0,1:0:0:0:
186,228,106041,1,0,1:0:0:0:
224,197,106143,1,0,1:0:0:0:
271,184,106246,1,0,1:0:0:0:
319,188,106348,1,0,1:0:0:0:
363,208,106450,1,0,1:0:0:0:
395,244,106552,6,0,P|389:271|387:303,1,48.9999985046387,0|0,1:0|1:0,1:0:0:0:
284,376,106756,2,0,L|308:366|332:356,1,48.9999985046387,0|0,1:0|1:0,1:0:0:0:
420,380,106960,5,0,1:0:0:0:
420,380,107062,1,0,1:0:0:0:
420,380,107164,1,0,1:0:0:0:
396,96,107368,1,0,0:0:0:0:
264,288,107572,5,0,1:0:0:0:
192,320,107674,2,0,P|142:321|100:288,1,97.9999970092774,0|0,1:0|1:0,0:0:0:0:
156,172,107980,5,2,0:0:0:0:
156,172,108082,1,2,0:0:0:0:
156,172,108184,1,2,0:0:0:0:
156,172,108286,1,2,0:0:0:0:
80,64,108388,5,0,1:0:0:0:
56,44,108490,2,0,P|61:93|64:144,1,97.9999970092774
100,340,108797,2,0,P|105:291|108:240,1,97.9999970092774,0|2,1:0|0:0,0:0:0:0:
107,242,109103,1,0,0:0:0:0:
224,288,109205,5,0,1:0:0:0:
252,260,109307,2,0,P|301:255|360:253,1,97.9999970092774
440,248,109613,1,0,1:0:0:0:
440,248,109715,1,0,0:0:0:0:
440,248,109817,2,0,P|432:224|416:200,1,48.9999985046387
160,136,110021,5,0,1:0:0:0:
212,76,110123,2,0,P|240:116|224:180,1,97.9999970092774
64,276,110429,5,0,1:0:0:0:
39,351,110531,2,0,P|87:355|135:309,1,97.9999970092774
140,244,110837,5,0,1:0:0:0:
136,224,110939,1,0,0:0:0:0:
132,208,111041,1,0,0:0:0:0:
204,300,111143,5,0,0:0:0:0:
223,306,111245,1,0,1:0:0:0:
239,311,111347,1,0,0:0:0:0:
220,224,111450,5,0,0:0:0:0:
234,211,111552,1,0,0:0:0:0:
246,200,111654,6,0,P|274:200|305:208,1,48.9999985046387,0|0,1:0|1:0,1:0:0:0:
428,108,111858,2,0,P|401:109|373:100,1,48.9999985046387,0|0,1:0|1:0,1:0:0:0:
280,220,112062,6,0,P|252:214|220:212,1,52.5000020027161,0|0,1:0|1:0,1:0:0:0:
396,84,112266,2,0,P|424:90|456:92,1,52.5000020027161,0|0,1:0|1:0,1:0:0:0:
376,292,112470,6,0,P|382:264|400:237,1,56,0|0,1:0|1:0,1:0:0:0:
308,20,112674,2,0,P|302:48|284:75,1,56,0|0,1:0|1:0,1:0:0:0:
39,119,112878,5,0,1:0:0:0:
39,119,112980,1,0,1:0:0:0:
39,119,113082,1,0,1:0:0:0:
39,119,113184,1,0,1:0:0:0:
111,161,113286,5,0,1:0:0:0:
104,209,113388,1,0,1:0:0:0:
95,257,113490,1,0,1:0:0:0:
55,285,113592,1,0,1:0:0:0:
65,332,113694,1,0,1:0:0:0:
111,349,113797,1,0,1:0:0:0:
156,366,113899,1,0,1:0:0:0:
202,381,114001,1,0,1:0:0:0:
227,339,114103,1,0,1:0:0:0:
275,330,114205,1,0,1:0:0:0:
323,323,114307,1,0,1:0:0:0:
337,276,114409,1,0,1:0:0:0:
289,263,114511,1,0,1:0:0:0:
241,252,114613,1,0,1:0:0:0:
192,244,114715,2,0,L|179:194,1,48.9999985046387,0|0,1:0|1:0,1:0:0:0:
270,130,114919,5,0,1:0:0:0:
264,161,115021,1,0,1:0:0:0:
274,131,115123,1,0,1:0:0:0:
258,158,115225,1,0,1:0:0:0:
278,135,115327,1,0,1:0:0:0:
254,154,115429,1,0,1:0:0:0:
281,140,115531,1,0,1:0:0:0:
251,149,115633,1,0,1:0:0:0:
305,145,115735,5,0,1:0:0:0:
227,144,115837,1,0,1:0:0:0:
302,158,115939,1,0,1:0:0:0:
230,131,116041,1,0,1:0:0:0:
296,170,116143,1,0,1:0:0:0:
237,119,116245,1,0,1:0:0:0:
284,178,116348,1,0,1:0:0:0:
247,110,116450,1,0,1:0:0:0:
212,242,116552,6,0,B|255:255|255:255|291:372|291:372|334:383,1,210.000008010865,0|0,1:0|0:0,0:0:0:0:
468,330,116858,6,0,B|412:350|412:350|442:196,1,210.000008010865,2|0,0:0|0:0,0:0:0:0:
349,148,117164,6,0,B|359:104|359:104|282:144|282:144|198:125,1,210.000008010865,2|2,0:0|0:0,0:0:0:0:
188,112,117470,1,0,0:0:0:0:
206,127,117572,2,0,P|225:161|212:228,1,87.5
276,344,117776,6,0,B|263:279|263:279|197:281|197:281|132:260|132:260|100:316,1,262.5,2|0,0:0|0:0,0:0:0:0:
60,44,118184,6,0,B|64:116|75:198|75:198|41:256,1,210
144,144,118592,2,0,P|139:108|136:66,1,70,8|0,0:0|0:0,0:0:0:0:
291,160,118797,1,0,0:0:0:0:
272,232,118899,2,0,P|236:218|201:224,1,70
308,335,119103,1,0,0:0:0:0:
308,335,119205,2,0,P|344:349|379:343,1,70
456,248,119409,5,8,0:0:0:0:
464,276,119511,1,0,0:0:0:0:
364,216,119613,1,0,0:0:0:0:
356,192,119715,1,0,0:0:0:0:
456,248,119817,6,0,B|418:276|418:276|247:245,1,210
180,280,120225,6,0,P|156:297|202:305,1,105,8|0,0:0|0:0,0:0:0:0:
257,246,120633,6,0,B|280:219|280:219|248:199,1,70
120,144,120837,2,0,B|97:117|97:117|129:97,1,70
336,140,121041,5,8,0:0:0:0:
384,76,121143,1,0,0:0:0:0:
336,140,121246,2,0,B|299:126|299:126|197:134,1,131.25
126,98,121450,6,0,P|121:146|117:190,1,87.5
17,359,121654,6,0,L|51:353|85:347,1,65.625
81,347,121858,6,0,P|91:310|75:273,1,70,8|0,0:0|0:0,0:0:0:0:
212,237,122062,1,0,0:0:0:0:
230,358,122164,2,0,B|266:365|266:365|283:335,1,70
171,314,122368,5,0,0:0:0:0:
171,314,122470,1,0,0:0:0:0:
171,314,122572,1,0,0:0:0:0:
28,240,122674,6,0,P|70:244|119:250,1,87.5,8|0,0:0|0:0,0:0:0:0:
344,304,122878,2,0,P|302:300|253:294,1,87.5
79,325,123082,6,0,B|119:286|119:286|114:169|114:169|185:186|185:186|169:200,1,262.5
153,370,123490,6,0,B|201:319|201:319|199:274|199:274|346:304,1,262.5,8|0,0:0|0:0,0:0:0:0:
443,136,123899,6,0,B|436:240|436:240|460:264|460:264|452:355|452:355|419:377,1,262.5
276,348,124307,6,0,P|219:323|264:316,1,157.500006008148,8|0,0:0|0:0,0:0:0:0:
344,298,124715,6,0,B|256:312|256:312|216:288|216:288|136:302,1,210,4|0,0:0|0:0,0:0:0:0:
280,224,125123,2,0,P|283:184|288:152,1,70,8|0,0:0|0:0,0:0:0:0:
287,154,125327,1,0,0:0:0:0:
112,108,125429,2,0,L|116:146|120:184,1,70
232,28,125633,1,0,0:0:0:0:
232,28,125735,2,0,P|228:61|224:97,1,70
52,32,125939,5,8,0:0:0:0:
28,24,126041,1,0,0:0:0:0:
112,108,126143,1,0,0:0:0:0:
136,116,126245,1,0,0:0:0:0:
52,32,126348,6,0,B|28:76|28:76|48:240,1,210
68,348,126756,6,0,P|102:317|70:319,1,105,8|0,0:0|0:0,0:0:0:0:
200,222,127164,5,0,0:0:0:0:
204,200,127266,1,0,0:0:0:0:
190,298,127368,2,0,P|186:331|182:378,1,70
420,311,127572,5,8,0:0:0:0:
443,307,127674,1,0,0:0:0:0:
344,322,127776,2,0,P|311:326|264:330,1,70
135,345,127980,6,0,L|346:321,1,210
56,248,128388,5,8,0:0:0:0:
68,276,128490,1,0,0:0:0:0:
128,208,128592,2,0,P|135:172|144:132,1,70
112,64,128797,5,0,0:0:0:0:
256,52,128899,2,0,P|232:70|176:76,1,70
231,159,129103,5,0,0:0:0:0:
224,180,129205,2,0,L|212:220,2,23.3333333333333,8|0|0,0:0|0:0|0:0,0:0:0:0:
332,256,129409,2,0,L|338:297,2,23.3333333333333
440,172,129613,5,0,0:0:0:0:
444,200,129715,1,0,0:0:0:0:
312,128,129919,1,0,0:0:0:0:
308,104,130021,1,0,0:0:0:0:
332,256,130225,1,0,0:0:0:0:
336,284,130327,2,0,P|273:281|200:276,1,105.000004005432
36,68,130633,6,0,P|23:166|91:210,1,175
352,140,130939,2,0,P|365:42|297:-2,1,175,8|0,0:0|0:0,0:0:0:0:
120,120,131246,6,0,L|127:79,1,35,4|0,0:0|0:0,0:0:0:0:
130,69,131450,1,0,0:0:0:0:
192,272,131654,2,0,P|124:279|40:292,1,140,8|0,0:0|0:0,0:0:0:0:
276,220,131960,2,0,P|273:256|272:300,1,70
344,332,132164,2,0,P|347:296|348:252,1,70
196,188,132368,1,0,0:0:0:0:
120,320,132470,5,8,0:0:0:0:
120,320,132572,1,0,0:0:0:0:
120,320,132674,1,0,0:0:0:0:
120,320,132776,1,0,0:0:0:0:
192,360,132878,6,0,P|227:356|272:356,1,70
104,244,133082,2,0,P|108:279|116:324,1,70
328,264,133286,6,0,P|264:268|194:273,1,105,8|0,0:0|0:0,0:0:0:0:
32,172,133694,5,0,0:0:0:0:
24,144,133797,1,0,0:0:0:0:
92,60,133899,1,0,0:0:0:0:
88,88,134002,1,0,0:0:0:0:
32,172,134103,6,0,P|98:166|184:162,1,140,8|0,0:0|0:0,0:0:0:0:
271,40,134409,1,0,0:0:0:0:
264,116,134511,2,0,P|260:148|256:199,1,70
204,328,134715,6,0,P|238:323|276:316,1,65.625
268,317,134919,6,0,P|244:291|239:258,1,70,8|0,0:0|0:0,0:0:0:0:
140,373,135123,1,0,0:0:0:0:
160,228,135225,2,0,L|164:192|168:156,1,70
20,284,135429,2,0,L|16:320|12:356,1,70
28,200,135633,1,0,0:0:0:0:
112,296,135735,5,8,0:0:0:0:
112,296,135837,1,0,0:0:0:0:
112,296,135939,1,0,0:0:0:0:
112,296,136041,1,0,0:0:0:0:
12,353,136143,6,0,B|22:261|22:261|10:219|10:219|56:157|56:157|107:159,1,262.5
335,138,136552,6,0,B|301:198|301:198|232:181|232:181|229:128|229:128|199:111|168:91,1,262.5,8|0,0:0|0:0,0:0:0:0:
112,296,136960,6,0,B|99:240|99:240|161:221|161:221|171:249|171:249|290:279,1,262.5
221,56,137368,6,0,B|269:27|269:27|232:181|232:181|290:196,1,262.5,8|0,0:0|0:0,0:0:0:0:
383,219,137776,6,0,B|384:273|384:273|343:243,1,105
296,54,138184,6,0,P|298:90|300:134,1,70,12|0,0:0|0:0,0:0:0:0:
299,123,138388,1,0,0:0:0:0:
456,348,138592,2,0,P|387:343|300:336,1,140
229,291,138899,2,0,P|233:329|237:379,2,70,0|8|0,0:0|0:0|0:0,0:0:0:0:
220,208,139205,5,0,0:0:0:0:
216,180,139307,1,0,0:0:0:0:
289,215,139409,2,0,P|254:210|220:208,1,70
84,248,139613,2,0,P|119:253|153:255,1,70
440,324,139817,6,0,P|388:316|328:312,1,105,8|0,0:0|0:0,0:0:0:0:
320,200,140225,5,0,0:0:0:0:
320,200,140327,1,0,0:0:0:0:
320,200,140429,1,0,0:0:0:0:
320,200,140531,1,0,0:0:0:0:
468,204,140633,6,0,P|442:229|392:236,1,70,8|0,0:0|0:0,0:0:0:0:
348,72,140837,2,0,P|372:47|406:38,1,70
320,200,141041,6,0,B|268:148|268:148|404:168,1,210
192,184,141450,2,0,B|244:236|244:236|108:216,1,210,8|0,0:0|0:0,0:0:0:0:
92,216,141858,6,0,L|96:268,1,35,8|0,0:0|0:0,0:0:0:0:
264,64,142164,2,0,L|260:12,1,35,8|0,0:0|0:0,0:0:0:0:
470,328,142470,2,0,L|474:380,1,35,8|0,0:0|0:0,0:0:0:0:
368,196,142674,5,0,0:0:0:0:
368,196,142776,1,0,0:0:0:0:
368,196,142878,1,0,0:0:0:0:
368,196,142980,1,0,0:0:0:0:
288,240,143082,6,0,P|261:237|223:232,1,52.5000020027161
414,305,143286,2,0,L|443:307,4,23.3333333333333
353,353,143490,2,0,L|324:351,3,23.3333333333333
228,312,143694,5,0,0:0:0:0:
213,332,143797,2,0,P|208:293|204:252,1,70
352,352,144001,2,0,P|290:343|208:332,1,140
40,308,144307,5,0,0:0:0:0:
12,268,144409,1,0,0:0:0:0:
24,220,144511,1,0,0:0:0:0:
36,172,144613,1,0,0:0:0:0:
112,136,144715,2,0,B|151:156|151:156|262:130,1,140,8|0,0:0|0:0,0:0:0:0:
251,141,145021,1,0,0:0:0:0:
251,141,145123,6,0,P|246:174|242:222,1,70
330,329,145327,2,0,P|301:303|273:287,1,70
126,304,145531,2,0,P|155:287|190:276,1,70,8|0,0:0|0:0,0:0:0:0:
333,221,145735,1,0,0:0:0:0:
333,221,145837,1,0,0:0:0:0:
333,221,145939,6,0,P|334:168|340:100,1,105
340,32,146348,5,8,0:0:0:0:
416,152,146450,1,0,0:0:0:0:
338,116,146552,1,0,0:0:0:0:
472,88,146654,1,0,0:0:0:0:
338,116,146756,6,0,P|280:93|209:143,1,140
216,128,147062,1,0,0:0:0:0:
223,135,147164,2,0,P|163:183|101:159,1,140,8|0,0:0|0:0,0:0:0:0:
53,108,147470,1,0,0:0:0:0:
75,32,147572,5,0,0:0:0:0:
173,270,147776,2,0,P|139:265|101:260,1,70
254,169,147980,2,0,P|258:246|262:315,1,140,8|0,0:0|0:0,0:0:0:0:
261,308,148286,1,0,0:0:0:0:
357,351,148388,6,0,L|393:368,2,35
336,256,148592,2,0,L|332:182,1,70
328,104,148797,5,8,0:0:0:0:
326,77,148899,1,0,0:0:0:0:
332,186,149001,2,0,L|336:256,1,70
488,328,149205,6,0,B|474:313|474:313|460:298|460:298|442:307|442:307|432:293|432:293|414:302|414:302|401:288|401:288|383:297|383:297|370:282|370:282|352:291|352:291|338:277|338:277|320:286|320:286|307:271|307:271|289:280|289:280|275:266|275:266|257:275|257:275|243:260|243:260,1,315.000012016297
120,244,149613,6,0,P|122:280|124:314,1,70,8|0,0:0|0:0,0:0:0:0:
123,313,149817,1,0,0:0:0:0:
192,192,149919,2,0,P|206:160|204:125,1,70
64,44,150123,1,0,0:0:0:0:
40,28,150225,2,0,P|38:62|52:94,1,70
124,144,150429,5,8,0:0:0:0:
278,110,150531,2,0,B|195:89|195:89|123:144,1,175
124,144,150837,6,0,L|120:188,1,35,4|0,0:0|0:0,0:0:0:0:
32,280,151041,2,0,L|72:261,1,35
296,280,151246,6,0,P|229:275|154:271,1,140,8|0,0:0|0:0,0:0:0:0:
348,216,151552,1,0,0:0:0:0:
445,336,151654,5,0,0:0:0:0:
456,289,151756,1,0,0:0:0:0:
438,243,151858,1,0,0:0:0:0:
449,196,151960,1,0,0:0:0:0:
480,51,152062,5,8,0:0:0:0:
504,127,152164,1,0,0:0:0:0:
428,111,152266,1,0,0:0:0:0:
352,99,152368,1,0,0:0:0:0:
276,84,152470,6,0,B|308:100|308:100|402:88,1,131.25
196,44,152878,1,8,0:0:0:0:
196,44,152980,1,0,0:0:0:0:
196,44,153082,2,0,P|194:77|192:128,1,70
230,189,153286,6,0,P|188:238|114:225,1,140
125,236,153592,1,0,0:0:0:0:
125,236,153694,6,0,P|65:215|10:259,1,139.649994246598,8|0,0:0|0:0,0:0:0:0:
42,329,154103,6,0,L|34:368,6,35
180,308,154511,2,0,P|111:317|32:330,1,140,8|0,0:0|0:0,0:0:0:0:
260,344,154817,1,0,0:0:0:0:
288,236,154919,5,0,0:0:0:0:
284,208,155021,2,0,L|276:160,2,35
392,276,155225,1,0,0:0:0:0:
379,196,155327,2,0,P|373:160|368:119,1,70,8|0,0:0|0:0,0:0:0:0:
480,244,155531,5,0,0:0:0:0:
487,278,155633,1,0,0:0:0:0:
492,309,155735,2,0,B|479:293|479:293|461:302|461:302|451:288|451:288|433:297|433:297|420:283|420:283|402:292|402:292|388:278|388:278|361:322|361:322|343:314|343:314|328:328|328:328|311:320|311:320|297:333|297:333|278:324|278:324|264:338|264:338|257:347|257:347,1,315.000012016297
159,363,156143,6,0,L|126:385,2,29.1666666666667
195,267,156280,2,0,L|190:226,2,29.1666666666667
259,343,156416,2,0,L|294:359,2,29.1666666666667
96,280,156552,6,0,L|64:284,4,29.1666666666667
88,256,156756,2,0,L|56:260,4,29.1666666666667
128,144,156960,6,0,L|160:148,4,29.1666666666667
136,120,157164,2,0,L|168:124,4,29.1666666666667
40,48,157368,6,0,P|44:83|48:120,1,70,4|0,0:0|0:0,0:0:0:0:
128,144,157572,2,0,P|124:109|120:72,1,70
44,236,157776,5,8,0:0:0:0:
88,256,157878,1,0,0:0:0:0:
136,248,157980,1,0,0:0:0:0:
184,236,158082,1,0,0:0:0:0:
204,164,158184,6,0,P|236:180|256:217,1,70
247,349,158388,2,0,P|244:312|266:276,1,70
386,221,158592,2,0,P|355:241|313:240,1,70,8|0,0:0|0:0,0:0:0:0:
142,333,158797,1,0,0:0:0:0:
142,333,158899,1,0,0:0:0:0:
142,333,159001,6,0,L|138:279|134:225,1,105
160,68,159409,5,8,0:0:0:0:
136,60,159511,1,0,0:0:0:0:
76,120,159613,1,0,0:0:0:0:
100,128,159715,1,0,0:0:0:0:
160,68,159817,6,0,P|212:79|304:95,1,140
400,28,160123,1,0,0:0:0:0:
376,48,160225,2,0,P|383:122|392:196,1,140,8|0,0:0|0:0,0:0:0:0:
398,194,160531,1,0,0:0:0:0:
398,194,160633,6,0,L|379:227,2,35
96,296,161041,6,0,P|168:292|244:288,1,140,8|0,0:0|0:0,0:0:0:0:
441,344,161348,1,0,0:0:0:0:
465,350,161450,1,0,0:0:0:0:
389,282,161552,2,0,L|381:248,2,35
364,355,161756,1,0,0:0:0:0:
305,244,161858,6,0,L|318:167,1,70,8|0,0:0|0:0,0:0:0:0:
235,56,162062,2,0,L|246:130,1,70
425,84,162266,6,0,P|376:89|317:93,1,105.000004005432
160,116,162470,2,0,L|136:80,2,35
224,196,162674,5,8,0:0:0:0:
224,196,162776,1,0,0:0:0:0:
224,196,162878,1,0,0:0:0:0:
224,196,162980,1,0,0:0:0:0:
212,280,163082,6,0,P|207:317|204:352,1,70
100,312,163286,2,0,L|96:268,1,35
84,148,163490,5,8,0:0:0:0:
207,92,163592,1,0,0:0:0:0:
73,64,163694,1,0,0:0:0:0:
164,165,163797,1,0,0:0:0:0:
149,29,163899,5,4,0:0:0:0:
28,232,164103,2,0,P|63:228|104:224,1,70
200,114,164307,2,0,P|187:184|173:262,1,140
174,251,164613,1,0,0:0:0:0:
280,356,164715,6,0,P|272:283|265:216,1,140,12|0,0:0|0:0,0:0:0:0:
440,32,165123,1,0,0:0:0:0:
484,308,165327,1,0,0:0:0:0:
380,192,165531,6,0,P|400:124|348:70,1,140,12|0,0:0|0:0,0:0:0:0:
210,98,165837,2,0,P|190:166|242:220,1,140,8|0,0:0|0:0,0:0:0:0:
308,240,166143,2,0,P|304:275|300:312,1,70,8|0,0:0|0:0,0:0:0:0:
207,342,166348,5,0,0:0:0:0:
158,351,166450,1,8,0:0:0:0:
110,362,166552,1,0,0:0:0:0:
73,328,166654,1,0,0:0:0:0:
38,293,166756,6,0,B|40:238|40:238|84:279,1,105,12|0,0:0|0:0,0:0:0:0:
184,295,167164,6,0,L|244:308,2,52.5000020027161,4|0|0,0:0|0:0|0:0,0:0:0:0:
235,227,167470,2,0,L|286:238,2,52.5000020027161
64,48,167776,5,0,0:0:0:0:
68,72,167878,1,0,0:0:0:0:
72,96,167980,6,0,L|49:155,2,52.5000020027161,4|0|0,0:0|0:0|0:0,0:0:0:0:
136,152,168286,2,0,L|113:211,2,52.5000020027161
388,124,168592,1,0,0:0:0:0:
416,116,168694,1,0,0:0:0:0:
496,168,168797,5,0,0:0:0:0:
496,168,168899,1,0,0:0:0:0:
496,168,169001,1,0,0:0:0:0:
308,100,169205,1,0,0:0:0:0:
496,168,169409,1,0,0:0:0:0:
308,100,169613,1,0,0:0:0:0:
260,164,169715,2,0,P|264:189|268:219,1,52.5000020027161
272,241,169919,1,0,0:0:0:0:
368,280,170225,6,0,P|363:307|356:344,1,52.5000020027161
152,364,170429,6,0,P|115:367|72:372,1,70,6|0,0:0|0:0,0:0:0:0:
298,286,170837,2,0,P|335:283|378:278,1,70,2|0,0:0|0:0,0:0:0:0:
88,256,171246,2,0,P|51:259|8:264,1,70,2|0,0:0|0:0,0:0:0:0:
298,286,171654,1,2,0:0:0:0:
136,148,171858,1,0,0:0:0:0:
298,286,172062,6,0,P|292:248|286:208,1,70,2|0,0:0|0:0,0:0:0:0:
336,36,172470,1,2,0:0:0:0:
367,30,172572,1,0,0:0:0:0:
397,37,172674,1,0,0:0:0:0:
421,56,172776,1,0,0:0:0:0:
433,84,172878,1,2,0:0:0:0:
432,115,172980,1,0,0:0:0:0:
415,141,173082,1,0,0:0:0:0:
389,159,173184,1,0,0:0:0:0:
359,148,173286,1,2,0:0:0:0:
367,178,173388,1,0,0:0:0:0:
376,208,173490,1,0,0:0:0:0:
385,238,173592,1,0,0:0:0:0:
369,311,173694,5,2,0:0:0:0:
369,311,173899,1,0,0:0:0:0:
208,112,174103,1,2,0:0:0:0:
208,112,174308,1,0,0:0:0:0:
124,352,174511,1,2,0:0:0:0:
124,352,174716,1,0,0:0:0:0:
240,280,174919,1,2,0:0:0:0:
240,280,175123,1,0,0:0:0:0:
72,88,175327,6,0,P|69:123|64:164,1,70,2|0,0:0|0:0,0:0:0:0:
104,248,175735,2,0,P|69:251|28:256,1,70,2|0,0:0|0:0,0:0:0:0:
440,296,176143,6,0,P|443:261|448:220,1,70,2|0,0:0|0:0,0:0:0:0:
408,136,176551,2,0,P|443:133|484:128,1,70,2|0,0:0|0:0,0:0:0:0:
315,109,176960,5,0,0:0:0:0:
280,141,177062,1,0,0:0:0:0:
233,134,177164,1,0,0:0:0:0:
186,128,177266,1,0,0:0:0:0:
139,121,177368,1,0,0:0:0:0:
108,157,177470,1,0,0:0:0:0:
117,203,177572,1,0,0:0:0:0:
130,248,177674,1,0,0:0:0:0:
175,260,177776,1,0,0:0:0:0:
184,306,177878,1,0,0:0:0:0:
150,338,177980,1,0,0:0:0:0:
103,329,178082,1,0,0:0:0:0:
66,359,178184,1,0,0:0:0:0:
51,314,178286,1,0,0:0:0:0:
35,269,178388,6,0,P|28:244|22:219,1,52.5000020027161
48,37,178592,2,0,P|55:62|61:87,1,52.5000020027161
87,178,178797,1,0,0:0:0:0:
126,151,178899,1,0,0:0:0:0:
172,158,179001,1,0,0:0:0:0:
218,167,179103,1,0,0:0:0:0:
264,176,179205,1,0,0:0:0:0:
282,219,179307,1,0,0:0:0:0:
298,263,179409,2,0,P|291:290|282:319,1,52.5000020027161
371,310,179613,2,0,P|378:283|387:254,1,52.5000020027161
363,84,179817,5,0,0:0:0:0:
415,181,179919,1,0,0:0:0:0:
341,157,180021,1,0,0:0:0:0:
436,107,180123,1,0,0:0:0:0:
480,242,180225,5,0,0:0:0:0:
480,242,180327,1,0,0:0:0:0:
480,242,180429,1,0,0:0:0:0:
480,242,180531,1,0,0:0:0:0:
388,179,180633,5,0,0:0:0:0:
388,179,180735,1,0,0:0:0:0:
388,179,180837,1,0,0:0:0:0:
388,179,180939,1,0,0:0:0:0:
347,290,181041,5,0,0:0:0:0:
347,290,181143,1,0,0:0:0:0:
347,290,181245,1,0,0:0:0:0:
347,290,181347,1,0,0:0:0:0:
217,334,181450,6,0,L|169:327,2,35
135,267,181654,2,0,L|87:274,2,35
39,359,181858,6,0,L|46:315,10,35.0000013351441
140,301,182266,2,0,L|133:257,10,35.0000013351441
63,211,182674,6,0,P|80:176|80:136,1,70
260,144,182878,2,0,P|228:128|204:92,1,70
137,51,183082,5,0,0:0:0:0:
137,51,183150,1,0,0:0:0:0:
137,51,183218,1,0,0:0:0:0:
137,51,183286,1,0,0:0:0:0:
137,51,183354,1,0,0:0:0:0:
137,51,183422,1,0,0:0:0:0:
137,51,183490,6,0,P|68:58|124:102,1,175,4|0,0:3|0:0,0:0:0:0:
449,48,183899,5,4,0:3:0:0:
447,57,184001,1,0,0:0:0:0:
445,66,184103,1,0,0:0:0:0:
443,75,184205,1,0,0:0:0:0:
387,129,184307,1,4,0:3:0:0:
388,138,184409,1,0,0:0:0:0:
389,148,184511,1,0,0:0:0:0:
390,158,184613,1,0,0:3:0:0:
391,168,184715,6,0,P|397:199|399:226,1,52.5000020027161,4|0,0:3|0:0,0:0:0:0:
454,337,184919,2,0,P|414:365|346:349,1,105.000004005432,0|4,0:0|0:3,0:0:0:0:
352,356,185225,1,0,0:0:0:0:
344,353,185327,1,0,0:0:0:0:
336,350,185429,1,0,0:0:0:0:
278,292,185531,5,4,0:3:0:0:
270,293,185633,1,0,0:0:0:0:
262,294,185735,1,0,0:0:0:0:
254,295,185837,1,0,0:0:0:0:
246,296,185939,1,4,0:3:0:0:
238,298,186041,1,0,0:0:0:0:
230,299,186143,1,0,0:0:0:0:
222,300,186246,1,0,0:0:0:0:
214,301,186348,6,0,L|173:309,3,26.2500010013581,4|0|0|0,0:3|0:0|0:0|0:0,0:0:0:0:
128,355,186552,2,0,L|88:350,2,26.2500010013581
51,137,186756,5,4,0:3:0:0:
52,144,186858,1,0,0:0:0:0:
53,151,186960,1,0,0:0:0:0:
55,158,187062,1,0,0:0:0:0:
109,215,187164,5,4,0:3:0:0:
58,269,187266,2,0,P|88:290|132:285,1,70
316,220,187470,6,0,P|247:230|174:244,1,140
307,236,187776,6,0,P|254:244|198:254,1,105.000004005432,0|4,0:0|0:3,0:0:0:0:
298,251,188082,6,0,P|263:255|216:263,1,70
470,359,188388,5,4,0:3:0:0:
467,348,188490,1,0,0:0:0:0:
464,337,188592,1,0,0:0:0:0:
461,326,188694,1,0,0:0:0:0:
412,261,188797,5,4,0:3:0:0:
417,229,188899,1,0,0:0:0:0:
422,197,189001,1,0,0:0:0:0:
428,166,189103,1,0,0:0:0:0:
411,85,189205,5,4,0:3:0:0:
404,61,189307,1,0,0:0:0:0:
327,107,189409,1,0,0:0:0:0:
320,131,189511,1,0,0:0:0:0:
266,47,189613,1,4,0:3:0:0:
259,23,189715,1,0,0:0:0:0:
182,69,189817,1,0,0:0:0:0:
175,93,189919,1,0,0:0:0:0:
184,356,190225,6,0,B|196:328|196:328|188:252,1,105.000004005432
175,93,190429,5,4,0:3:0:0:
165,89,190531,1,0,0:0:0:0:
154,86,190633,1,0,0:0:0:0:
143,85,190735,1,0,0:0:0:0:
132,85,190837,1,4,0:3:0:0:
121,86,190939,1,0,0:0:0:0:
110,89,191041,1,0,0:0:0:0:
100,93,191143,1,0,0:0:0:0:
90,98,191246,1,4,0:3:0:0:
81,104,191348,1,0,0:0:0:0:
73,111,191450,1,0,0:0:0:0:
66,119,191552,1,0,0:0:0:0:
60,128,191654,1,4,0:3:0:0:
55,137,191756,1,0,0:0:0:0:
51,146,191858,1,0,0:0:0:0:
48,156,191960,1,0,0:0:0:0:
132,171,192062,6,0,P|202:163|284:154,1,140,4|0,0:3|0:0,0:0:0:0:
311,258,192368,6,0,P|269:241|181:243,1,116.200001684418
292,139,192674,6,0,P|283:187|295:231,1,93.0999961643983,0|4,0:0|0:3,0:0:0:0:
192,308,192980,6,0,P|196:272|199:228,1,70
292,139,193286,2,0,L|295:183,1,35,4|0,0:3|0:0,0:0:0:0:
305,273,193490,5,0,0:0:0:0:
303,248,193592,1,0,0:0:0:0:
413,332,193694,6,0,P|387:327|358:323,3,41.9999987182618,4|0|0|0,0:3|0:0|0:0|0:0,0:0:0:0:
472,248,194103,2,0,P|446:253|417:257,3,41.9999987182618,4|0|0|0,0:3|0:0|0:0|0:0,0:0:0:0:
480,152,194511,2,0,P|458:167|433:183,3,41.9999987182618,4|0|0|0,0:3|0:3|0:3|0:3,0:3:0:0:
368,120,194919,5,4,0:3:0:0:
357,118,195021,1,0,0:0:0:0:
346,116,195123,1,0,0:0:0:0:
335,114,195225,1,0,0:0:0:0:
324,112,195327,1,4,0:3:0:0:
313,110,195429,1,0,0:0:0:0:
302,108,195531,1,0,0:0:0:0:
291,106,195633,1,0,0:0:0:0:
222,156,195735,5,4,0:3:0:0:
193,158,195837,1,0,0:0:0:0:
166,168,195939,1,0,0:0:0:0:
145,187,196041,1,0,0:0:0:0:
66,166,196143,5,4,0:3:0:0:
44,194,196246,1,0,0:0:0:0:
39,228,196348,1,0,0:0:0:0:
46,262,196451,1,0,0:0:0:0:
112,328,196552,6,0,P|217:314|320:304,1,210,4|0,0:3|0:0,0:0:0:0:
464,344,196960,5,4,0:3:0:0:
483,310,197062,1,0,0:0:0:0:
487,271,197164,1,0,0:0:0:0:
479,233,197266,1,0,0:0:0:0:
452,202,197368,1,4,0:3:0:0:
417,184,197470,1,0,0:0:0:0:
379,177,197572,1,0,0:0:0:0:
341,186,197674,1,0,0:0:0:0:
279,240,197776,6,0,P|276:269|273:299,1,52.5000020027161,4|0,0:3|0:0,0:0:0:0:
236,155,197980,2,0,P|239:126|242:96,1,52.5000020027161
139,341,198184,5,4,0:3:0:0:
167,336,198286,1,0,0:0:0:0:
195,331,198388,1,0,0:0:0:0:
223,327,198490,1,0,0:0:0:0:
304,313,198592,6,0,P|332:308|359:304,1,52.5000020027161,4|0,0:3|0:0,0:0:0:0:
443,199,198797,2,0,L|433:225|423:251,1,52.5000020027161
435,336,199001,5,4,0:3:0:0:
347,222,199205,2,0,L|301:158,1,59.5000011348725
337,119,199409,2,0,L|304:190,1,59.5000011348725,4|0,0:3|0:0,0:0:0:0:
253,179,199613,2,0,L|331:171,1,59.5000011348725
91,189,199817,2,0,L|123:117,1,59.5000011348725,4|0,0:3|0:0,0:0:0:0:
80,86,200021,2,0,L|125:149,1,59.5000011348725
174,129,200225,2,0,L|96:135,1,59.5000011348725,4|0,0:3|0:0,0:0:0:0:
19,144,200429,1,0,0:0:0:0:
180,97,200633,5,4,0:3:0:0:
174,129,200735,1,0,0:0:0:0:
169,161,200837,1,0,0:0:0:0:
164,193,200939,1,0,0:0:0:0:
159,225,201041,1,4,0:3:0:0:
176,252,201143,1,0,0:0:0:0:
196,280,201246,1,0,0:0:0:0:
216,308,201348,1,0,0:0:0:0:
236,332,201450,6,0,L|266:330|296:328,1,59.5000011348725,4|0,0:3|0:0,0:0:0:0:
428,196,201654,2,0,P|414:222|401:249,1,59.5000011348725
244,316,201858,2,0,L|274:314|304:312,1,59.5000011348725,4|0,0:3|0:0,0:0:0:0:
436,180,202062,2,0,L|422:206|409:233,1,59.5000011348725
252,300,202266,2,0,L|282:298|312:296,1,59.5000011348725,4|0,0:3|0:0,0:0:0:0:
444,164,202470,2,0,L|430:190|417:217,1,59.5000011348725
368,364,202674,5,4,0:3:0:0:
368,364,202776,1,0,0:0:0:0:
368,364,202878,1,0,0:0:0:0:
368,364,202980,1,0,0:0:0:0:
496,300,203082,5,4,0:0:0:0:
124,280,203286,1,0,0:0:0:0:
392,24,203490,1,0,0:0:0:0:
124,280,203694,1,0,0:0:0:0:
424,240,203899,5,0,0:0:0:0:
124,280,204103,1,0,0:0:0:0:
444,152,204307,1,0,0:0:0:0:
424,240,204511,1,0,0:0:0:0:
82,120,204715,6,0,P|83:150|86:184,1,59.5000011348725
427,180,204919,2,0,P|426:210|423:244,1,59.5000011348725
430,120,205123,2,0,P|428:149|426:184,1,59.5000011348725
85,179,205327,2,0,P|87:207|89:243,1,59.5000011348725
180,64,205531,6,0,P|215:59|256:51,1,70
384,144,205735,2,0,P|348:148|308:157,1,70
320,4,205939,2,0,P|324:39|333:80,1,70
244,204,206143,2,0,P|239:168|231:128,1,70
360,312,206348,5,4,0:3:0:0:
336,308,206450,1,4,0:3:0:0:
312,304,206552,1,4,0:3:0:0:
288,300,206654,1,4,0:3:0:0:
400,280,206756,5,4,0:3:0:0:
364,288,206858,1,4,0:3:0:0:
328,296,206960,1,4,0:3:0:0:
288,300,207062,1,4,0:3:0:0:
408,232,207164,5,4,0:3:0:0:
368,254,207266,1,4,0:3:0:0:
328,277,207368,1,4,0:3:0:0:
288,300,207470,1,4,0:3:0:0:
392,340,207572,6,0,B|356:308|312:308|268:344|268:344|224:380|180:380|140:340,1,280
140,340,208082,2,0,P|133:284|124:224,2,105.000004005432
188,156,208592,1,0,0:0:0:0:
192,136,208694,1,0,0:0:0:0:
196,116,208797,2,0,L|236:108,1,35
313,98,209001,1,0,0:0:0:0:
124,24,209205,5,4,0:3:0:0:
127,35,209307,1,4,0:3:0:0:
130,46,209409,1,4,0:3:0:0:
133,57,209511,1,4,0:3:0:0:
196,116,209613,6,0,P|189:152|180:192,1,70
92,180,209817,2,0,P|101:216|108:256,1,70
112,268,210021,1,8,0:0:0:0:
336,340,210225,5,0,0:0:0:0:
316,316,210327,2,0,P|256:288|180:316,1,140
384,268,210633,2,0,P|419:263|456:260,1,70
408,68,210837,1,8,0:0:0:0:
432,56,210939,1,0,0:0:0:0:
340,108,211041,2,0,P|338:144|336:188,1,70
284,320,211246,6,0,P|358:311|428:308,1,140
428,144,211552,1,0,0:0:0:0:
448,160,211654,2,0,P|467:195|459:239,1,70,8|0,0:0|0:0,0:0:0:0:
304,172,211858,1,0,0:0:0:0:
280,176,211960,2,0,P|300:142|342:126,1,70
465,224,212164,1,0,0:0:0:0:
436,220,212266,1,0,0:0:0:0:
408,216,212368,1,0,0:0:0:0:
332,248,212470,5,8,0:0:0:0:
136,48,212674,1,0,0:0:0:0:
84,328,212878,5,0,0:0:0:0:
131,316,212980,1,0,0:0:0:0:
178,303,213082,1,0,0:0:0:0:
144,267,213184,1,0,0:0:0:0:
108,233,213286,6,0,B|80:204|80:204|73:98,1,140,8|0,0:0|0:0,0:0:0:0:
232,40,213592,2,0,B|156:113|156:113|158:162,1,140
204,212,213899,2,0,B|233:233|233:233|234:187,1,70
354,128,214103,5,8,0:0:0:0:
354,128,214205,1,0,0:0:0:0:
354,128,214307,2,0,P|321:129|276:133,1,70
376,52,214511,5,0,0:0:0:0:
424,172,214613,2,0,P|435:138|430:104,1,70
430,104,214817,1,0,0:0:0:0:
368,240,214919,2,0,P|374:279|378:312,1,70,8|0,0:0|0:0,0:0:0:0:
456,348,215123,1,0,0:0:0:0:
480,352,215225,1,0,0:0:0:0:
380,336,215327,6,0,P|311:332|232:332,1,140
172,288,215633,1,0,0:0:0:0:
168,368,215735,5,8,0:0:0:0:
180,48,215939,1,0,0:0:0:0:
28,260,216143,6,0,P|64:261|104:264,1,70
208,224,216348,2,0,P|209:260|212:300,1,70
204,144,216552,1,8,0:0:0:0:
200,112,216654,1,0,0:0:0:0:
136,188,216756,2,0,P|102:186|59:183,1,70
196,80,216960,5,0,0:0:0:0:
243,19,217062,1,0,0:0:0:0:
317,39,217164,1,0,0:0:0:0:
317,115,217266,1,0,0:0:0:0:
244,140,217368,1,8,0:0:0:0:
34,35,217572,6,0,P|42:69|49:105,1,70
22,236,217776,2,0,P|97:232|141:275,1,140
37,311,218082,1,0,0:0:0:0:
37,311,218184,2,0,P|54:334|68:307,1,70,8|0,0:0|0:0,0:0:0:0:
109,164,218388,2,0,P|126:141|140:168,1,70
221,277,218592,5,0,0:0:0:0:
244,284,218694,1,0,0:0:0:0:
295,225,218797,1,0,0:0:0:0:
354,275,218899,1,0,0:0:0:0:
378,267,219001,1,8,0:0:0:0:
285,63,219205,1,0,0:0:0:0:
221,277,219409,5,0,0:0:0:0:
256,352,219511,2,0,P|249:317|244:284,1,70
312,204,219715,1,0,0:0:0:0:
295,225,219817,2,0,P|325:239|375:226,1,70,8|0,0:0|0:0,0:0:0:0:
420,184,220021,1,0,0:0:0:0:
490,283,220123,6,0,B|455:268|455:268|346:275,1,140
256,352,220429,2,0,B|291:345|291:345|325:364,1,70
164,264,220633,5,8,0:0:0:0:
172,288,220735,1,0,0:0:0:0:
132,352,220837,2,0,P|85:312|94:232,1,140
148,184,221143,1,0,0:0:0:0:
148,184,221246,2,0,P|176:194|169:165,1,70
264,264,221450,2,0,P|292:254|285:283,1,70,8|0,0:0|0:0,0:0:0:0:
448,328,221654,2,0,P|413:326|372:324,1,70
60,272,221858,5,0,0:0:0:0:
62,292,221960,1,0,0:0:0:0:
64,312,222062,1,0,0:0:0:0:
67,332,222164,1,0,0:0:0:0:
132,374,222266,5,8,0:0:0:0:
336,124,222470,1,8,0:0:0:0:
344,204,222572,1,8,0:0:0:0:
200,180,222674,6,0,L|288:172,1,70,4|0,0:0|0:0,0:0:0:0:
312,100,222878,2,0,L|400:108,1,70
404,108,223082,1,8,0:0:0:0:
160,16,223286,5,0,0:0:0:0:
136,28,223388,2,0,P|130:99|122:178,1,140
36,92,223694,2,0,P|32:56|28:16,1,70
184,120,223899,1,8,0:0:0:0:
123,167,224001,1,0,0:0:0:0:
184,120,224103,2,0,P|220:116|260:112,1,70
432,128,224307,5,0,0:0:0:0:
448,100,224409,2,0,P|457:177|411:222,1,140
417,219,224715,6,0,L|368:212,1,35,8|0,0:0|0:0,0:0:0:0:
272,284,224919,2,0,L|302:244,1,35
280,96,225123,5,0,0:0:0:0:
312,168,225225,1,0,0:0:0:0:
300,76,225327,1,0,0:0:0:0:
224,124,225429,1,0,0:0:0:0:
136,92,225531,2,0,B|108:44|108:44|88:200,1,210,8|0,0:0|0:0,0:0:0:0:
72,328,225939,5,0,0:0:0:0:
344,288,226143,1,0,0:0:0:0:
424,340,226246,1,0,0:0:0:0:
376,280,226348,2,0,B|340:222|340:222|361:153,1,140,8|0,0:0|0:0,0:0:0:0:
444,124,226654,2,0,B|458:90|458:90|423:91,1,70
288,48,226858,1,0,0:0:0:0:
264,36,226960,2,0,P|251:68|267:110,1,70
352,208,227164,5,8,0:0:0:0:
372,204,227266,1,0,0:0:0:0:
392,200,227368,1,0,0:0:0:0:
412,196,227470,1,0,0:0:0:0:
468,272,227572,6,0,P|400:288|336:244,1,140,8|0,0:0|0:0,0:0:0:0:
56,160,227878,2,0,P|124:144|188:188,1,140,8|0,0:0|0:0,0:0:0:0:
224,268,228184,1,8,0:0:0:0:
308,52,228388,5,0,0:0:0:0:
332,136,228490,1,0,0:0:0:0:
288,68,228592,1,0,0:0:0:0:
312,152,228694,1,0,0:0:0:0:
436,96,228797,2,0,B|418:146|448:187|448:187|429:259|429:259|388:273,1,210
332,344,229205,6,0,P|303:338|272:336,1,52.5000020027161,4|0,0:0|0:0,0:0:0:0:
156,204,229409,2,0,P|163:233|172:264,1,52.5000020027161
200,348,229613,2,0,P|225:352|264:356,1,52.5000020027161
368,216,229817,5,0,0:0:0:0:
368,216,229885,1,0,0:0:0:0:
368,216,229953,1,0,0:0:0:0:
368,216,230021,2,0,P|368:246|346:268,1,52.5000020027161,12|0,0:0|0:0,0:0:0:0:
208,132,230225,2,0,P|193:110|194:84,1,52.5000020027161
96,292,230429,2,0,P|121:288|152:284,1,52.5000020027161
272,260,230633,5,0,0:0:0:0:
272,260,230701,1,0,0:0:0:0:
272,260,230769,1,0,0:0:0:0:
272,260,230837,2,0,P|266:288|264:312,1,52.5000020027161,12|0,0:0|0:0,0:0:0:0:
64,204,231041,2,0,P|70:176|72:152,1,52.5000020027161
240,96,231246,2,0,P|234:68|232:44,1,52.5000020027161
104,44,231450,5,0,0:0:0:0:
104,44,231518,1,0,0:0:0:0:
104,44,231586,1,0,0:0:0:0:
104,44,231654,2,0,P|132:49|172:56,1,52.5000020027161,12|0,0:0|0:0,0:0:0:0:
284,172,231858,2,0,P|313:168|352:160,1,52.5000020027161
408,104,232062,5,0,0:0:0:0:
420,80,232164,1,0,0:0:0:0:
424,192,232266,1,0,0:0:0:0:
438,214,232368,1,0,0:0:0:0:
404,304,232470,5,4,0:0:0:0:
404,304,232572,2,0,B|388:334|388:334|362:309,1,70
272,260,232776,2,0,B|202:273|202:273|268:320,1,140
432,292,233082,5,0,0:0:0:0:
492,336,233184,2,0,B|463:322|463:322|356:340,1,140
216,172,233490,2,0,P|204:246|258:296,1,140
335,253,233797,1,8,0:0:0:0:
352,255,233899,6,0,L|311:251,1,35
100,232,234103,1,0,0:0:0:0:
232,349,234307,6,0,B|261:304|261:304|206:312,1,105.000004005432,8|0,0:0|0:0,0:0:0:0:
79,333,234511,2,0,B|112:362|112:362|232:350|232:350|256:313,1,210,12|0,0:0|0:0,0:0:0:0:
196,128,234919,6,0,P|191:164|213:200,1,70,12|0,0:0|0:0,0:0:0:0:
372,324,235123,1,0,0:0:0:0:
396,343,235225,2,0,B|386:238|386:238|362:211,1,140,8|0,0:0|0:0,0:0:0:0:
424,88,235531,2,0,L|432:40,3,35
424,88,235735,6,0,P|356:91|284:96,2,140,4|0|8,0:0|0:0|0:0,0:0:0:0:
184,64,236348,5,0,0:0:0:0:
184,64,236450,1,0,0:0:0:0:
184,64,236552,2,0,P|179:98|172:149,1,70
128,304,236756,2,0,P|162:299|213:292,1,70
344,272,236960,5,8,0:0:0:0:
348,248,237062,1,0,0:0:0:0:
416,344,237164,1,0,0:0:0:0:
412,368,237266,1,0,0:0:0:0:
344,272,237368,6,0,B|356:176|356:176|320:144|320:144|311:209,1,210
240,288,237776,2,0,P|241:307|248:328,1,35,8|0,0:0|0:0,0:0:0:0:
416,344,237980,2,0,P|424:329|434:306,1,35
432,188,238184,5,0,0:0:0:0:
479,252,238286,2,0,B|423:256|423:256|407:268|407:268|343:272,1,140
300,200,238592,5,8,0:0:0:0:
292,180,238694,1,0,0:0:0:0:
344,124,238797,2,0,L|356:84,1,35
200,32,239001,6,0,P|201:68|225:97,1,70
344,124,239205,2,0,L|384:116,2,35
216,196,239409,2,0,B|184:171|184:171|13:162,1,210,8|0,0:0|0:0,0:0:0:0:
64,96,239817,5,0,0:0:0:0:
80,76,239919,1,0,0:0:0:0:
56,232,240021,1,0,0:0:0:0:
72,252,240123,1,0,0:0:0:0:
108,164,240225,6,0,P|143:160|184:156,1,70,8|0,0:0|0:0,0:0:0:0:
236,232,240429,2,0,P|201:236|160:240,1,70
288,320,240633,5,0,0:0:0:0:
328,292,240735,1,0,0:0:0:0:
376,300,240837,1,0,0:0:0:0:
424,309,240939,1,0,0:0:0:0:
448,351,241041,1,8,0:0:0:0:
424,309,241143,1,0,0:0:0:0:
432,260,241246,1,0,0:0:0:0:
458,218,241348,1,0,0:0:0:0:
490,189,241450,5,0,0:0:0:0:
493,164,241552,1,0,0:0:0:0:
417,156,241654,1,0,0:0:0:0:
420,131,241756,1,0,0:0:0:0:
428,61,241858,5,8,0:0:0:0:
403,47,241960,1,0,0:0:0:0:
377,35,242062,1,0,0:0:0:0:
349,40,242164,1,0,0:0:0:0:
274,25,242266,6,0,B|305:60|305:60|278:110|278:110|221:94|221:94|222:44,1,210,4|0,0:0|0:0,0:0:0:0:
148,79,242674,5,8,0:0:0:0:
148,79,242776,1,0,0:0:0:0:
148,79,242878,2,0,L|89:87,1,35
37,130,243082,6,0,P|40:95|43:53,1,70
221,46,243286,2,0,P|218:81|215:123,1,70
175,180,243490,5,8,0:0:0:0:
147,187,243592,1,0,0:0:0:0:
267,210,243694,1,0,0:0:0:0:
295,203,243796,1,0,0:0:0:0:
175,180,243899,6,0,B|80:220|80:220|188:240,1,210
295,203,244307,2,0,P|300:239|306:277,1,70,8|0,0:0|0:0,0:0:0:0:
384,284,244511,2,0,P|379:248|373:210,1,70
356,134,244715,5,0,0:0:0:0:
356,134,244817,1,0,0:0:0:0:
494,321,245021,1,0,0:0:0:0:
474,345,245123,2,0,P|408:342|330:340,1,140,8|0,0:0|0:0,0:0:0:0:
257,303,245429,5,0,0:0:0:0:
230,290,245531,2,0,P|235:324|239:360,1,70
226,197,245735,2,0,L|251:169,2,35
210,211,245939,5,8,0:0:0:0:
408,196,246143,1,0,0:0:0:0:
424,208,246246,1,0,0:0:0:0:
440,220,246348,2,0,P|414:237|360:236,1,70
152,156,246552,2,0,P|178:139|232:140,1,70
400,172,246756,6,0,B|390:95|390:95|340:157,1,157.500006008148,8|0,0:0|0:0,0:0:0:0:
268,188,247164,2,0,P|271:214|276:240,1,52.5000020027161
252,196,247368,2,0,P|255:222|260:248,1,52.5000020027161
168,336,247572,2,0,P|171:310|176:284,1,52.5000020027161,8|0,0:0|0:0,0:0:0:0:
152,328,247776,2,0,P|155:302|160:276,1,52.5000020027161
48,220,247980,5,0,0:0:0:0:
39,173,248082,1,0,0:0:0:0:
30,126,248184,1,0,0:0:0:0:
58,88,248286,1,0,0:0:0:0:
93,56,248388,1,8,0:0:0:0:
139,63,248490,1,0,0:0:0:0:
185,69,248592,1,0,0:0:0:0:
231,76,248694,1,0,0:0:0:0:
305,38,248797,6,0,B|343:63|343:63|445:47|445:47|420:64|396:92,1,210,4|0,0:0|2:0,0:0:0:0:
428,156,249205,6,0,B|405:165|405:165|348:148,1,70,0|0,1:0|0:0,0:0:0:0:
284,128,249511,1,0,0:0:0:0:
261,122,249613,2,0,P|267:145|268:172,1,46.5499980821992
204,208,249817,2,0,P|198:185|197:158,1,46.5499980821992
152,96,250021,5,0,1:0:0:0:
136,80,250123,1,0,0:0:0:0:
96,152,250225,1,0,0:0:0:0:
74,146,250327,1,0,0:0:0:0:
124,224,250429,6,0,P|130:273|136:320,1,93.0999961643983
388,160,250837,2,0,P|382:111|376:64,1,93.0999961643983,0|0,1:0|0:0,0:0:0:0:
376,67,251143,1,0,0:0:0:0:
312,24,251246,6,0,L|256:20,1,46.5499980821992
300,44,251450,2,0,L|253:40,1,46.5499980821992
204,140,251654,2,0,L|260:136,1,46.5499980821992,0|0,1:0|0:0,0:0:0:0:
216,160,251858,2,0,L|263:156,1,46.5499980821992
356,104,252062,6,0,P|344:137|348:176,1,70
396,288,252266,2,0,L|424:312,2,35
396,288,252470,6,0,B|368:265|368:265|260:277,1,140,0|0,1:0|0:0,0:0:0:0:
432,216,252776,1,0,0:0:0:0:
439,193,252878,2,0,P|446:170|451:141,1,46.5499980821992
264,276,253082,2,0,P|268:298|275:321,1,46.5499980821992
280,340,253286,1,0,1:0:0:0:
356,104,253490,1,0,0:0:0:0:
52,148,253694,6,0,P|101:151|148:156,1,93.0999961643983
144,155,254103,6,0,P|156:203|167:255,1,93.0999961643983
166,246,254511,6,0,P|213:251|259:255,1,93.0999961643983
258,255,254919,6,0,P|263:235|268:208,1,46.5499980821992
356,176,255123,2,0,P|351:156|346:129,1,46.5499980821992
342,108,255327,6,0,P|401:124|375:242,1,210
328,304,255735,5,0,0:0:0:0:
320,328,255837,2,0,P|349:323|372:320,1,46.5499980821992
261,254,256041,1,0,0:0:0:0:
241,236,256143,2,0,P|230:263|221:285,1,46.5499980821992
336,216,256348,1,0,0:0:0:0:
360,210,256450,2,0,P|341:187|327:168,1,46.5499980821992
284,104,256654,5,0,0:0:0:0:
288,82,256756,1,0,0:0:0:0:
292,61,256858,1,0,0:0:0:0:
256,192,256960,12,4,261858,0:0:0:0:
56,48,274919,5,0,0:0:0:0:
52,176,275735,1,0,0:0:0:0:
168,112,276348,1,0,0:0:0:0:
196,120,276552,1,2,0:0:0:0:
132,44,276960,5,0,0:0:0:0:
108,184,277368,1,0,0:0:0:0:
84,324,277776,1,0,0:0:0:0:
68,300,278184,5,0,0:0:0:0:
380,256,278797,1,0,0:0:0:0:
380,256,278899,1,0,0:0:0:0:
380,256,279001,1,0,0:0:0:0:
168,224,279613,1,0,0:0:0:0:
156,200,279817,1,2,0:0:0:0:
120,340,280225,5,0,0:0:0:0:
156,200,280633,1,0,0:0:0:0:
192,60,281041,1,0,0:0:0:0:
204,84,281450,5,0,0:0:0:0:
316,136,282266,1,0,0:0:0:0:
404,64,282878,1,0,0:0:0:0:
428,52,283082,1,2,0:0:0:0:
336,24,283490,5,0,0:0:0:0:
424,176,283899,1,0,0:0:0:0:
292,288,284307,1,0,0:0:0:0:
320,308,284715,6,0,P|276:286|212:288,1,105
156,320,285429,1,0,0:0:0:0:
136,344,285531,2,0,P|132:286|128:232,1,105
80,176,286246,1,0,0:0:0:0:
56,160,286348,2,0,L|64:104,1,52.5
168,72,286756,2,0,P|163:110|136:144,1,70
96,80,287572,1,0,0:0:0:0:
372,32,287980,6,0,P|374:67|380:112,1,70,4|0,0:0|0:0,0:0:0:0:
444,160,288286,2,0,P|441:195|440:236,1,70,2|0,0:0|0:0,0:0:0:0:
437,253,288592,1,0,0:0:0:0:
188,200,288899,5,0,0:0:0:0:
264,160,289103,2,0,P|299:163|344:168,1,70,2|0,0:0|0:0,0:0:0:0:
176,95,289409,2,0,P|182:144|189:211,1,105,2|0,0:0|0:0,0:0:0:0:
72,68,289817,5,0,0:0:0:0:
88,40,289919,2,0,P|84:76|81:115,1,70,2|0,0:0|0:0,0:0:0:0:
32,216,290225,2,0,P|63:207|112:200,1,70,2|0,0:0|0:0,0:0:0:0:
100,200,290531,5,0,0:0:0:0:
254,170,290735,2,0,P|219:176|176:155,1,70,2|0,0:0|0:0,0:0:0:0:
170,151,291041,1,0,0:0:0:0:
68,332,291246,6,0,P|113:331|147:354,1,83.9999974365235,4|0,1:0|0:0,0:0:0:0:
188,276,291552,2,0,P|241:271|300:268,1,105,2|0,0:0|0:0,0:0:0:0:
420,32,292164,5,0,0:0:0:0:
468,100,292368,2,0,P|465:138|464:176,1,70,2|0,0:0|0:0,0:0:0:0:
418,271,292674,2,0,P|453:264|488:260,1,70,2|0,0:0|0:0,0:0:0:0:
348,204,292980,5,0,0:0:0:0:
332,192,293082,1,0,0:0:0:0:
316,180,293184,2,0,P|322:217|312:260,1,70,2|0,0:0|0:0,0:0:0:0:
184,328,293490,2,0,P|238:322|272:320,1,70
275,317,293797,1,0,0:0:0:0:
424,360,294001,2,0,P|427:325|432:288,1,70,2|0,0:0|0:0,0:0:0:0:
431,290,294307,1,0,0:0:0:0:
460,272,294409,1,0,0:0:0:0:
408,176,294511,6,0,L|400:80,1,90.9999958343508,4|0,1:0|0:0,0:0:0:0:
320,132,294817,2,0,P|282:125|228:120,1,77.0000023498536,2|0,0:0|0:0,0:0:0:0:
168,108,295123,1,0,0:0:0:0:
428,40,295429,5,0,0:0:0:0:
328,16,295633,2,0,P|331:54|336:96,1,77.0000023498536,2|0,0:0|0:0,0:0:0:0:
335,92,295939,1,2,0:0:0:0:
412,236,296143,5,0,0:0:0:0:
412,236,296246,2,0,L|364:228,1,38.5000011749268
300,288,296450,2,0,P|297:250|292:208,1,77.0000023498536,2|0,0:0|0:0,0:0:0:0:
484,176,296756,2,0,P|487:214|492:256,1,77.0000023498536,2|0,0:0|0:0,0:0:0:0:
496,272,297062,1,0,0:0:0:0:
368,360,297266,2,0,P|331:363|288:368,1,77.0000023498536,2|0,0:0|0:0,0:0:0:0:
291,367,297572,1,0,0:0:0:0:
56,52,297776,6,0,P|30:93|43:148,1,97.9999970092774,4|0,1:0|0:0,0:0:0:0:
176,232,298082,2,0,P|183:184|157:144,1,97.9999970092774,2|0,0:0|0:0,0:0:0:0:
144,130,298388,1,0,0:0:0:0:
40,328,298694,5,0,0:0:0:0:
124,368,298899,2,0,P|168:360|208:360,1,83.9999974365235,2|0,0:0|0:0,0:0:0:0:
207,359,299205,1,2,0:0:0:0:
260,192,299409,2,0,L|304:200,1,41.9999987182618
352,312,299613,1,0,0:0:0:0:
352,312,299715,2,0,P|394:308|448:304,1,83.9999974365235,2|0,0:0|0:0,0:0:0:0:
435,304,300021,1,0,0:0:0:0:
496,112,300225,1,0,0:0:0:0:
472,128,300327,2,0,P|465:172|490:210,1,83.9999974365235,2|2,0:0|0:0,0:0:0:0:
296,44,300735,5,0,0:0:0:0:
296,44,300837,1,0,0:0:0:0:
296,44,300939,1,0,0:0:0:0:
228,92,301041,6,0,L|232:144,1,41.9999987182618,4|0,1:0|0:0,0:0:0:0:
160,164,301246,2,0,L|155:115,1,45.4999979171754,0|2,0:0|0:0,0:0:0:0:
336,316,301552,1,0,0:0:0:0:
356,340,301654,2,0,P|312:338|260:336,1,90.9999958343508,2|0,0:0|0:0,0:0:0:0:
265,336,301960,5,0,0:0:0:0:
120,372,302164,1,2,0:0:0:0:
36,208,302368,1,0,0:0:0:0:
58,183,302470,2,0,P|78:143|67:94,1,90.9999958343508,2|0,0:0|0:0,0:0:0:0:
69,99,302776,1,0,0:0:0:0:
92,76,302878,1,0,0:0:0:0:
168,136,302980,6,0,L|256:132,1,87.5,2|0,0:0|0:0,0:0:0:0:
255,132,303286,1,0,0:0:0:0:
432,28,303592,5,0,0:0:0:0:
463,102,303797,2,0,P|423:106|375:80,1,83.9999974365235,2|0,0:0|0:0,0:0:0:0:
370,74,304103,1,2,0:0:0:0:
244,228,304307,6,0,L|252:316,1,83.9999974365235,4|0,1:0|0:0,0:0:0:0:
328,328,304613,2,0,L|320:240,1,83.9999974365235,2|0,0:0|0:0,0:0:0:0:
320,244,304919,1,0,0:0:0:0:
56,200,305225,5,0,0:0:0:0:
136,244,305429,2,0,P|179:249|215:227,1,80.5000015354157,2|0,0:0|0:0,0:0:0:0:
228,212,305735,1,2,0:0:0:0:
296,292,305940,2,0,P|334:292|369:319,1,80.5000015354157
380,336,306246,1,2,0:0:0:0:
480,244,306450,5,0,0:0:0:0:
500,224,306552,2,0,P|495:162|492:88,1,120.750002303124,2|0,0:0|0:0,0:0:0:0:
336,32,307062,1,2,0:0:0:0:
268,192,307266,1,0,0:0:0:0:
268,192,307368,1,0,0:0:0:0:
268,192,307470,1,0,0:0:0:0:
324,244,307572,6,0,P|366:241|406:240,1,77.0000023498536,4|0,1:0|0:0,0:0:0:0:
248,268,307878,2,0,L|190:260|132:252,1,115.50000352478,2|0,0:0|0:0,0:0:0:0:
44,40,308491,5,0,0:0:0:0:
88,184,308695,2,0,P|90:144|93:108,1,77.0000023498536,2|0,0:0|0:0,0:0:0:0:
93,107,309001,1,2,0:0:0:0:
32,284,309205,5,0,0:0:0:0:
32,284,309307,1,0,0:0:0:0:
32,284,309409,1,0,0:0:0:0:
32,284,309511,2,0,L|113:277,1,73.4999977569581,2|0,0:0|0:0,0:0:0:0:
184,336,309817,2,0,P|188:302|200:252,1,73.4999977569581
216,112,310123,5,2,0:0:0:0:
344,176,310327,2,0,P|304:173|268:172,1,73.4999977569581,2|0,0:0|0:0,0:0:0:0:
270,172,310633,1,2,0:0:0:0:
412,68,310838,6,0,P|407:91|408:116,1,35,4|0,1:0|0:0,0:0:0:0:
476,316,311042,2,0,P|480:293|480:268,1,35
420,83,311246,6,0,P|420:110|428:132,1,41.9999987182618
467,302,311450,2,0,P|467:278|460:252,1,41.9999987182618
432,95,311654,6,0,P|436:119|452:148,1,48.9999985046387
455,290,311858,2,0,P|451:262|436:240,1,48.9999985046387
446,104,312062,6,0,P|454:129|480:148,1,56
441,281,312266,2,0,P|432:253|404:228,1,56
340,196,312470,6,0,L|284:200,1,35
56,212,312674,1,0,0:0:0:0:
68,315,313082,5,0,0:0:0:0:
56,212,313286,2,0,B|88:164|88:164|68:320,1,210
68,315,314103,5,4,1:0:0:0:
95,321,314205,1,0,0:0:0:0:
122,320,314307,1,0,0:0:0:0:
148,310,314409,1,0,0:0:0:0:
171,294,314511,1,0,1:0:0:0:
187,271,314613,1,0,0:0:0:0:
196,244,314715,1,0,0:0:0:0:
196,216,314817,1,0,0:0:0:0:
169,185,314919,5,0,1:0:0:0:
184,161,315021,1,0,0:0:0:0:
211,154,315123,1,0,0:0:0:0:
238,147,315225,1,0,0:0:0:0:
265,140,315327,1,0,1:0:0:0:
292,133,315429,1,0,0:0:0:0:
318,143,315531,1,0,0:0:0:0:
344,153,315633,1,0,0:0:0:0:
385,130,315735,5,0,1:0:0:0:
387,157,315837,1,0,0:0:0:0:
389,184,315939,1,0,0:0:0:0:
392,211,316041,1,0,0:0:0:0:
422,237,316143,5,0,1:0:0:0:
420,265,316246,1,0,0:0:0:0:
418,292,316348,1,0,0:0:0:0:
416,319,316450,1,0,0:0:0:0:
444,353,316552,5,0,1:0:0:0:
421,369,316654,1,0,0:0:0:0:
393,372,316756,1,0,0:0:0:0:
365,368,316858,1,0,0:0:0:0:
340,355,316960,1,0,1:0:0:0:
322,333,317062,1,0,0:0:0:0:
310,307,317164,1,0,0:0:0:0:
307,279,317266,1,0,0:0:0:0:
350,252,317368,5,0,1:0:0:0:
350,252,317470,1,0,0:0:0:0:
350,252,317572,1,0,0:0:0:0:
350,252,317674,1,0,0:0:0:0:
294,181,317776,5,0,1:0:0:0:
294,181,317878,1,0,0:0:0:0:
294,181,317980,1,0,0:0:0:0:
294,181,318082,1,0,0:0:0:0:
207,208,318184,5,0,1:0:0:0:
207,208,318286,1,0,0:0:0:0:
207,208,318388,1,0,0:0:0:0:
207,208,318490,1,0,0:0:0:0:
151,137,318592,5,0,1:0:0:0:
151,137,318694,1,0,0:0:0:0:
151,137,318796,1,0,0:0:0:0:
151,137,318898,1,0,0:0:0:0:
201,55,319001,5,0,1:0:0:0:
231,72,319103,1,0,0:0:0:0:
265,79,319205,1,0,0:0:0:0:
299,74,319307,1,0,0:0:0:0:
329,56,319409,1,0,1:0:0:0:
362,45,319511,1,0,0:0:0:0:
396,45,319613,1,0,0:0:0:0:
429,55,319715,1,0,0:0:0:0:
458,74,319817,1,0,1:0:0:0:
477,102,319919,1,0,0:0:0:0:
482,136,320021,1,0,0:0:0:0:
480,170,320123,1,0,0:0:0:0:
467,202,320225,1,0,1:0:0:0:
441,226,320327,1,0,0:0:0:0:
408,239,320429,1,0,0:0:0:0:
373,239,320531,1,0,0:0:0:0:
346,207,320633,5,0,1:0:0:0:
352,180,320735,1,0,0:1:0:0:
264,228,320837,1,0,0:0:0:0:
245,207,320939,2,0,B|239:261|239:261|286:293,1,105.000004005432
356,320,321246,2,0,B|403:344|403:344|350:355,1,105.000004005432,0|0,0:0|1:0,0:0:0:0:
351,354,321552,1,0,0:0:0:0:
245,207,321756,1,0,0:0:0:0:
168,376,321960,1,0,0:0:0:0:
152,352,322062,2,0,P|100:348|45:343,1,105.000004005432,0|0,0:0|1:0,0:0:0:0:
47,343,322368,1,0,0:0:0:0:
32,316,322470,1,0,0:0:0:0:
112,232,322572,6,0,P|118:179|91:135,1,105.000004005432
76,120,322878,2,0,P|134:125|184:128,1,105.000004005432,0|0,0:0|1:0,0:0:0:0:
400,60,323184,5,0,0:0:0:0:
324,164,323388,2,0,B|338:191|338:191|332:268|332:268,1,105.000004005432
366,337,323694,2,0,P|392:350|411:367,1,52.5000020027161
289,330,323899,5,0,1:0:0:0:
281,354,324001,1,0,0:0:0:0:
204,340,324103,1,0,0:0:0:0:
196,364,324205,2,0,B|182:337|182:337|188:260|188:260,1,105.000004005432
104,192,324511,2,0,B|118:219|118:219|112:296|112:296,1,105.000004005432,0|0,0:0|1:0,0:0:0:0:
111,316,324817,1,0,0:0:0:0:
16,152,325021,1,0,0:0:0:0:
168,32,325225,5,0,0:0:0:0:
185,52,325327,2,0,P|138:79|83:61,1,105.000004005432,0|0,0:0|1:0,0:0:0:0:
91,67,325633,1,0,0:0:0:0:
88,104,325735,1,0,0:0:0:0:
144,184,325837,6,0,P|199:181|258:180,1,105.000004005432
352,124,326143,1,0,0:0:0:0:
352,124,326246,1,0,0:0:0:0:
352,124,326348,2,0,P|347:153|344:188,1,52.5000020027161,0|0,1:0|0:0,0:0:0:0:
424,290,326552,1,0,0:0:0:0:
427,307,326654,2,0,P|422:278|419:243,1,52.5000020027161
465,174,326858,5,0,0:0:0:0:
465,174,326960,1,0,0:0:0:0:
465,174,327062,1,0,0:0:0:0:
438,70,327164,6,0,L|442:30,2,35.0000013351441,4|0|0,0:3|0:0|0:0,0:0:0:0:
365,50,327368,2,0,L|358:10,2,35.0000013351441
289,50,327572,2,0,L|272:13,2,35.0000013351441
216,70,327776,2,0,L|190:38,2,35.0000013351441,4|0|0,0:3|0:0|0:0,0:0:0:0:
152,112,327980,2,0,L|119:88,2,35.0000013351441,4|0|0,0:3|0:0|0:0,0:0:0:0:
98,165,328184,2,0,L|60:150,2,35.0000013351441
60,231,328388,2,0,L|20:226,2,35.0000013351441
41,304,328592,2,0,L|1:310,2,35.0000013351441,4|0|0,0:3|0:0|0:0,0:0:0:0:
41,304,328797,5,4,0:3:0:0:
45,279,328865,1,0,0:0:0:0:
51,255,328933,1,0,0:0:0:0:
60,231,329001,1,0,0:0:0:0:
71,209,329069,1,0,0:0:0:0:
85,188,329137,1,0,0:0:0:0:
98,166,329205,1,0,0:0:0:0:
113,146,329273,1,0,0:0:0:0:
131,129,329341,1,0,0:0:0:0:
152,112,329409,1,4,0:3:0:0:
172,97,329477,1,0,0:0:0:0:
193,83,329545,1,0,0:0:0:0:
216,70,329613,1,4,0:3:0:0:
239,61,329681,1,0,0:0:0:0:
263,55,329749,1,0,0:0:0:0:
289,50,329817,1,0,0:0:0:0:
313,47,329885,1,0,0:0:0:0:
337,48,329953,1,0,0:0:0:0:
365,50,330021,6,0,L|416:75,1,52.5000020027161,4|4,0:3|0:3,0:0:0:0:
365,50,330429,5,0,0:0:0:0:
371,77,330497,1,0,0:0:0:0:
377,104,330565,1,0,0:0:0:0:
382,131,330633,1,0,0:0:0:0:
387,158,330701,2,0,L|396:209,1,35.0000013351441
476,165,330837,5,0,0:0:0:0:
470,192,330905,1,0,0:0:0:0:
464,219,330973,1,0,0:0:0:0:
459,246,331041,1,4,0:3:0:0:
454,273,331109,2,0,L|445:324,1,35.0000013351441
364,323,331246,6,0,L|318:331,5,35.0000013351441,4|0|0|0|0|0,0:3|0:0|0:0|0:0|0:0|0:0,0:0:0:0:
287,257,331654,2,0,L|241:249,5,35.0000013351441,0|0|0|4|0|0,0:0|0:0|0:0|0:3|0:0|0:0,0:0:0:0:
180,308,332062,5,4,0:3:0:0:
154,297,332130,1,0,0:0:0:0:
126,302,332198,1,0,0:0:0:0:
98,308,332266,1,0,0:0:0:0:
70,313,332334,2,0,L|22:323,1,35.0000013351441
71,204,332470,5,0,0:0:0:0:
97,215,332538,1,0,0:0:0:0:
125,210,332606,1,0,0:0:0:0:
153,204,332674,1,4,0:3:0:0:
181,199,332742,2,0,L|229:189,1,35.0000013351441
301,123,332878,6,0,L|258:113,3,35.0000013351441,4|0|0|0,0:3|0:0|0:0|0:0,0:0:0:0:
379,142,333184,1,0,0:0:0:0:
379,142,333286,6,0,P|378:180|394:216,1,70,8|0,0:0|0:0,0:0:0:0:
149,347,333490,2,0,P|150:309|134:273,1,70,8|0,0:0|0:0,0:0:0:0:
71,204,333694,5,4,0:3:0:0:
75,171,333763,1,0,0:0:0:0:
79,138,333831,1,0,0:0:0:0:
84,105,333899,1,4,0:3:0:0:
89,72,333967,2,0,L|97:20,1,46.6666666666667
168,117,334103,5,4,0:3:0:0:
164,150,334172,1,0,0:0:0:0:
160,183,334240,1,0,0:0:0:0:
155,216,334308,1,4,0:3:0:0:
150,249,334376,2,0,L|142:301,1,46.6666666666667
237,218,334511,6,0,L|244:168,5,46.6666666666667,4|0|0|4|0|0,0:3|0:0|0:0|0:3|0:0|0:0,0:0:0:0:
310,251,334919,2,0,L|302:303,5,46.6666666666667,4|0|0|4|0|0,0:3|0:0|0:0|0:3|0:0|0:0,0:0:0:0:
231,250,335327,5,4,0:3:0:0:
198,254,335395,1,0,0:0:0:0:
165,258,335463,1,0,0:0:0:0:
132,263,335531,1,4,0:3:0:0:
99,268,335599,2,0,L|47:276,1,46.6666666666667
281,134,335735,5,4,0:3:0:0:
314,130,335804,1,0,0:0:0:0:
347,126,335872,1,0,0:0:0:0:
380,121,335940,1,4,0:3:0:0:
413,116,336008,2,0,L|465:108,1,46.6666666666667
231,250,336143,6,0,L|155:260,5,46.6666666666667,4|0|0|4|0|0,0:3|0:0|0:0|0:3|0:0|0:0,0:0:0:0:
281,134,336552,2,0,L|357:124,5,46.6666666666667,4|0|0|4|0|0,0:3|0:0|0:0|0:3|0:0|0:0,0:0:0:0:
445,216,336960,6,0,L|440:255,2,35.0000013351441,4|0|0,0:3|0:0|0:0,0:0:0:0:
369,232,337164,2,0,L|364:271,2,35.0000013351441,4|0|0,0:3|0:0|0:0,0:0:0:0:
67,216,337368,2,0,L|72:255,2,35.0000013351441,4|0|0,0:3|0:0|0:0,0:0:0:0:
143,232,337572,2,0,L|148:271,2,35.0000013351441,4|0|0,0:3|0:0|0:0,0:0:0:0:
329,159,337776,6,0,L|366:151,2,35.0000013351441,4|0|0,0:3|0:0|0:0,0:0:0:0:
369,232,337980,2,0,L|406:224,2,35.0000013351441,4|0|0,0:3|0:0|0:0,0:0:0:0:
183,159,338184,2,0,L|146:151,2,35.0000013351441,4|0|0,0:3|0:0|0:0,0:0:0:0:
143,232,338388,2,0,L|106:224,2,35.0000013351441,4|0|0,0:3|0:0|0:0,0:0:0:0:
83,93,338592,6,0,L|74:48,2,35.0000013351441,4|0|0,0:3|0:0|0:0,0:0:0:0:
108,78,338797,2,0,L|99:33,2,35.0000013351441,4|0|0,0:3|0:0|0:0,0:0:0:0:
203,28,339001,2,0,L|194:73,2,35.0000013351441,4|0|0,0:3|0:0|0:0,0:0:0:0:
228,43,339205,2,0,L|219:88,2,35.0000013351441,4|0|0,0:3|0:0|0:0,0:0:0:0:
315,114,339409,2,0,L|306:69,2,35.0000013351441,4|0|0,0:3|0:0|0:0,0:0:0:0:
340,99,339613,2,0,L|331:54,2,35.0000013351441,4|0|0,0:3|0:0|0:0,0:0:0:0:
424,144,339817,5,8,0:0:0:0:
482,200,339919,1,8,0:0:0:0:
447,272,340021,1,8,0:0:0:0:
368,261,340123,1,8,0:0:0:0:
353,183,340225,6,0,L|346:157,7,26.2500010013581,4|0|0|0|0|0|0|0,0:3|0:0|0:0|0:0|0:0|0:0|0:0|0:0,0:0:0:0:
272,164,340633,2,0,L|265:138,7,26.2500010013581,4|0|0|0|0|0|0|0,0:3|0:0|0:0|0:0|0:0|0:0|0:0|0:0,0:0:0:0:
212,216,341041,2,0,L|205:190,7,26.2500010013581,4|0|0|0|0|0|0|0,0:3|0:0|0:0|0:0|0:0|0:0|0:0|0:0,0:0:0:0:
248,308,341450,6,0,L|241:334,7,26.2500010013581,4|0|0|0|0|0|0|0,0:3|0:0|0:0|0:0|0:0|0:0|0:0|0:0,0:0:0:0:
167,327,341858,2,0,L|160:353,7,26.2500010013581,4|0|0|0|0|0|0|0,0:3|0:0|0:0|0:0|0:0|0:0|0:0|0:0,0:0:0:0:
107,275,342266,2,0,L|100:301,7,26.2500010013581,4|0|0|0|0|0|0|0,0:3|0:0|0:0|0:0|0:0|0:0|0:0|0:0,0:0:0:0:
52,216,342674,2,0,L|59:190,7,26.2500010013581,4|0|0|0|0|0|0|0,0:3|0:0|0:0|0:0|0:0|0:0|0:0|0:0,0:0:0:0:
133,197,343082,2,0,L|140:171,7,26.2500010013581,4|0|0|0|0|0|0|0,0:3|0:0|0:0|0:0|0:0|0:0|0:0|0:0,0:0:0:0:
74,70,343490,6,0,L|64:32,3,26.2500010013581,4|0|0|0,0:3|0:0|0:0|0:0,0:0:0:0:
147,50,343695,2,0,L|147:10,3,26.2500010013581
223,50,343899,2,0,L|233:12,3,26.2500010013581,4|0|0|0,0:3|0:0|0:0|0:0,0:0:0:0:
296,70,344103,2,0,L|315:36,3,26.2500010013581
360,112,344307,2,0,L|387:84,3,26.2500010013581,4|0|0|0,0:3|0:0|0:0|0:0,0:0:0:0:
413,165,344512,2,0,L|447:145,3,26.2500010013581
451,231,344715,2,0,L|489:221,3,26.2500010013581,4|0|0|0,0:3|0:0|0:0|0:0,0:0:0:0:
471,304,344920,2,0,L|510:304,3,26.2500010013581
471,304,345123,6,0,L|481:342,3,26.2500010013581,4|0|0|0,0:3|0:0|0:0|0:0,0:0:0:0:
398,324,345328,2,0,L|397:363,3,26.2500010013581
322,324,345531,2,0,L|311:361,3,26.2500010013581,4|0|0|0,0:3|0:0|0:0|0:0,0:0:0:0:
249,304,345736,2,0,L|229:337,3,26.2500010013581
185,262,345940,2,0,L|157:289,3,26.2500010013581,4|0|0|0,0:3|0:0|0:0|0:0,0:0:0:0:
132,209,346143,2,0,L|97:228,3,26.2500010013581
94,143,346348,2,0,L|55:152,3,26.2500010013581,4|0|0|0,0:3|0:0|0:0|0:0,0:0:0:0:
74,70,346553,2,0,L|34:69,3,26.2500010013581
152,84,346756,6,0,L|190:92,1,26.2500010013581,4|0,0:3|0:0,0:0:0:0:
198,93,346858,2,0,L|245:101,1,26.2500010013581
247,100,346960,2,0,L|288:78,1,26.2500010013581
286,78,347062,2,0,L|323:53,1,26.2500010013581
326,53,347164,2,0,L|369:59,1,26.2500010013581
372,62,347266,2,0,L|395:93,1,26.2500010013581
398,101,347368,2,0,L|375:136,1,26.2500010013581
371,139,347470,2,0,L|343:173,1,26.2500010013581
341,176,347572,2,0,L|349:219,1,26.2500010013581,4|0,0:3|0:0,0:0:0:0:
349,222,347674,2,0,L|358:264,1,26.2500010013581
359,268,347776,2,0,L|407:262,1,26.2500010013581
406,263,347878,2,0,L|435:294,1,26.2500010013581
438,297,347980,2,0,L|469:328,1,26.2500010013581
471,329,348082,2,0,L|481:284,1,26.2500010013581
483,283,348184,2,0,L|493:236,1,26.2500010013581
493,236,348286,2,0,L|506:196,1,26.2500010013581
453,152,348388,6,0,L|415:135,1,26.2500010013581,4|0,0:3|0:0,0:0:0:0:
410,132,348490,2,0,L|360:144,1,26.2500010013581
364,144,348592,2,0,L|321:153,1,26.2500010013581
318,157,348694,2,0,L|282:165,1,26.2500010013581
272,170,348797,2,0,L|254:211,1,26.2500010013581
252,212,348899,2,0,L|231:253,1,26.2500010013581
231,254,349001,2,0,L|248:296,1,26.2500010013581
248,297,349103,2,0,L|229:338,1,26.2500010013581
227,339,349205,2,0,L|178:350,1,26.2500010013581,4|0,0:3|0:0,0:0:0:0:
180,349,349307,2,0,L|132:358,1,26.2500010013581
133,355,349409,2,0,L|102:330,1,26.2500010013581
97,323,349511,2,0,L|63:291,1,26.2500010013581
63,289,349613,2,0,L|82:256,1,26.2500010013581
85,247,349715,2,0,L|108:209,1,26.2500010013581
108,205,349817,2,0,L|133:164,1,26.2500010013581
131,163,349919,2,0,L|156:126,1,26.2500010013581
105,76,350021,6,0,L|92:44,1,23.3333333333333
132,72,350089,2,0,L|120:41,1,23.3333333333333
159,68,350157,2,0,L|148:37,1,23.3333333333333
186,64,350225,2,0,L|176:34,1,23.3333333333333
213,60,350293,2,0,L|205:28,1,23.3333333333333
240,56,350361,2,0,L|231:25,1,23.3333333333333
267,52,350429,2,0,L|257:21,1,23.3333333333333
294,49,350497,2,0,L|282:14,1,23.3333333333333
321,46,350565,2,0,L|311:13,1,23.3333333333333
348,43,350633,2,0,L|338:9,1,23.3333333333333
375,38,350701,2,0,L|363:7,1,23.3333333333333
402,33,350769,2,0,L|390:2,1,23.3333333333333
429,29,350837,2,0,L|422:1,1,23.3333333333333
427,56,350905,2,0,L|393:64,1,23.3333333333333
423,83,350973,2,0,L|389:91,1,23.3333333333333
419,110,351041,2,0,L|386:116,1,23.3333333333333
415,137,351109,2,0,L|384:142,1,23.3333333333333
411,164,351177,2,0,L|378:167,1,23.3333333333333
407,192,351246,6,0,B|401:243|401:243|430:268|432:317|387:349|337:333|325:293|333:272,1,233.333333333333
368,104,351654,6,0,B|340:60|340:60|294:89|294:89|240:76|240:76|228:124|228:124,1,210.000008010865
204,360,351960,6,0,B|152:328|152:328|136:164,1,210.000008010865
43,67,352266,6,0,B|78:98|78:98|187:87|187:87|229:123,1,210.000008010865
252,288,352572,6,0,B|290:247|290:247|391:255|391:255|422:297,1,210.000008010865
422,297,352878,5,0,0:0:0:0:
456,180,352980,1,0,0:0:0:0:
388,272,353082,1,0,0:0:0:0:
252,288,353184,1,0,0:0:0:0:
162,160,353286,6,0,P|202:164|246:168,1,77.0000023498536,4|0,0:0|0:0,0:0:0:0:
368,104,353490,1,0,0:0:0:0:
388,84,353592,2,0,P|438:141|418:215,1,154.000004699707
421,211,353899,6,0,P|377:214|316:224,1,90.9999958343508
89,255,354205,6,0,P|86:292|85:335,1,77.0000023498536
164,306,354409,2,0,P|167:269|168:226,1,77.0000023498536,0|8,0:0|0:0,0:0:0:0:
46,183,354613,1,0,0:0:0:0:
26,199,354715,2,0,P|20:155|16:123,1,77.0000023498536
154,147,354919,5,0,0:0:0:0:
226,166,355021,1,0,0:0:0:0:
199,40,355123,1,0,0:0:0:0:
271,21,355225,2,0,B|313:6|313:6|281:120,1,154.000004699707
319,181,355531,6,0,P|361:182|346:159,1,90.9999958343508
283,111,355837,5,0,0:0:0:0:
350,347,356041,2,0,P|396:349|425:334,1,77.0000023498536,0|8,0:0|0:0,0:0:0:0:
438,324,356246,1,0,0:0:0:0:
462,214,356348,2,0,P|416:212|387:227,1,77.0000023498536
336,305,356552,6,0,B|351:349|351:349|175:256,1,210.000008010865
206,272,356858,2,0,P|172:276|125:284,1,77.0000023498536,0|8,0:0|0:0,0:0:0:0:
68,238,357062,1,0,0:0:0:0:
49,379,357164,6,0,L|207:354,1,154.000004699707
464,280,357470,1,0,0:0:0:0:
364,68,357674,2,0,P|362:107|360:148,1,77.0000023498536,0|8,0:0|0:0,0:0:0:0:
368,252,357878,1,0,0:0:0:0:
391,249,357980,2,0,P|352:253|306:262,1,77.0000023498536
275,341,358184,6,0,P|223:281|238:209,1,154.000004699707
242,130,358490,2,0,P|282:137|317:144,1,77.0000023498536,0|8,0:0|0:0,0:0:0:0:
396,294,358695,1,0,0:0:0:0:
436,214,358797,6,0,B|422:163|422:163|385:203,1,105.000004005432
396,294,359103,6,0,P|401:332|408:370,1,77.0000023498536
485,132,359307,2,0,P|480:94|473:56,1,77.0000023498536,0|8,0:0|0:0,0:0:0:0:
201,88,359511,1,0,0:0:0:0:
233,92,359613,1,0,0:0:0:0:
265,96,359715,1,0,0:0:0:0:
320,144,359817,6,0,P|326:181|332:224,1,77.0000023498536
495,274,360021,1,0,0:0:0:0:
472,352,360123,2,0,P|393:340|316:332,1,154.000004699707
256,271,360429,6,0,P|213:276|160:283,1,90.9999958343508
147,286,360735,5,0,0:0:0:0:
356,192,360939,2,0,P|341:228|346:269,1,77.0000023498536,0|8,0:0|0:0,0:0:0:0:
352,284,361143,1,0,0:0:0:0:
472,352,361246,2,0,P|487:316|482:275,1,77.0000023498536
296,340,361450,5,0,0:0:0:0:
216,352,361552,1,0,0:0:0:0:
240,232,361654,1,0,0:0:0:0:
164,212,361756,2,0,B|124:200|124:200|136:256|152:320,1,154.000004699707
108,380,362062,6,0,B|63:390|63:390|81:349,1,90.9999958343508
164,212,362368,6,0,P|157:173|152:136,1,77.0000023498536
77,177,362572,2,0,P|84:216|89:253,1,77.0000023498536,0|8,0:0|0:0,0:0:0:0:
280,362,362776,1,0,0:0:0:0:
300,288,362878,2,0,P|223:273|159:332,1,154.000004699707
166,315,363184,6,0,B|220:328|220:328|376:296,1,210.000008010865
348,300,363490,6,0,P|349:262|352:224,1,77.0000023498536,8|0,0:0|0:0,0:0:0:0:
432,192,363694,2,0,P|431:230|428:268,1,77.0000023498536
427,268,363899,5,0,0:0:0:0:
494,122,364001,2,0,B|454:98|454:98|346:115,1,154.000004699707
221,137,364307,5,8,0:0:0:0:
311,46,364409,1,0,0:0:0:0:
228,34,364511,2,0,P|230:74|253:108,1,77.0000023498536
284,188,364715,5,0,0:0:0:0:
248,280,364817,1,0,0:0:0:0:
236,252,364919,1,0,0:0:0:0:
401,287,365021,2,0,P|326:283|245:279,1,154.000004699707
184,340,365327,6,0,P|141:339|173:309,1,105.000004005432
80,272,365633,2,0,L|68:228,1,35
120,164,365837,6,0,P|80:155|40:148,1,77.0000023498536,0|8,0:0|0:0,0:0:0:0:
44,148,366041,1,0,0:0:0:0:
175,99,366143,1,0,0:0:0:0:
183,75,366246,1,0,0:0:0:0:
272,177,366348,6,0,P|250:138|254:106,1,77.0000023498536,4|0,0:0|0:0,0:0:0:0:
387,310,366552,1,0,0:0:0:0:
396,284,366654,2,0,P|335:246|252:261,1,154.000004699707
192,308,366960,6,0,B|163:321|163:321|98:314,1,90.9999958343508
104,314,367266,6,0,P|72:305|101:286,1,77.0000023498536
136,204,367470,2,0,P|168:195|139:176,1,77.0000023498536,0|8,0:0|0:0,0:0:0:0:
52,167,367674,1,0,0:0:0:0:
125,54,367776,2,0,B|111:105|111:105|141:226,1,154.000004699707
216,228,368082,1,0,0:0:0:0:
244,112,368184,1,0,0:0:0:0:
320,76,368286,6,0,B|360:56|360:56|342:170,1,154.000004699707
384,228,368592,2,0,B|370:271|370:271|332:238,1,90.9999958343508
342,163,368899,5,0,0:0:0:0:
456,36,369103,2,0,P|451:77|448:116,1,77.0000023498536,0|8,0:0|0:0,0:0:0:0:
440,284,369307,1,0,0:0:0:0:
464,304,369409,2,0,P|405:362|336:352,1,154.000004699707
339,353,369715,1,0,0:0:0:0:
320,256,369817,1,0,0:0:0:0:
216,344,369919,6,0,B|293:363|293:363|360:320,1,154.000004699707
308,232,370225,1,0,0:0:0:0:
308,232,370327,2,0,P|312:194|316:148,1,77.0000023498536
226,15,370531,6,0,P|231:54|235:91,1,77.0000023498536
135,145,370735,2,0,P|140:106|144:69,1,77.0000023498536,0|8,0:0|0:0,0:0:0:0:
144,68,370939,1,0,0:0:0:0:
331,40,371041,2,0,P|338:120|346:193,1,154.000004699707
474,223,371348,1,0,0:0:0:0:
355,282,371450,1,0,0:0:0:0:
504,233,371552,6,0,P|491:311|413:349,1,154.000004699707
432,348,371858,6,0,B|392:320|392:320|218:336,1,210.000008010865
168,284,372164,1,4,0:3:0:0:
201,214,372266,1,4,0:3:0:0:
195,183,372368,1,4,0:3:0:0:
316,230,372470,6,0,B|352:258|352:258|322:261|288:264,1,105.000004005432,8|0,0:0|0:0,0:0:0:0:
168,284,372674,2,0,B|204:312|204:312|174:315|140:318,1,105.000004005432,8|0,0:0|0:0,0:0:0:0:
20,336,372878,5,0,0:0:0:0:
16,288,372980,1,0,0:0:0:0:
14,240,373082,1,0,0:0:0:0:
46,206,373184,1,0,0:0:0:0:
60,161,373286,1,0,0:0:0:0:
70,115,373388,1,0,0:0:0:0:
31,87,373490,1,0,0:0:0:0:
25,40,373592,1,0,0:0:0:0:
71,33,373694,1,0,0:0:0:0:
118,30,373797,1,0,0:0:0:0:
165,25,373899,1,0,0:0:0:0:
174,71,374001,1,0,0:0:0:0:
246,101,374103,6,0,P|239:136|232:174,1,70
268,116,374307,2,0,P|261:151|254:189,1,70
356,48,374511,2,0,P|349:83|342:121,1,70
378,63,374715,2,0,P|371:98|364:136,1,70
420,204,374919,2,0,P|413:239|406:277,1,70
442,219,375123,2,0,P|435:254|428:292,1,70
312,288,375327,2,0,P|319:323|326:361,1,70
290,303,375531,2,0,P|297:338|304:376,1,70
212,224,375735,5,0,0:0:0:0:
212,224,375837,1,0,0:0:0:0:
212,224,375939,1,0,0:0:0:0:
212,224,376041,1,0,0:0:0:0:
100,360,376143,5,0,0:0:0:0:
40,288,376246,2,0,P|47:222|56:148,1,140
43,57,376552,1,0,0:0:0:0:
87,85,376654,1,0,0:0:0:0:
138,75,376756,1,0,0:0:0:0:
189,65,376858,1,0,0:0:0:0:
240,56,376960,1,0,0:0:0:0:
277,92,377062,1,0,0:0:0:0:
328,99,377164,1,0,0:0:0:0:
379,106,377266,1,0,0:0:0:0:
451,76,377368,6,0,L|486:60,2,35
385,186,377572,2,0,L|377:249,2,35
449,256,377776,6,0,P|423:284|352:288,1,105
351,175,378184,2,0,L|385:186,1,35
281,226,378388,5,0,0:0:0:0:
281,226,378490,1,0,0:0:0:0:
281,226,378592,2,0,L|247:215,1,35
453,114,378797,2,0,P|458:152|464:196,1,70
351,175,379001,6,0,L|385:186,6,35
351,175,379409,6,0,P|344:125|337:70,1,105.000004005432,4|0,0:0|0:0,0:0:0:0:
337,70,379817,5,8,0:0:0:0:
371,146,379919,1,0,0:0:0:0:
351,175,380021,2,0,P|354:137|356:96,1,77.0000023498536
424,44,380225,5,0,0:0:0:0:
432,224,380327,2,0,P|378:263|280:236,1,154.000004699707
197,96,380633,5,8,0:0:0:0:
224,190,380735,1,0,0:0:0:0:
112,136,380837,1,0,0:0:0:0:
104,168,380939,1,0,0:0:0:0:
24,88,381041,6,0,P|68:144|44:230,1,154.000004699707
40,244,381348,1,0,0:0:0:0:
104,296,381450,6,0,B|140:319|140:319|133:236,1,125.999996154785,8|0,0:0|0:0,0:0:0:0:
112,136,381858,5,0,0:0:0:0:
252,155,381960,2,0,B|190:116|190:116|112:135,1,154.000004699707
72,64,382266,2,0,L|128:52,1,35,8|0,0:0|0:0,0:0:0:0:
316,104,382470,2,0,L|268:72,1,35
208,24,382674,6,0,P|187:61|192:103,1,77.0000023498536
280,232,382878,2,0,L|320:240,2,38.5000011749268
192,224,383082,5,8,0:0:0:0:
164,220,383184,1,0,0:0:0:0:
280,232,383286,2,0,P|360:218|432:211,1,154.000004699707
452,132,383592,2,0,P|414:135|372:140,1,77.0000023498536
264,56,383797,1,0,0:0:0:0:
252,155,383899,1,8,0:0:0:0:
272,136,384001,1,0,0:0:0:0:
196,100,384103,2,0,P|169:123|161:92,1,77.0000023498536
80,40,384307,6,0,B|36:16|36:16|50:114|50:114|89:140|89:140|81:186|72:232,1,288.750002753735
276,276,384715,6,0,B|248:336|248:336|168:322|168:322|98:354|98:354|49:302,1,288.750002753735,8|0,0:0|0:0,0:0:0:0:
212,224,385123,6,0,B|202:172|202:172|277:124|277:124|364:176|364:176|316:180,1,288.750002753735
437,339,385531,6,0,B|420:245|420:245|446:209|446:209|428:106|428:106|388:89,1,288.750002753735,8|0,0:0|0:0,0:0:0:0:
328,36,385939,6,0,P|291:40|244:44,1,77.0000023498536,4|0,0:0|0:0,0:0:0:0:
92,61,386143,1,0,0:0:0:0:
64,45,386246,2,0,P|62:89|88:121,1,77.0000023498536,0|8,0:0|0:0,0:0:0:0:
143,153,386450,1,0,0:0:0:0:
278,128,386552,6,0,P|286:176|255:219,1,90.9999958343508
64,313,386858,6,0,P|68:272|73:228,1,77.0000023498536
152,269,387062,2,0,P|148:310|143:354,1,77.0000023498536,0|8,0:0|0:0,0:0:0:0:
76,218,387266,5,0,0:0:0:0:
49,101,387368,1,0,0:0:0:0:
171,118,387470,1,0,0:0:0:0:
163,195,387572,6,0,P|85:188|1:181,1,154.000004699707
235,165,387878,5,0,0:0:0:0:
291,216,387980,2,0,P|336:211|304:179,1,105,8|0,0:0|0:0,0:0:0:0:
235,165,388388,5,0,0:0:0:0:
175,41,388490,2,0,P|172:79|171:116,1,77.0000023498536
61,240,388694,1,0,0:0:0:0:
83,258,388797,2,0,P|123:252|167:246,1,77.0000023498536,8|0,0:0|0:0,0:0:0:0:
304,280,389001,2,0,P|264:286|220:292,1,77.0000023498536
364,216,389205,6,0,B|474:259|474:259|376:324,1,231.000007049561
312,368,389613,1,8,0:0:0:0:
312,368,389715,1,0,0:0:0:0:
312,368,389817,1,0,0:0:0:0:
408,80,390021,5,0,0:0:0:0:
340,32,390123,2,0,P|261:28|184:24,1,154.000004699707
96,52,390429,6,0,L|52:60,2,38.5000011749268,8|0|0,0:0|0:0|0:0,0:0:0:0:
244,104,390633,2,0,L|288:112,2,38.5000011749268
160,120,390837,5,0,0:0:0:0:
164,144,390939,1,0,0:0:0:0:
104,272,391143,1,0,0:0:0:0:
122,256,391245,1,0,0:0:0:0:
268,240,391450,1,0,0:0:0:0:
245,231,391552,1,0,0:0:0:0:
68,176,391756,5,0,0:0:0:0:
44,164,391858,2,0,P|32:260|104:312,1,192.500001835823
368,224,392164,2,0,P|380:128|308:76,1,192.500001835823
100,64,392470,6,0,P|103:88|106:113,1,39.3750015020371,8|0,0:0|0:0,0:0:0:0:
104,103,392674,1,0,0:0:0:0:
339,134,392878,6,0,L|110:107,1,231.000007049561,4|0,0:0|0:0,0:0:0:0:
31,98,393286,1,0,0:0:0:0:
18,68,393388,2,0,B|34:101|34:101|16:216,1,154.000004699707
15,216,393694,5,8,0:0:0:0:
37,313,393797,1,0,0:0:0:0:
125,237,393899,1,0,0:0:0:0:
140,262,394001,1,0,0:0:0:0:
200,136,394103,6,0,P|281:131|332:184,1,154.000004699707
339,198,394409,1,0,0:0:0:0:
283,250,394511,6,0,P|229:248|194:208,1,105,8|0,0:0|0:0,0:0:0:0:
200,136,394919,5,0,0:0:0:0:
184,289,395021,2,0,P|192:212|200:136,1,154.000004699707
212,40,395327,5,8,0:0:0:0:
100,156,395429,1,0,0:0:0:0:
200,136,395531,1,0,0:0:0:0:
52,72,395633,1,0,0:0:0:0:
100,156,395735,6,0,P|103:200|108:240,1,77.0000023498536
116,344,395939,2,0,L|100:384,2,38.5000011749268
184,289,396143,5,8,0:0:0:0:
212,284,396246,1,0,0:0:0:0:
116,344,396348,2,0,B|81:317|81:317|75:267|69:194,1,154.000004699707
24,136,396654,2,0,P|29:100|36:60,1,77.0000023498536
36,59,396858,5,0,0:0:0:0:
144,112,396960,1,8,0:0:0:0:
136,88,397062,1,0,0:0:0:0:
192,32,397164,2,0,B|230:18|230:18|224:58,1,77.0000023498536
272,120,397368,6,0,B|352:88|352:88|373:45|373:45|438:43|438:43|478:94|478:94|457:142,1,315.000012016297
372,172,397776,6,0,B|381:277|381:277|478:305|478:305|509:244|509:244|468:264,1,315.000012016297,8|0,0:0|0:0,0:0:0:0:
337,346,398184,6,0,B|239:317|239:317|204:355|204:355|75:374|75:374|72:342,1,315.000012016297
223,213,398592,6,0,B|169:269|169:269|49:234|49:234|25:265|25:265|-1:195,1,315.000012016297,8|0,0:0|0:0,0:0:0:0:
144,128,399001,6,0,P|186:118|150:97,1,105
180,16,399409,6,0,P|255:73|201:209,1,262.5,4|0,0:0|0:3,0:3:0:0:
200,209,399817,5,0,0:0:0:0:
256,357,399919,2,0,P|252:315|248:265,1,77.0000023498536
332,250,400123,2,0,P|338:287|342:331,1,77.0000023498536,0|8,3:0|0:0,3:0:0:0:
341,326,400327,1,0,0:0:0:0:
428,342,400429,1,0,0:0:0:0:
413,221,400531,1,0,0:0:0:0:
495,201,400633,6,0,B|465:183|465:183|348:204,1,154.000004699707
153,279,400939,1,0,0:0:0:0:
136,297,401041,2,0,P|98:292|63:288,1,70,8|0,0:0|0:0,0:0:0:0:
23,205,401450,5,0,0:0:0:0:
130,42,401552,2,0,L|122:126|114:210,1,154.000004699707
52,92,401858,2,0,L|57:45,1,35,8|0,0:0|0:0,0:0:0:0:
192,176,402062,2,0,L|187:223,1,35
186,232,402266,5,0,0:0:0:0:
448,68,402470,1,0,0:0:0:0:
472,60,402572,1,0,0:0:0:0:
360,40,402674,2,0,B|372:124|372:124|432:160|432:160|440:236,1,231.000007049561,8|0,0:0|0:0,0:0:0:0:
476,352,403082,6,0,B|445:319|445:319|316:309,1,175,12|0,0:0|0:0,0:0:0:0:
64,216,403388,2,0,B|42:257|42:257|54:342|54:342|93:373,1,175,12|0,0:0|0:0,0:0:0:0:
236,248,403694,2,0,B|274:271|274:271|238:300,1,87.5,12|0,0:0|0:0,0:0:0:0:
144,280,403899,5,0,0:0:0:0:
140,120,404001,1,0,0:0:0:0:
236,248,404103,1,0,0:0:0:0:
82,204,404205,1,0,0:0:0:0:
234,153,404307,5,0,0:0:0:0:
69,313,404511,2,0,L|62:365,2,43.75
17,186,404715,6,0,P|93:259|49:325,1,178.500003404617
68,312,405123,1,0,0:0:0:0:
150,359,405225,6,0,P|186:363|226:366,1,70
240,368,405531,1,4,0:0:0:0:
280,200,405939,5,0,0:0:0:0:
360,296,406143,1,0,0:0:0:0:
372,268,406246,1,0,0:0:0:0:
484,276,406450,2,0,P|428:271|372:268,1,112
280,200,406756,6,0,P|301:202|324:203,1,35
416,156,406960,2,0,P|395:154|372:153,1,35
220,32,407164,6,0,B|235:57|235:57|232:144,1,112.34999657135
232,140,407572,5,0,0:0:0:0:
176,208,407674,2,0,P|180:259|184:312,1,105.000004005432
288,236,407980,1,0,0:0:0:0:
312,252,408082,2,0,P|308:303|304:356,1,105.000004005432
184,312,408388,2,0,P|157:309|124:304,1,52.5000020027161
112,172,408592,2,0,P|85:175|52:180,1,52.5000020027161
28,334,408797,6,0,L|196:310,1,157.500006008148
213,309,409205,1,0,0:0:0:0:
112,172,409409,1,0,0:0:0:0:
88,148,409511,2,0,P|78:201|105:236,2,97.9999970092774
132,80,410021,5,0,0:0:0:0:
404,132,410225,1,0,0:0:0:0:
196,192,410429,2,0,P|198:243|200:300,1,97.9999970092774
199,289,410837,5,0,0:0:0:0:
96,356,411041,1,0,0:0:0:0:
115,360,411143,2,0,L|171:368,1,48.9999985046387
381,378,411348,2,0,P|338:345|238:366,1,146.999995513916
400,184,411858,1,0,0:0:0:0:
484,344,412062,6,0,P|450:346|375:349,1,105
250,355,412470,1,0,0:0:0:0:
304,236,412674,5,0,0:0:0:0:
296,208,412776,1,0,0:0:0:0:
394,242,412980,2,0,L|299:235,1,90.9999958343508
208,180,413286,6,0,L|216:224,1,35
152,300,413490,2,0,L|144:256,1,35
48,124,413694,5,0,0:0:0:0:
48,124,414103,2,0,B|93:79|93:79|102:149,1,125.999996154785
56,220,414511,2,0,P|76:236|91:225,1,41.9999987182618
176,220,414715,2,0,P|196:204|211:215,1,41.9999987182618
306,291,414919,2,0,P|265:287|215:285,1,83.9999974365235
376,220,415327,6,0,P|417:216|496:208,1,115.50000352478
440,136,415735,2,0,L|444:80,1,38.5000011749268
298,40,415939,1,0,0:0:0:0:
320,52,416041,2,0,P|341:90|336:134,1,77.0000023498536
264,108,416348,2,0,P|250:146|204:168,1,77.0000023498536
100,152,416756,1,0,0:0:0:0:
100,152,416960,5,0,0:0:0:0:
68,240,417368,1,0,0:0:0:0:
160,224,417572,1,0,0:0:0:0:
160,224,417674,1,0,0:0:0:0:
220,288,417878,2,0,P|259:292|304:296,1,77.0000023498536
380,320,418184,2,0,L|368:276,1,38.5000011749268
460,232,418388,2,0,L|448:276,1,38.5000011749268
348,208,418592,5,0,0:0:0:0:
348,208,419001,2,0,L|236:200,1,105
175,148,419409,1,0,0:0:0:0:
160,168,419511,2,0,P|165:205|172:244,1,70
177,261,419817,1,0,0:0:0:0:
228,96,420021,1,0,0:0:0:0:
24,88,420225,6,0,P|91:93|153:45,1,140
72,176,420837,1,0,0:0:0:0:
72,176,420939,2,0,L|76:256,1,70
68,348,421348,1,0,0:0:0:0:
68,348,421450,2,0,P|101:351|144:356,1,70
232,312,421858,6,0,P|296:307|360:304,1,125.999996154785
464,216,422470,1,0,0:0:0:0:
464,216,422572,2,0,P|458:251|452:288,2,62.9999980773926
469,187,423082,5,0,0:0:0:0:
416,100,423286,1,0,0:0:0:0:
380,196,423490,2,0,P|333:234|248:228,2,125.999996154785
356,176,424409,2,0,P|336:136|341:93,2,84
416,122,425123,6,0,L|472:132,2,48.9999985046387
340,56,425735,1,0,0:0:0:0:
340,56,425838,2,0,L|297:63,1,41.9999987182618
240,112,426143,2,0,L|184:104,2,41.9999987182618
48,60,426756,5,0,0:0:0:0:
48,60,427164,1,0,0:0:0:0:
71,153,427334,5,0,0:0:0:0:
76,176,427444,2,0,L|82:208,1,31.5
143,246,427904,2,0,L|138:283,1,35
74,344,428772,2,0,L|67:309,1,35
48,334,430379,2,0,L|43:362,1,26.2499991989136
