osu file format v14

[General]
AudioFilename: audio.mp3
AudioLeadIn: 0
PreviewTime: -1
Countdown: 0
SampleSet: None
StackLeniency: 0.3
Mode: 0
LetterboxInBreaks: 0
WidescreenStoryboard: 0

[Editor]
Bookmarks: 73505,118199,133914,138199
DistanceSpacing: 0.8
BeatDivisor: 8
GridSize: 4
TimelineZoom: 1.100006

[Metadata]
Title:kannabis kultivation
TitleUnicode:kannabis kultivation
Artist:Camellia
ArtistUnicode:かめりあ
Creator:Zel
Version:420
Source:
Tags:
BeatmapID:1365183
BeatmapSetID:644078

[Difficulty]
HPDrainRate:5
CircleSize:3.7
OverallDifficulty:9
ApproachRate:9.6
SliderMultiplier:1.3
SliderTickRate:1

[Events]
//Background and Video events
0,0,"wallpaper-trippy-art-digital-miscellaneous-colorful.jpg",0,0
//Break Periods
2,40032,55649
//Storyboard Layer 0 (Background)
//Storyboard Layer 1 (Fail)
//Storyboard Layer 2 (Pass)
//Storyboard Layer 3 (Foreground)
//Storyboard Sound Samples

[TimingPoints]
13710,408.163265306122,4,2,0,60,1,0
13710,-200,4,2,0,60,0,0
26771,-600,4,2,0,40,0,0
27995,-200,4,2,0,40,0,0
28403,-600,4,2,0,40,0,0
29628,-200,4,2,0,40,0,0
30036,-600,4,2,0,40,0,0
32893,-200,4,2,0,40,0,0
33301,-600,4,2,0,40,0,0
36158,-200,4,2,0,40,0,0
36567,-600,4,2,0,40,0,0
38199,-200,4,2,0,40,0,0
65750,-200,4,2,0,5,0,0
65954,-50,4,2,0,40,0,0
66261,-250,4,2,0,40,0,0
69220,-50,4,2,0,40,0,0
69526,-166.666666666667,4,2,0,40,0,0
72485,-50,4,2,0,40,0,0
72791,-133.333333333333,4,2,0,40,0,0
75750,-45.4545454545455,4,2,0,40,0,0
76056,-111.111111111111,4,2,0,40,0,0
78607,-66.6666666666667,4,2,0,40,0,0
79016,-50,4,2,0,40,0,0
79424,-100,4,2,0,40,0,0
82281,-50,4,2,0,40,0,0
82689,-100,4,2,0,40,0,0
85546,-50,4,2,0,40,0,0
85954,-100,4,2,0,40,0,0
88812,-100,4,2,0,40,0,0
89220,-90.9090909090909,4,2,0,40,0,0
89628,-83.3333333333333,4,2,0,40,0,0
90036,-76.9230769230769,4,2,0,40,0,0
90444,-66.6666666666667,4,2,0,40,0,0
91261,-100,4,2,0,40,0,0
91567,-62.5,4,2,0,40,0,0
92077,-100,4,2,0,40,0,0
98607,-100,4,2,0,40,0,0
113301,-50,4,2,0,40,0,0
114934,-25,4,2,0,40,0,0
115342,-35.7142857142857,4,2,0,40,0,0
116567,-35.7142857142857,4,2,0,40,0,0
118199,-35.7142857142857,4,2,0,40,0,1
119016,-66.6666666666667,4,2,0,40,0,1
119832,-35.7142857142857,4,2,0,40,0,1
120036,-133.333333333333,4,2,0,40,0,1
120240,-35.7142857142857,4,2,0,40,0,1
120648,-100,4,2,0,40,0,1
121465,-35.7142857142857,4,2,0,40,0,1
122281,-66.6666666666667,4,2,0,40,0,1
122689,-40,4,2,0,40,0,1
123097,-33.3333333333333,4,2,0,40,0,1
124730,-35.7142857142857,4,2,0,40,0,1
125546,-66.6666666666667,4,2,0,40,0,1
126363,-35.7142857142857,4,2,0,40,0,1
126567,-133.333333333333,4,2,0,40,0,1
126771,-35.7142857142857,4,2,0,40,0,1
127179,-66.6666666666667,4,2,0,40,0,1
127995,-35.7142857142857,4,2,0,40,0,1
128812,-66.6666666666667,4,2,0,40,0,1
129220,-40,4,2,0,40,0,1
129628,-100,4,2,0,40,0,1
130648,-50,4,2,0,40,0,1
131261,-35.7142857142857,4,2,0,40,0,1
132077,-66.6666666666667,4,2,0,40,0,1
132893,-35.7142857142857,4,2,0,40,0,1
133097,-133.333333333333,4,2,0,40,0,1
133301,-35.7142857142857,4,2,0,40,0,1
133709,-66.6666666666667,4,2,0,40,0,1
134526,-35.7142857142857,4,2,0,40,0,1
134730,-133.333333333333,4,2,0,40,0,1
134934,-35.7142857142857,4,2,0,40,0,1
135342,-66.6666666666667,4,2,0,40,0,1
135750,-33.3333333333333,4,2,0,40,0,1
136158,-30.3030303030303,4,2,0,40,0,1
137791,-200,4,2,0,40,0,1
138199,-35.7142857142857,4,2,0,40,0,1
139016,-66.6666666666667,4,2,0,40,0,1
139424,-35.7142857142857,4,2,0,40,0,1
139628,-133.333333333333,4,2,0,40,0,1
139832,-35.7142857142857,4,2,0,40,0,1
140240,-66.6666666666667,4,2,0,40,0,1
140648,-28.5714285714286,4,2,0,40,0,1
141056,-35.7142857142857,4,2,0,40,0,1
141261,-133.333333333333,4,2,0,40,0,1
141465,-52.6315789473684,4,2,0,40,0,1
141873,-50,4,2,0,40,0,1
143097,-100,4,2,0,40,0,1
143914,-66.6666666666667,4,2,0,40,0,1
144322,-28.5714285714286,4,2,0,40,0,0
145138,-66.6666666666667,4,2,0,40,0,0
145750,-50,4,2,0,40,0,0
145954,-28.5714285714286,4,2,0,40,0,0
147587,-28.5714285714286,4,2,0,40,0,0
150852,-66.6666666666667,4,2,0,40,0,0
151261,-50,4,2,0,40,0,0
151669,-28.5714285714286,4,2,0,40,0,0
153301,-66.6666666666667,4,2,0,40,0,0
153709,-50,4,2,0,40,0,0
154118,-28.5714285714286,4,2,0,40,0,0
154934,-50,4,2,0,40,0,0
155750,-28.5714285714286,4,2,0,40,0,0
157383,-28.5714285714286,4,2,0,40,0,0
158199,-66.6666666666667,4,2,0,40,0,0
158812,-50,4,2,0,40,0,0
159016,-28.5714285714286,4,2,0,40,0,0
160852,-100,4,2,0,40,0,0
161056,-28.5714285714286,4,2,0,40,0,0
161465,-50,4,2,0,40,0,0
162281,-28.5714285714286,4,2,0,40,0,0
163301,-50,4,2,0,40,0,0
163505,-100,4,2,0,40,0,0
163914,-28.5714285714286,4,2,0,40,0,0
164730,-100,4,2,0,40,0,0
165546,-27.027027027027,4,2,0,40,0,0
166771,-33.3333333333333,4,2,0,40,0,0
167179,-50,4,2,0,40,0,0
168812,-100,4,2,0,40,0,0

[HitObjects]
76,85,13710,6,0,L|176:90,1,97.5
284,64,14424,2,0,L|284:55,1,8.125
294,76,14526,6,0,L|287:207,1,130
366,291,15750,5,0,0:0:0:0:
361,310,16158,1,0,0:0:0:0:
357,329,16567,1,0,0:0:0:0:
353,348,16975,6,0,L|253:354,1,97.5
138,328,17689,2,0,L|138:336,1,8.125
148,316,17791,6,0,L|141:185,1,130
419,183,20240,6,0,P|376:197|319:200,1,97.5
218,105,20954,2,0,L|216:93,1,8.125
234,48,21056,6,0,P|248:91|246:180,1,130
75,159,22281,5,0,0:0:0:0:
82,169,22689,1,0,0:0:0:0:
89,179,23097,1,0,0:0:0:0:
95,190,23505,6,0,P|145:194|185:217,1,97.5
256,300,24220,5,0,0:0:0:0:
256,300,24271,1,0,0:0:0:0:
256,300,24322,2,0,P|260:250|283:210,1,97.5
424,196,25036,5,0,0:0:0:0:
424,196,25087,1,0,0:0:0:0:
424,196,25138,2,0,P|390:198|358:186,3,65
406,81,26771,6,0,L|363:84,1,43.3333333333333
270,38,27893,1,0,0:0:0:0:
246,46,27995,2,0,L|208:45,1,32.5
100,72,28403,6,0,L|143:75,1,43.3333333333333
195,172,29526,1,0,0:0:0:0:
171,164,29628,2,0,L|132:169,1,32.5
154,259,30036,6,0,L|197:262,2,43.3333333333333
313,335,32077,2,0,L|288:336,1,21.6666666666667
328,237,32791,1,0,0:0:0:0:
352,245,32893,2,0,L|391:245,1,32.5
453,162,33301,6,0,L|410:165,3,43.3333333333333
329,94,36056,1,0,0:0:0:0:
311,106,36158,2,0,L|270:104,1,32.5
239,17,36567,6,0,L|282:20,1,43.3333333333333
212,97,38199,2,0,L|137:101,3,65
292,174,39832,1,0,0:0:0:0:
256,192,56158,12,0,65750,0:0:0:0:
266,157,65954,6,0,P|202:128|137:135,1,130
80,57,66261,2,0,P|111:54|121:50,1,39
280,28,66873,5,0,0:0:0:0:
336,123,67077,2,0,P|332:106|330:88,1,26
403,9,67383,2,0,L|401:48,1,39
461,138,67791,5,0,0:0:0:0:
469,156,67893,2,0,P|449:149|440:147,1,26
349,211,68199,2,0,P|364:209|378:203,1,26
479,290,68505,5,0,0:0:0:0:
372,316,68709,2,0,P|350:316|339:320,1,26
285,363,69016,1,0,0:0:0:0:
88,270,69220,6,0,P|152:299|217:292,1,130
262,180,69526,2,0,P|243:186|222:187,1,38.9999988098145
151,154,69832,1,0,0:0:0:0:
251,20,70138,5,0,0:0:0:0:
326,111,70342,2,0,P|327:91|330:71,1,38.9999988098145
407,10,70648,2,0,L|411:56,1,38.9999988098145
431,113,70954,5,0,0:0:0:0:
436,180,71056,1,0,0:0:0:0:
404,240,71158,2,0,L|363:244,1,38.9999988098145
264,201,71465,2,0,P|245:198|225:201,1,38.9999988098145
157,242,71771,1,0,0:0:0:0:
161,95,71975,2,0,P|164:117|176:137,1,38.9999988098145
226,172,72281,5,0,0:0:0:0:
293,178,72383,1,0,0:0:0:0:
355,149,72485,2,0,P|384:85|377:20,1,130
294,53,72791,1,0,0:0:0:0:
281,73,72893,2,0,P|253:81|230:83,1,48.750001859665
110,24,73301,5,0,0:0:0:0:
103,44,73403,1,0,0:0:0:0:
168,146,73607,2,0,P|180:167|185:196,1,48.750001859665
8,186,73914,2,0,P|12:162|24:141,1,48.750001859665
96,192,74220,5,0,0:0:0:0:
130,270,74322,1,0,0:0:0:0:
201,317,74424,2,0,P|225:306|253:303,1,48.750001859665
342,354,74730,2,0,L|394:358,1,48.750001859665
467,334,75036,1,0,0:0:0:0:
364,213,75240,2,0,P|373:237|376:261,1,48.750001859665
463,247,75546,2,0,L|465:222,1,24.3750009298325
459,69,75750,6,0,P|403:100|321:92,1,143.000004364014
252,20,76056,2,0,P|225:11|194:7,1,58.4999982147217
35,73,76363,2,0,L|95:67,1,58.4999982147217
203,95,76669,1,0,0:0:0:0:
77,199,76873,6,0,P|72:232|74:264,1,58.4999982147217
222,227,77179,2,0,L|163:230,1,58.4999982147217
208,326,77485,5,0,0:0:0:0:
297,364,77587,1,0,0:0:0:0:
319,254,77689,1,0,0:0:0:0:
383,380,77791,2,0,P|411:382|419:382,1,29.2499991073609
423,197,77995,2,0,P|395:195|387:195,2,29.2499991073609
492,83,78301,5,0,0:0:0:0:
350,15,78505,1,0,0:0:0:0:
333,31,78607,2,0,L|299:34,6,24.3750009298325
245,84,79016,6,0,P|204:70|180:67,1,65
40,67,79220,1,0,0:0:0:0:
33,92,79322,1,0,0:0:0:0:
132,141,79424,6,0,P|148:143|163:149,1,32.5
216,234,79628,2,0,L|141:243,1,65
62,308,79934,5,0,0:0:0:0:
248,347,80138,1,0,0:0:0:0:
216,234,80342,1,0,0:0:0:0:
209,259,80444,2,0,P|243:252|276:255,1,65
359,314,80750,5,0,0:0:0:0:
368,230,80852,1,0,0:0:0:0:
378,146,80954,1,0,0:0:0:0:
481,31,81158,1,0,0:0:0:0:
456,26,81260,2,0,P|462:60|459:93,1,65
447,195,81567,5,0,0:0:0:0:
369,64,81771,1,0,0:0:0:0:
267,178,81975,1,0,0:0:0:0:
292,183,82077,2,0,L|288:149,1,32.5
194,38,82281,6,0,P|208:79|211:103,1,65
211,243,82485,1,0,0:0:0:0:
186,250,82587,1,0,0:0:0:0:
43,269,82791,5,0,0:0:0:0:
54,292,82893,2,0,L|129:301,1,65
196,340,83199,5,0,0:0:0:0:
292,183,83403,1,0,0:0:0:0:
380,345,83607,1,0,0:0:0:0:
358,327,83709,2,0,P|355:294|361:262,1,65
424,190,84016,5,0,0:0:0:0:
485,132,84118,1,0,0:0:0:0:
365,79,84220,2,0,P|334:67|297:68,1,65
252,186,84526,2,0,L|316:178,1,65
424,190,84832,5,0,0:0:0:0:
252,314,85036,1,0,0:0:0:0:
229,104,85240,1,0,0:0:0:0:
248,118,85342,2,0,L|251:155,1,32.5
159,230,85546,6,0,P|141:198|135:164,1,65
162,28,85750,1,0,0:0:0:0:
185,17,85852,1,0,0:0:0:0:
84,80,86056,1,0,0:0:0:0:
61,69,86158,2,0,P|43:101|37:135,1,65
45,229,86465,5,0,0:0:0:0:
252,314,86669,1,0,0:0:0:0:
223,93,86873,1,0,0:0:0:0:
209,112,86975,2,0,P|243:130|271:136,1,65
367,25,87281,5,0,0:0:0:0:
292,58,87383,1,0,0:0:0:0:
268,135,87485,2,0,P|286:169|292:197,1,65
377,300,87791,2,0,L|383:233,1,65
398,102,88097,5,0,0:0:0:0:
478,347,88301,1,0,0:0:0:0:
398,102,88505,1,0,0:0:0:0:
354,133,88607,2,0,L|320:135,1,32.5
201,91,88812,6,0,L|199:124,1,32.5
148,280,89016,2,0,L|150:247,1,32.5
185,79,89220,6,0,L|189:115,1,35.7500010910034
163,291,89424,2,0,L|159:255,1,35.7500010910034
165,71,89628,6,0,L|176:108,1,38.9999988098145
183,299,89832,2,0,L|172:262,1,38.9999988098145
143,63,90036,6,0,L|162:101,1,42.2499980659486
205,307,90240,2,0,L|186:269,1,42.2499980659486
72,192,90444,5,0,0:0:0:0:
72,192,90648,2,0,B|120:205|120:205|212:172|212:172|262:183,1,195.00000743866
337,298,91261,6,0,P|318:269|314:230,1,65
417,136,91567,2,0,B|439:193|448:252|436:282|436:282|421:260|398:240,1,208
313,239,92077,6,0,L|305:169,1,65
210,175,92485,2,0,L|218:105,1,65
259,22,92791,1,0,0:0:0:0:
270,3,92893,6,0,L|200:11,1,65
137,78,93301,2,0,L|67:70,1,65
113,176,93607,1,0,0:0:0:0:
130,192,93709,6,0,L|137:256,1,65
218,317,94118,2,0,L|225:252,1,65
299,169,94424,1,0,0:0:0:0:
319,187,94526,6,0,L|323:223,2,32.5
381,115,94934,2,0,L|384:82,2,32.5
286,66,95342,6,0,P|252:51|222:44,1,65
126,49,95750,2,0,P|94:57|65:70,1,65
45,169,96056,1,0,0:0:0:0:
60,192,96158,6,0,P|94:207|124:214,1,65
220,209,96566,2,0,P|251:200|280:187,1,65
338,91,96975,5,0,0:0:0:0:
343,122,97077,1,0,0:0:0:0:
357,151,97179,1,0,0:0:0:0:
380,174,97281,1,0,0:0:0:0:
409,189,97383,2,0,P|441:209|466:242,1,65
380,370,97791,5,0,0:0:0:0:
373,355,97893,1,0,0:0:0:0:
369,339,97995,1,0,0:0:0:0:
367,323,98097,1,0,0:0:0:0:
371,307,98199,2,0,P|373:292|380:274,3,32.5
256,346,98607,5,0,0:0:0:0:
240,366,98709,2,0,P|206:375|167:372,1,65
101,323,99016,1,0,0:0:0:0:
149,229,99220,1,0,0:0:0:0:
66,132,99424,5,0,0:0:0:0:
66,132,99526,1,0,0:0:0:0:
66,132,99628,1,0,0:0:0:0:
165,127,99832,2,0,P|199:136|238:133,1,65
304,84,100139,1,0,0:0:0:0:
364,21,100240,5,0,0:0:0:0:
384,37,100342,2,0,P|393:71|390:110,1,65
341,176,100648,2,0,P|342:208|346:223,2,32.5
400,272,101056,5,0,0:0:0:0:
384,292,101158,2,0,P|366:296|346:295,2,32.5
322,374,101465,1,0,0:0:0:0:
314,375,101567,1,0,0:0:0:0:
306,377,101669,1,0,0:0:0:0:
298,378,101771,1,0,0:0:0:0:
290,380,101873,5,0,0:0:0:0:
254,358,101975,2,0,P|282:342|313:348,1,65
222,341,102281,2,0,L|217:275,1,65
203,200,102689,5,0,0:0:0:0:
203,200,102791,1,0,0:0:0:0:
203,200,102893,1,0,0:0:0:0:
203,200,102995,1,0,0:0:0:0:
123,240,103097,2,0,P|91:247|59:246,1,65
1,167,103403,1,0,0:0:0:0:
39,77,103505,5,0,0:0:0:0:
96,31,103607,2,0,P|110:61|111:94,1,65
220,15,103914,2,0,L|226:83,1,65
311,195,104322,5,0,0:0:0:0:
322,169,104424,1,0,0:0:0:0:
469,153,104628,5,0,0:0:0:0:
458,127,104730,2,0,L|448:95,1,32.5
321,31,104934,2,0,L|311:62,1,32.5
407,251,105138,6,0,L|411:287,1,32.5
396,262,105342,2,0,L|400:298,1,32.5
385,273,105546,2,0,L|389:309,1,32.5
374,284,105750,2,0,L|378:320,1,32.5
206,371,105954,6,0,L|210:335,1,32.5
195,360,106158,2,0,L|199:324,1,32.5
184,349,106362,2,0,L|188:313,1,32.5
173,338,106566,2,0,L|177:302,1,32.5
216,190,106771,6,0,L|179:185,1,32.5
219,175,106975,2,0,L|187:156,1,32.5
228,162,107179,2,0,L|205:133,1,32.5
228,162,107383,2,0,L|218:126,1,32.5
292,131,107587,6,0,L|283:162,1,32.5
303,137,107791,2,0,L|283:162,1,32.5
295,257,107995,1,0,0:0:0:0:
295,257,108097,1,0,0:0:0:0:
295,257,108199,1,0,0:0:0:0:
295,257,108301,1,0,0:0:0:0:
380,207,108403,6,0,L|416:204,1,32.5
463,116,108607,2,0,L|427:119,1,32.5
303,137,108812,2,0,L|267:134,1,32.5
220,46,109016,2,0,L|256:49,1,32.5
201,142,109220,5,0,0:0:0:0:
171,169,109322,1,0,0:0:0:0:
134,186,109424,1,0,0:0:0:0:
94,190,109526,1,0,0:0:0:0:
54,181,109628,1,0,0:0:0:0:
82,210,109730,1,0,0:0:0:0:
98,247,109832,2,0,P|109:271|113:292,1,32.5
43,378,110036,5,0,0:0:0:0:
80,363,110138,1,0,0:0:0:0:
119,352,110240,1,0,0:0:0:0:
159,345,110342,1,0,0:0:0:0:
249,373,110444,5,0,0:0:0:0:
270,374,110546,1,0,0:0:0:0:
292,376,110648,1,0,0:0:0:0:
313,377,110750,1,0,0:0:0:0:
385,324,110852,5,0,0:0:0:0:
388,291,110954,2,0,L|390:257,1,32.5
303,163,111158,5,0,0:0:0:0:
300,130,111260,2,0,L|298:96,1,32.5
435,30,111465,2,0,L|433:64,1,32.5
303,163,111669,5,0,0:0:0:0:
272,173,111771,1,0,0:0:0:0:
240,176,111873,1,0,0:0:0:0:
207,172,111975,1,0,0:0:0:0:
152,173,112077,1,0,0:0:0:0:
125,154,112179,1,0,0:0:0:0:
103,130,112281,1,0,0:0:0:0:
87,102,112383,1,0,0:0:0:0:
97,34,112485,5,0,0:0:0:0:
121,69,112587,1,0,0:0:0:0:
131,111,112689,1,0,0:0:0:0:
125,154,112791,1,0,0:0:0:0:
40,205,112893,1,0,0:0:0:0:
16,240,112995,1,0,0:0:0:0:
6,282,113097,1,0,0:0:0:0:
12,325,113199,1,0,0:0:0:0:
89,376,113301,6,0,L|122:379,6,32.5
129,295,113709,2,0,L|162:292,6,32.5
238,381,114118,6,0,L|271:384,6,32.5
313,270,114526,2,0,L|346:267,6,32.5
445,293,114934,6,0,P|447:266|473:281,6,65
403,235,115342,6,0,L|357:231,1,45.4999986114502
406,203,115444,2,0,L|361:191,1,45.4999986114502
419,173,115546,2,0,L|376:153,1,45.4999986114502
434,144,115648,2,0,L|395:117,1,45.4999986114502
449,118,115750,2,0,L|406:98,1,45.4999986114502
455,93,115852,2,0,L|409:80,1,45.4999986114502
456,74,115954,2,0,L|409:69,1,45.4999986114502
460,57,116056,2,0,L|413:61,1,45.4999986114502
463,47,116158,5,0,0:0:0:0:
457,45,116260,1,0,0:0:0:0:
451,44,116362,1,0,0:0:0:0:
446,43,116464,1,0,0:0:0:0:
439,40,116567,6,0,B|349:43|349:43|324:83|324:83|281:95|281:95,1,181.999994445801
248,195,116873,2,0,B|288:201|288:201|343:182|343:182|386:147|386:147|390:117,1,181.999994445801
292,75,117179,5,0,0:0:0:0:
286,85,117281,1,0,0:0:0:0:
280,95,117383,2,0,B|234:101|234:101|191:85,1,90.9999972229005
99,0,117587,5,0,0:0:0:0:
109,6,117689,1,0,0:0:0:0:
119,12,117791,2,0,B|125:58|125:58|109:101,1,90.9999972229005
8,207,117995,2,0,B|2:253|2:253|18:296,1,90.9999972229005
178,330,118199,6,0,B|144:360|144:360|154:178|154:178|178:221,1,272.999991668701
376,289,118607,2,0,B|240:272|240:272|277:246,1,181.999994445801
380,145,118914,1,0,0:0:0:0:
405,145,119016,6,0,P|432:154|454:168,1,48.750001859665
376,289,119220,2,0,P|352:281|331:269,1,48.750001859665
268,170,119424,5,0,0:0:0:0:
308,81,119526,1,0,0:0:0:0:
220,19,119628,1,0,0:0:0:0:
113,34,119730,1,0,0:0:0:0:
65,131,119832,6,0,P|66:176|88:217,1,90.9999972229005
184,273,120036,2,0,L|189:248,1,24.3750009298325
268,170,120240,6,0,B|310:186|310:186|351:165|351:165|435:197|435:197|449:223|449:223|508:246,1,272.999991668701
363,326,120648,2,0,P|343:339|326:343,1,32.5
212,288,120852,2,0,P|192:275|175:271,1,32.5
17,269,121056,5,0,0:0:0:0:
74,341,121158,1,0,0:0:0:0:
105,245,121261,1,0,0:0:0:0:
136,149,121363,1,0,0:0:0:0:
202,74,121465,6,0,B|247:41|295:37|337:64|355:106|355:106|403:102|403:102|408:146,1,272.999991668701
293,244,121873,2,0,B|265:279|265:279|270:132,1,181.999994445801
390,80,122179,1,0,0:0:0:0:
403,101,122281,6,0,P|396:124|408:144,1,48.750001859665
485,195,122485,2,0,P|492:218|480:238,1,48.750001859665
360,295,122689,2,0,L|238:285,1,121.875
171,253,122893,2,0,L|293:243,1,121.875
350,183,123097,6,0,P|262:67|129:90,1,292.50001115799
40,140,123505,2,0,P|79:174|125:186,1,97.50000371933
204,176,123709,1,0,0:0:0:0:
273,222,123811,1,0,0:0:0:0:
268,300,123914,6,0,P|405:318|487:205,1,292.50001115799
350,183,124322,6,0,B|384:151|401:84|376:-8|376:-8|419:2|444:47,1,292.50001115799
512,145,124730,6,0,B|416:122|416:122|390:90|390:90|351:108|351:108|246:84,1,272.999991668701
110,190,125138,2,0,B|243:171|243:171|207:200,1,181.999994445801
292,257,125444,1,0,0:0:0:0:
288,285,125546,6,0,P|261:288|248:314,1,48.750001859665
404,366,125750,2,0,P|431:363|444:337,1,48.750001859665
492,207,125954,5,0,0:0:0:0:
411,239,126056,1,0,0:0:0:0:
368,113,126158,1,0,0:0:0:0:
318,182,126261,1,0,0:0:0:0:
228,69,126363,6,0,L|211:160,1,90.9999972229005
159,249,126567,2,0,L|155:219,1,24.3750009298325
81,60,126771,6,0,B|48:33|48:33|59:216|59:216|82:175,1,272.999991668701
151,116,127179,2,0,L|203:115,1,48.750001859665
345,112,127383,1,0,0:0:0:0:
355,113,127485,1,0,0:0:0:0:
368,114,127587,2,0,L|369:166,1,48.750001859665
369,330,127791,1,0,0:0:0:0:
466,246,127893,1,0,0:0:0:0:
466,246,127995,6,0,B|418:248|418:248|379:234|379:234|345:252|292:259|292:259|298:212|298:212|252:204,1,272.999991668701
85,296,128403,2,0,B|219:271|219:271|175:257,1,181.999994445801
64,167,128709,1,0,0:0:0:0:
75,144,128812,6,0,P|97:132|123:132,1,48.750001859665
225,25,129016,2,0,P|203:37|177:37,1,48.750001859665
224,128,129220,2,0,L|348:142,1,121.875
416,191,129424,2,0,L|292:205,1,121.875
219,247,129628,6,0,P|199:260|182:264,1,32.5
89,232,129832,1,0,0:0:0:0:
89,232,129934,2,0,P|109:219|126:215,1,32.5
241,136,130240,6,0,P|221:149|204:153,1,32.5
16,111,130444,1,0,0:0:0:0:
16,111,130546,1,0,0:0:0:0:
16,111,130648,2,0,P|81:105|136:142,1,130
219,247,130954,2,0,L|75:231,1,130
187,339,131261,6,0,B|277:351|277:351|278:299|323:271|323:271|331:319|380:334,1,272.999991668701
403,122,131669,2,0,B|399:258|399:258|424:219,1,181.999994445801
504,153,131975,1,0,0:0:0:0:
509,130,132077,6,0,P|504:104|507:81,1,48.750001859665
335,0,132281,2,0,P|340:26|337:49,1,48.750001859665
219,98,132485,1,0,0:0:0:0:
136,90,132587,1,0,0:0:0:0:
143,8,132689,1,0,0:0:0:0:
226,15,132791,1,0,0:0:0:0:
326,81,132893,6,0,P|316:130|322:175,1,90.9999972229005
220,232,133097,2,0,L|218:208,1,24.3750009298325
136,90,133301,6,0,B|128:134|128:134|60:197|60:197|132:250|132:250|138:296,1,272.999991668701
245,365,133709,2,0,P|270:377|291:378,1,48.750001859665
346,260,133914,2,0,P|371:248|392:247,1,48.750001859665
498,292,134118,5,0,0:0:0:0:
434,356,134220,1,0,0:0:0:0:
422,249,134322,1,0,0:0:0:0:
411,141,134424,1,0,0:0:0:0:
349,61,134526,6,0,P|305:43|257:39,1,90.9999972229005
163,96,134730,2,0,L|189:94,1,24.3750009298325
277,133,134934,6,0,B|287:188|252:229|199:237|159:211|159:211|118:246|118:246|137:286,1,272.999991668701
235,335,135342,2,0,P|265:338|290:349,1,48.750001859665
369,381,135546,1,0,0:0:0:0:
418,374,135648,1,0,0:0:0:0:
441,328,135750,2,0,L|459:180,1,146.250005578995
356,126,135954,2,0,L|373:271,1,146.250005578995
458,182,136158,6,0,P|430:36|257:67,1,321.750003068447
215,216,136567,2,0,P|269:213|312:181,1,107.250001022816
239,125,136771,1,0,0:0:0:0:
150,119,136873,1,0,0:0:0:0:
70,154,136975,6,0,P|36:254|200:341,1,321.750003068447
334,238,137383,2,0,B|273:236|234:263|234:263|232:208|209:159|209:159|191:228|152:248,1,321.750003068447
235,264,137791,6,0,P|258:250|284:243,1,48.75
388,294,138199,2,0,B|422:324|422:324|412:142|412:142|388:185,1,272.999991668701
299,144,138607,5,0,0:0:0:0:
253,75,138709,1,0,0:0:0:0:
197,135,138812,1,0,0:0:0:0:
116,120,138914,1,0,0:0:0:0:
115,201,139016,6,0,P|116:228|128:258,1,48.750001859665
194,337,139220,1,0,0:0:0:0:
209,235,139322,1,0,0:0:0:0:
115,201,139424,6,0,P|66:191|32:161,1,90.9999972229005
83,50,139628,2,0,L|86:75,1,24.3750009298325
173,133,139832,6,0,B|217:147|217:147|301:118|301:118|392:121|392:121|427:85,1,272.999991668701
350,0,140240,2,0,P|351:26|362:53,1,48.750001859665
467,149,140444,2,0,P|466:175|455:202,1,48.750001859665
393,274,140648,6,0,P|326:231|237:241,1,170.625001627207
196,317,140852,2,0,P|263:274|352:284,1,170.625001627207
286,358,141056,6,0,L|271:265,1,90.9999972229005
226,141,141261,2,0,L|224:167,1,24.3750009298325
100,63,141465,6,0,P|135:40|171:33,1,61.7499983510972
275,1,141669,1,0,0:0:0:0:
378,25,141771,1,0,0:0:0:0:
439,116,141873,6,0,P|433:206|348:269,2,195
199,124,142689,5,0,0:0:0:0:
199,124,142791,1,0,0:0:0:0:
199,124,142893,1,0,0:0:0:0:
199,124,142995,1,0,0:0:0:0:
199,124,143097,2,0,L|203:158,1,32.5
259,341,143301,2,0,L|262:308,1,32.5
297,94,143505,6,0,L|300:75,4,16.25
312,115,143812,1,0,0:0:0:0:
414,126,143914,5,0,0:0:0:0:
428,104,144016,2,0,P|432:54|416:10,1,97.50000371933
311,0,144322,6,0,P|253:11|214:46,1,113.750001084805
229,253,144526,2,0,P|287:242|326:207,1,113.750001084805
122,155,144730,2,0,L|5:150,1,113.750001084805
160,368,144934,2,0,L|277:373,1,113.750001084805
384,188,145138,6,0,P|344:205|334:217,1,48.750001859665
411,354,145342,2,0,P|451:337|461:325,1,48.750001859665
506,256,145546,5,0,0:0:0:0:
512,136,145648,1,0,0:0:0:0:
407,84,145750,2,0,P|373:82|323:98,1,65
160,33,145954,6,0,B|135:83|135:83|151:180|189:220|217:223,1,227.500002169609
343,89,146261,1,0,0:0:0:0:
328,67,146363,2,0,B|270:64|270:64|222:91,1,113.750001084805
185,319,146567,2,0,P|242:320|291:295,1,113.750001084805
162,32,146771,5,0,0:0:0:0:
84,72,146873,1,0,0:0:0:0:
99,156,146975,1,0,0:0:0:0:
183,170,147077,1,0,0:0:0:0:
221,91,147179,2,0,P|76:108|184:169,1,341.250003254414
277,169,147587,6,0,P|336:169|386:195,1,113.750001084805
336,384,147791,2,0,P|277:384|227:358,1,113.750001084805
69,165,147995,2,0,L|188:170,1,113.750001084805
117,360,148199,2,0,B|58:369|58:369|6:347,1,113.750001084805
70,166,148403,6,0,L|76:105,4,56.8750005424023
86,186,148709,1,0,0:0:0:0:
182,169,148812,5,0,0:0:0:0:
228,99,148914,1,0,0:0:0:0:
146,92,149016,2,0,P|97:114|69:174,1,113.750001084805
220,281,149220,6,0,B|256:324|256:324|266:209|266:209|328:304|328:304|337:244,1,341.250003254414
416,200,149628,2,0,P|424:144|400:90,1,113.750001084805
324,18,149832,1,0,0:0:0:0:
218,19,149934,1,0,0:0:0:0:
146,92,150036,2,0,P|120:142|124:198,1,113.750001084805
198,384,150240,2,0,P|223:333|219:277,1,113.750001084805
44,116,150444,5,0,0:0:0:0:
26,140,150546,2,0,B|41:309|41:309|53:252,1,227.500002169609
135,231,150852,6,0,P|161:216|194:211,1,48.750001859665
313,363,151056,6,0,P|287:378|254:383,1,48.750001859665
383,228,151261,2,0,P|397:255|402:291,1,65
263,297,151465,1,0,0:0:0:0:
264,191,151567,1,0,0:0:0:0:
337,119,151669,6,0,P|387:93|443:97,1,113.750001084805
264,191,151873,2,0,L|149:185,1,113.750001084805
0,13,152077,2,0,L|115:7,1,113.750001084805
292,44,152281,2,0,P|241:69|185:65,1,113.750001084805
68,94,152485,5,0,0:0:0:0:
23,198,152587,1,0,0:0:0:0:
69,301,152689,2,0,P|121:332|185:316,1,113.750001084805
139,154,152893,6,0,B|131:249|131:249|148:228,1,113.750001084805
224,264,153097,1,0,0:0:0:0:
224,264,153199,1,0,0:0:0:0:
224,264,153301,6,0,P|257:267|276:274,1,48.750001859665
345,352,153505,1,0,0:0:0:0:
366,364,153607,1,0,0:0:0:0:
388,375,153761,2,0,B|422:382|422:382|435:249,1,162.5
496,162,154118,6,0,B|503:218|503:218|398:15|398:15|385:73,1,341.250003254414
333,136,154526,2,0,P|279:160|219:155,1,113.750001084805
50,29,154730,2,0,P|104:5|164:10,1,113.750001084805
257,31,154934,6,0,L|261:64,4,32.5
275,49,155240,1,0,0:0:0:0:
383,33,155342,5,0,0:0:0:0:
401,15,155444,2,0,L|397:84,2,65
479,111,155750,6,0,L|483:172,7,56.8750005424023
397,171,156158,6,0,P|384:200|384:229,2,56.8750005424023
262,292,156363,2,0,P|293:288|318:274,2,56.8750005424023
434,348,156567,2,0,P|415:322|390:307,3,56.8750005424023
262,292,156771,2,0,L|321:284,3,56.8750005424023
228,210,156975,2,0,L|169:202,3,56.8750005424023
206,126,157179,2,0,P|227:120|206:112,3,56.8750005424023
214,121,157383,6,0,P|150:142|98:132,1,113.750001084805
300,13,157587,2,0,P|364:-8|416:2,1,113.750001084805
241,318,157791,2,0,P|220:254|230:202,1,113.750001084805
364,100,157995,2,0,P|385:164|375:216,1,113.750001084805
389,368,158199,6,0,P|358:354|332:350,1,48.750001859665
136,351,158403,2,0,P|105:365|79:369,1,48.750001859665
17,282,158607,5,0,0:0:0:0:
29,133,158709,1,0,0:0:0:0:
86,199,158812,2,0,P|118:210|160:207,1,65
262,112,159016,6,0,B|254:43|223:-25|223:-25|194:0|176:49,1,227.500002169609
170,118,159322,1,0,0:0:0:0:
339,22,159424,6,0,B|398:20|398:20|449:41,1,113.750001084805
416,241,159628,2,0,B|357:243|357:243|306:222,1,113.750001084805
170,118,159832,5,0,0:0:0:0:
170,247,159934,1,0,0:0:0:0:
94,142,160036,1,0,0:0:0:0:
216,182,160138,1,0,0:0:0:0:
94,222,160240,2,0,P|170:118|171:248,1,341.250003254414
107,321,160648,5,0,0:0:0:0:
164,383,160750,1,0,0:0:0:0:
253,286,160852,2,0,P|273:281|287:281,1,32.5
496,332,161056,6,0,P|442:357|386:350,1,113.750001084805
302,173,161261,2,0,P|356:148|412:155,1,113.750001084805
512,11,161465,6,0,L|475:6,4,32.5
470,84,161771,1,0,0:0:0:0:
379,78,161873,5,0,0:0:0:0:
333,5,161975,2,0,L|260:12,2,65
228,169,162281,6,0,L|216:106,3,56.8750005424023
217,113,162485,2,0,L|240:234,1,113.750001084805
351,275,162689,6,0,L|339:338,3,56.8750005424023
340,330,162893,2,0,L|362:209,1,113.750001084805
396,36,163097,5,0,0:0:0:0:
447,144,163199,1,0,0:0:0:0:
413,258,163301,2,0,P|377:272|346:274,1,65
217,113,163505,6,0,P|210:107|201:102,1,16.25
308,104,163607,2,0,P|314:97|319:88,1,16.25
315,195,163709,2,0,P|322:201|331:206,1,16.25
224,204,163811,2,0,P|218:211|213:220,1,16.25
119,156,163914,6,0,P|59:148|20:109,1,113.750001084805
274,4,164118,2,0,P|334:12|373:51,1,113.750001084805
413,258,164322,6,0,P|371:295|315:301,1,113.750001084805
119,156,164526,2,0,P|160:118|216:112,1,113.750001084805
428,106,164730,6,0,L|423:175,1,65
315,301,165036,1,0,0:0:0:0:
315,301,165138,6,0,L|310:232,1,65
296,57,165444,1,0,0:0:0:0:
296,57,165546,6,0,B|237:48|237:48|176:59|176:59|213:107|213:107|272:117,1,240.499999082565
396,153,165852,1,0,0:0:0:0:
413,247,165954,1,0,0:0:0:0:
429,341,166056,1,0,0:0:0:0:
297,358,166158,1,0,0:0:0:0:
309,285,166260,1,0,0:0:0:0:
322,212,166363,6,0,P|273:168|214:176,1,120.249999541283
152,267,166567,1,0,0:0:0:0:
138,289,166669,1,0,0:0:0:0:
125,313,166771,2,0,B|96:357|96:357|60:167|60:167|99:194,1,292.50001115799
222,171,167179,5,0,0:0:0:0:
227,127,167281,2,0,L|232:57,1,65
374,14,167485,5,0,0:0:0:0:
378,57,167587,2,0,L|383:127,1,65
447,262,167791,5,0,0:0:0:0:
447,262,167893,1,0,0:0:0:0:
447,262,167995,2,0,L|442:332,1,65
304,366,168199,5,0,0:0:0:0:
302,318,168301,2,0,L|297:248,1,65
119,91,168505,1,0,0:0:0:0:
119,91,168607,1,0,0:0:0:0:
119,91,168709,1,0,0:0:0:0:
119,91,168812,6,0,L|116:132,2,32.5
200,35,169220,1,0,0:0:0:0:
200,35,169424,1,0,0:0:0:0:
289,116,169628,1,0,0:0:0:0:
297,138,169730,1,0,0:0:0:0:
370,74,169934,6,0,P|321:28|286:24,1,97.5
200,35,170444,1,0,0:0:0:0:
