osu file format v14

[General]
AudioFilename: audio.mp3
AudioLeadIn: 0
PreviewTime: 72453
Countdown: 0
SampleSet: Soft
StackLeniency: 0.6
Mode: 0
LetterboxInBreaks: 0
WidescreenStoryboard: 1

[Editor]
Bookmarks: 5565,27890,47251,50216,72541,94867,117192
DistanceSpacing: 0.3
BeatDivisor: 6
GridSize: 4
TimelineZoom: 2.5

[Metadata]
Title:introduction - INSANE INFLAME
TitleUnicode:introduction - INSANE INFLAME
Artist:Camellia
ArtistUnicode:かめりあ
Creator:Cris-
Version:bor's Expert
Source:osu!
Tags:Seolv [_L_u_k_a_s_] Lukas bor Daycore Hybrid Pack FA Featured Artist English Electronic Rock Dubstep dnb Drum and Bass Mappers' Guild MG Cametek KamelCamellia
BeatmapID:2277316
BeatmapSetID:1081920

[Difficulty]
HPDrainRate:6
CircleSize:5
OverallDifficulty:8
ApproachRate:9.3
SliderMultiplier:1.8
SliderTickRate:2

[Events]
//Background and Video events
0,0,"INSANE INFLAME.jpg",0,0
//Break Periods
2,28089,38498
//Storyboard Layer 0 (Background)
//Storyboard Layer 1 (Fail)
//Storyboard Layer 2 (Pass)
//Storyboard Layer 3 (Foreground)
//Storyboard Layer 4 (Overlay)
//Storyboard Sound Samples

[TimingPoints]
1378,348.837209302326,4,2,0,70,1,0
5564,-133.333333333333,4,2,0,70,0,0
9402,-100,4,2,0,70,0,0
9576,-100,4,2,0,70,0,0
9751,-125,4,2,0,70,0,0
11145,-133.333333333333,4,2,0,70,0,0
14983,-100,4,2,0,70,0,0
15158,-100,4,2,0,70,0,0
16726,-133.333333333333,4,2,0,70,0,0
19344,-100,4,2,0,70,0,0
19518,-100,4,2,0,70,0,0
22308,-133.333333333333,4,2,0,70,0,0
24227,-100,4,2,0,70,0,0
24402,-100,4,2,0,70,0,0
39053,-100,4,2,0,65,0,0
49518,-100,4,2,0,70,0,0
50128,-100,4,2,0,70,0,0
50215,-83.3333333333333,4,2,0,70,0,0
52919,-83.3333333333333,4,2,0,70,0,0
53006,-83.3333333333333,4,2,0,70,0,0
55448,-83.3333333333333,4,2,0,70,0,0
55797,-83.3333333333333,4,2,0,70,0,0
61378,-74.0740740740741,4,2,0,80,0,0
64082,-74.0740740740741,4,2,0,80,0,0
64169,-74.0740740740741,4,2,0,80,0,0
66873,-74.0740740740741,4,2,0,80,0,0
66960,-74.0740740740741,4,2,0,86,0,0
69751,-74.0740740740741,4,2,0,86,0,0
69838,-74.0740740740741,4,2,0,86,0,0
69881,-74.0740740740741,4,2,0,86,0,0
69925,-74.0740740740741,4,2,0,86,0,0
70012,-74.0740740740741,4,2,0,86,0,0
70056,-74.0740740740741,4,2,0,86,0,0
70099,-74.0740740740741,4,2,0,86,0,0
70187,-74.0740740740741,4,2,0,86,0,0
70230,-74.0740740740741,4,2,0,86,0,0
70274,-74.0740740740741,4,2,0,86,0,0
70361,-74.0740740740741,4,2,0,86,0,0
70405,-74.0740740740741,4,2,0,86,0,0
70448,-74.0740740740741,4,2,0,86,0,0
70535,-74.0740740740741,4,2,0,86,0,0
70579,-74.0740740740741,4,2,0,86,0,0
70623,-74.0740740740741,4,2,0,86,0,0
70710,-74.0740740740741,4,2,0,86,0,0
70753,-74.0740740740741,4,2,0,86,0,0
70797,-74.0740740740741,4,2,0,86,0,0
70884,-74.0740740740741,4,2,0,86,0,0
70928,-74.0740740740741,4,2,0,86,0,0
70971,-74.0740740740741,4,2,0,86,0,0
71058,-74.0740740740741,4,2,0,86,0,0
71059,-74.0740740740741,4,2,0,86,0,0
71145,-100,4,2,0,86,0,0
72540,-66.6666666666667,4,2,0,95,0,1
74982,-66.6666666666667,4,2,0,95,0,0
75331,-66.6666666666667,4,2,0,95,0,1
76552,-66.6666666666667,4,2,0,95,0,1
77075,-66.6666666666667,4,2,0,95,0,1
77773,-66.6666666666667,4,2,0,95,0,0
78122,-66.6666666666667,4,2,0,95,0,1
80564,-66.6666666666667,4,2,0,95,0,0
80825,-66.6666666666667,4,2,0,95,0,0
80912,-66.6666666666667,4,2,0,95,0,1
83180,-66.6666666666667,4,2,0,95,0,1
83354,-66.6666666666667,4,2,0,95,0,0
83529,-66.6666666666667,4,2,0,95,0,0
83703,-66.6666666666667,4,2,0,95,0,1
86145,-66.6666666666667,4,2,0,95,0,0
86494,-66.6666666666667,4,2,0,95,0,1
88936,-66.6666666666667,4,2,0,95,0,0
89284,-66.6666666666667,4,2,0,95,0,1
90505,-66.6666666666667,4,2,0,95,0,1
91029,-66.6666666666667,4,2,0,95,0,1
91726,-66.6666666666667,4,2,0,95,0,0
92075,-66.6666666666667,4,2,0,95,0,1
92773,-66.6666666666667,4,2,0,95,0,1
93296,-66.6666666666667,4,2,0,95,0,1
94081,-66.6666666666667,4,2,0,95,0,0
94168,-66.6666666666667,4,2,0,95,0,1
94430,-66.6666666666667,4,2,0,95,0,0
94517,-66.6666666666667,4,2,0,95,0,1
94779,-66.6666666666667,4,2,0,95,0,0
94866,-57.1428571428571,4,2,0,95,0,0
95389,-66.6666666666667,4,2,0,95,0,0
96087,-66.6666666666667,4,2,0,95,0,0
97569,-66.6666666666667,4,2,0,95,0,0
97657,-66.6666666666667,4,2,0,95,0,1
97831,-66.6666666666667,4,2,0,95,0,0
100360,-66.6666666666667,4,2,0,95,0,0
100447,-66.6666666666667,4,2,0,95,0,1
100622,-66.6666666666667,4,2,0,95,0,0
103151,-66.6666666666667,4,2,0,95,0,0
103238,-66.6666666666667,4,2,0,95,0,1
103412,-66.6666666666667,4,2,0,95,0,0
106029,-66.6666666666667,4,2,0,95,0,1
106203,-66.6666666666667,4,2,0,95,0,0
108732,-66.6666666666667,4,2,0,95,0,0
108819,-66.6666666666667,4,2,0,95,0,1
108994,-66.6666666666667,4,2,0,95,0,0
111523,-66.6666666666667,4,2,0,95,0,0
111610,-66.6666666666667,4,2,0,95,0,1
111784,-66.6666666666667,4,2,0,95,0,0
114401,-66.6666666666667,4,2,0,95,0,1
114575,-66.6666666666667,4,2,0,95,0,0
115796,-66.6666666666667,4,2,0,95,0,0
116843,-76.9230769230769,4,2,0,95,0,0

[Colours]
Combo1 : 189,190,198
Combo2 : 177,152,120
Combo3 : 149,188,198
Combo4 : 224,126,109

[HitObjects]
434,0,5564,6,0,B|469:58|469:58|377:240|377:240|406:300|406:300|353:340|353:340|411:374|411:374|344:382|344:382|285:348|285:348|225:374|225:374|60:257|60:257|21:312|21:312|91:310|91:310|143:351|143:351|154:218|154:218|277:160|277:160|243:102|243:102|278:28,1,1485.00005664826,4|0,1:0|0:0,0:0:0:0:
354,11,9575,1,4,0:3:0:0:
354,11,9662,1,4,0:3:0:0:
354,11,9750,1,0,1:0:0:0:
373,185,9924,2,0,L|366:113,1,72,4|4,0:3|0:3,0:0:0:0:
288,211,10273,1,0,1:0:0:0:
213,171,10447,2,0,L|143:194,1,72,4|4,0:3|0:3,0:0:0:0:
82,254,10796,2,0,L|10:232,1,72,8|8,0:3|0:3,0:0:0:0:
32,141,11145,6,0,B|160:380|160:380|224:362|224:362|286:387|286:387|320:327|320:327|385:340|385:340|363:208|363:208|405:154|405:154|379:93|379:93|437:56|437:56|492:95|492:95|464:157|464:157|496:216|496:216|297:251|297:251|233:273|233:273|170:250|170:250|144:334,1,1485.00005664826,4|0,1:0|0:0,0:0:0:0:
45,349,15157,1,4,0:3:0:0:
45,349,15215,1,4,0:3:0:0:
45,349,15273,1,4,0:3:0:0:
45,349,15331,2,0,L|71:290,1,60,0|4,1:0|0:3,0:0:0:0:
23,210,15564,1,4,0:3:0:0:
100,210,15680,2,0,L|160:186,1,60,4|4,0:3|0:3,0:0:0:0:
245,187,15912,1,4,0:3:0:0:
234,99,16029,2,0,L|192:50,1,60,0|4,1:0|0:3,0:0:0:0:
110,45,16261,1,4,0:3:0:0:
207,10,16378,2,0,L|219:152,1,120,0|0,1:0|0:0,0:0:0:0:
151,141,16726,6,0,B|415:194|415:194|467:239|467:239|497:181|497:181|446:136|446:136|485:57,1,540.000020599366,4|2,1:0|0:0,0:0:0:0:
356,318,18471,1,8,0:3:0:0:
426,286,18819,2,0,L|506:335,1,67.5000025749208,0|0,3:0|0:0,0:0:0:0:
362,348,19168,2,0,L|293:378,1,67.5000025749208,2|4,3:0|0:3,0:0:0:0:
250,350,19401,1,8,0:3:0:0:
229,344,19459,1,4,0:3:0:0:
229,344,19517,6,0,L|118:356,1,90,0|4,1:0|0:3,0:0:0:0:
27,291,19866,1,4,0:3:0:0:
70,383,20040,1,0,1:0:0:0:
70,383,20128,1,0,0:0:0:0:
70,383,20215,1,4,0:3:0:0:
144,262,20389,1,4,0:3:0:0:
101,169,20564,2,0,L|145:153,1,45,0|4,1:0|0:3,0:0:0:0:
30,226,20738,1,4,0:3:0:0:
5,142,20912,1,4,0:3:0:0:
127,17,21087,2,0,L|148:-11,2,30,0|0|0,1:0|1:0|1:0,0:0:0:0:
116,30,21261,1,4,0:3:0:0:
64,94,21436,1,0,0:0:0:0:
58,86,21494,1,0,0:0:0:0:
52,78,21552,1,0,0:0:0:0:
46,70,21610,2,0,L|-10:50,1,45,0|0,1:0|1:0,0:0:0:0:
130,126,21784,1,4,0:3:0:0:
328,48,21959,1,0,1:0:0:0:
414,72,22133,1,0,0:0:0:0:
512,30,22308,6,0,B|312:71|312:71|248:53|248:53|264:187|264:187|207:222|207:222|200:291|200:291|136:294|136:294|104:385,1,675.000025749208,4|8,1:0|0:3,0:0:0:0:
30,384,24226,1,4,0:3:0:0:
30,384,24284,1,4,0:3:0:0:
30,384,24343,1,4,0:3:0:0:
30,384,24401,1,0,1:0:0:0:
331,348,24750,2,0,L|391:378,1,45,8|0,0:3|0:0,0:0:0:0:
288,376,24924,2,0,L|239:385,1,45,0|0,0:0|0:0,0:0:0:0:
317,310,25098,1,4,0:3:0:0:
317,310,25186,1,4,0:3:0:0:
361,289,25273,1,4,0:3:0:0:
361,289,25360,1,4,0:3:0:0:
409,290,25447,2,0,B|454:270|454:270|499:236,1,90,0|0,1:0|0:0,0:0:0:0:
361,156,25796,1,4,0:3:0:0:
361,156,25883,1,4,0:3:0:0:
407,134,25971,1,0,1:0:0:0:
481,67,26145,2,0,L|521:100,1,45,4|4,0:3|0:3,0:0:0:0:
435,61,26319,2,0,L|423:11,1,45,4|4,0:3|0:3,0:0:0:0:
480,162,26494,5,0,1:0:0:0:
480,162,26668,1,0,1:0:0:0:
480,162,26843,1,0,1:0:0:0:
480,162,27017,2,0,L|406:229,1,90,0|4,1:0|0:3,0:0:0:0:
316,158,27366,2,0,L|217:135,1,90,4|4,0:3|0:3,0:0:0:0:
129,251,27715,2,0,L|71:328,1,90,4|4,0:3|0:0,0:0:0:0:
36,353,39052,5,0,3:0:0:0:
36,353,39401,1,0,0:0:0:0:
36,353,39750,1,0,3:0:0:0:
36,353,40098,1,0,0:0:0:0:
173,374,40447,1,0,3:0:0:0:
173,374,40796,1,0,0:0:0:0:
173,374,41145,1,0,3:0:0:0:
173,374,41494,1,0,0:0:0:0:
108,236,41843,5,2,3:0:0:0:
108,236,42191,1,2,0:0:0:0:
108,236,42540,1,2,3:0:0:0:
108,236,42889,1,0,0:0:0:0:
272,207,43238,1,2,3:0:0:0:
272,207,43587,1,0,0:0:0:0:
272,207,43936,1,2,3:0:0:0:
272,207,44284,1,0,0:0:0:0:
197,70,44633,5,0,3:0:0:0:
197,70,44982,1,0,0:0:0:0:
197,70,45331,1,0,3:0:0:0:
197,70,45680,1,0,0:0:0:0:
346,58,46029,1,0,3:0:0:0:
346,58,46378,1,0,0:0:0:0:
346,58,46726,1,0,3:0:0:0:
346,58,47075,1,0,0:0:0:0:
483,232,47424,5,0,0:0:0:0:
483,232,47773,1,0,3:0:0:0:
483,232,48122,1,0,3:0:0:0:
483,232,48471,1,2,3:0:0:0:
381,272,48819,1,2,3:0:0:0:
381,272,49168,1,2,0:0:0:0:
480,41,49517,2,0,B|456:79|456:79|433:192,3,90,2|0|0|0,0:1|0:0|0:0|0:0,0:0:0:0:
512,230,50215,6,0,L|378:276,1,107.999996704102,2|0,0:0|0:0,0:0:0:0:
283,359,50564,1,2,0:0:0:0:
283,359,50738,1,0,0:0:0:0:
235,230,50912,2,0,B|207:290|207:290|199:370,1,107.999996704102,2|0,0:0|0:0,0:0:0:0:
309,209,51261,1,2,0:0:0:0:
235,230,51436,2,0,B|180:290|180:290|35:335,1,215.999993408203,2|2,0:0|0:0,0:0:0:0:
121,228,51959,2,0,L|7:179,1,107.999996704102,2|0,0:0|0:0,0:0:0:0:
207,287,52308,2,0,B|171:340|171:340|110:369,1,107.999996704102,2|0,0:0|0:0,0:0:0:0:
273,200,52657,2,2,B|321:80|321:80|371:55,1,161.999995056153,2|0,0:0|0:0,0:1:0:0:
357,22,53005,6,0,L|475:93,1,107.999996704102,2|0,0:0|0:0,0:0:0:0:
395,150,53354,1,2,0:0:0:0:
395,150,53529,1,0,0:0:0:0:
314,83,53703,2,0,L|291:216,1,107.999996704102,2|0,0:0|0:0,0:0:0:0:
243,45,54052,1,2,0:0:0:0:
314,83,54226,2,0,B|353:148|353:148|487:214,1,215.999993408203,2|2,0:0|0:0,0:0:0:0:
427,103,54750,2,0,B|448:39|448:39|497:-10,1,107.999996704102,2|2,0:0|0:0,0:0:0:0:
344,220,55098,2,0,L|202:251,1,107.999996704102,2|2,0:0|0:0,0:0:0:0:
308,56,55447,2,2,L|284:24,7,26.9999991760254,0|0|0|0|0|0|0|0,1:1|0:1|0:1|0:1|0:1|0:1|0:1|0:1,0:1:0:0:
262,54,55796,6,0,L|127:43,1,107.999996704102,2|0,0:0|0:0,0:0:0:0:
76,123,56145,1,2,0:0:0:0:
76,123,56319,1,0,0:0:0:0:
161,157,56494,2,0,B|134:182|134:182|92:271,1,107.999996704102,2|0,0:0|0:0,0:0:0:0:
231,220,56843,1,2,0:0:0:0:
218,296,57017,2,0,B|184:326|184:326|15:365,1,215.999993408203,2|2,0:0|0:0,0:0:0:0:
63,252,57540,2,0,B|106:182|106:182|116:156,1,107.999996704102,2|0,0:0|0:0,0:0:0:0:
210,276,57889,2,0,B|230:302|230:302|245:386,1,107.999996704102,2|0,0:0|0:0,0:0:0:0:
382,258,58238,2,0,L|420:277,7,26.9999991760254,2|0|0|0|0|0|0|0,0:0|0:0|0:0|0:0|0:0|0:0|0:0|0:0,0:0:0:0:
378,287,58587,6,0,B|353:318|353:318|320:384,1,107.999996704102,2|0,0:0|0:0,0:0:0:0:
490,365,58936,1,2,0:0:0:0:
422,346,59110,1,0,0:0:0:0:
506,273,59284,2,0,B|501:196|501:196|480:139,1,107.999996704102,2|0,0:0|0:0,0:0:0:0:
372,66,59633,1,2,0:0:0:0:
327,146,59808,2,0,B|446:112|446:112|482:45,1,161.999995056153,2|0,0:0|0:0,0:0:0:0:
486,44,60157,6,0,B|505:115|505:115|500:183,1,107.999996704102,2|2,0:0|0:0,0:0:0:0:
389,242,60505,1,2,0:0:0:0:
463,203,60680,2,0,L|478:280,1,53.9999983520508,2|0,0:0|0:0,0:0:0:0:
389,221,60854,2,0,L|368:169,1,53.9999983520508,2|0,0:0|0:0,0:0:0:0:
330,286,61029,2,0,L|299:350,1,53.9999983520508,2|0,1:2|0:0,0:0:0:0:
234,301,61203,2,0,L|203:361,1,53.9999983520508,8|0,0:3|0:0,0:0:0:0:
138,333,61378,6,0,L|4:303,1,121.500000463486,4|0,0:3|0:0,0:0:0:0:
201,286,61726,2,0,L|76:312,1,121.500000463486,4|0,0:3|0:0,0:0:0:0:
277,351,62075,2,0,L|139:320,1,121.500000463486,4|0,0:3|0:0,0:0:0:0:
329,285,62424,2,0,L|255:304,1,60.7500002317429,4|0,0:3|0:0,0:0:0:0:
211,360,62598,6,0,L|189:240,2,121.500000463486,0|4|0,0:0|0:3|0:0,0:0:0:0:
245,164,63122,2,0,L|231:284,1,121.500000463486,4|0,0:3|0:0,0:0:0:0:
173,134,63471,2,0,L|151:14,1,121.500000463486,4|0,0:3|0:0,0:0:0:0:
17,98,63819,2,0,B|142:116|142:116|213:156,1,182.250000695229,4|0,0:3|0:0,0:0:0:0:
217,180,64168,6,0,L|253:38,1,121.500000463486,4|0,0:3|0:0,0:0:0:0:
316,219,64517,2,0,L|258:106,1,121.500000463486,4|0,0:3|0:0,0:0:0:0:
232,291,64866,2,0,L|284:161,1,121.500000463486,4|0,0:3|0:0,0:0:0:0:
329,360,65215,2,0,L|305:283,1,60.7500002317429,4|0,0:3|0:0,0:0:0:0:
258,261,65389,6,0,L|113:301,1,121.500000463486,0|4,0:0|0:3,0:0:0:0:
349,333,65738,2,0,L|387:263,1,60.7500002317429,0|0,0:0|0:0,0:0:0:0:
296,277,65912,2,0,L|211:278,1,60.7500002317429,4|0,0:3|0:0,0:0:0:0:
333,209,66087,2,0,L|341:135,1,60.7500002317429,0|0,0:0|0:0,0:0:0:0:
427,223,66261,2,0,L|499:247,1,60.7500002317429,4|0,0:3|0:0,0:0:0:0:
444,146,66436,2,0,L|451:69,1,60.7500002317429,0|0,0:0|0:0,0:0:0:0:
364,68,66610,2,0,L|181:15,1,182.250000695229,4|0,0:3|0:0,0:0:0:0:
114,63,66959,5,8,0:0:0:0:
68,203,67133,1,4,0:3:0:0:
37,91,67308,1,8,0:0:0:0:
83,217,67482,1,4,0:3:0:0:
163,144,67657,5,8,0:0:0:0:
106,295,67831,1,4,0:3:0:0:
90,174,68005,1,8,0:0:0:0:
119,309,68180,1,4,0:3:0:0:
271,350,68354,5,8,0:0:0:0:
101,384,68529,1,4,0:3:0:0:
301,367,68703,1,8,0:0:0:0:
134,301,68878,1,4,0:3:0:0:
333,295,69052,5,8,0:0:0:0:
189,339,69226,1,4,0:3:0:0:
389,344,69401,1,8,0:0:0:0:
254,240,69575,1,4,0:3:0:0:
426,174,69750,6,0,L|440:247,1,60.7500002317429,12|4,0:3|0:3,0:0:0:0:
363,266,69924,2,0,L|352:342,1,60.7500002317429,4|4,0:3|0:3,0:0:0:0:
398,137,70098,2,0,L|390:212,1,60.7500002317429,8|4,0:0|0:3,0:0:0:0:
293,244,70273,2,0,L|249:301,1,60.7500002317429,4|4,0:3|0:3,0:0:0:0:
342,101,70447,2,0,L|281:158,1,60.7500002317429,8|4,0:0|0:3,0:0:0:0:
193,194,70622,2,0,L|123:199,1,60.7500002317429,4|4,0:3|0:3,0:0:0:0:
281,46,70796,2,0,L|197:40,1,60.7500002317429,8|4,0:0|0:3,0:0:0:0:
99,58,70971,2,0,L|104:125,1,60.7500002317429,4|4,0:3|0:3,0:0:0:0:
95,184,71145,6,0,P|72:129|116:183,2,180,4|10|2,3:0|0:3|1:0,0:0:0:0:
134,274,72017,1,2,3:0:0:0:
58,299,72191,2,0,B|145:319|145:319|197:338,1,135,0|0,1:0|0:0,0:0:0:0:
185,359,72540,6,0,L|105:368,1,67.5000025749208,4|0,1:0|0:0,0:0:0:0:
25,307,72715,2,0,L|14:382,1,67.5000025749208,0|0,0:0|0:0,0:0:0:0:
102,295,72889,2,0,B|93:191|93:191|71:148,1,135.000005149842,8|2,0:0|0:0,0:0:0:0:
202,35,73238,2,0,L|118:26,1,67.5000025749208,2|2,0:0|0:3,0:0:0:0:
89,139,73412,2,0,L|84:59,1,67.5000025749208,4|0,0:3|0:0,0:0:0:0:
5,18,73587,2,0,L|14:117,1,67.5000025749208,8|0,0:0|0:0,0:0:0:0:
79,163,73761,6,0,B|128:202|128:202|340:246,1,270.000010299683,2|0,0:0|0:0,0:0:0:0:
481,166,74284,2,0,L|491:246,1,67.5000025749208,8|0,0:0|0:0,0:0:0:0:
380,296,74459,2,0,L|447:292,1,67.5000025749208,2|2,0:0|0:3,0:0:0:0:
469,198,74633,2,0,L|439:113,1,67.5000025749208,2|2,0:0|0:3,0:0:0:0:
320,71,74808,2,0,L|397:56,1,67.5000025749208,4|0,0:3|0:0,0:0:0:0:
489,40,74982,2,0,L|336:27,1,135.000005149842,8|4,0:0|0:3,0:0:0:0:
210,99,75331,6,0,L|432:74,1,202.500007724762,4|0,0:3|0:0,0:0:0:0:
449,101,75680,2,0,L|425:192,1,67.5000025749208,8|0,0:0|0:0,0:0:0:0:
304,222,75854,2,0,L|378:255,1,67.5000025749208,2|2,0:0|0:3,0:0:0:0:
442,271,76029,2,0,L|341:296,1,67.5000025749208,2|2,0:0|0:3,0:0:0:0:
282,298,76203,2,0,L|262:384,1,67.5000025749208,4|0,0:3|0:0,0:0:0:0:
215,200,76378,2,0,L|204:129,1,67.5000025749208,8|0,0:0|0:0,0:0:0:0:
148,41,76552,6,0,L|122:212,2,135.000005149842,2|4|2,0:0|0:3|0:0,0:0:0:0:
41,164,77075,2,0,L|69:245,1,67.5000025749208,8|0,0:0|0:0,0:0:0:0:
144,116,77250,2,0,L|207:166,1,67.5000025749208,2|0,0:0|0:0,0:0:0:0:
131,268,77424,2,0,L|84:327,1,67.5000025749208,4|0,0:3|0:0,0:0:0:0:
252,215,77598,2,0,L|321:202,1,67.5000025749208,4|0,0:3|0:0,0:0:0:0:
389,211,77773,2,2,B|259:262|259:262|204:304,1,202.500007724762,8|0,0:0|0:0,0:1:0:0:
220,342,78122,6,0,L|68:324,1,135.000005149842,4|0,1:0|0:0,0:0:0:0:
262,365,78471,2,0,L|165:375,1,67.5000025749208,8|0,0:0|0:0,0:0:0:0:
324,262,78645,2,0,L|321:364,1,67.5000025749208,2|2,0:0|0:3,0:0:0:0:
405,364,78819,2,0,L|477:375,1,67.5000025749208,2|2,0:0|0:3,0:0:0:0:
485,301,78994,2,0,L|469:218,1,67.5000025749208,4|0,3:0|0:0,0:0:0:0:
437,166,79168,2,0,L|425:280,1,67.5000025749208,8|0,0:0|0:0,0:0:0:0:
290,175,79343,6,0,B|381:169|381:169|446:148,2,135.000005149842,2|4|0,0:0|0:3|0:0,0:0:0:0:
485,104,79866,2,0,L|471:36,1,67.5000025749208,8|0,0:0|0:0,0:0:0:0:
339,126,80040,2,0,L|375:202,1,67.5000025749208,2|2,0:0|0:3,0:0:0:0:
278,262,80215,2,0,L|209:237,1,67.5000025749208,2|0,0:0|0:0,0:0:0:0:
152,115,80389,2,0,L|141:205,1,67.5000025749208,4|0,0:3|0:0,0:0:0:0:
125,249,80564,2,2,B|100:118|100:118|48:51,1,202.500007724762,8|0,0:0|0:0,0:1:0:0:
23,31,80912,6,0,L|158:56,1,135.000005149842,4|0,0:3|0:0,0:0:0:0:
256,158,81261,2,0,L|246:81,1,67.5000025749208,8|0,0:0|0:0,0:0:0:0:
130,186,81436,2,0,L|213:203,1,67.5000025749208,2|2,0:0|0:3,0:0:0:0:
244,260,81610,2,0,L|246:330,1,67.5000025749208,2|2,0:0|0:3,0:0:0:0:
124,350,81784,2,0,L|209:376,1,67.5000025749208,4|0,0:3|0:0,0:0:0:0:
331,291,81959,2,0,L|275:345,1,67.5000025749208,8|0,0:0|0:0,0:0:0:0:
130,384,82133,6,0,B|99:306|99:306|95:224,1,135.000005149842,0|4,0:0|0:3,0:0:0:0:
238,183,82482,2,0,L|315:157,1,67.5000025749208,2|0,0:0|0:0,0:0:0:0:
199,106,82657,2,0,L|196:18,1,67.5000025749208,8|0,0:0|0:0,0:0:0:0:
278,202,82831,2,0,L|255:300,1,67.5000025749208,2|2,0:0|0:3,0:0:0:0:
274,92,83005,2,0,L|311:31,1,67.5000025749208,2|2,0:0|0:3,0:0:0:0:
396,157,83180,2,0,L|317:147,1,67.5000025749208,4|0,0:3|0:0,0:0:0:0:
282,267,83354,2,0,L|388:243,1,67.5000025749208,8|0,0:0|0:0,0:0:0:0:
439,294,83529,2,0,L|450:373,1,67.5000025749208,4|0,0:3|0:0,0:0:0:0:
288,355,83703,6,0,B|393:341|393:341|456:315,1,135.000005149842,4|0,3:1|0:0,0:0:0:0:
495,145,84052,2,0,L|473:230,1,67.5000025749208,8|0,0:0|0:0,0:0:0:0:
366,141,84226,2,0,L|441:120,1,67.5000025749208,2|2,0:0|0:3,0:0:0:0:
486,54,84401,2,0,L|446:-2,1,67.5000025749208,2|2,0:0|0:3,0:0:0:0:
330,28,84575,2,0,L|312:97,1,67.5000025749208,4|0,3:0|0:0,0:0:0:0:
240,202,84750,2,0,L|255:93,1,67.5000025749208,8|0,0:0|0:0,0:0:0:0:
204,17,84924,6,0,B|171:48|171:48|45:90,1,135.000005149842,2|4,0:0|0:3,0:0:0:0:
98,272,85273,2,0,L|76:185,1,67.5000025749208,0|0,0:0|0:0,0:0:0:0:
20,324,85447,2,0,L|91:339,1,67.5000025749208,8|0,0:0|0:0,0:0:0:0:
178,292,85622,2,0,L|195:365,1,67.5000025749208,2|2,0:0|0:3,0:0:0:0:
319,348,85796,2,0,L|249:313,1,67.5000025749208,2|2,0:0|0:3,0:0:0:0:
294,240,85971,2,0,L|290:161,1,67.5000025749208,4|0,0:3|0:0,0:0:0:0:
353,118,86145,6,0,B|333:159|333:159|310:267,2,135.000005149842,8|4|4,0:0|0:3|0:3,0:0:0:0:
438,308,86668,2,0,L|355:316,1,67.5000025749208,0|0,0:0|0:0,0:0:0:0:
260,375,86843,2,0,L|277:263,1,67.5000025749208,8|0,0:0|0:0,0:0:0:0:
363,245,87017,2,0,L|429:283,1,67.5000025749208,2|2,0:0|0:3,0:0:0:0:
474,210,87191,2,0,L|505:139,1,67.5000025749208,2|2,0:0|0:3,0:0:0:0:
396,99,87366,2,0,L|469:87,1,67.5000025749208,4|0,0:3|0:0,0:0:0:0:
512,7,87540,2,0,L|489:97,1,67.5000025749208,8|0,0:0|0:0,0:0:0:0:
411,163,87715,6,0,B|403:119|403:119|359:27,1,135.000005149842,2|4,0:0|0:3,0:0:0:0:
360,249,88064,2,0,L|312:175,1,67.5000025749208,2|0,0:0|0:0,0:0:0:0:
200,120,88238,2,0,L|222:183,1,67.5000025749208,8|0,0:0|0:0,0:0:0:0:
166,265,88412,2,0,L|94:276,1,67.5000025749208,2|0,0:0|0:0,0:0:0:0:
24,172,88587,2,0,L|54:256,1,67.5000025749208,4|0,0:3|0:0,0:0:0:0:
35,341,88761,2,0,L|103:363,1,67.5000025749208,4|0,0:3|0:0,0:0:0:0:
220,330,88936,2,0,B|121:337|121:337|74:357,1,135.000005149842,8|4,0:0|0:3,0:0:0:0:
320,362,89284,6,0,L|474:386,1,135.000005149842,4|0,1:0|0:0,0:0:0:0:
493,243,89633,2,0,L|468:321,1,67.5000025749208,8|0,0:0|0:0,0:0:0:0:
398,339,89808,2,0,L|313:351,1,67.5000025749208,2|2,0:0|0:3,0:0:0:0:
288,249,89982,2,0,L|304:177,1,67.5000025749208,2|2,0:0|0:3,0:0:0:0:
389,135,90157,2,0,L|292:107,1,67.5000025749208,4|0,0:3|0:0,0:0:0:0:
238,89,90331,2,0,L|324:90,1,67.5000025749208,8|0,0:0|0:0,0:0:0:0:
432,86,90505,6,0,B|345:64|345:64|275:19,1,135.000005149842,2|4,0:0|0:3,0:0:0:0:
502,196,90854,2,0,L|443:262,1,67.5000025749208,0|0,0:0|0:0,0:0:0:0:
413,312,91029,2,0,L|400:208,1,67.5000025749208,8|0,0:0|0:0,0:0:0:0:
318,174,91203,2,0,L|256:208,1,67.5000025749208,2|2,0:0|0:3,0:0:0:0:
195,234,91378,2,0,L|164:157,1,67.5000025749208,2|0,0:0|0:0,0:0:0:0:
164,102,91552,2,0,L|80:93,1,67.5000025749208,4|0,0:3|0:0,0:0:0:0:
23,21,91726,6,0,B|105:68|105:68|169:84,2,135.000005149842,8|4|4,0:0|0:3|0:3,0:0:0:0:
106,226,92250,2,0,L|192:204,1,67.5000025749208,0|0,0:0|0:0,0:0:0:0:
248,180,92424,2,0,L|195:233,1,67.5000025749208,8|0,0:0|0:0,0:0:0:0:
122,305,92598,2,0,L|207:340,1,67.5000025749208,2|2,0:0|0:3,0:0:0:0:
295,295,92773,2,0,L|275:376,1,67.5000025749208,2|2,0:0|0:3,0:0:0:0:
183,370,92947,2,0,L|106:380,1,67.5000025749208,4|0,0:3|0:0,0:0:0:0:
16,360,93122,2,0,L|127:399,1,67.5000025749208,8|0,0:0|0:0,0:0:0:0:
96,297,93296,6,0,B|69:199|69:199|69:156,1,135.000005149842,2|4,0:0|0:3,0:0:0:0:
184,333,93645,2,8,L|219:254,1,67.5000025749208,8|8,1:3|0:3,1:3:0:0:
310,229,93819,2,8,L|372:290,1,67.5000025749208,8|8,1:3|0:3,1:3:0:0:
388,168,93994,2,4,L|405:91,1,67.5000025749208,4|4,1:3|0:3,1:3:0:0:
497,22,94168,2,4,L|404:31,1,67.5000025749208,4|4,1:3|0:3,1:3:0:0:
362,98,94343,2,12,L|377:187,1,67.5000025749208,12|12,1:3|0:3,1:3:0:0:
407,246,94517,2,12,L|326:225,1,67.5000025749208,12|12,1:3|0:3,1:3:0:0:
214,296,94691,2,12,L|256:370,1,67.5000025749208,12|12,1:3|1:3,1:3:0:0:
338,365,94866,6,0,B|93:322|93:322|28:359,1,315.000003004074,4|2,1:0|0:0,0:0:0:0:
121,234,95389,2,0,L|120:152,1,67.5000025749208,4|0,3:0|0:0,0:0:0:0:
169,25,95564,2,0,B|104:46|104:46|72:105,2,135.000005149842,8|2|2,0:0|0:0|0:0,0:0:0:0:
50,203,96087,2,2,L|230:168,1,135.000005149842,2|8,1:2|1:3,1:2:0:0:
0,263,96436,2,0,L|70:287,1,67.5000025749208,0|0,0:0|0:0,0:0:0:0:
152,350,96610,2,0,L|178:261,1,67.5000025749208,2|0,1:2|0:0,0:0:0:0:
267,195,96784,2,0,L|271:271,1,67.5000025749208,2|0,0:0|0:0,0:0:0:0:
301,353,96959,2,0,L|291:262,1,67.5000025749208,8|0,0:0|0:0,0:0:0:0:
361,191,97133,2,0,L|432:235,1,67.5000025749208,0|0,1:0|0:0,0:0:0:0:
495,259,97308,2,0,L|469:103,1,135.000005149842,4|2,0:0|0:0,0:0:0:0:
511,64,97657,6,0,B|460:248|460:248|478:357,1,270.000010299683,4|2,1:0|0:0,0:0:0:0:
348,368,98180,2,0,L|281:362,1,67.5000025749208,4|0,3:0|0:0,0:0:0:0:
155,332,98354,2,0,B|222:321|222:321|300:266,2,135.000005149842,8|2|2,0:0|0:0|0:0,0:0:0:0:
357,272,98878,2,2,B|330:137,1,135.000005149842,2|8,1:2|1:3,1:2:0:0:
498,17,99226,2,0,L|413:17,1,67.5000025749208,0|0,0:0|0:0,0:0:0:0:
384,111,99401,2,0,L|362:25,1,67.5000025749208,2|0,1:2|0:0,0:0:0:0:
285,95,99575,2,0,L|206:118,1,67.5000025749208,2|0,0:0|0:0,0:0:0:0:
154,195,99750,2,0,L|229:137,1,67.5000025749208,8|0,0:0|0:0,0:0:0:0:
234,23,99924,2,0,L|220:102,1,67.5000025749208,0|0,1:0|0:0,0:0:0:0:
167,230,100098,2,0,B|148:134|148:134|115:80,1,135.000005149842,4|2,0:0|0:0,0:0:0:0:
56,53,100447,6,0,L|10:325,1,270.000010299683,4|2,1:0|0:0,0:0:0:0:
192,370,100971,2,0,L|93:380,1,67.5000025749208,4|0,3:0|0:0,0:0:0:0:
85,224,101145,2,0,B|105:288|105:288|97:376,2,135.000005149842,8|2|2,0:0|0:0|0:0,0:0:0:0:
216,378,101668,2,2,B|276:319|276:319|322:244,1,135.000005149842,2|8,1:2|1:3,1:2:0:0:
451,349,102017,2,0,L|411:279,1,67.5000025749208,0|0,0:0|0:0,0:0:0:0:
352,155,102191,2,0,L|338:233,1,67.5000025749208,2|0,1:2|0:0,0:0:0:0:
408,257,102366,2,0,L|474:240,1,67.5000025749208,2|0,0:0|0:0,0:0:0:0:
512,120,102540,2,0,L|455:183,1,67.5000025749208,8|0,0:0|0:0,0:0:0:0:
355,74,102715,2,0,L|375:157,1,67.5000025749208,0|0,1:0|0:0,0:0:0:0:
214,121,102889,2,0,B|312:95|312:95|386:86,1,135.000005149842,4|2,0:0|0:0,0:0:0:0:
427,56,103238,6,0,L|134:24,1,270.000010299683,4|2,1:0|0:0,0:0:0:0:
15,121,103761,2,0,L|80:144,1,67.5000025749208,4|0,3:0|0:0,0:0:0:0:
221,194,103936,2,0,B|162:122|162:122|110:84,2,135.000005149842,8|2|2,0:0|0:0|0:0,0:0:0:0:
50,14,104459,2,2,B|39:117|39:117|20:169,1,135.000005149842,2|8,1:2|1:3,1:2:0:0:
124,306,104808,2,0,L|102:226,1,67.5000025749208,2|0,1:0|0:0,0:0:0:0:
24,304,104982,2,0,L|93:320,1,67.5000025749208,2|0,1:2|0:0,0:0:0:0:
217,256,105157,2,0,L|217:338,1,67.5000025749208,4|0,1:3|0:0,0:0:0:0:
282,379,105331,2,0,L|260:294,1,67.5000025749208,8|0,0:0|0:0,0:0:0:0:
174,195,105505,2,0,L|249:178,1,67.5000025749208,0|0,1:0|0:0,0:0:0:0:
371,218,105680,2,0,L|384:132,1,67.5000025749208,4|2,0:0|0:0,0:0:0:0:
487,98,105854,2,0,L|501:172,1,67.5000025749208,12|0,0:3|0:0,0:0:0:0:
477,263,106029,6,0,B|454:222|454:222|472:-4,1,270.000010299683,4|2,1:0|0:0,0:0:0:0:
366,161,106552,2,0,L|278:177,1,67.5000025749208,4|0,3:0|0:0,0:0:0:0:
393,247,106726,2,0,B|437:295|437:295|462:376,2,135.000005149842,8|2|2,0:0|0:0|0:0,0:0:0:0:
298,384,107250,2,2,B|250:341|250:341|224:254,1,135.000005149842,2|8,1:2|1:3,1:2:0:0:
291,91,107598,2,0,L|307:181,1,67.5000025749208,0|0,0:0|0:0,0:0:0:0:
303,223,107773,2,0,L|265:138,1,67.5000025749208,2|0,1:2|0:0,0:0:0:0:
193,82,107947,2,0,L|103:125,1,67.5000025749208,2|0,0:0|0:0,0:0:0:0:
52,87,108122,2,0,L|134:105,1,67.5000025749208,8|0,0:0|0:0,0:0:0:0:
167,194,108296,2,0,L|149:305,1,67.5000025749208,0|0,1:0|0:0,0:0:0:0:
30,255,108471,2,0,B|118:294|118:294|173:362,1,135.000005149842,4|2,0:0|0:0,0:0:0:0:
200,384,108819,6,0,L|124:121,1,270.000010299683,4|2,1:0|0:0,0:0:0:0:
265,8,109343,2,0,L|189:-1,1,67.5000025749208,4|0,3:0|0:0,0:0:0:0:
55,65,109517,2,0,B|114:49|114:49|239:47,2,135.000005149842,8|2|2,0:0|0:0|0:0,0:0:0:0:
246,174,110040,2,2,B|194:221|194:221|116:253,1,135.000005149842,2|8,1:2|1:3,1:2:0:0:
0,384,110389,2,0,L|27:315,1,67.5000025749208,0|0,0:0|0:0,0:0:0:0:
125,266,110564,2,0,L|53:257,1,67.5000025749208,2|0,1:2|0:0,0:0:0:0:
11,178,110738,2,0,L|61:122,1,67.5000025749208,2|0,0:0|0:0,0:0:0:0:
139,27,110912,2,0,L|134:124,1,67.5000025749208,8|0,0:0|0:0,0:0:0:0:
99,186,111087,2,0,L|162:208,1,67.5000025749208,0|0,1:0|0:0,0:0:0:0:
294,160,111261,2,0,B|203:174|203:174|150:191,1,135.000005149842,4|2,0:0|0:0,0:0:0:0:
216,370,111610,6,0,L|232:228,1,135.000005149842,8|4,0:0|0:3,0:0:0:0:
330,93,111959,1,4,0:3:0:0:
414,209,112133,2,0,B|322:182|322:182|270:181,1,135.000005149842,8|4,0:0|0:3,0:0:0:0:
110,231,112482,1,4,0:3:0:0:
246,112,112657,2,0,L|256:35,1,67.5000025749208,8|0,0:0|0:0,0:0:0:0:
174,47,112831,2,0,L|112:-13,1,67.5000025749208,4|0,1:3|0:0,0:0:0:0:
82,67,113005,6,0,B|179:89|179:89|215:116,1,135.000005149842,8|4,0:0|0:3,0:0:0:0:
272,279,113354,1,4,0:3:0:0:
149,199,113529,2,0,B|110:256|110:256|101:345,1,135.000005149842,8|4,0:0|0:3,0:0:0:0:
301,360,113878,1,4,0:3:0:0:
234,172,114052,2,0,L|315:204,1,67.5000025749208,8|0,0:0|0:0,0:0:0:0:
318,156,114226,2,0,L|349:231,1,67.5000025749208,4|0,1:3|0:0,0:0:0:0:
411,228,114401,6,0,L|384:50,1,135.000005149842,8|4,0:0|0:3,0:0:0:0:
210,22,114750,1,4,0:3:0:0:
425,71,114924,2,0,B|358:49|358:49|301:-12,1,135.000005149842,8|4,0:0|0:3,0:0:0:0:
270,199,115273,1,4,0:3:0:0:
381,384,115447,2,0,B|408:290|408:290|395:228,1,135.000005149842,8|4,0:0|0:3,0:0:0:0:
236,384,115796,6,0,L|144:370,1,67.5000025749208,8|4,0:0|0:3,0:0:0:0:
136,303,115971,2,0,L|69:332,1,67.5000025749208,4|4,0:3|0:3,0:0:0:0:
253,282,116145,2,0,L|187:229,1,67.5000025749208,8|4,0:0|0:3,0:0:0:0:
100,183,116319,2,0,L|45:234,1,67.5000025749208,4|4,0:3|0:3,0:0:0:0:
227,115,116494,1,8,0:0:0:0:
227,115,116581,1,4,0:3:0:0:
186,145,116668,1,4,0:3:0:0:
186,145,116755,1,4,0:3:0:0:
163,185,116843,6,0,B|202:27|202:27|272:-24,1,233.999989288331,12|4,1:2|1:0,0:0:0:0:
