osu file format v14

[General]
AudioFilename: audio.mp3
AudioLeadIn: 0
PreviewTime: 72453
Countdown: 0
SampleSet: Soft
StackLeniency: 0.2
Mode: 0
LetterboxInBreaks: 0
WidescreenStoryboard: 1

[Editor]
DistanceSpacing: 0.2
BeatDivisor: 4
GridSize: 4
TimelineZoom: 3.599999

[Metadata]
Title:introduction - INSANE INFLAME
TitleUnicode:introduction - INSANE INFLAME
Artist:Camellia
ArtistUnicode:かめりあ
Creator:Cris-
Version:Seolv's Insane
Source:osu!
Tags:Seolv [_L_u_k_a_s_] Lukas bor Daycore Hybrid Pack FA Featured Artist English Electronic Rock Dubstep dnb Drum and Bass Mappers' Guild MG Cametek KamelCamellia
BeatmapID:2346673
BeatmapSetID:1081920

[Difficulty]
HPDrainRate:5.5
CircleSize:4.2
OverallDifficulty:8
ApproachRate:9
SliderMultiplier:2.2
SliderTickRate:1

[Events]
//Background and Video events
0,0,"INSANE INFLAME.jpg",0,0
//Break Periods
2,28089,48917
//Storyboard Layer 0 (Background)
//Storyboard Layer 1 (Fail)
//Storyboard Layer 2 (Pass)
//Storyboard Layer 3 (Foreground)
//Storyboard Layer 4 (Overlay)
//Storyboard Sound Samples

[TimingPoints]
1378,348.837209302326,4,2,1,10,1,0
2773,-100,4,2,1,20,0,0
3471,-100,4,2,1,30,0,0
4168,-100,4,2,1,40,0,0
4866,-100,4,2,1,50,0,0
5476,-100,4,2,1,5,0,0
5564,-200,4,2,1,70,0,0
5912,-200,4,2,1,70,0,0
9750,-200,4,2,1,70,0,0
11145,-200,4,2,1,70,0,0
11494,-200,4,2,1,70,0,0
15331,-200,4,2,1,70,0,0
16726,-200,4,2,1,70,0,0
17075,-200,4,2,1,70,0,0
19517,-200,4,2,1,70,0,0
20912,-200,4,2,1,70,0,0
21959,-200,4,2,1,70,0,0
22308,-200,4,2,1,70,0,0
22657,-200,4,2,1,70,0,0
24401,-200,4,2,1,70,0,0
25447,-200,4,2,1,70,0,0
25971,-200,4,2,1,70,0,0
26494,-200,4,2,1,70,0,0
39052,-200,4,2,1,70,0,0
49517,-400,4,2,1,70,0,0
50128,-400,4,2,1,5,0,0
50215,-400,4,2,1,70,0,0
51436,-153.846153846154,4,2,1,70,0,0
52657,-153.846153846154,4,2,1,70,0,0
52918,-153.846153846154,4,2,1,5,0,0
53005,-153.846153846154,4,2,1,70,0,0
55447,-153.846153846154,4,2,1,70,0,0
55796,-153.846153846154,4,2,1,70,0,0
58238,-153.846153846154,4,2,1,70,0,0
58500,-153.846153846154,4,2,1,5,0,0
58587,-153.846153846154,4,2,1,70,0,0
61029,-153.846153846154,4,2,1,70,0,0
61290,-153.846153846154,4,2,1,5,0,0
61378,-153.846153846154,4,2,1,70,0,0
61726,-153.846153846154,4,2,1,70,0,0
63819,-153.846153846154,4,2,1,70,0,0
64081,-153.846153846154,4,2,1,5,0,0
64168,-153.846153846154,4,2,1,70,0,0
64517,-153.846153846154,4,2,1,70,0,0
66610,-153.846153846154,4,2,1,70,0,0
66872,-153.846153846154,4,2,1,5,0,0
66959,-153.846153846154,4,2,1,70,0,0
67308,-153.846153846154,4,2,1,70,0,0
69401,-153.846153846154,4,2,1,70,0,0
69750,-153.846153846154,4,2,1,70,0,0
69793,-153.846153846154,4,2,1,5,0,0
69837,-153.846153846154,4,2,1,70,0,0
69880,-153.846153846154,4,2,1,5,0,0
69924,-153.846153846154,4,2,1,70,0,0
69968,-153.846153846154,4,2,1,5,0,0
70011,-153.846153846154,4,2,1,70,0,0
70055,-153.846153846154,4,2,1,5,0,0
70098,-153.846153846154,4,2,1,70,0,0
70142,-153.846153846154,4,2,1,5,0,0
70186,-153.846153846154,4,2,1,70,0,0
70229,-153.846153846154,4,2,1,5,0,0
70273,-153.846153846154,4,2,1,70,0,0
70316,-153.846153846154,4,2,1,5,0,0
70360,-153.846153846154,4,2,1,70,0,0
70404,-153.846153846154,4,2,1,5,0,0
70447,-153.846153846154,4,2,1,70,0,0
70491,-153.846153846154,4,2,1,5,0,0
70534,-153.846153846154,4,2,1,70,0,0
70578,-153.846153846154,4,2,1,5,0,0
70622,-153.846153846154,4,2,1,70,0,0
70665,-153.846153846154,4,2,1,5,0,0
70709,-153.846153846154,4,2,1,70,0,0
70753,-153.846153846154,4,2,1,5,0,0
70796,-153.846153846154,4,2,1,70,0,0
70840,-153.846153846154,4,2,1,5,0,0
70883,-153.846153846154,4,2,1,70,0,0
70927,-153.846153846154,4,2,1,5,0,0
70971,-153.846153846154,4,2,1,70,0,0
71058,-153.846153846154,4,2,1,5,0,0
71145,-153.846153846154,4,2,1,70,0,0
72366,-153.846153846154,4,2,1,5,0,0
72540,-117.647058823529,4,2,1,80,0,0
94866,-117.647058823529,4,2,1,80,0,0
95215,-117.647058823529,4,2,1,80,0,0
97308,-117.647058823529,4,2,1,80,0,0
97569,-117.647058823529,4,2,1,5,0,0
97657,-117.647058823529,4,2,1,80,0,0
98005,-117.647058823529,4,2,1,80,0,0
100098,-117.647058823529,4,2,1,80,0,0
100360,-117.647058823529,4,2,1,5,0,0
100447,-117.647058823529,4,2,1,80,0,0
100796,-117.647058823529,4,2,1,80,0,0
102889,-117.647058823529,4,2,1,80,0,0
103151,-117.647058823529,4,2,1,5,0,0
103238,-117.647058823529,4,2,1,80,0,0
103587,-117.647058823529,4,2,1,80,0,0
106029,-117.647058823529,4,2,1,80,0,0
106378,-117.647058823529,4,2,1,80,0,0
108471,-117.647058823529,4,2,1,80,0,0
108732,-117.647058823529,4,2,1,5,0,0
108819,-117.647058823529,4,2,1,80,0,0
109168,-117.647058823529,4,2,1,80,0,0
111261,-117.647058823529,4,2,1,80,0,0
111523,-117.647058823529,4,2,1,5,0,0
111610,-117.647058823529,4,2,1,80,0,0
114401,-117.647058823529,4,2,1,80,0,0
116843,-117.647058823529,4,2,1,80,0,0
117191,-117.647058823529,4,2,1,80,0,0

[Colours]
Combo1 : 97,187,214
Combo2 : 238,64,64
Combo3 : 198,79,156
Combo4 : 243,181,63

[HitObjects]
83,243,5564,6,0,L|201:229,4,110,4|0|8|0|2,0:0|0:0|0:3|0:0|0:0,0:0:0:0:
217,104,7308,1,8,0:3:0:0:
217,104,7831,2,0,L|209:49,2,55,0|0|0,0:0|0:0|0:0,0:0:0:0:
287,167,8354,5,2,0:0:0:0:
287,167,8703,2,0,L|396:153,1,110,0|8,0:0|0:3,0:0:0:0:
470,210,9226,2,0,L|462:265,1,55,0|0,0:0|0:0,0:0:0:0:
340,335,9575,5,4,0:3:0:0:
340,335,9662,1,4,0:3:0:0:
340,335,9750,1,0,1:0:0:0:
262,317,9924,1,4,0:3:0:0:
221,254,10098,1,4,0:3:0:0:
338,120,10273,5,0,1:0:0:0:
338,120,10622,2,0,L|346:65,2,55,4|8|8,0:3|0:3|0:3,0:0:0:0:
185,176,11145,6,0,P|106:157|74:156,2,110,4|0|8,0:0|0:0|0:3,0:0:0:0:
260,239,12017,2,0,P|288:235|313:224,2,55,0|0|0,0:0|0:0|0:0,0:0:0:0:
205,320,12540,5,2,0:0:0:0:
205,320,12715,1,0,0:0:0:0:
121,279,12889,2,0,P|66:283|13:299,1,110,8|0,0:3|0:0,0:0:0:0:
59,233,13412,2,0,P|74:180|79:125,1,110,0|0,0:0|0:0,0:0:0:0:
14,15,13936,6,0,P|18:43|29:68,1,55,2|0,0:0|0:0,0:0:0:0:
79,125,14284,2,0,P|105:135|132:138,1,55,0|0,0:0|0:0,0:0:0:0:
282,94,14633,1,8,0:3:0:0:
218,54,14808,2,0,P|190:58|165:69,1,55,0|0,0:0|0:0,0:0:0:0:
137,227,15157,5,4,0:3:0:0:
137,227,15215,5,4,0:3:0:0:
137,227,15273,5,4,0:3:0:0:
137,227,15331,6,0,L|183:215,1,36.6666666666667,0|4,1:0|0:3,0:0:0:0:
283,272,15564,5,4,0:3:0:0:
277,290,15680,2,0,L|231:278,2,36.6666666666667,4|4|4,0:3|0:3|0:3,0:0:0:0:
172,378,16029,2,0,L|162:342,2,36.6666666666667,0|4|4,1:0|0:3|0:3,0:0:0:0:
277,290,16378,5,0,1:0:0:0:
308,244,16494,5,4,3:0:0:0:
318,193,16610,5,4,3:0:0:0:
308,141,16726,5,4,3:2:0:0:
13,61,19343,6,0,L|15:89,3,18.3333333333333,4|4|4|0,0:3|0:3|0:3|1:0,0:0:0:0:
84,141,19691,2,0,L|157:130,1,55,4|4,0:3|0:3,0:0:0:0:
267,247,20040,1,0,1:0:0:0:
179,287,20215,2,0,L|187:232,1,55,4|4,0:3|0:3,0:0:0:0:
201,13,20564,2,0,L|209:67,2,55,0|4|4,1:0|0:3|0:3,0:0:0:0:
384,133,21087,6,0,L|378:164,3,18.3333333333333,0|0|0|4,1:0|1:0|1:0|0:3,0:0:0:0:
299,220,21436,2,0,L|305:251,3,18.3333333333333,4|4|4|0,3:0|3:0|3:0|1:0,0:0:0:0:
387,277,21784,1,4,0:3:0:0:
384,133,21959,1,0,1:0:0:0:
256,374,22308,5,4,0:0:0:0:
256,374,23005,1,8,0:3:0:0:
256,10,23703,6,0,P|239:47|257:123,1,110,2|8,0:0|0:3,0:0:0:0:
371,173,24226,2,0,L|401:169,2,18.3333333333333,4|4|4,0:3|0:3|0:3,0:0:0:0:
347,193,24401,2,0,L|277:190,1,55,0|0,1:0|0:0,0:0:0:0:
214,186,24750,2,0,L|144:183,1,55,8|8,0:3|3:0,0:0:0:0:
42,304,25098,5,6,0:3:0:0:
68,312,25185,1,4,0:3:0:0:
95,308,25272,1,4,0:3:0:0:
117,293,25359,1,4,0:3:0:0:
132,270,25446,1,0,1:0:0:0:
117,293,25796,5,4,0:3:0:0:
285,236,25971,2,0,L|295:111,1,110,0|4,1:0|0:3,0:0:0:0:
91,21,26494,5,0,1:0:0:0:
176,151,26668,1,0,1:0:0:0:
303,48,26843,2,0,L|377:38,1,55,0|0,1:0|1:0,0:0:0:0:
176,151,27191,2,0,L|121:143,1,55,4|4,0:3|0:3,0:0:0:0:
285,236,27540,2,0,L|339:228,1,55,4|4,0:3|0:3,0:0:0:0:
213,322,27889,5,4,0:0:0:0:
341,122,49517,6,0,L|266:131,1,55,2|0,0:0|0:0,0:0:0:0:
86,265,50215,5,2,0:0:0:0:
159,280,50389,1,0,0:0:0:0:
279,354,50564,5,2,0:0:0:0:
202,346,50738,1,0,0:0:0:0:
162,271,50912,1,2,0:0:0:0:
86,257,51087,1,0,0:0:0:0:
31,311,51261,1,2,0:0:0:0:
17,152,51436,6,0,P|75:144|132:204,1,142.99999345398,2|2,0:0|0:0,0:0:0:0:
98,110,51959,1,2,0:0:0:0:
125,41,52133,1,0,0:0:0:0:
200,57,52308,2,0,L|270:40,1,71.4999967269899,2|0,0:0|0:0,0:0:0:0:
358,129,52657,2,0,L|288:112,1,71.4999967269899,2|0,0:0|0:0,0:0:0:0:
130,199,53005,5,2,0:0:0:0:
124,276,53180,1,0,0:0:0:0:
259,321,53354,1,2,0:0:0:0:
207,256,53529,1,0,0:0:0:0:
128,286,53703,1,2,0:0:0:0:
125,369,53878,1,0,0:0:0:0:
207,256,54052,1,2,0:0:0:0:
268,375,54226,6,0,L|400:360,1,107.249995090485,2|0,0:0|0:0,0:0:0:0:
409,340,54575,2,0,P|421:299|410:271,1,71.4999967269899,2|2,0:0|0:0,0:0:0:0:
344,213,54924,1,2,0:0:0:0:
232,298,55098,2,0,L|317:289,1,71.4999967269899,2|2,0:0|0:0,0:0:0:0:
425,176,55447,1,2,0:0:0:0:
232,298,55796,5,2,0:0:0:0:
217,225,55970,1,0,0:0:0:0:
143,105,56145,5,2,0:0:0:0:
151,182,56319,1,0,0:0:0:0:
226,222,56493,1,2,0:0:0:0:
240,298,56668,1,0,0:0:0:0:
186,353,56842,1,2,0:0:0:0:
47,328,57017,6,0,B|93:276|93:276|172:278,1,142.99999345398,2|2,0:0|0:0,0:0:0:0:
316,284,57540,1,2,0:0:0:0:
365,227,57714,1,0,0:0:0:0:
310,166,57889,2,0,L|240:183,1,71.4999967269899,2|0,0:0|0:0,0:0:0:0:
364,226,58238,2,0,L|434:243,1,71.4999967269899,2|0,0:0|0:0,0:0:0:0:
463,118,58586,5,2,0:0:0:0:
400,74,58761,1,0,0:0:0:0:
310,166,58935,1,2,0:0:0:0:
379,144,59110,1,0,0:0:0:0:
403,66,59284,1,2,0:0:0:0:
468,110,59459,1,0,0:0:0:0:
379,144,59633,1,2,0:0:0:0:
291,177,59807,6,0,L|306:309,1,107.249995090485,2|0,0:0|0:0,0:0:0:0:
328,304,60156,2,0,P|340:263|329:235,1,71.4999967269899,2|2,0:0|0:0,0:0:0:0:
208,185,60505,1,2,0:0:0:0:
163,257,60679,2,0,L|91:264,1,71.4999967269899,2|2,0:0|0:0,0:0:0:0:
241,116,61028,1,2,0:0:0:0:
248,104,61203,1,0,0:0:0:0:
256,263,61378,6,0,L|253:334,1,71.4999967269899,4|0,0:3|0:0,0:0:0:0:
101,186,61726,2,0,L|98:114,1,71.4999967269899,4|0,0:3|0:0,0:0:0:0:
263,264,62075,6,0,L|260:335,1,71.4999967269899,4|0,0:3|0:0,0:0:0:0:
108,187,62423,2,0,L|105:115,1,71.4999967269899,4|0,0:3|0:0,0:0:0:0:
274,265,62773,1,4,0:3:0:0:
270,351,62947,1,0,0:0:0:0:
119,188,63121,2,0,L|116:116,1,71.4999967269899,4|0,0:3|0:0,0:0:0:0:
284,266,63471,5,4,0:3:0:0:
183,318,63645,1,0,0:0:0:0:
119,188,63819,1,4,0:3:0:0:
340,54,64168,6,0,P|393:52|420:81,1,71.4999967269899,4|0,0:3|0:0,0:0:0:0:
395,179,64517,2,0,P|342:181|315:152,1,71.4999967269899,4|0,0:3|0:0,0:0:0:0:
340,42,64866,6,0,P|393:40|420:69,1,71.4999967269899,4|0,0:3|0:0,0:0:0:0:
395,192,65215,2,0,P|342:194|315:165,1,71.4999967269899,4|0,0:3|0:0,0:0:0:0:
342,30,65564,5,4,0:3:0:0:
462,128,65738,1,0,0:0:0:0:
316,193,65913,2,0,P|314:140|343:113,1,71.4999967269899,4|0,0:3|0:0,0:0:0:0:
444,259,66261,2,0,P|446:312|417:339,1,71.4999967269899,4|0,0:3|0:0,0:0:0:0:
276,382,66610,1,4,0:3:0:0:
137,159,66959,5,8,0:0:0:0:
164,231,67133,1,4,0:3:0:0:
214,171,67308,1,8,0:0:0:0:
121,151,67482,5,4,0:3:0:0:
162,246,67657,1,8,0:0:0:0:
229,164,67831,1,4,0:3:0:0:
89,228,68005,5,8,0:0:0:0:
229,164,68179,1,4,0:3:0:0:
91,56,68354,5,8,0:0:0:0:
164,222,68529,1,4,0:3:0:0:
182,42,68703,5,8,0:0:0:0:
164,222,68878,1,4,0:3:0:0:
269,66,69052,5,8,0:0:0:0:
90,157,69226,5,4,0:3:0:0:
181,336,69401,5,8,0:0:0:0:
360,245,69575,5,4,0:3:0:0:
269,66,69750,6,0,L|253:34,3,35.749998363495,12|4|4|4,0:3|0:3|0:3|0:3,0:0:0:0:
244,134,70098,6,0,L|212:149,3,35.749998363495,8|4|4|4,0:0|0:3|0:3|0:3,0:0:0:0:
314,158,70447,6,0,L|329:189,3,35.749998363495,8|4|4|4,0:0|0:3|0:3|0:3,0:0:0:0:
336,87,70796,6,0,L|367:71,3,35.749998363495,8|4|4|4,0:0|0:3|0:3|0:3,0:0:0:0:
113,86,72540,6,0,B|210:53|210:53,1,93.500001783371,4|0,0:0|0:0,0:0:0:0:
156,161,72889,1,8,0:0:0:0:
148,170,73064,2,0,L|89:165,1,46.7500008916855,2|2,0:0|0:3,0:0:0:0:
274,243,73238,2,0,B|234:208|234:208|238:125,1,93.500001783371,2|4,0:0|3:0,0:0:0:0:
347,78,73587,1,8,0:0:0:0:
367,234,73761,6,0,B|297:251|297:251|275:276|275:276|174:296,1,187.000003566742,2|0,0:0|0:0,0:0:0:0:
37,233,74284,2,0,P|21:290|33:323,1,93.500001783371,8|2,0:0|0:0,0:0:0:0:
68,333,74546,1,2,0:3:0:0:
103,326,74633,2,0,P|119:269|107:236,1,93.500001783371,2|4,0:0|3:0,0:0:0:0:
2,111,74982,1,8,0:0:0:0:
2,111,75157,1,4,0:3:0:0:
214,33,75331,6,0,P|234:81|214:129,1,93.500001783371,4|0,0:3|0:0,0:0:0:0:
145,259,75680,1,8,0:0:0:0:
155,266,75855,2,0,L|201:262,1,46.7500008916855,2|2,0:0|0:3,0:0:0:0:
136,174,76029,2,0,P|91:186|65:224,1,93.500001783371,2|4,0:0|3:0,0:0:0:0:
120,344,76378,1,8,0:0:0:0:
201,262,76552,6,0,B|270:255|270:255|314:317,1,140.250002675057,2|0,0:0|0:0,0:0:0:0:
365,383,76901,1,2,0:0:0:0:
448,268,77075,2,0,L|430:166,2,93.500001783371,8|2|4,0:0|0:0|0:3,0:0:0:0:
291,150,77598,1,4,0:3:0:0:
392,44,77773,1,8,0:0:0:0:
392,44,77947,1,4,3:0:0:0:
180,40,78122,6,0,P|135:46|101:86,1,93.500001783371,4|0,0:3|0:0,0:0:0:0:
139,227,78471,1,8,0:0:0:0:
154,216,78646,2,0,L|159:157,1,46.7500008916855,2|2,0:0|0:3,0:0:0:0:
49,264,78820,2,0,B|69:354,1,93.500001783371,2|4,0:0|3:0,0:0:0:0:
154,216,79169,1,8,0:0:0:0:
237,314,79343,6,0,B|294:324|328:278|306:282|339:218|410:242,1,187.000003566742,2|0,0:0|0:0,0:0:0:0:
498,357,79866,2,0,P|453:368|410:351,1,93.500001783371,8|2,0:0|0:0,0:0:0:0:
399,340,80128,1,2,0:3:0:0:
389,326,80215,2,0,P|377:281|394:238,1,93.500001783371,2|4,0:0|0:3,0:0:0:0:
494,144,80564,1,8,0:0:0:0:
494,144,80738,1,4,0:3:0:0:
214,36,80913,6,0,L|228:135,1,93.500001783371,4|0,0:3|0:0,0:0:0:0:
336,12,81262,1,8,0:0:0:0:
353,20,81437,2,0,L|399:16,1,46.7500008916855,2|2,0:0|0:3,0:0:0:0:
319,115,81610,2,0,L|220:129,1,93.500001783371,2|4,0:0|3:0,0:0:0:0:
88,68,81960,1,8,0:0:0:0:
17,181,82134,6,0,B|86:174|86:174|130:236,1,140.250002675057,0|0,0:0|0:0,0:0:0:0:
167,294,82483,1,2,0:0:0:0:
45,379,82657,2,0,P|15:340|28:286,2,93.500001783371,8|2|4,0:0|0:0|3:0,0:0:0:0:
167,294,83180,1,4,3:0:0:0:
86,175,83355,1,8,0:0:0:0:
147,119,83529,1,4,0:3:0:0:
167,294,83703,6,0,B|174:391|174:391,1,93.500001783371,4|0,0:0|0:0,0:0:0:0:
291,261,84052,1,8,0:0:0:0:
290,247,84227,2,0,L|231:242,1,46.7500008916855,2|2,0:0|0:3,0:0:0:0:
332,331,84401,2,0,B|446:310,1,93.500001783371,2|4,0:0|3:0,0:0:0:0:
500,198,84750,1,8,0:0:0:0:
366,141,84924,6,0,B|381:221|381:221|406:243|406:243|423:313,1,187.000003566742,2|0,0:0|0:0,0:0:0:0:
238,330,85447,2,0,P|226:285|243:242,1,93.500001783371,8|2,0:0|0:0,0:0:0:0:
261,217,85709,1,2,0:3:0:0:
280,200,85796,2,0,P|296:143|284:110,1,93.500001783371,2|4,0:0|3:0,0:0:0:0:
175,27,86145,1,8,0:0:0:0:
175,27,86319,1,4,0:3:0:0:
19,223,86494,6,0,P|63:234|104:214,1,93.500001783371,4|0,0:3|0:0,0:0:0:0:
57,69,86843,1,8,0:0:0:0:
45,84,87018,2,0,L|48:130,1,46.7500008916855,2|2,0:0|0:3,0:0:0:0:
184,205,87192,2,0,P|171:160|133:134,1,93.500001783371,2|4,0:0|3:0,0:0:0:0:
67,280,87541,1,8,0:0:0:0:
142,360,87715,2,0,L|248:342,1,93.500001783371,2|4,0:0|0:3,0:0:0:0:
368,218,88064,5,2,0:0:0:0:
440,265,88238,2,0,L|456:357,2,93.500001783371,8|2|4,0:0|0:0|0:3,0:0:0:0:
295,181,88761,1,4,0:3:0:0:
236,313,88936,1,8,0:0:0:0:
236,313,89110,1,4,0:3:0:0:
405,171,89285,6,0,P|399:125|359:91,1,93.500001783371,4|0,0:3|0:0,0:0:0:0:
166,177,89634,1,8,0:0:0:0:
172,188,89809,2,0,L|231:193,1,46.7500008916855,2|2,0:0|0:3,0:0:0:0:
260,100,89983,2,0,B|239:8,1,93.500001783371,2|4,0:0|3:0,0:0:0:0:
175,197,90332,1,8,0:0:0:0:
347,224,90505,6,0,B|294:208|294:208|182:292,1,187.000003566742,2|0,0:0|0:0,0:0:0:0:
354,384,91029,2,0,P|370:341|359:296,1,93.500001783371,8|2,0:0|0:0,0:0:0:0:
350,277,91291,1,2,0:3:0:0:
335,255,91378,2,0,P|323:210|340:167,1,93.500001783371,2|4,0:0|0:3,0:0:0:0:
456,316,91727,1,8,0:0:0:0:
450,334,91901,1,4,0:3:0:0:
238,356,92076,6,0,L|139:370,1,93.500001783371,4|0,0:3|0:0,0:0:0:0:
36,210,92425,1,8,0:0:0:0:
173,148,92598,2,0,L|169:194,1,46.7500008916855,2|2,0:0|0:3,0:0:0:0:
49,302,92773,2,0,L|35:203,1,93.500001783371,2|4,0:0|3:0,0:0:0:0:
138,65,93123,1,8,0:0:0:0:
258,196,93296,2,0,L|373:166,1,93.500001783371,2|4,0:0|0:3,0:0:0:0:
453,35,93645,5,8,0:1:0:0:
453,35,93732,1,8,0:1:0:0:
453,35,93819,2,0,L|449:89,4,46.7500008916855,8|8|8|8|8,0:1|0:1|0:1|0:1|0:1,0:0:0:0:
435,226,94343,6,0,L|494:214,1,46.7500008916855,8|8,0:1|0:1,0:0:0:0:
347,305,94517,2,0,L|301:314,1,46.7500008916855,8|8,0:1|0:1,0:0:0:0:
437,238,94691,2,0,L|496:226,1,46.7500008916855,8|8,0:1|0:1,0:0:0:0:
238,163,94866,5,4,0:0:0:0:
172,135,95040,1,0,0:0:0:0:
238,163,95215,1,2,0:0:0:0:
172,135,95389,1,2,0:0:0:0:
75,261,95564,2,0,P|113:249|121:191,2,93.500001783371,8|2|2,0:0|0:0|0:0,0:0:0:0:
125,200,96087,1,2,0:0:0:0:
206,359,96261,6,0,P|265:333|318:328,1,93.500001783371,4|0,0:3|0:0,0:0:0:0:
162,291,96610,2,0,P|103:265|50:260,1,93.500001783371,2|2,0:0|0:0,0:0:0:0:
280,195,96959,1,8,0:0:0:0:
230,253,97133,1,2,0:0:0:0:
169,206,97308,1,2,0:0:0:0:
418,321,97657,5,4,0:3:0:0:
418,321,97831,1,0,0:0:0:0:
485,253,98005,1,2,0:0:0:0:
485,253,98179,1,2,0:0:0:0:
383,136,98354,2,0,L|394:242,2,93.500001783371,8|2|2,0:0|0:0|0:0,0:0:0:0:
322,283,98878,2,0,L|216:272,1,93.500001783371,2|4,0:0|0:3,0:0:0:0:
42,363,99226,5,2,0:0:0:0:
166,338,99401,1,2,0:0:0:0:
186,208,99575,1,2,0:0:0:0:
42,148,99750,5,8,0:0:0:0:
87,250,99924,1,2,0:0:0:0:
198,101,100098,1,2,0:0:0:0:
0,229,100447,5,4,0:3:0:0:
13,304,100622,1,0,0:0:0:0:
0,229,100796,1,2,0:0:0:0:
13,304,100971,1,2,0:0:0:0:
59,165,101145,2,0,P|115:162|139:209,2,93.500001783371,8|2|2,0:0|0:0|0:0,0:0:0:0:
136,187,101668,1,2,0:0:0:0:
198,309,101843,6,0,P|203:249|221:182,1,93.500001783371,4|0,0:3|0:0,0:0:0:0:
106,363,102191,2,0,P|101:303|83:236,1,93.500001783371,2|2,0:0|0:0,0:0:0:0:
256,383,102540,1,8,0:0:0:0:
344,364,102715,1,2,0:0:0:0:
433,348,102889,1,2,0:0:0:0:
306,97,103238,5,4,0:3:0:0:
296,197,103412,1,0,0:0:0:0:
396,207,103587,1,2,0:0:0:0:
406,107,103761,1,2,0:0:0:0:
296,197,103936,2,0,B|307:241|307:241|294:299,2,93.500001783371,8|2|2,0:0|0:0|0:0,0:0:0:0:
415,347,104459,2,0,P|457:330|512:318,1,93.500001783371,2|4,0:0|0:3,0:0:0:0:
306,373,104808,5,2,0:0:0:0:
378,269,104982,1,2,0:0:0:0:
296,197,105157,1,2,0:0:0:0:
209,380,105331,5,8,0:0:0:0:
296,287,105505,1,4,0:3:0:0:
114,255,105680,5,4,0:3:0:0:
225,306,105854,1,4,0:3:0:0:
30,374,106029,6,0,P|11:323|19:284,3,93.500001783371,4|0|2|2,0:0|0:0|0:0|0:0,0:0:0:0:
180,218,106726,2,0,P|186:172|168:129,1,93.500001783371,8|2,0:0|0:0,0:0:0:0:
39,102,107075,1,2,0:0:0:0:
87,227,107250,2,0,P|173:231|270:276,1,187.000003566742,2|0,0:0|0:0,0:0:0:0:
357,104,107773,6,0,L|344:206,1,93.500001783371,2|2,0:0|0:0,0:0:0:0:
211,27,108122,2,0,L|224:129,1,93.500001783371,8|2,0:0|0:0,0:0:0:0:
426,9,108471,1,2,0:0:0:0:
482,374,108819,6,0,L|495:268,3,93.500001783371,4|0|2|2,0:3|0:0|0:0|0:0,0:0:0:0:
332,218,109516,2,0,L|318:116,1,93.500001783371,8|2,0:0|0:0,0:0:0:0:
473,102,109865,1,2,0:0:0:0:
387,272,110040,2,0,P|343:294|283:279,1,93.500001783371,2|4,0:0|0:3,0:0:0:0:
217,177,110389,5,2,0:0:0:0:
110,264,110563,2,0,P|101:318|123:366,1,93.500001783371,2|2,0:0|0:0,0:0:0:0:
217,177,110912,2,0,L|228:84,1,93.500001783371,8|2,0:0|0:0,0:0:0:0:
105,155,111261,1,2,0:0:0:0:
219,377,111610,6,0,P|279:351|348:341,1,93.500001783371,8|4,0:0|0:3,0:0:0:0:
391,346,111959,1,4,0:3:0:0:
235,208,112133,6,0,P|299:215|364:241,1,93.500001783371,8|4,0:0|0:3,0:0:0:0:
399,267,112482,1,4,0:3:0:0:
347,77,112657,6,0,P|399:115|442:170,1,93.500001783371,8|4,0:0|0:3,0:0:0:0:
326,223,113005,6,0,P|273:184|230:129,1,93.500001783371,8|4,0:0|0:3,0:0:0:0:
213,90,113354,1,4,0:3:0:0:
171,293,113528,6,0,P|145:233|134:163,1,93.500001783371,8|4,0:0|0:3,0:0:0:0:
140,122,113877,1,4,0:3:0:0:
2,262,114052,6,0,P|9:197|35:132,1,93.500001783371,8|4,0:0|0:3,0:0:0:0:
171,293,114401,5,8,0:0:0:0:
140,375,114575,1,4,0:3:0:0:
158,289,114750,1,4,0:3:0:0:
281,251,114924,5,8,0:0:0:0:
351,297,115098,1,4,0:3:0:0:
284,334,115273,1,4,0:3:0:0:
197,201,115447,5,8,0:0:0:0:
356,208,115622,1,4,0:3:0:0:
284,334,115796,2,0,P|270:295|270:268,1,46.7500008916855,8|4,0:0|0:3,0:0:0:0:
299,120,115971,5,4,0:3:0:0:
299,120,116058,1,4,0:3:0:0:
299,120,116145,2,0,P|294:142|284:163,1,46.7500008916855,8|4,0:0|0:3,0:0:0:0:
221,228,116319,2,0,P|198:235|175:237,1,46.7500008916855,4|4,0:3|0:3,3:3:0:0:
39,196,116494,5,8,0:0:0:0:
51,151,116581,1,4,0:3:0:0:
85,121,116668,1,4,0:3:0:0:
131,115,116755,1,4,0:3:0:0:
172,136,116842,1,8,0:0:0:0:
160,343,117191,5,4,0:0:0:0:
