osu file format v14

[General]
AudioFilename: audio.mp3
AudioLeadIn: 0
PreviewTime: 72453
Countdown: 0
SampleSet: Soft
StackLeniency: 0.5
Mode: 0
LetterboxInBreaks: 0
WidescreenStoryboard: 0

[Editor]
DistanceSpacing: 0.56
BeatDivisor: 4
GridSize: 4
TimelineZoom: 3.599999

[Metadata]
Title:introduction - INSANE INFLAME
TitleUnicode:introduction - INSANE INFLAME
Artist:Camellia
ArtistUnicode:かめりあ
Creator:Cris-
Version:Ready to Start a War
Source:osu!
Tags:Seolv [_L_u_k_a_s_] Lukas bor Daycore Hybrid Pack FA Featured Artist English Electronic Rock Dubstep dnb Drum and Bass Mappers' Guild MG Cametek KamelCamellia
BeatmapID:2263159
BeatmapSetID:1081920

[Difficulty]
HPDrainRate:6
CircleSize:4.5
OverallDifficulty:8.5
ApproachRate:9.4
SliderMultiplier:2.2
SliderTickRate:1

[Events]
//Background and Video events
0,0,"INSANE INFLAME.jpg",0,0
//Break Periods
2,28089,38512
//Storyboard Layer 0 (Background)
//Storyboard Layer 1 (Fail)
//Storyboard Layer 2 (Pass)
//Storyboard Layer 3 (Foreground)
//Storyboard Layer 4 (Overlay)
//Storyboard Sound Samples

[TimingPoints]
1378,348.837209302326,4,2,1,10,1,0
2773,-100,4,2,1,20,0,0
3471,-100,4,2,1,30,0,0
4168,-100,4,2,1,40,0,0
4866,-100,4,2,1,50,0,0
5476,-100,4,2,1,5,0,0
5564,-50,4,2,1,70,0,0
5912,-200,4,2,1,70,0,0
9750,-100,4,2,1,70,0,0
11145,-50,4,2,1,70,0,0
11494,-200,4,2,1,70,0,0
15331,-100,4,2,1,70,0,0
16726,-50,4,2,1,70,0,0
17075,-200,4,2,1,70,0,0
19517,-100,4,2,1,70,0,0
20912,-80,4,2,1,70,0,0
21959,-125,4,2,1,70,0,0
22308,-50,4,2,1,70,0,0
22657,-200,4,2,1,70,0,0
24401,-100,4,2,1,70,0,0
25447,-50,4,2,1,70,0,0
25971,-40,4,2,1,70,0,0
26494,-80,4,2,1,70,0,0
39052,-133.333333333333,4,2,1,70,0,0
49517,-125,4,2,1,70,0,0
50128,-125,4,2,1,5,0,0
50215,-100,4,2,1,70,0,0
52657,-80,4,2,1,70,0,0
52918,-80,4,2,1,5,0,0
53005,-100,4,2,1,70,0,0
55447,-50,4,2,1,70,0,0
55796,-100,4,2,1,70,0,0
58238,-80,4,2,1,70,0,0
58500,-80,4,2,1,5,0,0
58587,-100,4,2,1,70,0,0
61029,-500,4,2,1,70,0,0
61290,-500,4,2,1,5,0,0
61378,-50,4,2,1,70,0,0
61726,-100,4,2,1,70,0,0
63819,-500,4,2,1,70,0,0
64081,-500,4,2,1,5,0,0
64168,-50,4,2,1,70,0,0
64517,-100,4,2,1,70,0,0
66610,-500,4,2,1,70,0,0
66872,-500,4,2,1,5,0,0
66959,-50,4,2,1,70,0,0
67308,-76.9230769230769,4,2,1,70,0,0
69401,-500,4,2,1,70,0,0
69750,-50,4,2,1,70,0,0
69793,-50,4,2,1,5,0,0
69837,-50,4,2,1,70,0,0
69880,-50,4,2,1,5,0,0
69924,-50,4,2,1,70,0,0
69968,-50,4,2,1,5,0,0
70011,-50,4,2,1,70,0,0
70055,-50,4,2,1,5,0,0
70098,-50,4,2,1,70,0,0
70142,-50,4,2,1,5,0,0
70186,-50,4,2,1,70,0,0
70229,-50,4,2,1,5,0,0
70273,-50,4,2,1,70,0,0
70316,-50,4,2,1,5,0,0
70360,-50,4,2,1,70,0,0
70404,-50,4,2,1,5,0,0
70447,-50,4,2,1,70,0,0
70491,-50,4,2,1,5,0,0
70534,-50,4,2,1,70,0,0
70578,-50,4,2,1,5,0,0
70622,-50,4,2,1,70,0,0
70665,-50,4,2,1,5,0,0
70709,-50,4,2,1,70,0,0
70753,-50,4,2,1,5,0,0
70796,-50,4,2,1,70,0,0
70840,-50,4,2,1,5,0,0
70883,-50,4,2,1,70,0,0
70927,-50,4,2,1,5,0,0
70971,-100,4,2,1,70,0,0
71058,-50,4,2,1,5,0,0
71145,-50,4,2,1,70,0,0
72366,-200,4,2,1,5,0,0
72540,-66.6666666666667,4,2,1,80,0,1
94866,-50,4,2,1,80,0,0
95215,-125,4,2,1,80,0,0
97308,-500,4,2,1,80,0,0
97569,-500,4,2,1,5,0,0
97657,-50,4,2,1,80,0,0
98005,-125,4,2,1,80,0,0
100098,-500,4,2,1,80,0,0
100360,-500,4,2,1,5,0,0
100447,-50,4,2,1,80,0,0
100796,-125,4,2,1,80,0,0
102889,-500,4,2,1,80,0,0
103151,-500,4,2,1,5,0,0
103238,-50,4,2,1,80,0,0
103587,-125,4,2,1,80,0,0
106029,-50,4,2,1,80,0,0
106378,-125,4,2,1,80,0,0
108471,-500,4,2,1,80,0,0
108732,-500,4,2,1,5,0,0
108819,-50,4,2,1,80,0,0
109168,-125,4,2,1,80,0,0
111261,-500,4,2,1,80,0,0
111523,-500,4,2,1,5,0,0
111610,-66.6666666666667,4,2,1,80,0,0
114401,-50,4,2,1,80,0,0
116843,-57.1428571428571,4,2,1,80,0,0
117191,-100,4,2,1,80,0,0

[Colours]
Combo1 : 97,187,214
Combo2 : 238,64,64
Combo3 : 198,79,156
Combo4 : 243,181,63

[HitObjects]
256,192,1378,12,0,5476,0:0:0:0:
100,276,5564,6,0,B|60:304|20:276|36:232|84:232|108:304|193:276,1,220,4|0,0:0|0:0,0:0:0:0:
324,208,5912,6,0,L|377:196,1,55,0|0,0:0|0:0,0:0:0:0:
284,276,6261,2,0,L|284:331,1,55,8|0,0:3|0:0,0:0:0:0:
246,209,6610,2,0,L|193:197,1,55,0|0,0:0|0:0,0:0:0:0:
324,208,6959,5,2,0:0:0:0:
284,276,7133,1,0,0:0:0:0:
246,209,7308,2,0,B|226:155|266:155|246:103,1,110,8|0,0:3|0:0,0:0:0:0:
128,208,7831,1,0,0:0:0:0:
128,208,8005,2,0,P|122:235|128:261,1,55,0|0,0:0|0:0,0:0:0:0:
246,209,8354,5,2,0:0:0:0:
187,310,8529,1,0,0:0:0:0:
128,208,8703,2,0,L|74:200,1,55,0|0,0:0|0:0,0:0:0:0:
140,128,9052,2,0,L|86:120,1,55,8|0,0:3|0:0,0:0:0:0:
152,48,9401,2,0,L|98:40,1,55,0|4,0:0|0:3,0:0:0:0:
17,27,9662,1,4,0:3:0:0:
17,27,9750,5,0,1:0:0:0:
74,200,9924,1,4,0:3:0:0:
8,4,10098,1,4,0:3:0:0:
83,223,10273,6,0,L|188:192,1,110,0|4,1:0|0:3,0:0:0:0:
189,192,10622,1,4,0:3:0:0:
272,165,10796,1,8,0:3:0:0:
208,99,10971,1,8,0:3:0:0:
104,300,11145,6,0,B|265:253|265:253|233:294,1,220,4|0,0:0|0:0,0:0:0:0:
83,223,11494,6,0,L|135:208,1,55,0|0,0:0|0:0,0:0:0:0:
64,144,11843,2,0,L|116:129,1,55,8|0,0:3|0:0,0:0:0:0:
45,65,12191,2,0,L|97:50,1,55,0|0,0:0|0:0,0:0:0:0:
197,110,12540,5,2,0:0:0:0:
117,129,12715,1,0,0:0:0:0:
178,30,12889,2,0,B|205:21|205:21|254:39|254:39|281:30,1,110,8|0,0:3|0:0,0:0:0:0:
420,45,13412,1,0,0:0:0:0:
420,45,13587,2,0,L|368:30,1,55,0|0,0:0|0:0,0:0:0:0:
280,115,13936,6,0,B|253:106|253:106|204:124|204:124|177:115,1,110,2|0,0:0|0:0,0:0:0:0:
176,115,14459,1,0,0:0:0:0:
134,261,14633,1,8,0:3:0:0:
8,115,14808,1,0,0:0:0:0:
50,259,14982,2,0,L|50:314,1,55,0|4,0:0|0:3,0:0:0:0:
50,314,15215,5,4,0:3:0:0:
50,314,15273,5,4,0:3:0:0:
50,314,15331,5,0,1:0:0:0:
112,376,15447,5,4,0:3:0:0:
184,376,15564,5,4,0:3:0:0:
236,324,15680,5,4,0:3:0:0:
288,272,15796,5,4,0:3:0:0:
360,272,15913,5,4,0:3:0:0:
412,324,16029,5,0,1:0:0:0:
464,308,16145,5,4,0:3:0:0:
496,268,16261,5,4,0:3:0:0:
508,220,16377,5,0,1:0:0:0:
496,168,16494,5,4,3:0:0:0:
460,128,16610,5,4,3:0:0:0:
412,108,16726,6,0,B|348:88|348:88|272:128|272:128|208:108,1,220,4|0,3:2|0:0,0:0:0:0:
356,225,17075,6,0,P|362:198|356:172,1,55,0|0,0:0|0:0,0:0:0:0:
330,292,17424,2,0,P|356:298|383:291,1,55,8|0,0:3|0:0,0:0:0:0:
264,265,17773,2,0,P|257:291|264:318,1,55,0|0,0:0|0:0,0:0:0:0:
290,199,18122,5,2,0:0:0:0:
356,225,18296,1,0,0:0:0:0:
224,173,18471,2,0,L|173:153,1,55,8|0,0:3|0:0,0:0:0:0:
280,128,18819,2,0,L|331:108,1,55,0|0,0:0|0:0,0:0:0:0:
240,68,19168,2,0,L|189:48,1,55,0|4,0:0|0:3,0:0:0:0:
188,47,19401,5,4,0:3:0:0:
188,47,19459,5,4,0:3:0:0:
188,47,19517,5,0,1:0:0:0:
331,108,19691,1,4,0:3:0:0:
173,153,19866,1,4,0:3:0:0:
296,218,20040,1,0,1:0:0:0:
321,207,20127,1,0,3:0:0:0:
346,196,20214,1,4,0:3:0:0:
173,153,20389,1,4,0:3:0:0:
261,328,20564,1,0,1:0:0:0:
286,317,20651,1,4,0:3:0:0:
311,306,20738,1,4,0:3:0:0:
138,263,20912,5,4,0:3:0:0:
311,306,21087,5,0,1:0:0:0:
326,299,21145,5,0,1:0:0:0:
343,292,21203,5,0,1:0:0:0:
361,284,21261,5,4,0:3:0:0:
173,153,21436,5,4,3:0:0:0:
158,160,21494,5,4,3:0:0:0:
141,167,21552,5,4,3:0:0:0:
123,175,21610,5,0,1:0:0:0:
92,189,21697,1,0,1:0:0:0:
61,204,21784,1,4,0:3:0:0:
30,219,21871,1,4,3:0:0:0:
0,234,21959,2,0,L|18:272,3,44,0|0|0|0,1:0|0:0|0:0|0:0,0:0:0:0:
52,344,22308,6,0,B|203:272|203:272|178:317,1,220,4|0,0:0|0:0,0:0:0:0:
19,273,22657,6,0,L|69:250,1,55,0|0,0:0|0:0,0:0:0:0:
189,194,23005,2,0,L|139:217,1,55,8|0,0:3|0:0,0:0:0:0:
52,344,23354,2,0,L|102:321,1,55,0|0,0:0|0:0,0:0:0:0:
139,217,23703,1,2,0:0:0:0:
172,288,23878,1,0,0:0:0:0:
69,250,24052,1,8,0:3:0:0:
102,321,24226,5,4,0:3:0:0:
109,336,24284,5,4,0:3:0:0:
116,353,24342,5,4,0:3:0:0:
124,371,24401,6,0,L|223:325,1,110,0|0,1:0|0:0,0:0:0:0:
404,384,24750,1,8,3:0:0:0:
424,356,24837,1,0,3:0:0:0:
432,324,24924,1,8,3:0:0:0:
424,292,25011,1,0,3:0:0:0:
404,264,25098,5,6,0:3:0:0:
368,219,25186,1,4,0:3:0:0:
351,167,25273,1,4,0:3:0:0:
368,114,25360,1,4,0:3:0:0:
408,74,25447,6,0,B|344:54|344:54|268:94|268:94|204:74,1,220,0|0,1:0|0:0,0:0:0:0:
132,52,25796,1,4,0:3:0:0:
368,219,25971,6,0,B|292:191|292:191|196:247|196:247|119:219,1,275,0|4,1:0|0:3,0:0:0:0:
32,180,26232,1,4,0:3:0:0:
20,204,26319,1,4,0:3:0:0:
20,232,26406,1,4,0:3:0:0:
32,256,26494,6,0,P|40:292|32:322,1,68.75,0|0,1:0|3:0,0:0:0:0:
188,160,26668,1,0,1:0:0:0:
188,352,26843,1,0,1:0:0:0:
32,256,27017,1,0,1:0:0:0:
188,160,27191,6,0,L|221:152,7,34.375,4|0|0|0|4|0|0|0,0:3|0:0|0:0|0:0|0:3|0:0|0:0|0:0,0:0:0:0:
116,160,27540,2,0,L|83:152,7,34.375,4|0|0|0|4|0|0|0,0:3|0:0|0:0|0:0|0:3|0:0|0:0|0:0,0:0:0:0:
152,224,27889,5,4,0:0:0:0:
256,196,39052,6,0,P|246:156|256:117,1,82.5000031471254,2|0,0:0|0:0,0:0:0:0:
296,264,39401,1,2,0:0:0:0:
296,264,39575,2,0,P|256:274|217:264,1,82.5000031471254,2|0,0:0|0:0,0:0:0:0:
364,224,39924,2,0,P|374:264|364:303,1,82.5000031471254,2|0,0:0|0:0,0:0:0:0:
324,156,40273,2,0,P|364:146|403:156,1,82.5000031471254,2|0,0:0|0:0,0:0:0:0:
256,196,40622,6,0,B|220:117|292:117|256:38,1,165.000006294251,2|0,0:0|0:0,0:0:0:0:
324,156,41145,1,0,0:0:0:0:
324,156,41319,1,0,0:0:0:0:
188,78,41494,1,0,0:0:0:0:
188,78,41668,1,0,0:0:0:0:
324,0,41843,6,0,L|406:8,1,82.5000031471254,2|0,0:0|0:0,0:0:0:0:
270,86,42191,1,2,0:0:0:0:
270,86,42366,2,0,L|188:78,1,82.5000031471254,2|0,0:0|0:0,0:0:0:0:
406,8,42715,2,0,L|398:90,1,82.5000031471254,2|0,0:0|0:0,0:0:0:0:
262,168,43064,2,0,L|270:86,1,82.5000031471254,2|0,0:0|0:0,0:0:0:0:
372,244,43412,6,0,B|324:228|324:228|268:260|268:260|221:244,1,165.000006294251,2|0,0:0|0:0,0:0:0:0:
331,320,43936,1,0,0:0:0:0:
372,244,44110,1,0,0:0:0:0:
262,168,44284,1,0,0:0:0:0:
221,244,44458,1,0,0:0:0:0:
413,168,44633,6,0,L|485:207,1,82.5000031471254,2|0,0:0|0:0,0:0:0:0:
262,168,44982,1,2,0:0:0:0:
262,168,45157,2,0,L|190:129,1,82.5000031471254,2|0,0:0|0:0,0:0:0:0:
372,244,45505,2,0,L|444:283,1,82.5000031471254,2|2,0:0|0:0,0:0:0:0:
221,244,45854,2,0,L|149:205,1,82.5000031471254,2|0,0:0|0:0,0:0:0:0:
331,320,46203,6,0,B|438:379|438:379|397:372,1,165.000006294251,2|0,0:0|0:0,0:0:0:0:
395,371,46726,1,0,0:0:0:0:
485,207,46901,1,2,0:0:0:0:
372,244,47075,2,0,L|444:283,1,82.5000031471254,2|0,0:0|0:0,0:0:0:0:
300,204,47424,6,0,B|284:252|284:252|316:308|316:308|300:355,1,165.000006294251,2|0,0:0|0:0,0:0:0:0:
360,140,47947,2,0,B|244:72|244:208|112:140|112:140|148:144|176:128,1,330.000012588501,2|0,0:0|0:0,0:0:0:0:
300,204,48819,5,2,0:0:0:0:
300,204,48994,1,0,0:0:0:0:
260,44,49168,2,0,P|300:34|339:44,1,82.5000031471254,0|0,0:0|0:0,0:0:0:0:
300,204,49517,6,0,B|293:251|318:278|318:278|284:292|260:322|260:322|233:290|199:277|199:277|228:252|220:206,1,308,2|0,0:0|0:0,0:0:0:0:
300,124,50215,6,0,L|408:140,1,110,2|0,0:0|0:0,0:0:0:0:
220,205,50564,1,2,0:0:0:0:
300,124,50738,1,0,0:0:0:0:
272,312,50912,1,2,0:0:0:0:
193,107,51087,1,0,0:0:0:0:
409,140,51261,1,2,0:0:0:0:
220,205,51436,6,0,B|144:245|80:205|80:165|96:152|120:145|144:153|145:176|129:191,1,220,2|2,0:0|0:0,0:0:0:0:
128,191,51959,1,2,0:0:0:0:
56,300,52133,1,0,0:0:0:0:
56,109,52308,1,2,0:0:0:0:
220,205,52482,1,0,0:0:0:0:
56,300,52657,6,0,B|24:264|24:264|100:288|100:288|174:264,1,206.25,2|0,0:0|0:0,0:0:0:0:
200,340,53005,6,0,L|96:374,1,110,2|0,0:0|0:0,0:0:0:0:
175,264,53354,1,2,0:0:0:0:
200,340,53529,1,0,0:0:0:0:
53,208,53703,1,2,0:0:0:0:
242,142,53878,1,0,0:0:0:0:
200,340,54052,1,2,0:0:0:0:
53,208,54226,6,0,B|-14:148|27:60|27:60|25:90|41:113,1,220,2|2,0:0|0:0,0:0:0:0:
242,142,54750,1,2,0:0:0:0:
53,208,54924,1,2,0:0:0:0:
114,77,55098,1,2,0:0:0:0:
177,269,55273,1,2,0:0:0:0:
114,77,55447,6,0,B|106:57|106:57|106:45|106:45|98:25,7,55,2|0|0|0|0|0|0|0,0:0|0:0|0:0|0:0|0:0|0:0|0:0|0:0,0:0:0:0:
143,164,55796,6,0,L|177:268,1,110,2|0,0:0|0:0,0:0:0:0:
53,208,56145,1,2,0:0:0:0:
242,142,56319,1,0,0:0:0:0:
200,340,56494,1,2,0:0:0:0:
143,164,56668,1,0,0:0:0:0:
200,340,56843,1,2,0:0:0:0:
143,164,57017,6,0,B|88:93|163:78|149:7|110:-4|78:21|86:60|116:71,1,220,2|2,0:0|0:0,0:0:0:0:
204,112,57540,1,2,0:0:0:0:
82,216,57715,1,0,0:0:0:0:
234,267,57889,1,2,0:0:0:0:
112,371,58064,1,0,0:0:0:0:
204,112,58238,6,0,B|242:95|276:112|276:112|288:104|288:104|300:112|300:112|312:104|312:104|324:112|324:112|358:95|395:112,1,206.25,2|0,0:0|0:0,0:0:0:0:
360,184,58587,6,0,P|341:235|360:286,1,110,2|0,0:0|0:0,0:0:0:0:
511,184,58936,1,2,0:0:0:0:
360,184,59110,1,0,0:0:0:0:
432,364,59284,1,2,0:0:0:0:
511,184,59459,1,0,0:0:0:0:
432,364,59633,1,2,0:0:0:0:
360,184,59808,6,0,B|288:128|209:184|209:184|240:176|265:184,1,220,2|2,0:0|0:0,0:0:0:0:
396,88,60331,1,2,0:0:0:0:
177,88,60506,1,2,0:0:0:0:
288,280,60680,1,2,0:0:0:0:
288,88,60854,1,2,0:0:0:0:
288,280,61029,6,0,L|288:316,1,33,2|0,0:0|0:0,0:0:0:0:
200,240,61378,6,0,P|288:184|376:240,1,220,4|0,0:3|0:0,0:0:0:0:
288,313,61726,1,4,0:3:0:0:
288,88,61901,1,0,0:0:0:0:
376,240,62075,2,0,P|395:291|376:340,1,110,4|0,0:3|0:0,0:0:0:0:
200,240,62424,1,4,0:3:0:0:
376,140,62598,6,0,P|427:121|476:140,1,110,0|4,0:0|0:3,0:0:0:0:
476,140,62947,1,0,0:0:0:0:
288,188,63122,2,0,P|269:137|288:88,1,110,4|0,0:3|0:0,0:0:0:0:
480,143,63471,1,4,0:3:0:0:
288,188,63645,1,0,0:0:0:0:
480,233,63819,6,0,L|464:261,1,33,4|0,0:3|0:0,0:0:0:0:
376,343,64168,6,0,B|356:276|356:276|396:208|396:208|376:140,1,220,4|0,0:3|0:0,0:0:0:0:
199,240,64517,1,4,0:3:0:0:
376,343,64691,1,0,0:0:0:0:
250,164,64866,2,0,P|199:145|150:164,1,110,4|0,0:3|0:0,0:0:0:0:
199,316,65215,1,4,0:3:0:0:
254,74,65389,6,0,P|200:63|148:74,1,110,0|4,0:0|0:3,0:0:0:0:
199,240,65738,1,0,0:0:0:0:
254,74,65912,1,4,0:3:0:0:
111,177,66087,1,0,0:0:0:0:
286,177,66261,1,4,0:3:0:0:
147,74,66436,1,0,0:0:0:0:
199,240,66610,6,0,L|199:273,1,33,4|0,0:3|0:0,0:0:0:0:
111,352,66959,5,8,0:0:0:0:
111,177,67133,1,4,0:3:0:0:
286,352,67308,1,8,0:0:0:0:
286,177,67482,1,4,0:3:0:0:
102,360,67657,5,8,0:0:0:0:
102,168,67831,1,4,0:3:0:0:
294,360,68006,1,8,0:0:0:0:
294,168,68180,1,4,0:3:0:0:
93,368,68354,5,8,0:0:0:0:
93,159,68529,1,4,0:3:0:0:
302,368,68703,1,8,0:0:0:0:
302,159,68878,1,4,0:3:0:0:
84,376,69052,5,8,0:0:0:0:
84,150,69226,1,4,0:3:0:0:
310,376,69401,1,8,0:0:0:0:
310,150,69575,1,4,0:3:0:0:
75,384,69750,6,0,L|24:361,1,55,12|0,0:3|0:0,0:0:0:0:
85,371,69837,6,0,L|40:339,1,55,4|0,0:3|0:0,0:0:0:0:
98,361,69924,6,0,L|58:322,1,55,4|0,0:3|0:0,0:0:0:0:
112,352,70011,6,0,L|76:309,1,55,4|0,0:3|0:0,0:0:0:0:
128,346,70098,6,0,L|99:299,1,55,8|0,0:0|0:0,0:0:0:0:
144,345,70186,6,0,L|122:293,1,55,4|0,0:3|0:0,0:0:0:0:
159,339,70273,6,0,L|144:285,1,55,4|0,0:3|0:0,0:0:0:0:
177,338,70360,6,0,L|169:283,1,55,4|0,0:3|0:0,0:0:0:0:
194,339,70447,6,0,L|200:284,1,55,8|0,0:0|0:0,0:0:0:0:
210,342,70534,6,0,L|229:290,1,55,4|0,0:3|0:0,0:0:0:0:
224,347,70622,6,0,L|250:298,1,55,4|0,0:3|0:0,0:0:0:0:
239,353,70709,6,0,L|271:308,1,55,4|0,0:3|0:0,0:0:0:0:
254,364,70796,6,0,L|291:325,1,55,8|0,0:0|0:0,0:0:0:0:
269,374,70883,6,0,L|312:341,1,55,4|0,0:3|0:0,0:0:0:0:
281,383,70971,6,0,L|327:355,1,55,4|4,0:3|0:3,0:0:0:0:
256,192,71145,12,0,72366,0:0:0:0:
296,240,72540,6,0,L|460:224,1,165.000006294251,4|0,0:0|0:0,0:0:0:0:
391,371,72889,1,8,0:0:0:0:
288,160,73064,1,2,0:0:0:0:
288,160,73151,1,2,0:3:0:0:
288,160,73238,2,0,L|452:144,1,165.000006294251,2|4,0:0|3:0,0:0:0:0:
212,220,73587,1,8,0:0:0:0:
212,220,73761,6,0,B|148:100|276:100|212:-16|212:-16|212:24|182:55,1,330.000012588501,2|0,0:0|0:0,0:0:0:0:
288,160,74284,1,8,0:0:0:0:
136,280,74459,1,2,0:0:0:0:
136,280,74546,1,2,0:3:0:0:
136,280,74633,2,0,P|63:314|-8:280,1,165.000006294251,2|4,0:0|3:0,0:0:0:0:
212,220,74982,1,8,0:0:0:0:
136,384,75157,1,4,0:3:0:0:
64,220,75331,6,0,P|30:147|64:76,1,165.000006294251,4|0,0:3|0:0,0:0:0:0:
212,220,75680,1,8,0:0:0:0:
360,76,75854,1,2,0:0:0:0:
360,76,75941,1,2,0:3:0:0:
360,76,76029,2,0,P|394:148|360:220,1,165.000006294251,2|4,0:0|3:0,0:0:0:0:
212,148,76378,1,8,0:0:0:0:
392,8,76552,6,0,P|468:148|392:285,1,330.000012588501,2|2,0:0|0:0,0:0:0:0:
212,148,77075,1,8,0:0:0:0:
392,8,77250,1,2,0:0:0:0:
392,8,77337,1,0,0:0:0:0:
392,8,77424,2,0,P|432:-2|471:8,1,82.5000031471254,4|0,0:3|0:0,0:0:0:0:
471,8,77598,1,4,0:3:0:0:
392,216,77773,1,8,0:0:0:0:
392,8,77947,1,4,0:3:0:0:
464,276,78122,6,0,P|391:310|320:276,1,165.000006294251,4|0,0:3|0:0,0:0:0:0:
248,60,78471,1,8,0:0:0:0:
176,275,78645,1,2,0:0:0:0:
176,275,78732,1,2,0:3:0:0:
176,275,78819,2,0,P|104:310|32:276,1,165.000006294251,2|4,0:0|3:0,0:0:0:0:
256,200,79168,1,8,0:0:0:0:
256,200,79343,6,0,B|316:276|256:352|256:352|332:292|404:352,1,330.000012588501,2|0,0:0|0:0,0:0:0:0:
176,275,79866,1,8,0:0:0:0:
356,111,80040,1,2,0:0:0:0:
356,111,80128,1,2,0:3:0:0:
356,111,80215,2,0,B|432:75|432:75|504:111,1,165.000006294251,2|4,0:0|0:3,0:0:0:0:
356,220,80564,1,8,0:0:0:0:
432,0,80738,1,4,0:3:0:0:
504,220,80912,6,0,B|428:256|428:256|356:220,1,165.000006294251,4|0,0:3|0:0,0:0:0:0:
202,148,81261,1,8,0:0:0:0:
356,371,81436,1,2,0:0:0:0:
356,371,81523,1,2,0:3:0:0:
356,371,81610,2,0,B|372:323|372:323|340:267|340:267|356:220,1,165.000006294251,2|4,0:0|3:0,0:0:0:0:
202,0,81959,1,8,0:0:0:0:
56,220,82133,6,0,B|132:280|204:220|204:220|284:280|356:220,1,330.000012588501,0|2,0:0|0:0,0:0:0:0:
130,140,82657,1,8,0:0:0:0:
204,384,82831,1,2,0:0:0:0:
204,384,82918,1,2,0:3:0:0:
204,384,83005,2,0,L|204:302,1,82.5000031471254,4|2,3:0|0:3,0:0:0:0:
282,139,83180,1,4,3:0:0:0:
356,302,83354,1,8,0:0:0:0:
130,140,83529,1,4,0:3:0:0:
56,302,83703,6,0,B|130:338|130:338|204:302,1,165.000006294251,4|0,0:0|0:0,0:0:0:0:
282,139,84052,1,8,0:0:0:0:
356,302,84226,1,2,0:0:0:0:
356,302,84314,1,2,0:3:0:0:
356,302,84401,2,0,B|430:338|430:338|504:302,1,165.000006294251,2|4,0:0|3:0,0:0:0:0:
204,302,84750,1,8,0:0:0:0:
204,302,84924,6,0,B|84:366|84:238|-28:302|-28:302|20:302|46:333,1,330.000012588501,2|0,0:0|0:0,0:0:0:0:
144,192,85447,1,8,0:0:0:0:
40,48,85622,1,2,0:0:0:0:
40,48,85709,1,2,0:3:0:0:
40,48,85796,2,0,P|5:120|39:192,1,165.000006294251,2|4,0:0|3:0,0:0:0:0:
248,48,86145,1,8,0:0:0:0:
40,48,86319,1,4,0:3:0:0:
144,192,86494,6,0,B|180:272|108:272|144:350,1,165.000006294251,4|2,0:3|0:0,0:0:0:0:
39,192,86843,1,8,0:0:0:0:
248,192,87017,1,2,0:0:0:0:
248,192,87104,1,2,0:3:0:0:
248,192,87191,2,0,P|320:158|392:192,1,165.000006294251,2|4,0:0|3:0,0:0:0:0:
320,340,87540,1,8,0:0:0:0:
180,160,87715,6,0,P|320:84|457:160,1,330.000012588501,2|2,0:0|0:0,0:0:0:0:
320,340,88238,1,8,0:0:0:0:
180,160,88413,1,2,0:0:0:0:
180,160,88500,1,0,0:0:0:0:
180,160,88587,2,0,P|170:120|180:81,1,82.5000031471254,4|0,0:3|0:0,0:0:0:0:
180,81,88761,1,4,0:3:0:0:
457,160,88936,1,8,0:0:0:0:
180,239,89110,1,4,0:3:0:0:
457,318,89284,6,0,B|493:238|421:238|457:160,1,165.000006294251,4|2,0:3|0:0,0:0:0:0:
320,340,89633,1,8,0:0:0:0:
180,160,89808,1,2,0:0:0:0:
180,160,89895,1,2,0:3:0:0:
180,160,89982,2,0,B|216:240|144:240|180:318,1,165.000006294251,2|4,0:0|3:0,0:0:0:0:
240,50,90331,1,8,0:0:0:0:
240,50,90505,6,0,B|120:-14|120:114|4:50|4:50|44:50|75:20,1,330.000012588501,2|0,0:0|0:0,0:0:0:0:
180,160,91028,1,8,0:0:0:0:
76,304,91203,1,2,0:0:0:0:
76,304,91290,1,2,0:3:0:0:
76,304,91377,2,0,P|41:232|75:160,1,165.000006294251,2|4,0:0|0:3,0:0:0:0:
284,304,91726,1,8,0:0:0:0:
76,304,91900,1,4,0:3:0:0:
180,160,92075,6,0,B|216:80|144:80|180:2,1,165.000006294251,4|2,0:3|0:0,0:0:0:0:
75,160,92424,1,8,0:0:0:0:
284,160,92598,1,2,0:0:0:0:
284,160,92685,1,2,0:3:0:0:
284,160,92773,2,0,P|356:194|428:160,1,165.000006294251,2|4,0:0|3:0,0:0:0:0:
353,17,93122,1,8,0:0:0:0:
278,248,93296,6,0,P|358:270|434:248,1,165.000006294251,2|4,0:0|0:3,0:0:0:0:
353,17,93645,1,8,0:1:0:0:
353,17,93732,1,8,0:1:0:0:
353,17,93819,5,8,0:1:0:0:
312,60,93907,1,8,0:1:0:0:
312,118,93994,1,8,0:1:0:0:
353,161,94081,1,8,0:1:0:0:
394,204,94168,5,8,0:1:0:0:
435,247,94256,1,8,0:1:0:0:
435,305,94343,1,8,0:1:0:0:
394,348,94430,1,8,0:1:0:0:
338,348,94517,5,8,0:1:0:0:
297,305,94605,1,8,0:1:0:0:
297,247,94692,1,8,0:1:0:0:
338,204,94779,1,8,0:1:0:0:
394,204,94866,6,0,B|478:168|494:248|546:248|562:204|522:164|482:204,1,220,4|0,0:0|0:0,0:0:0:0:
482,204,95215,1,2,0:0:0:0:
435,305,95389,1,2,0:0:0:0:
394,204,95564,2,0,P|382:160|394:121,1,88,8|2,0:0|0:0,0:0:0:0:
435,305,95912,1,2,0:0:0:0:
435,305,96087,6,0,B|351:345|351:265|267:305,1,176,2|0,0:0|0:0,0:0:0:0:
394,204,96610,1,2,0:0:0:0:
435,305,96784,1,2,0:0:0:0:
308,204,96959,1,8,0:0:0:0:
267,305,97133,1,2,0:0:0:0:
394,204,97308,6,0,L|394:171,1,33,2|0,0:0|0:0,0:0:0:0:
448,92,97657,6,0,B|344:36|344:148|241:92,1,220,4|0,0:3|0:0,0:0:0:0:
240,92,98005,1,2,0:0:0:0:
394,171,98180,1,2,0:0:0:0:
240,250,98354,2,0,P|228:206|240:167,1,88,8|2,0:0|0:0,0:0:0:0:
394,250,98703,1,2,0:0:0:0:
241,334,98878,6,0,P|167:372|90:334,1,176,2|2,0:0|0:0,0:0:0:0:
165,184,99401,1,2,0:0:0:0:
241,334,99575,1,2,0:0:0:0:
165,278,99750,1,8,0:0:0:0:
90,333,99924,1,2,0:0:0:0:
165,184,100098,6,0,L|165:151,1,33,2|0,0:0|0:0,0:0:0:0:
78,112,100447,6,0,P|166:56|253:112,1,220,4|0,0:3|0:0,0:0:0:0:
165,184,100796,1,2,0:0:0:0:
78,112,100971,1,2,0:0:0:0:
253,113,101145,2,0,B|296:101|296:101|337:113,1,88,8|2,0:0|0:0,0:0:0:0:
296,184,101494,1,2,0:0:0:0:
212,44,101668,6,0,B|296:16|296:16|378:44,1,176,2|0,0:0|0:0,0:0:0:0:
253,113,102191,1,2,0:0:0:0:
212,44,102366,1,2,0:0:0:0:
338,113,102540,1,8,0:0:0:0:
379,44,102715,1,2,0:0:0:0:
296,184,102889,6,0,L|296:217,1,33,2|0,0:0|0:0,0:0:0:0:
350,296,103238,6,0,B|246:352|246:240|143:296,1,220,4|0,0:3|0:0,0:0:0:0:
296,217,103587,1,2,0:0:0:0:
196,374,103761,1,2,0:0:0:0:
96,217,103936,2,0,P|84:173|96:134,1,88,8|2,0:0|0:0,0:0:0:0:
296,217,104284,1,2,0:0:0:0:
96,217,104459,6,0,B|56:133|136:133|96:49,1,176,2|2,0:0|0:0,0:0:0:0:
164,174,104982,1,2,0:0:0:0:
96,217,105157,1,2,0:0:0:0:
28,92,105331,1,8,0:0:0:0:
96,49,105506,1,4,0:3:0:0:
164,174,105680,1,4,0:3:0:0:
96,217,105854,1,4,0:3:0:0:
96,49,106029,6,0,B|164:29|164:29|232:69|232:69|299:49,1,220,4|0,0:0|0:0,0:0:0:0:
299,48,106378,1,2,0:0:0:0:
460,8,106552,1,2,0:0:0:0:
348,208,106726,2,0,L|324:124,1,88,8|2,0:0|0:0,0:0:0:0:
392,292,107075,1,2,0:0:0:0:
392,292,107250,6,0,B|340:308|340:308|276:276|276:276|229:292,1,176,2|0,0:0|0:0,0:0:0:0:
348,208,107773,1,2,0:0:0:0:
392,292,107947,1,2,0:0:0:0:
273,208,108122,1,8,0:0:0:0:
229,292,108296,1,2,0:0:0:0:
348,208,108471,6,0,L|348:175,1,33,2|0,0:0|0:0,0:0:0:0:
308,84,108819,6,0,B|392:48|408:128|460:128|476:84|436:44|396:84,1,220,4|0,0:3|0:0,0:0:0:0:
396,85,109168,1,2,0:0:0:0:
348,175,109342,1,2,0:0:0:0:
308,84,109517,2,0,P|296:40|308:1,1,88,8|2,0:0|0:0,0:0:0:0:
424,232,109866,1,2,0:0:0:0:
424,232,110040,6,0,P|350:270|273:232,1,176,2|2,0:0|0:0,0:0:0:0:
348,82,110564,1,2,0:0:0:0:
424,232,110738,1,2,0:0:0:0:
348,176,110913,1,8,0:0:0:0:
273,231,111087,1,2,0:0:0:0:
348,82,111261,6,0,L|348:49,1,33,2|0,0:0|0:0,0:0:0:0:
348,49,111610,5,8,0:0:0:0:
348,284,111784,1,4,0:3:0:0:
113,167,111959,1,4,0:3:0:0:
348,166,112133,5,8,0:0:0:0:
113,284,112308,1,4,0:3:0:0:
113,49,112482,1,4,0:3:0:0:
348,284,112657,5,8,0:0:0:0:
113,167,112831,1,4,0:3:0:0:
348,49,113005,5,8,0:0:0:0:
113,284,113180,1,4,0:3:0:0:
113,49,113354,1,4,0:3:0:0:
348,166,113529,5,8,0:0:0:0:
113,167,113703,1,4,0:3:0:0:
348,49,113878,1,4,0:3:0:0:
348,284,114052,5,8,0:0:0:0:
113,49,114226,1,4,0:3:0:0:
231,284,114401,5,8,0:0:0:0:
232,48,114575,1,4,0:3:0:0:
231,284,114750,1,4,0:3:0:0:
348,49,114924,5,8,0:0:0:0:
348,284,115098,1,4,0:3:0:0:
348,49,115273,1,4,0:3:0:0:
113,284,115447,5,8,0:0:0:0:
113,49,115622,1,4,0:3:0:0:
348,284,115796,5,8,0:0:0:0:
391,325,115883,1,4,0:3:0:0:
449,325,115971,1,4,0:3:0:0:
492,284,116058,1,4,0:3:0:0:
492,228,116145,5,8,0:0:0:0:
449,187,116232,1,4,0:3:0:0:
391,187,116319,1,4,0:3:0:0:
348,228,116407,1,4,0:3:0:0:
305,269,116494,5,8,0:0:0:0:
262,310,116581,1,4,0:3:0:0:
206,328,116668,1,4,0:3:0:0:
150,310,116755,1,4,0:3:0:0:
107,269,116843,6,0,B|27:133|187:133|107:0,1,288.750002753735,8|0,0:0|0:0,0:0:0:0:
36,68,117191,5,4,0:0:0:0:
