osu file format v14

[General]
AudioFilename: audio.mp3
AudioLeadIn: 0
PreviewTime: 72453
Countdown: 0
SampleSet: Soft
StackLeniency: 0.5
Mode: 0
LetterboxInBreaks: 0
WidescreenStoryboard: 1

[Editor]
DistanceSpacing: 0.9
BeatDivisor: 4
GridSize: 4
TimelineZoom: 3.599999

[Metadata]
Title:introduction - INSANE INFLAME
TitleUnicode:introduction - INSANE INFLAME
Artist:Camellia
ArtistUnicode:かめりあ
Creator:Cris-
Version:Normal
Source:osu!
Tags:Seolv [_L_u_k_a_s_] Lukas bor Daycore Hybrid Pack FA Featured Artist English Electronic Rock Dubstep dnb Drum and Bass Mappers' Guild MG Cametek KamelCamellia
BeatmapID:2328455
BeatmapSetID:1081920

[Difficulty]
HPDrainRate:4
CircleSize:3.5
OverallDifficulty:4
ApproachRate:5.5
SliderMultiplier:1.2
SliderTickRate:1

[Events]
//Background and Video events
0,0,"INSANE INFLAME.jpg",0,0
//Break Periods
2,28088,37927
//Storyboard Layer 0 (Background)
//Storyboard Layer 1 (Fail)
//Storyboard Layer 2 (Pass)
//Storyboard Layer 3 (Foreground)
//Storyboard Layer 4 (Overlay)
//Storyboard Sound Samples

[TimingPoints]
1378,348.837209302326,4,2,1,10,1,0
2773,-100,4,2,1,20,0,0
3471,-100,4,2,1,30,0,0
4168,-100,4,2,1,40,0,0
4866,-100,4,2,1,50,0,0
5476,-100,4,2,1,5,0,0
5564,-100,4,2,1,70,0,0
5912,-100,4,2,1,70,0,0
9750,-100,4,2,1,70,0,0
11145,-100,4,2,1,70,0,0
11494,-100,4,2,1,70,0,0
15331,-100,4,2,1,70,0,0
16726,-100,4,2,1,70,0,0
17075,-100,4,2,1,70,0,0
19517,-100,4,2,1,70,0,0
20912,-100,4,2,1,70,0,0
21959,-100,4,2,1,70,0,0
22308,-100,4,2,1,70,0,0
22657,-100,4,2,1,70,0,0
24401,-100,4,2,1,70,0,0
25447,-100,4,2,1,70,0,0
25971,-100,4,2,1,70,0,0
26494,-100,4,2,1,70,0,0
39052,-100,4,2,1,70,0,0
49517,-100,4,2,1,70,0,0
50128,-100,4,2,1,5,0,0
50215,-100,4,2,1,70,0,0
52657,-100,4,2,1,70,0,0
52918,-100,4,2,1,5,0,0
53005,-100,4,2,1,70,0,0
55447,-100,4,2,1,70,0,0
55796,-100,4,2,1,70,0,0
58238,-100,4,2,1,70,0,0
58500,-100,4,2,1,5,0,0
58587,-100,4,2,1,70,0,0
61029,-100,4,2,1,70,0,0
61290,-100,4,2,1,5,0,0
61378,-100,4,2,1,70,0,0
61726,-100,4,2,1,70,0,0
63819,-100,4,2,1,70,0,0
64081,-100,4,2,1,5,0,0
64168,-100,4,2,1,70,0,0
64517,-100,4,2,1,70,0,0
66610,-100,4,2,1,70,0,0
66872,-100,4,2,1,5,0,0
66959,-100,4,2,1,70,0,0
67308,-100,4,2,1,70,0,0
69401,-100,4,2,1,70,0,0
69750,-100,4,2,1,70,0,0
69793,-100,4,2,1,5,0,0
69837,-100,4,2,1,70,0,0
69880,-100,4,2,1,5,0,0
69924,-100,4,2,1,70,0,0
69968,-100,4,2,1,5,0,0
70011,-100,4,2,1,70,0,0
70055,-100,4,2,1,5,0,0
70098,-100,4,2,1,70,0,0
70142,-100,4,2,1,5,0,0
70186,-100,4,2,1,70,0,0
70229,-100,4,2,1,5,0,0
70273,-100,4,2,1,70,0,0
70316,-100,4,2,1,5,0,0
70360,-100,4,2,1,70,0,0
70404,-100,4,2,1,5,0,0
70447,-100,4,2,1,70,0,0
70491,-100,4,2,1,5,0,0
70534,-100,4,2,1,70,0,0
70578,-100,4,2,1,5,0,0
70622,-100,4,2,1,70,0,0
70665,-100,4,2,1,5,0,0
70709,-100,4,2,1,70,0,0
70753,-100,4,2,1,5,0,0
70796,-100,4,2,1,70,0,0
70840,-100,4,2,1,5,0,0
70883,-100,4,2,1,70,0,0
70927,-100,4,2,1,5,0,0
70971,-100,4,2,1,70,0,0
71058,-100,4,2,1,5,0,0
71145,-100,4,2,1,70,0,0
72366,-100,4,2,1,5,0,0
72540,-100,4,2,1,80,0,1
94866,-100,4,2,1,80,0,0
95215,-100,4,2,1,80,0,0
97308,-100,4,2,1,80,0,0
97569,-100,4,2,1,5,0,0
97657,-100,4,2,1,80,0,0
98005,-100,4,2,1,80,0,0
100098,-100,4,2,1,80,0,0
100360,-100,4,2,1,5,0,0
100447,-100,4,2,1,80,0,0
100796,-100,4,2,1,80,0,0
102889,-100,4,2,1,80,0,0
103151,-100,4,2,1,5,0,0
103238,-100,4,2,1,80,0,0
103587,-100,4,2,1,80,0,0
106029,-100,4,2,1,80,0,0
106378,-100,4,2,1,80,0,0
108471,-100,4,2,1,80,0,0
108732,-100,4,2,1,5,0,0
108819,-100,4,2,1,80,0,0
109168,-100,4,2,1,80,0,0
111261,-100,4,2,1,80,0,0
111523,-100,4,2,1,5,0,0
111610,-100,4,2,1,80,0,0
114401,-100,4,2,1,80,0,0
116843,-100,4,2,1,80,0,0
117191,-100,4,2,1,80,0,0

[Colours]
Combo1 : 97,187,214
Combo2 : 238,64,64
Combo3 : 198,79,156
Combo4 : 243,181,63

[HitObjects]
256,120,5564,5,4,0:0:0:0:
256,192,5738,12,8,9052,0:3:0:0:
116,304,9750,6,0,L|57:312,2,60,0|4|4,1:0|0:3|0:3,0:0:0:0:
168,296,10273,1,0,1:0:0:0:
156,192,10622,1,4,0:3:0:0:
156,192,10796,2,0,L|97:200,1,60,8|8,0:3|0:3,0:0:0:0:
44,208,11145,1,4,0:0:0:0:
256,192,11319,12,8,14633,0:3:0:0:
348,348,15331,6,0,B|320:284|320:284|372:200|372:200|348:133,1,240,0|0,1:0|1:0,0:0:0:0:
256,192,16378,1,0,1:0:0:0:
164,132,16726,1,4,3:2:0:0:
256,192,16901,12,0,18819,0:0:0:0:
116,304,19517,6,0,L|57:312,2,60,0|4|4,1:0|0:3|0:3,0:0:0:0:
172,300,20040,1,0,1:0:0:0:
172,300,20215,2,0,L|164:241,1,60,4|4,0:3|0:3,0:0:0:0:
156,188,20564,1,0,1:0:0:0:
268,176,20912,1,4,0:3:0:0:
268,176,21087,2,0,L|276:235,1,60,0|4,1:0|0:3,0:0:0:0:
292,344,21610,2,0,B|332:336|332:336|364:352|364:352|406:344,1,120,0|0,1:0|1:0,0:0:0:0:
512,320,22308,5,4,0:0:0:0:
256,192,22482,12,2,23703,0:0:0:0:
202,308,24401,6,0,P|256:328|312:308,1,120,0|8,1:0|0:3,0:0:0:0:
256,240,25098,2,0,L|256:181,1,60,6|4,0:3|0:3,0:0:0:0:
256,124,25447,1,0,1:0:0:0:
184,48,25796,1,4,0:3:0:0:
184,48,25971,1,0,1:0:0:0:
108,124,26319,1,4,0:3:0:0:
108,124,26494,6,0,L|108:184,1,60,0|0,1:0|1:0,0:0:0:0:
108,240,26843,1,0,1:0:0:0:
184,320,27191,2,0,B|296:384|296:256|409:320,1,240,4|4,0:3|0:0,0:0:0:0:
44,312,39052,6,0,P|98:332|154:312,1,120,2|2,0:0|0:0,0:0:0:0:
202,284,39575,2,0,B|226:228|178:228|202:169,1,120,2|2,0:0|0:0,0:0:0:0:
281,92,40273,1,2,0:0:0:0:
359,168,40622,2,0,P|283:206|203:168,1,180,2|0,0:0|0:0,0:0:0:0:
281,92,41494,1,0,0:0:0:0:
359,168,41843,6,0,B|383:227|335:227|359:283,1,120,2|2,0:0|0:0,0:0:0:0:
376,336,42366,2,0,L|258:352,1,120,2|2,0:0|0:0,0:0:0:0:
148,368,43064,1,2,0:0:0:0:
132,260,43412,2,0,B|116:212|116:212|148:140|148:140|132:92,1,180,2|0,0:0|0:0,0:0:0:0:
209,14,44284,1,0,0:0:0:0:
284,92,44633,6,0,P|338:112|394:92,1,120,2|2,0:0|0:0,0:0:0:0:
442,64,45157,2,0,B|466:120|418:120|442:179,1,120,2|2,0:0|0:0,0:0:0:0:
472,284,45854,2,0,P|443:289|414:284,1,60,2|0,0:0|0:0,0:0:0:0:
360,272,46203,2,0,B|276:232|276:312|188:272,1,180,2|0,0:0|0:0,0:0:0:0:
140,256,46901,1,2,0:0:0:0:
140,256,47075,1,2,0:0:0:0:
48,312,47424,6,0,P|28:258|48:202,1,120,2|0,0:0|0:0,0:0:0:0:
72,152,47947,2,0,B|120:136|120:136|192:168|192:168|240:152,1,180,2|0,0:0|0:0,0:0:0:0:
296,140,48645,1,0,0:0:0:0:
296,140,48819,1,2,0:0:0:0:
373,62,49168,1,0,0:0:0:0:
448,140,49517,2,0,B|440:182|440:182|456:214|456:214|448:254,1,120,2|0,0:0|0:0,0:0:0:0:
376,336,50215,6,0,L|317:328,1,60,2|0,0:0|0:0,0:0:0:0:
264,320,50564,2,0,B|272:278|272:278|256:246|256:246|264:206,1,120,2|2,0:0|0:0,0:0:0:0:
280,100,51261,1,2,0:0:0:0:
280,100,51436,2,0,B|238:92|238:92|206:108|206:108|166:100,1,120,2|2,0:0|0:0,0:0:0:0:
112,92,51959,2,0,L|104:151,1,60,2|0,0:0|0:0,0:0:0:0:
96,204,52308,1,2,0:0:0:0:
152,296,52657,1,2,0:0:0:0:
232,220,53005,6,0,L|291:228,1,60,2|0,0:0|0:0,0:0:0:0:
344,236,53354,2,0,B|368:180|320:180|344:121,1,120,2|2,0:0|0:0,0:0:0:0:
400,32,54052,1,2,0:0:0:0:
400,32,54226,2,0,P|346:12|290:32,1,120,2|2,0:0|0:0,0:0:0:0:
244,60,54750,2,0,P|215:65|186:60,1,60,2|2,0:0|0:0,0:0:0:0:
136,32,55098,2,0,P|107:27|78:32,1,60,2|2,0:0|0:0,0:0:0:0:
28,60,55447,1,2,0:0:0:0:
76,156,55796,6,0,P|81:185|76:214,1,60,2|0,0:0|0:0,0:0:0:0:
63,268,56145,2,0,B|119:292|119:244|178:268,1,120,2|2,0:0|0:0,0:0:0:0:
267,324,56843,1,2,0:0:0:0:
267,324,57017,2,0,P|287:270|267:214,1,120,2|2,0:0|0:0,0:0:0:0:
243,164,57540,2,0,L|302:156,1,60,2|0,0:0|0:0,0:0:0:0:
355,148,57889,1,2,0:0:0:0:
463,132,58238,1,2,0:0:0:0:
447,24,58586,6,0,L|388:32,1,60,2|0,0:0|0:0,0:0:0:0:
335,40,58936,2,0,B|293:48|293:48|261:32|261:32|221:40,1,120,2|2,0:0|0:0,0:0:0:0:
139,112,59633,1,2,0:0:0:0:
139,112,59808,2,0,B|163:168|115:168|139:227,1,120,2|2,0:0|0:0,0:0:0:0:
188,256,60331,2,0,P|217:261|246:256,1,60,2|2,0:0|0:0,0:0:0:0:
296,228,60680,2,0,P|325:223|354:228,1,60,2|2,0:0|0:0,0:0:0:0:
404,256,61028,1,2,0:0:0:0:
488,184,61378,6,0,P|508:130|488:74,1,120,4|4,0:3|0:3,0:0:0:0:
408,0,62075,1,4,0:3:0:0:
324,72,62424,1,4,0:3:0:0:
240,0,62773,2,0,L|122:16,1,120,4|4,0:3|0:3,0:0:0:0:
12,32,63471,1,4,0:3:0:0:
28,140,63819,1,4,0:3:0:0:
136,124,64168,6,0,B|176:116|176:116|208:132|208:132|250:124,1,120,4|4,0:3|0:3,0:0:0:0:
356,104,64866,1,4,0:3:0:0:
376,212,65215,1,4,0:3:0:0:
268,232,65564,2,0,L|150:248,1,120,4|4,0:3|0:3,0:0:0:0:
73,325,66261,1,4,0:3:0:0:
4,248,66610,1,4,0:3:0:0:
73,172,66959,6,0,P|78:143|73:114,1,60,8|4,0:0|0:3,0:0:0:0:
60,60,67308,2,0,L|119:52,1,60,8|4,0:0|0:3,0:0:0:0:
172,44,67657,2,0,L|231:52,1,60,8|4,0:0|0:3,0:0:0:0:
284,60,68005,1,8,0:0:0:0:
392,76,68354,2,0,L|384:135,1,60,8|4,0:0|0:3,0:0:0:0:
376,188,68703,2,0,L|317:180,1,60,8|4,0:0|0:3,0:0:0:0:
264,172,69052,2,0,L|256:231,1,60,8|4,0:0|0:3,0:0:0:0:
248,284,69401,1,8,0:0:0:0:
156,340,69750,5,12,0:3:0:0:
256,192,69924,12,0,71145,0:0:0:0:
216,320,72540,6,0,B|192:261|240:261|216:205,1,120,4|8,0:0|0:0,0:0:0:0:
288,124,73238,1,2,0:0:0:0:
360,204,73587,1,8,0:0:0:0:
360,204,73761,2,0,B|336:260|384:260|360:319,1,120,2|2,0:0|0:0,0:0:0:0:
336,368,74284,2,0,L|277:360,1,60,8|2,0:0|0:0,0:0:0:0:
224,352,74633,2,0,L|165:360,1,60,2|4,0:0|3:0,0:0:0:0:
112,368,74981,1,8,0:0:0:0:
100,260,75331,6,0,L|159:252,1,60,4|0,0:3|0:0,0:0:0:0:
212,244,75680,2,0,L|204:185,1,60,8|2,0:0|0:0,0:0:0:0:
196,132,76029,1,2,0:0:0:0:
304,116,76378,1,8,0:0:0:0:
304,116,76552,2,0,B|344:108|344:108|376:124|376:124|418:116,1,120,2|2,0:0|0:0,0:0:0:0:
472,108,77075,2,0,L|464:49,2,60,8|2|4,0:0|0:0|0:3,0:0:0:0:
480,160,77598,1,4,0:3:0:0:
480,160,77773,1,8,0:0:0:0:
492,268,78122,6,0,B|450:276|450:276|418:260|418:260|378:268,1,120,4|8,0:3|0:0,0:0:0:0:
300,344,78819,1,2,0:0:0:0:
228,268,79168,1,8,0:0:0:0:
228,268,79343,2,0,P|208:214|228:158,1,120,2|2,0:0|0:0,0:0:0:0:
252,108,79866,2,0,L|311:116,1,60,8|2,0:0|0:0,0:0:0:0:
364,124,80215,2,0,L|372:65,1,60,2|4,0:0|0:3,0:0:0:0:
380,12,80564,1,8,0:0:0:0:
488,24,80912,6,0,L|480:83,1,60,4|0,0:3|0:0,0:0:0:0:
472,136,81261,2,0,L|480:195,1,60,8|2,0:0|0:0,0:0:0:0:
488,248,81610,1,2,0:0:0:0:
412,324,81959,1,8,0:0:0:0:
412,324,82133,2,0,B|356:300|356:348|297:324,1,120,2|2,0:0|0:0,0:0:0:0:
248,296,82656,2,0,L|248:236,2,60,8|2|4,0:0|0:0|3:0,0:0:0:0:
204,328,83180,1,4,3:0:0:0:
204,328,83354,1,8,0:0:0:0:
112,380,83703,6,0,P|92:326|112:270,1,120,4|8,0:0|0:0,0:0:0:0:
204,328,84401,1,2,0:0:0:0:
298,274,84750,1,8,0:0:0:0:
298,274,84924,2,0,B|354:250|354:298|413:274,1,120,2|2,0:0|0:0,0:0:0:0:
464,252,85447,2,0,P|469:223|464:194,1,60,8|2,0:0|0:0,0:0:0:0:
436,144,85796,2,0,P|431:115|436:86,1,60,2|4,0:0|3:0,0:0:0:0:
464,36,86145,1,8,0:0:0:0:
360,0,86494,6,0,L|301:8,1,60,4|0,0:3|0:0,0:0:0:0:
248,16,86843,2,0,L|189:8,1,60,8|2,0:0|0:0,0:0:0:0:
136,0,87191,1,2,0:0:0:0:
124,112,87540,1,8,0:0:0:0:
124,112,87715,2,0,B|164:120|164:120|196:104|196:104|238:112,1,120,2|2,0:0|0:0,0:0:0:0:
292,120,88238,2,0,L|284:179,2,60,8|2|4,0:0|0:0|0:3,0:0:0:0:
300,68,88760,1,4,0:3:0:0:
300,68,88935,1,8,0:0:0:0:
408,80,89284,6,0,B|400:120|400:120|416:152|416:152|408:194,1,120,4|8,0:3|0:0,0:0:0:0:
332,272,89982,1,2,0:0:0:0:
284,179,90331,1,8,0:0:0:0:
284,179,90505,2,0,B|244:171|244:171|212:187|212:187|170:179,1,120,2|0,0:0|0:0,0:0:0:0:
116,171,91028,2,0,L|124:112,1,60,8|2,0:0|0:0,0:0:0:0:
132,56,91378,2,0,L|191:64,1,60,2|4,0:0|0:3,0:0:0:0:
244,72,91726,1,8,0:0:0:0:
336,12,92075,6,0,L|395:20,1,60,4|0,0:3|0:0,0:0:0:0:
448,28,92424,2,0,L|440:87,1,60,8|2,0:0|0:0,0:0:0:0:
432,140,92773,1,2,0:0:0:0:
456,248,93122,1,8,0:0:0:0:
456,248,93296,2,0,B|400:272|400:224|341:248,1,120,2|8,0:0|0:1,0:0:0:0:
292,276,93819,2,0,P|263:281|234:276,1,60,8|8,0:1|0:1,0:0:0:0:
184,248,94168,2,0,P|155:243|126:248,1,60,8|8,0:1|0:1,0:0:0:0:
76,276,94517,1,8,0:1:0:0:
4,192,94866,6,0,P|-17:136|4:83,1,120,4|2,0:0|0:0,0:0:0:0:
80,4,95564,1,8,0:0:0:0:
164,80,95912,1,2,0:0:0:0:
164,80,96087,2,0,B|220:104|220:56|279:80,1,120,2|2,0:0|0:0,0:0:0:0:
328,108,96610,2,0,P|382:128|438:108,1,120,2|8,0:0|0:0,0:0:0:0:
384,16,97308,1,2,0:0:0:0:
328,108,97657,6,0,B|304:167|352:167|328:223,1,120,4|2,0:3|0:0,0:0:0:0:
256,304,98355,1,8,0:0:0:0:
184,224,98704,1,2,0:0:0:0:
184,224,98878,2,0,B|160:168|208:168|184:109,1,120,2|2,0:0|0:0,0:0:0:0:
160,60,99401,2,0,L|101:68,2,60,2|2|8,0:0|0:0|0:0,0:0:0:0:
268,44,100098,1,2,0:0:0:0:
376,28,100447,6,0,L|392:146,1,120,4|2,0:3|0:0,0:0:0:0:
408,256,101145,1,8,0:0:0:0:
300,272,101494,1,2,0:0:0:0:
300,272,101668,2,0,L|182:288,1,120,2|0,0:0|0:0,0:0:0:0:
128,296,102191,2,0,B|104:240|152:240|128:181,1,120,2|8,0:0|0:0,0:0:0:0:
64,92,102889,1,2,0:0:0:0:
4,180,103238,6,0,B|-20:239|28:239|4:295,1,120,4|2,0:3|0:0,0:0:0:0:
68,384,103936,1,8,0:0:0:0:
128,296,104284,1,2,0:0:0:0:
128,296,104459,2,0,B|184:272|184:320|243:296,1,120,2|2,0:0|0:0,0:0:0:0:
292,272,104982,2,0,L|284:213,2,60,2|2|8,0:0|0:0|0:0,0:0:0:0:
364,352,105680,1,4,0:3:0:0:
440,272,106029,6,0,B|448:232|448:232|432:200|432:200|440:158,1,120,4|2,0:0|0:0,0:0:0:0:
364,80,106726,1,8,0:0:0:0:
292,157,107075,1,2,0:0:0:0:
292,157,107250,2,0,B|300:199|300:199|284:231|284:231|292:271,1,120,2|0,0:0|0:0,0:0:0:0:
304,324,107773,2,0,L|186:340,1,120,2|8,0:0|0:0,0:0:0:0:
76,356,108471,1,2,0:0:0:0:
60,248,108819,6,0,L|44:130,1,120,4|2,0:3|0:0,0:0:0:0:
108,40,109517,1,8,0:0:0:0:
196,104,109866,1,2,0:0:0:0:
196,104,110040,2,0,L|212:222,1,120,2|2,0:0|0:0,0:0:0:0:
220,276,110564,2,0,L|161:284,2,60,2|2|8,0:0|0:0|0:0,0:0:0:0:
328,260,111261,1,2,0:0:0:0:
436,244,111610,6,0,L|444:303,2,60,8|4|4,0:0|0:3|0:3,0:0:0:0:
428,192,112133,1,8,0:0:0:0:
420,140,112308,2,0,L|412:81,2,60,4|4|8,0:3|0:3|0:0,0:0:0:0:
312,156,113005,2,0,L|304:97,2,60,8|4|4,0:0|0:3|0:3,0:0:0:0:
320,208,113528,1,8,0:0:0:0:
328,260,113703,2,0,L|336:319,2,60,4|4|8,0:3|0:3|0:0,0:0:0:0:
220,276,114401,6,0,L|228:335,2,60,8|4|4,0:0|0:3|0:3,0:0:0:0:
212,224,114923,1,8,0:0:0:0:
204,172,115098,2,0,L|196:113,2,60,4|4|8,0:3|0:3|0:0,0:0:0:0:
256,192,115796,12,4,117191,0:0:0:0:
