osu file format v14

[General]
AudioFilename: audio.mp3
AudioLeadIn: 0
PreviewTime: 72453
Countdown: 0
SampleSet: Soft
StackLeniency: 0.5
Mode: 0
LetterboxInBreaks: 0
WidescreenStoryboard: 1

[Editor]
DistanceSpacing: 0.9
BeatDivisor: 4
GridSize: 4
TimelineZoom: 3.599999

[Metadata]
Title:introduction - INSANE INFLAME
TitleUnicode:introduction - INSANE INFLAME
Artist:Camellia
ArtistUnicode:かめりあ
Creator:Cris-
Version:Easy
Source:osu!
Tags:Seolv [_L_u_k_a_s_] Lukas bor Daycore Hybrid Pack FA Featured Artist English Electronic Rock Dubstep dnb Drum and Bass Mappers' Guild MG Cametek KamelCamellia
BeatmapID:2344791
BeatmapSetID:1081920

[Difficulty]
HPDrainRate:3
CircleSize:3
OverallDifficulty:3
ApproachRate:4
SliderMultiplier:1
SliderTickRate:1

[Events]
//Background and Video events
0,0,"INSANE INFLAME.jpg",0,0
//Break Periods
2,28088,37732
//Storyboard Layer 0 (Background)
//Storyboard Layer 1 (Fail)
//Storyboard Layer 2 (Pass)
//Storyboard Layer 3 (Foreground)
//Storyboard Layer 4 (Overlay)
//Storyboard Sound Samples

[TimingPoints]
1378,348.837209302326,4,2,1,10,1,0
2773,-100,4,2,1,20,0,0
3471,-100,4,2,1,30,0,0
4168,-100,4,2,1,40,0,0
4866,-100,4,2,1,50,0,0
5476,-100,4,2,1,5,0,0
5564,-100,4,2,1,70,0,0
5912,-100,4,2,1,70,0,0
9750,-100,4,2,1,70,0,0
11145,-100,4,2,1,70,0,0
11494,-100,4,2,1,70,0,0
15331,-100,4,2,1,70,0,0
16726,-100,4,2,1,70,0,0
17075,-100,4,2,1,70,0,0
19517,-100,4,2,1,70,0,0
20912,-100,4,2,1,70,0,0
21959,-100,4,2,1,70,0,0
22308,-100,4,2,1,70,0,0
22657,-100,4,2,1,70,0,0
24401,-100,4,2,1,70,0,0
25447,-100,4,2,1,70,0,0
25971,-100,4,2,1,70,0,0
26494,-100,4,2,1,70,0,0
39052,-100,4,2,1,70,0,0
49517,-100,4,2,1,70,0,0
50128,-100,4,2,1,5,0,0
50215,-100,4,2,1,70,0,0
52657,-100,4,2,1,70,0,0
52918,-100,4,2,1,5,0,0
53005,-100,4,2,1,70,0,0
55447,-100,4,2,1,70,0,0
55796,-100,4,2,1,70,0,0
58238,-100,4,2,1,70,0,0
58500,-100,4,2,1,5,0,0
58587,-100,4,2,1,70,0,0
61029,-100,4,2,1,70,0,0
61290,-100,4,2,1,5,0,0
61378,-100,4,2,1,70,0,0
61726,-100,4,2,1,70,0,0
63819,-100,4,2,1,70,0,0
64081,-100,4,2,1,5,0,0
64168,-100,4,2,1,70,0,0
64517,-100,4,2,1,70,0,0
66610,-100,4,2,1,70,0,0
66872,-100,4,2,1,5,0,0
66959,-100,4,2,1,70,0,0
67308,-100,4,2,1,70,0,0
69401,-100,4,2,1,70,0,0
69750,-100,4,2,1,70,0,0
69793,-100,4,2,1,5,0,0
69837,-100,4,2,1,70,0,0
69880,-100,4,2,1,5,0,0
69924,-100,4,2,1,70,0,0
69968,-100,4,2,1,5,0,0
70011,-100,4,2,1,70,0,0
70055,-100,4,2,1,5,0,0
70098,-100,4,2,1,70,0,0
70142,-100,4,2,1,5,0,0
70186,-100,4,2,1,70,0,0
70229,-100,4,2,1,5,0,0
70273,-100,4,2,1,70,0,0
70316,-100,4,2,1,5,0,0
70360,-100,4,2,1,70,0,0
70404,-100,4,2,1,5,0,0
70447,-100,4,2,1,70,0,0
70491,-100,4,2,1,5,0,0
70534,-100,4,2,1,70,0,0
70578,-100,4,2,1,5,0,0
70622,-100,4,2,1,70,0,0
70665,-100,4,2,1,5,0,0
70709,-100,4,2,1,70,0,0
70753,-100,4,2,1,5,0,0
70796,-100,4,2,1,70,0,0
70840,-100,4,2,1,5,0,0
70883,-100,4,2,1,70,0,0
70927,-100,4,2,1,5,0,0
70971,-100,4,2,1,70,0,0
71058,-100,4,2,1,5,0,0
71145,-100,4,2,1,70,0,0
72366,-100,4,2,1,5,0,0
72540,-100,4,2,1,80,0,1
94866,-100,4,2,1,80,0,0
95215,-100,4,2,1,80,0,0
97308,-100,4,2,1,80,0,0
97569,-100,4,2,1,5,0,0
97657,-100,4,2,1,80,0,0
98005,-100,4,2,1,80,0,0
100098,-100,4,2,1,80,0,0
100360,-100,4,2,1,5,0,0
100447,-100,4,2,1,80,0,0
100796,-100,4,2,1,80,0,0
102889,-100,4,2,1,80,0,0
103151,-100,4,2,1,5,0,0
103238,-100,4,2,1,80,0,0
103587,-100,4,2,1,80,0,0
106029,-100,4,2,1,80,0,0
106378,-100,4,2,1,80,0,0
108471,-100,4,2,1,80,0,0
108732,-100,4,2,1,5,0,0
108819,-100,4,2,1,80,0,0
109168,-100,4,2,1,80,0,0
111261,-100,4,2,1,80,0,0
111523,-100,4,2,1,5,0,0
111610,-100,4,2,1,80,0,0
114401,-100,4,2,1,80,0,0
116843,-100,4,2,1,80,0,0
117191,-100,4,2,1,80,0,0

[Colours]
Combo1 : 97,187,214
Combo2 : 238,64,64
Combo3 : 198,79,156
Combo4 : 243,181,63

[HitObjects]
256,128,5564,5,4,0:0:0:0:
256,192,5738,12,2,8354,0:0:0:0:
52,280,9750,6,0,B|124:252|124:308|197:280,1,150,0|0,1:0|1:0,0:0:0:0:
308,200,10796,1,8,0:3:0:0:
256,128,11145,5,4,0:0:0:0:
256,192,11319,12,2,13936,0:0:0:0:
0,64,15331,6,0,B|56:80|56:80|132:48|132:48|189:64,1,200,0|0,1:0|1:0,0:0:0:0:
256,128,16378,1,0,1:0:0:0:
320,64,16726,6,0,B|412:132|504:64|504:64|436:156|504:248|504:248|412:180|319:248,1,600,4|0,3:2|0:0,0:0:0:0:
256,316,19168,1,0,0:0:0:0:
196,248,19517,6,0,P|115:199|33:248,1,200,0|4,1:0|0:3,0:0:0:0:
115,292,20564,1,0,1:0:0:0:
196,248,20912,2,0,B|240:152|152:152|196:57,1,200,4|0,0:3|1:0,0:0:0:0:
276,104,21959,1,0,1:0:0:0:
356,56,22308,6,0,B|380:104|356:152|356:152|388:144|420:156|436:196|436:196|420:236|388:248|356:240|356:240|380:288|356:334,1,400,4|2,0:0|0:0,0:0:0:0:
276,286,24052,1,8,0:3:0:0:
196,334,24401,6,0,P|148:346|100:334,2,100,0|8|6,1:0|0:3|0:3,0:0:0:0:
276,286,25447,1,0,1:0:0:0:
196,176,25971,1,0,1:0:0:0:
276,68,26494,6,0,L|376:76,1,100,0|0,1:0|1:0,0:0:0:0:
452,28,27191,2,0,B|496:123|408:123|452:219,1,200,4|4,0:3|0:0,0:0:0:0:
152,372,39052,6,0,P|103:384|56:372,2,100,2|2|0,0:0|0:0|0:0,0:0:0:0:
221,312,40098,1,0,0:0:0:0:
289,372,40447,2,0,P|338:385|384:373,1,100,0|0,0:0|0:0,0:0:0:0:
454,312,41145,2,0,P|467:263|454:217,1,100,0|0,0:0|0:0,0:0:0:0:
386,156,41843,5,2,0:0:0:0:
318,216,42191,1,2,0:0:0:0:
250,156,42540,2,0,L|150:164,1,100,0|0,0:0|0:0,0:0:0:0:
62,172,43238,1,0,0:0:0:0:
70,260,43587,1,0,0:0:0:0:
158,252,43936,2,0,L|258:244,1,100,0|0,0:0|0:0,0:0:0:0:
322,310,44633,5,2,0:0:0:0:
388,244,44982,1,2,0:0:0:0:
322,180,45331,2,0,P|309:131|322:85,1,100,0|2,0:0|0:0,0:0:0:0:
388,20,46029,2,0,P|437:7|483:20,2,100,0|0|0,0:0|0:0|0:0,0:0:0:0:
322,85,47075,1,2,0:0:0:0:
258,20,47424,6,0,B|163:-24|163:64|67:20,1,200,2|0,0:0|0:0,0:0:0:0:
0,84,48471,1,0,0:0:0:0:
68,144,48819,2,0,B|81:193|81:193|68:240,1,100,2|0,0:0|0:0,0:0:0:0:
1,306,49517,1,2,0:0:0:0:
67,372,49866,1,0,0:0:0:0:
132,306,50215,6,0,P|181:293|227:306,2,100,2|2|2,0:0|0:0|0:0,0:0:0:0:
67,372,51261,1,2,0:0:0:0:
1,306,51610,2,0,P|-12:257|1:211,1,100,0|2,0:0|0:0,0:0:0:0:
67,148,52308,1,2,0:0:0:0:
132,211,52657,1,2,0:0:0:0:
196,148,53005,6,0,B|245:135|245:135|292:148,2,100,2|2|2,0:0|0:0|0:0,0:0:0:0:
132,211,54052,1,2,0:0:0:0:
196,276,54401,2,0,B|245:289|245:289|292:276,1,100,0|2,0:0|0:0,0:0:0:0:
356,211,55098,1,2,0:0:0:0:
420,276,55447,1,2,0:0:0:0:
484,211,55796,6,0,L|492:111,2,100,2|2|2,0:0|0:0|0:0,0:0:0:0:
420,276,56843,1,2,0:0:0:0:
356,211,57191,2,0,L|348:111,1,100,0|2,0:0|0:0,0:0:0:0:
284,46,57890,1,2,0:0:0:0:
220,111,58238,1,2,0:0:0:0:
156,46,58587,6,0,P|107:33|61:46,2,100,2|2|2,0:0|0:0|0:0,0:0:0:0:
220,111,59633,1,2,0:0:0:0:
284,46,59982,2,0,P|333:33|379:46,1,100,0|2,0:0|0:0,0:0:0:0:
444,112,60680,1,2,0:0:0:0:
376,168,61029,1,2,0:0:0:0:
444,228,61378,6,0,B|457:277|457:277|444:324,1,100,4|4,0:3|0:3,0:0:0:0:
380,384,62075,1,4,0:3:0:0:
312,324,62424,1,4,0:3:0:0:
244,384,62773,2,0,L|144:376,1,100,4|4,0:3|0:3,0:0:0:0:
56,368,63471,1,4,0:3:0:0:
64,280,63819,1,4,0:3:0:0:
152,288,64168,6,0,L|252:296,1,100,4|4,0:3|0:3,0:0:0:0:
316,362,64866,1,4,0:3:0:0:
382,296,65215,1,4,0:3:0:0:
316,232,65564,2,0,P|303:183|316:137,1,100,4|4,0:3|0:3,0:0:0:0:
380,72,66261,1,4,0:3:0:0:
316,8,66610,1,4,0:3:0:0:
252,72,66959,6,0,B|203:85|203:85|156:72,1,100,8|8,0:0|0:0,0:0:0:0:
92,8,67657,1,8,0:0:0:0:
28,72,68005,1,8,0:0:0:0:
92,136,68354,2,0,B|105:185|105:185|92:232,1,100,8|8,0:0|0:0,0:0:0:0:
28,296,69052,1,8,0:0:0:0:
92,360,69401,1,8,0:0:0:0:
256,192,69750,12,0,71145,0:0:0:0:
432,232,72540,6,0,P|419:183|431:135,1,100,4|8,0:0|0:0,0:0:0:0:
496,72,73238,1,2,0:0:0:0:
432,8,73587,1,8,0:0:0:0:
368,72,73936,2,0,P|320:85|272:73,1,100,4|8,0:3|0:0,0:0:0:0:
208,8,74633,1,2,0:0:0:0:
142,74,74982,1,8,0:0:0:0:
208,136,75331,6,0,L|216:236,1,100,4|8,0:3|0:0,0:0:0:0:
308,236,76029,2,0,L|316:136,1,100,2|8,0:0|0:0,0:0:0:0:
380,72,76726,1,4,0:3:0:0:
444,136,77075,1,8,0:0:0:0:
508,72,77424,1,4,0:3:0:0:
444,8,77773,1,8,0:0:0:0:
380,72,78122,6,0,P|331:85|283:73,1,100,4|8,0:3|0:0,0:0:0:0:
220,8,78820,1,2,0:0:0:0:
156,72,79169,1,8,0:0:0:0:
220,136,79518,2,0,P|233:184|221:232,1,100,4|8,0:3|0:0,0:0:0:0:
156,296,80215,1,2,0:0:0:0:
220,360,80564,1,8,0:0:0:0:
284,296,80912,6,0,B|333:283|333:283|380:296,1,100,4|8,0:3|0:0,0:0:0:0:
448,360,81610,1,2,0:0:0:0:
512,296,81959,1,8,0:0:0:0:
448,232,82308,2,0,B|435:183|435:183|448:136,2,100,4|8|4,0:3|0:0|3:0,0:0:0:0:
380,296,83355,1,8,0:0:0:0:
316,232,83703,6,0,L|216:240,1,100,4|8,0:0|0:0,0:0:0:0:
128,248,84401,1,2,0:0:0:0:
136,336,84750,1,8,0:0:0:0:
224,328,85098,2,0,L|324:320,1,100,4|8,0:3|0:0,0:0:0:0:
388,384,85796,1,2,0:0:0:0:
452,320,86145,1,8,0:0:0:0:
388,256,86494,6,0,L|380:156,1,100,4|8,0:3|0:0,0:0:0:0:
288,156,87192,2,0,L|280:256,1,100,2|8,0:0|0:0,0:0:0:0:
216,320,87889,1,4,0:3:0:0:
152,256,88238,1,8,0:0:0:0:
88,320,88587,1,4,0:3:0:0:
152,384,88936,1,8,0:0:0:0:
216,320,89284,6,0,B|265:307|265:307|312:320,1,100,4|8,0:3|0:0,0:0:0:0:
380,384,89982,1,2,0:0:0:0:
444,320,90331,1,8,0:0:0:0:
380,256,90680,2,0,B|367:207|367:207|380:160,1,100,4|8,0:3|0:0,0:0:0:0:
444,96,91378,1,2,0:0:0:0:
380,32,91726,1,8,0:0:0:0:
316,96,92075,6,0,P|268:109|220:97,1,100,4|8,0:3|0:0,0:0:0:0:
156,32,92773,1,2,0:0:0:0:
92,96,93122,1,8,0:0:0:0:
156,160,93471,2,0,P|169:208|157:256,2,100,4|8|8,0:3|0:1|0:1,0:0:0:0:
92,96,94517,1,8,0:1:0:0:
156,32,94866,6,0,B|251:-12|251:76|347:32,1,200,4|8,0:0|0:0,0:0:0:0:
412,96,95913,1,2,0:0:0:0:
348,160,96261,2,0,P|335:208|347:256,1,100,4|2,0:3|0:0,0:0:0:0:
412,320,96959,1,8,0:0:0:0:
347,384,97308,1,2,0:0:0:0:
284,320,97657,6,0,B|228:304|228:304|152:336|152:336|95:320,1,200,4|8,0:3|0:0,0:0:0:0:
28,256,98704,1,2,0:0:0:0:
96,196,99052,2,0,P|109:148|97:100,2,100,4|2|8,0:3|0:0|0:0,0:0:0:0:
28,256,100098,1,2,0:0:0:0:
95,320,100447,6,0,B|152:336|152:336|228:304|228:304|284:320,1,200,4|8,0:3|0:0,0:0:0:0:
347,384,101494,1,2,0:0:0:0:
412,320,101843,2,0,B|425:271|425:271|412:224,1,100,4|2,0:3|0:0,0:0:0:0:
348,160,102540,1,8,0:0:0:0:
284,224,102889,1,2,0:0:0:0:
220,160,103238,6,0,B|124:116|124:204|29:160,1,200,4|8,0:3|0:0,0:0:0:0:
76,82,104284,1,2,0:0:0:0:
28,4,104633,2,0,P|76:-9|124:3,2,100,4|2|8,0:3|0:0|0:0,0:0:0:0:
76,82,105680,1,4,0:3:0:0:
29,160,106029,6,0,B|124:204|124:116|220:160,1,200,4|8,0:0|0:0,0:0:0:0:
284,224,107075,1,2,0:0:0:0:
348,160,107424,2,0,B|361:111|361:111|348:64,1,100,4|2,0:3|0:0,0:0:0:0:
284,0,108122,1,8,0:0:0:0:
220,64,108471,1,2,0:0:0:0:
156,0,108819,6,0,B|108:28|60:0|60:0|88:44|60:93,1,200,4|8,0:3|0:0,0:0:0:0:
0,164,109866,1,2,0:0:0:0:
60,232,110215,2,0,P|73:280|61:328,2,100,4|2|8,0:3|0:0|0:0,0:0:0:0:
0,164,111261,1,2,0:0:0:0:
60,93,111610,6,0,B|132:65|132:121|205:93,1,150,8|8,0:0|0:0,0:0:0:0:
272,212,112656,1,8,0:0:0:0:
204,272,113005,2,0,P|272:300|339:272,1,150,8|8,0:0|0:0,0:0:0:0:
440,176,114052,1,8,0:0:0:0:
476,92,114401,6,0,B|403:64|403:120|331:92,1,150,8|8,0:0|0:0,0:0:0:0:
272,212,115447,1,8,0:0:0:0:
256,192,115796,12,4,117191,0:0:0:0:
