osu file format v14

[General]
AudioFilename: audio.mp3
AudioLeadIn: 0
PreviewTime: 72453
Countdown: 0
SampleSet: Soft
StackLeniency: 0.3
Mode: 0
LetterboxInBreaks: 0
WidescreenStoryboard: 1

[Editor]
Bookmarks: 5565,27890,47251,50216,72541,94867,117192
DistanceSpacing: 1.1
BeatDivisor: 4
GridSize: 4
TimelineZoom: 1

[Metadata]
Title:introduction - INSANE INFLAME
TitleUnicode:introduction - INSANE INFLAME
Artist:Camellia
ArtistUnicode:かめりあ
Creator:Cris-
Version:Daycore's Hard
Source:osu!
Tags:Seolv [_L_u_k_a_s_] Lukas bor Daycore Hybrid Pack FA Featured Artist English Electronic Rock Dubstep dnb Drum and Bass Mappers' Guild MG Cametek KamelCamellia
BeatmapID:2263207
BeatmapSetID:1081920

[Difficulty]
HPDrainRate:5
CircleSize:4.5
OverallDifficulty:6.5
ApproachRate:7.5
SliderMultiplier:1.5
SliderTickRate:0.5

[Events]
//Background and Video events
0,0,"INSANE INFLAME.jpg",0,0
//Break Periods
2,28089,38228
//Storyboard Layer 0 (Background)
//Storyboard Layer 1 (Fail)
//Storyboard Layer 2 (Pass)
//Storyboard Layer 3 (Foreground)
//Storyboard Layer 4 (Overlay)
//Storyboard Sound Samples

[TimingPoints]
1378,348.837209302326,4,2,1,10,1,0
2773,-142.857142857143,4,2,1,20,0,0
3471,-142.857142857143,4,2,1,30,0,0
4168,-142.857142857143,4,2,1,40,0,0
4866,-142.857142857143,4,2,1,50,0,0
5476,-142.857142857143,4,2,1,5,0,0
5564,-142.857142857143,4,2,1,70,0,0
5912,-142.857142857143,4,2,1,70,0,0
9750,-142.857142857143,4,2,1,70,0,0
11145,-142.857142857143,4,2,1,70,0,0
11494,-142.857142857143,4,2,1,70,0,0
15331,-142.857142857143,4,2,1,70,0,0
16726,-142.857142857143,4,2,1,70,0,0
17075,-142.857142857143,4,2,1,70,0,0
19517,-142.857142857143,4,2,1,70,0,0
20912,-142.857142857143,4,2,1,70,0,0
21959,-142.857142857143,4,2,1,70,0,0
22308,-142.857142857143,4,2,1,70,0,0
22657,-142.857142857143,4,2,1,70,0,0
24401,-142.857142857143,4,2,1,70,0,0
25447,-142.857142857143,4,2,1,70,0,0
25971,-142.857142857143,4,2,1,70,0,0
26494,-142.857142857143,4,2,1,70,0,0
39052,-142.857142857143,4,2,1,70,0,0
49517,-142.857142857143,4,2,1,70,0,0
50128,-142.857142857143,4,2,1,5,0,0
50215,-111.111111111111,4,2,1,70,0,0
52657,-111.111111111111,4,2,1,70,0,0
52918,-111.111111111111,4,2,1,5,0,0
53005,-111.111111111111,4,2,1,70,0,0
55447,-111.111111111111,4,2,1,70,0,0
55796,-111.111111111111,4,2,1,70,0,0
58238,-111.111111111111,4,2,1,70,0,0
58500,-111.111111111111,4,2,1,5,0,0
58587,-111.111111111111,4,2,1,70,0,0
61029,-111.111111111111,4,2,1,70,0,0
61290,-111.111111111111,4,2,1,5,0,0
61378,-111.111111111111,4,2,1,70,0,0
61726,-111.111111111111,4,2,1,70,0,0
63819,-111.111111111111,4,2,1,70,0,0
64081,-111.111111111111,4,2,1,5,0,0
64168,-111.111111111111,4,2,1,70,0,0
64517,-111.111111111111,4,2,1,70,0,0
66610,-111.111111111111,4,2,1,70,0,0
66872,-111.111111111111,4,2,1,5,0,0
66959,-111.111111111111,4,2,1,70,0,0
67308,-111.111111111111,4,2,1,70,0,0
69401,-111.111111111111,4,2,1,70,0,0
69750,-111.111111111111,4,2,1,70,0,0
69793,-111.111111111111,4,2,1,5,0,0
69837,-111.111111111111,4,2,1,70,0,0
69880,-111.111111111111,4,2,1,5,0,0
69924,-111.111111111111,4,2,1,70,0,0
69968,-111.111111111111,4,2,1,5,0,0
70011,-111.111111111111,4,2,1,70,0,0
70055,-111.111111111111,4,2,1,5,0,0
70098,-111.111111111111,4,2,1,70,0,0
70142,-111.111111111111,4,2,1,5,0,0
70186,-111.111111111111,4,2,1,70,0,0
70229,-111.111111111111,4,2,1,5,0,0
70273,-111.111111111111,4,2,1,70,0,0
70316,-111.111111111111,4,2,1,5,0,0
70360,-111.111111111111,4,2,1,70,0,0
70404,-111.111111111111,4,2,1,5,0,0
70447,-111.111111111111,4,2,1,70,0,0
70491,-111.111111111111,4,2,1,5,0,0
70534,-111.111111111111,4,2,1,70,0,0
70578,-111.111111111111,4,2,1,5,0,0
70622,-111.111111111111,4,2,1,70,0,0
70665,-111.111111111111,4,2,1,5,0,0
70709,-111.111111111111,4,2,1,70,0,0
70753,-111.111111111111,4,2,1,5,0,0
70796,-111.111111111111,4,2,1,70,0,0
70840,-111.111111111111,4,2,1,5,0,0
70883,-111.111111111111,4,2,1,70,0,0
70927,-111.111111111111,4,2,1,5,0,0
70971,-111.111111111111,4,2,1,70,0,0
71058,-111.111111111111,4,2,1,5,0,0
71145,-111.111111111111,4,2,1,70,0,0
72366,-111.111111111111,4,2,1,5,0,0
72540,-90.9090909090909,4,2,1,80,0,1
94866,-90.9090909090909,4,2,1,80,0,0
95215,-90.9090909090909,4,2,1,80,0,0
97308,-90.9090909090909,4,2,1,80,0,0
97569,-90.9090909090909,4,2,1,5,0,0
97657,-90.9090909090909,4,2,1,80,0,0
98005,-90.9090909090909,4,2,1,80,0,0
100098,-90.9090909090909,4,2,1,80,0,0
100360,-90.9090909090909,4,2,1,5,0,0
100447,-90.9090909090909,4,2,1,80,0,0
100796,-90.9090909090909,4,2,1,80,0,0
102889,-90.9090909090909,4,2,1,80,0,0
103151,-90.9090909090909,4,2,1,5,0,0
103238,-90.9090909090909,4,2,1,80,0,0
103587,-90.9090909090909,4,2,1,80,0,0
106029,-90.9090909090909,4,2,1,80,0,0
106378,-90.9090909090909,4,2,1,80,0,0
108471,-90.9090909090909,4,2,1,80,0,0
108732,-90.9090909090909,4,2,1,5,0,0
108819,-90.9090909090909,4,2,1,80,0,0
109168,-90.9090909090909,4,2,1,80,0,0
111261,-90.9090909090909,4,2,1,80,0,0
111523,-90.9090909090909,4,2,1,5,0,0
111610,-90.9090909090909,4,2,1,80,0,0
114401,-90.9090909090909,4,2,1,80,0,0
116843,-90.9090909090909,4,2,1,80,0,0
117191,-90.9090909090909,4,2,1,80,0,0

[Colours]
Combo1 : 0,0,255
Combo2 : 255,0,0
Combo3 : 0,128,255
Combo4 : 255,128,128

[HitObjects]
370,188,5565,5,4,0:0:0:0:
256,192,5739,12,0,9227,0:0:0:0:
302,118,9576,5,4,0:3:0:0:
302,118,9662,1,4,0:3:0:0:
302,118,9751,2,0,P|259:93|191:113,1,104.999996795654,0|4,1:0|0:3,0:0:0:0:
145,151,10274,2,0,L|169:259,1,104.999996795654,0|4,1:0|0:3,0:0:0:0:
126,321,10797,1,8,0:3:0:0:
187,370,10971,1,8,0:3:0:0:
269,313,11146,5,4,0:0:0:0:
256,192,11320,12,0,14809,0:0:0:0:
331,165,15158,5,4,0:3:0:0:
331,165,15331,2,0,P|320:144|324:110,2,34.9999989318848,0|4|4,1:0|0:3|0:3,0:0:0:0:
395,212,15680,2,0,P|406:191|402:157,2,34.9999989318848,4|4|4,0:3|0:3|0:3,0:0:0:0:
329,277,16029,2,0,L|236:270,1,52.4999983978272,0|0,1:0|0:0,0:0:0:0:
211,229,16378,1,0,1:0:0:0:
138,259,16553,1,0,3:0:0:0:
62,193,16727,5,4,3:2:0:0:
256,192,16902,12,0,18995,0:0:0:0:
220,43,19344,5,4,0:3:0:0:
220,43,19518,2,0,L|208:88,2,26.2499991989136,0|0|4,1:0|0:0|0:3,0:0:0:0:
283,123,19867,1,4,0:3:0:0:
252,194,20040,1,0,1:0:0:0:
252,194,20128,1,0,3:0:0:0:
252,194,20215,1,4,0:3:0:0:
209,261,20390,1,4,0:3:0:0:
209,261,20565,2,0,L|197:306,2,26.2499991989136,0|4|4,1:0|0:3|0:3,0:0:0:0:
278,304,20913,5,4,0:3:0:0:
278,304,21087,2,0,L|392:298,1,104.999996795654,0|4,1:0|3:0,0:0:0:0:
438,242,21611,2,0,P|429:190|432:179,1,52.4999983978272,0|4,1:0|0:3,0:0:0:0:
452,115,21960,1,0,1:0:0:0:
273,25,22309,5,4,0:0:0:0:
256,192,22483,12,0,23878,0:0:0:0:
156,71,24227,5,4,0:3:0:0:
156,71,24402,2,0,L|274:77,1,104.999996795654,0|8,1:0|0:3,0:0:0:0:
336,52,24925,1,0,0:0:0:0:
397,100,25099,6,0,P|408:136|406:171,1,52.4999983978272,4|4,0:3|0:3,0:0:0:0:
466,204,25448,2,0,L|350:196,1,104.999996795654,0|4,1:0|0:3,0:0:0:0:
301,248,25971,2,0,L|185:256,1,104.999996795654,0|4,1:0|0:3,0:0:0:0:
140,199,26495,5,0,1:0:0:0:
140,199,26669,2,0,P|147:153|143:142,1,52.4999983978272,0|0,1:0|1:0,0:0:0:0:
119,73,27018,2,0,P|91:35|80:30,1,52.4999983978272,0|4,1:0|0:3,0:0:0:0:
15,66,27367,1,4,0:3:0:0:
15,66,27541,6,0,L|26:192,1,104.999996795654,4|4,0:3|0:0,0:0:0:0:
124,159,39053,6,0,P|162:154|194:164,1,52.4999983978272,2|0,0:0|0:0,0:0:0:0:
250,130,39402,1,2,0:0:0:0:
250,130,39576,2,0,P|255:168|245:200,1,52.4999983978272,2|0,0:0|0:0,0:0:0:0:
283,254,39925,2,0,P|245:259|213:249,1,52.4999983978272,2|0,0:0|0:0,0:0:0:0:
157,283,40274,2,0,P|154:308|159:334,1,52.4999983978272,2|0,0:0|0:0,0:0:0:0:
234,360,40623,2,0,B|333:367|291:316|382:321,1,157.499995193482,2|0,0:0|0:0,0:0:0:0:
381,320,41495,1,0,0:0:0:0:
381,320,41844,6,0,P|381:282|396:255,1,52.4999983978272,2|0,0:0|0:0,0:0:0:0:
449,222,42192,1,2,0:0:0:0:
449,222,42367,2,0,P|449:184|434:157,1,52.4999983978272,2|0,0:0|0:0,0:0:0:0:
431,92,42716,2,0,L|370:81,1,52.4999983978272,2|0,0:0|0:0,0:0:0:0:
309,46,43065,2,0,L|248:57,1,52.4999983978272,2|0,0:0|0:0,0:0:0:0:
189,15,43413,2,0,P|216:58|207:167,1,157.499995193482,2|0,0:0|0:0,0:0:0:0:
210,161,44285,1,0,0:0:0:0:
210,161,44634,6,0,L|149:150,1,52.4999983978272,2|0,0:0|0:0,0:0:0:0:
121,81,44983,1,2,0:0:0:0:
121,81,45158,2,0,L|182:70,1,52.4999983978272,2|0,0:0|0:0,0:0:0:0:
239,29,45506,2,0,L|300:40,1,52.4999983978272,2|2,0:0|0:0,0:0:0:0:
347,93,45855,2,0,L|408:82,1,52.4999983978272,2|0,0:0|0:0,0:0:0:0:
439,15,46204,2,0,B|436:74|436:74|463:102|463:102|456:175,1,157.499995193482,2|0,0:0|0:0,0:0:0:0:
453,240,46902,5,2,0:0:0:0:
453,240,47076,2,0,P|418:246|381:243,1,52.4999983978272,2|0,0:0|0:0,0:0:0:0:
352,183,47425,2,0,P|317:177|259:230,1,104.999996795654,2|0,0:0|0:0,0:0:0:0:
313,276,47948,2,0,B|268:300|268:300|216:280,1,104.999996795654,2|0,0:0|0:0,0:0:0:0:
158,332,48471,1,0,0:0:0:0:
158,332,48646,6,0,P|138:275|167:221,1,104.999996795654,0|0,0:0|0:0,0:0:0:0:
163,157,49169,2,0,P|147:129|123:114,1,52.4999983978272,0|0,0:0|0:0,0:0:0:0:
65,72,49518,6,0,B|154:72|154:72|152:76|152:76|169:64|169:64|173:67|173:67|190:64|190:64|190:67|190:67|227:75,1,157.499995193482,2|0,0:0|0:0,0:0:0:0:
283,48,50216,6,0,P|284:97|266:127,2,67.4999979400635,2|0|2,0:0|0:0|0:0,0:0:0:0:
369,10,50739,1,0,0:0:0:0:
450,56,50913,2,0,P|449:105|467:135,1,67.4999979400635,2|0,0:0|0:0,0:0:0:0:
394,192,51262,1,2,0:0:0:0:
455,264,51437,2,0,B|370:269|418:222|321:226,1,134.999995880127,2|2,0:0|0:0,0:0:0:0:
248,178,51960,6,0,P|174:186|156:196,1,67.4999979400635,2|0,0:0|0:0,0:0:0:0:
87,193,52309,1,2,0:0:0:0:
87,193,52483,1,0,0:0:0:0:
145,118,52658,2,0,P|208:102|252:102,1,101.249996910095,2|0,0:0|0:0,0:0:0:0:
272,92,53006,6,0,P|312:106|347:104,2,67.4999979400635,2|0|2,0:0|0:0|0:0,0:0:0:0:
376,40,53530,1,0,0:0:0:0:
450,98,53704,2,0,P|462:145|465:178,1,67.4999979400635,2|0,0:0|0:0,0:0:0:0:
404,237,54053,1,2,0:0:0:0:
416,330,54227,2,0,B|385:339|359:320|359:320|339:329|339:329|321:310|275:314,1,134.999995880127,2|2,0:0|0:0,0:0:0:0:
223,244,54751,6,0,P|180:248|134:240,1,67.4999979400635,2|2,0:0|0:0,0:0:0:0:
76,194,55099,1,2,0:0:0:0:
76,194,55274,1,2,0:0:0:0:
146,131,55448,2,0,B|198:130|179:98|262:95,1,101.249996910095,2|0,0:0|0:0,0:0:0:0:
266,82,55797,6,0,P|230:64|200:53,1,67.4999979400635,2|0,0:0|0:0,0:0:0:0:
118,15,56146,2,0,P|82:33|52:44,1,67.4999979400635,2|0,0:0|0:0,0:0:0:0:
36,135,56495,2,0,P|38:181|37:216,1,67.4999979400635,2|0,0:0|0:0,0:0:0:0:
110,262,56844,1,2,0:0:0:0:
41,326,57018,2,0,B|65:298|98:296|98:296|126:318|189:304,1,134.999995880127,2|2,0:0|0:0,0:0:0:0:
257,291,57541,6,0,P|308:280|339:285,1,67.4999979400635,2|0,0:0|0:0,0:0:0:0:
410,318,57890,2,0,L|411:232,1,67.4999979400635,2|0,0:0|0:0,0:0:0:0:
460,169,58239,2,0,P|409:158|355:173,1,101.249996910095,2|0,0:0|0:0,0:0:0:0:
333,181,58588,6,0,P|349:141|340:102,1,67.4999979400635,2|0,0:0|0:0,0:0:0:0:
347,22,58937,2,0,P|304:28|275:55,1,67.4999979400635,2|0,0:0|0:0,0:0:0:0:
203,89,59285,2,0,P|229:122|267:134,2,67.4999979400635,2|0|2,0:0|0:0|0:0,0:0:0:0:
133,23,59809,2,0,P|158:89|153:181,1,134.999995880127,2|2,0:0|0:0,0:0:0:0:
87,214,60332,6,0,P|73:261|71:283,1,67.4999979400635,2|2,0:0|0:0,0:0:0:0:
141,343,60681,2,0,L|226:346,1,67.4999979400635,2|2,0:0|0:0,0:0:0:0:
295,308,61030,1,2,0:0:0:0:
295,308,61204,1,0,0:0:0:0:
380,348,61378,6,0,B|390:264|361:292|366:204,1,134.999995880127,4|4,0:3|0:3,0:0:0:0:
371,214,62076,2,0,B|366:290|395:262|385:346,1,134.999995880127,4|4,0:3|0:3,0:0:0:0:
422,112,62774,6,0,B|355:100|355:100|317:96|284:122,1,134.999995880127,4|4,0:3|0:3,0:0:0:0:
292,111,63471,2,0,B|317:90|355:94|355:94|422:106,1,134.999995880127,4|4,0:3|0:3,0:0:0:0:
233,189,64169,6,0,L|82:175,1,134.999995880127,4|4,0:3|0:3,0:0:0:0:
96,181,64867,2,0,L|230:193,1,134.999995880127,4|4,0:3|0:3,0:0:0:0:
35,117,65565,6,0,P|15:162|46:259,1,134.999995880127,4|4,0:3|0:3,0:0:0:0:
38,242,66262,2,0,P|18:178|41:115,1,134.999995880127,4|4,0:3|0:3,0:0:0:0:
216,47,66960,6,0,P|223:80|222:114,1,67.4999979400635,8|4,0:0|0:3,0:0:0:0:
283,178,67309,2,0,P|276:210|277:244,1,67.4999979400635,8|4,0:0|0:3,0:0:0:0:
338,307,67658,1,8,0:0:0:0:
338,307,67832,1,4,0:3:0:0:
413,263,68006,1,8,0:0:0:0:
413,263,68181,1,4,0:3:0:0:
406,350,68355,6,0,P|365:382|323:384,1,67.4999979400635,8|4,0:0|0:3,0:0:0:0:
266,359,68704,2,0,L|189:334,1,67.4999979400635,8|4,0:0|0:3,0:0:0:0:
117,313,69053,2,0,P|85:301|61:277,1,67.4999979400635,8|4,0:0|0:3,0:0:0:0:
83,192,69402,1,8,0:0:0:0:
52,110,69576,1,4,0:3:0:0:
93,32,69751,6,0,L|144:38,3,33.7499989700318,12|4|4|4,0:3|0:3|0:3|0:3,0:0:0:0:
162,61,70099,2,0,L|213:55,3,33.7499989700318,8|4|4|4,0:0|0:3|0:3|0:3,0:0:0:0:
235,37,70448,2,0,L|286:43,3,33.7499989700318,8|4|4|4,0:0|0:3|0:3|0:3,0:0:0:0:
304,66,70796,2,0,L|355:60,2,33.7499989700318,8|4|4,0:0|0:3|0:3,0:0:0:0:
256,192,71146,12,2,72192,0:0:0:0:
141,93,72541,6,0,B|263:76|263:76|247:94|244:120,1,165.000005035401,4|8,0:0|0:0,0:0:0:0:
294,190,73065,1,2,0:0:0:0:
294,190,73151,1,2,0:3:0:0:
294,190,73239,2,0,P|244:205|193:189,1,82.5000025177003,2|4,0:0|3:0,0:0:0:0:
245,113,73588,1,8,0:0:0:0:
335,106,73762,2,0,L|331:282,1,165.000005035401,2|0,0:0|0:0,0:0:0:0:
263,331,74285,6,0,B|238:333|221:321|221:321|201:331|166:329,1,82.5000025177003,8|2,0:0|0:0,0:0:0:0:
117,266,74634,2,0,B|92:264|75:276|75:276|55:266|20:268,1,82.5000025177003,2|4,0:0|3:0,0:0:0:0:
16,179,74983,1,8,0:0:0:0:
70,105,75158,1,4,0:3:0:0:
54,15,75332,6,0,B|150:7|115:78|225:69,1,165.000005035401,4|8,0:3|0:0,0:0:0:0:
289,38,75855,1,2,0:0:0:0:
289,38,75941,1,2,0:3:0:0:
289,38,76030,2,0,P|286:86|308:128,1,82.5000025177003,2|4,0:0|3:0,0:0:0:0:
389,112,76378,1,8,0:0:0:0:
453,24,76553,2,0,L|284:38,1,165.000005035401,2|2,0:0|0:0,0:0:0:0:
262,124,77076,6,0,L|254:219,1,82.5000025177003,8|2,0:0|0:0,0:0:0:0:
172,244,77425,2,0,L|180:339,1,82.5000025177003,4|4,0:3|0:3,0:0:0:0:
258,370,77774,1,8,0:0:0:0:
338,327,77947,1,4,0:3:0:0:
417,371,78123,6,0,P|427:302|404:264,1,82.5000025177003,4|0,0:3|0:0,0:0:0:0:
385,209,78471,1,8,0:0:0:0:
430,133,78645,1,2,0:0:0:0:
430,133,78732,1,2,0:3:0:0:
430,133,78819,2,0,B|469:111|469:111|518:125,2,82.5000025177003,2|4|8,0:0|3:0|0:0,0:0:0:0:
385,209,79344,2,0,P|409:146|355:72,1,165.000005035401,2|0,0:0|0:0,0:0:0:0:
269,99,79867,6,0,P|223:109|172:84,1,82.5000025177003,8|2,0:0|0:0,0:0:0:0:
131,35,80216,1,2,0:0:0:0:
131,35,80390,1,4,0:3:0:0:
113,124,80565,1,8,0:0:0:0:
158,204,80739,1,4,0:3:0:0:
104,276,80913,6,0,P|141:295|182:293,1,82.5000025177003,4|0,0:3|0:0,0:0:0:0:
158,204,81261,1,8,0:0:0:0:
66,207,81437,1,2,0:0:0:0:
66,207,81523,1,2,0:3:0:0:
66,207,81610,2,0,P|33:240|25:282,2,82.5000025177003,2|4|8,0:0|3:0|0:0,0:0:0:0:
226,144,82133,2,0,B|297:149|297:149|322:168|322:168|412:174,1,165.000005035401,2|2,0:0|0:0,0:0:0:0:
471,199,82658,6,0,P|494:140|485:104,1,82.5000025177003,8|2,0:0|0:0,0:0:0:0:
384,172,83006,2,0,L|394:276,1,82.5000025177003,2|4,0:0|3:0,0:0:0:0:
403,352,83355,1,8,0:0:0:0:
309,319,83530,1,4,0:3:0:0:
224,370,83704,6,0,B|138:372|175:315|60:309,1,165.000005035401,4|8,0:0|0:0,0:0:0:0:
93,220,84227,1,2,0:0:0:0:
93,220,84314,1,2,0:3:0:0:
93,220,84402,2,0,P|107:172|96:114,1,82.5000025177003,2|4,0:0|3:0,0:0:0:0:
151,61,84751,1,8,0:0:0:0:
66,28,84925,2,0,B|132:-19|132:-19|245:1,1,165.000005035401,2|0,0:0|0:0,0:0:0:0:
285,52,85448,6,0,P|277:98|297:158,1,82.5000025177003,8|2,0:0|0:0,0:0:0:0:
364,175,85797,2,0,P|372:221|352:281,1,82.5000025177003,2|4,0:0|3:0,0:0:0:0:
287,302,86146,1,8,0:0:0:0:
198,284,86320,1,4,0:3:0:0:
135,350,86495,6,0,P|213:321|303:310,1,165.000005035401,4|8,0:3|0:0,0:0:0:0:
378,342,87018,1,2,0:0:0:0:
378,342,87104,1,2,0:3:0:0:
378,342,87192,2,0,P|397:285|394:242,1,82.5000025177003,2|4,0:0|3:0,0:0:0:0:
420,175,87541,1,8,0:0:0:0:
336,207,87716,2,0,P|464:256|494:231,1,165.000005035401,2|2,0:0|0:0,0:0:0:0:
504,165,88239,6,0,P|487:118|435:97,1,82.5000025177003,8|2,0:0|0:0,0:0:0:0:
391,42,88588,2,0,L|283:53,1,82.5000025177003,4|4,0:3|0:3,0:0:0:0:
218,57,88937,1,8,0:0:0:0:
131,31,89111,1,4,0:3:0:0:
50,71,89285,6,0,L|64:162,1,82.5000025177003,4|0,0:3|0:0,0:0:0:0:
38,240,89633,1,8,0:0:0:0:
129,214,89808,1,2,0:0:0:0:
129,214,89895,1,2,0:3:0:0:
129,214,89983,2,0,P|169:211|207:226,2,82.5000025177003,2|4|8,0:0|3:0|0:0,0:0:0:0:
151,137,90506,2,0,L|153:311,1,165.000005035401,2|0,0:0|0:0,0:0:0:0:
217,365,91030,6,0,P|261:363|315:344,1,82.5000025177003,8|2,0:0|0:0,0:0:0:0:
360,286,91378,2,0,P|320:274|279:273,1,82.5000025177003,2|4,0:0|0:3,0:0:0:0:
291,182,91727,1,8,0:0:0:0:
351,113,91902,1,4,0:3:0:0:
299,38,92076,6,0,B|258:25|258:25|187:39,1,82.5000025177003,4|0,0:3|0:0,0:0:0:0:
150,89,92424,1,8,0:0:0:0:
156,187,92598,1,2,0:0:0:0:
156,187,92686,1,2,0:3:0:0:
156,187,92774,2,0,P|148:227|162:265,2,82.5000025177003,2|4|8,0:0|3:0|0:0,0:0:0:0:
237,218,93297,2,0,L|57:206,1,165.000005035401,2|8,0:0|0:1,0:0:0:0:
32,196,93733,1,8,0:1:0:0:
32,196,93820,6,0,L|42:268,3,41.2500012588501,8|8|8|8,0:1|0:1|0:1|0:1,0:0:0:0:
29,281,94169,2,0,L|19:353,3,41.2500012588501,8|8|8|8,0:1|0:1|0:1|0:1,0:0:0:0:
63,343,94518,2,0,L|73:415,3,41.2500012588501,8|8|8|8,0:1|0:1|0:1|0:1,0:0:0:0:
114,379,94867,6,0,B|130:350|171:355|171:355|213:394|287:367,1,165.000005035401,4|2,0:0|0:0,0:0:0:0:
313,299,95390,1,2,0:0:0:0:
313,299,95565,2,0,B|276:277|276:277|203:298,1,82.5000025177003,8|2,0:0|0:0,0:0:0:0:
211,205,95913,1,2,0:0:0:0:
211,205,96088,2,0,B|290:182|290:182|368:228,1,165.000005035401,2|0,0:0|0:0,0:0:0:0:
401,305,96611,2,0,L|401:136,2,165.000005035401,2|8|2,0:0|0:0|0:0,0:0:0:0:
401,305,97658,6,0,B|307:304|342:261|234:265,1,165.000005035401,4|2,0:3|0:0,0:0:0:0:
177,209,98181,1,2,0:0:0:0:
177,209,98355,2,0,L|176:317,1,82.5000025177003,8|2,0:0|0:0,0:0:0:0:
252,329,98704,1,2,0:0:0:0:
252,329,98878,2,0,P|199:294|94:338,1,165.000005035401,2|2,0:0|0:0,0:0:0:0:
30,370,99402,2,0,L|35:197,2,165.000005035401,2|8|2,0:0|0:0|0:0,0:0:0:0:
30,370,100448,6,0,L|35:197,1,165.000005035401,4|2,0:3|0:0,0:0:0:0:
88,132,100971,1,2,0:0:0:0:
88,132,101146,2,0,P|128:121|179:139,1,82.5000025177003,8|2,0:0|0:0,0:0:0:0:
241,77,101495,1,2,0:0:0:0:
241,77,101669,2,0,B|208:122|208:122|208:253,1,165.000005035401,2|0,0:0|0:0,0:0:0:0:
290,267,102191,2,0,B|202:265|230:200|113:212,2,165.000005035401,2|8|2,0:0|0:0|0:0,0:0:0:0:
290,267,103239,6,0,B|264:367|312:404|376:359|310:325,1,165.000005035401,4|2,0:3|0:0,0:0:0:0:
406,289,103762,1,2,0:0:0:0:
406,289,103937,2,0,L|394:206,1,82.5000025177003,8|2,0:0|0:0,0:0:0:0:
463,149,104285,1,2,0:0:0:0:
463,149,104460,2,0,P|415:180|323:105,1,165.000005035401,2|2,0:0|0:0,0:0:0:0:
316,42,104983,2,0,P|261:23|220:37,1,82.5000025177003,2|2,0:0|0:0,0:0:0:0:
170,87,105332,2,0,L|181:208,1,82.5000025177003,8|4,0:0|0:3,0:0:0:0:
173,260,105681,1,4,0:3:0:0:
173,260,105855,1,4,0:3:0:0:
212,341,106030,6,0,P|146:348|82:266,1,165.000005035401,4|2,0:0|0:0,0:0:0:0:
130,195,106553,1,2,0:0:0:0:
130,195,106727,2,0,P|168:232|169:277,1,82.5000025177003,8|2,0:0|0:0,0:0:0:0:
212,341,107076,1,2,0:0:0:0:
212,341,107251,2,0,B|193:261|193:261|249:162,1,165.000005035401,2|0,0:0|0:0,0:0:0:0:
323,203,107774,2,0,B|342:283|342:283|301:355,2,165.000005035401,2|8|2,0:0|0:0|0:0,0:0:0:0:
323,203,108820,6,0,B|391:204|391:204|426:222|426:222|502:223,1,165.000005035401,4|2,0:3|0:0,0:0:0:0:
447,138,109344,1,2,0:0:0:0:
447,138,109518,2,0,L|458:41,1,82.5000025177003,8|2,0:0|0:0,0:0:0:0:
372,19,109867,1,2,0:0:0:0:
372,19,110041,2,0,B|362:53|314:48|314:48|203:32,1,165.000005035401,2|2,0:0|0:0,0:0:0:0:
131,15,110565,2,0,P|191:37|200:150,2,165.000005035401,2|8|2,0:0|0:0|0:0,0:0:0:0:
131,15,111611,6,0,L|127:115,2,82.5000025177003,8|4|4,0:0|0:3|0:3,0:0:0:0:
51,104,112134,2,0,L|55:204,2,82.5000025177003,8|4|4,0:0|0:3|0:3,0:0:0:0:
134,197,112658,2,0,L|130:297,1,82.5000025177003,8|4,0:0|0:3,0:0:0:0:
209,324,113006,6,0,P|243:285|297:277,2,82.5000025177003,8|4|4,0:0|0:3|0:3,0:0:0:0:
339,226,113530,2,0,P|355:274|335:325,2,82.5000025177003,8|4|4,0:0|0:3|0:3,0:0:0:0:
420,339,114053,2,0,P|445:307|483:292,1,82.5000025177003,8|4,0:0|0:3,0:0:0:0:
478,199,114402,6,0,B|464:151|464:151|481:101,2,82.5000025177003,8|4|4,0:0|0:3|0:3,0:0:0:0:
385,115,114925,2,0,B|399:67|399:67|382:17,2,82.5000025177003,8|4|4,0:0|0:3|0:3,0:0:0:0:
349,216,115448,1,8,0:0:0:0:
241,210,115623,1,4,0:3:0:0:
155,146,115797,6,0,L|130:73,3,41.2500012588501,8|4|4|4,0:0|0:3|0:3|0:3,0:0:0:0:
141,44,116146,2,0,L|65:29,3,41.2500012588501,8|4|4|4,0:0|0:3|0:3|0:3,0:0:0:0:
46,4,116495,2,0,L|-4:62,3,41.2500012588501,8|4|4|4,0:0|0:3|0:3|0:3,0:0:0:0:
0,91,116844,6,0,L|18:272,1,165.000005035401,8|4,0:0|0:0,0:0:0:0:
