osu file format v14

[General]
AudioFilename: audio.mp3
AudioLeadIn: 0
PreviewTime: 72453
Countdown: 0
SampleSet: Soft
StackLeniency: 0.3
Mode: 0
LetterboxInBreaks: 0
WidescreenStoryboard: 0

[Editor]
Bookmarks: 5565,27890,47251,50216,72541,94867,117192
DistanceSpacing: 0.3
BeatDivisor: 6
GridSize: 4
TimelineZoom: 2.1

[Metadata]
Title:introduction - INSANE INFLAME
TitleUnicode:introduction - INSANE INFLAME
Artist:Camellia
ArtistUnicode:かめりあ
Creator:Cris-
Version:Daycore's Extreme
Source:osu!
Tags:Seolv [_L_u_k_a_s_] Lukas bor Daycore Hybrid Pack FA Featured Artist English Electronic Rock Dubstep dnb Drum and Bass Mappers' Guild MG Cametek KamelCamellia
BeatmapID:2263158
BeatmapSetID:1081920

[Difficulty]
HPDrainRate:5.5
CircleSize:4.5
OverallDifficulty:8.5
ApproachRate:9.2
SliderMultiplier:1.8
SliderTickRate:0.5

[Events]
//Background and Video events
0,0,"INSANE INFLAME.jpg",0,0
//Break Periods
2,28090,38483
//Storyboard Layer 0 (Background)
//Storyboard Layer 1 (Fail)
//Storyboard Layer 2 (Pass)
//Storyboard Layer 3 (Foreground)
//Storyboard Layer 4 (Overlay)
//Storyboard Sound Samples

[TimingPoints]
1378,348.837209302326,4,2,1,70,1,0
5565,-285.714285714284,4,2,1,70,0,0
9402,-285.714285714284,4,2,1,5,0,0
9576,-285.714285714284,4,2,1,70,0,0
9751,-83.3333333333333,4,2,1,70,0,0
11146,-285.714285714284,4,2,1,70,0,0
14983,-285.714285714284,4,2,1,5,0,0
15158,-100,4,2,1,70,0,0
16727,-263.157894736842,4,2,1,70,0,0
19344,-100,4,2,1,70,0,0
19518,-100,4,2,1,70,0,0
22309,-285.714285714284,4,2,1,70,0,0
24227,-100,4,2,1,70,0,0
24402,-100,4,2,1,70,0,0
39053,-111.111111111111,4,2,1,70,0,0
49518,-83.3333333333333,4,2,1,70,0,0
50128,-83.3333333333333,4,2,1,5,0,0
50216,-100,4,2,1,70,0,0
52919,-100,4,2,1,5,0,0
53006,-100,4,2,1,70,0,0
55448,-58.8235294117647,4,2,1,70,0,0
55710,-58.8235294117647,4,2,1,5,0,0
55797,-100,4,2,1,70,0,0
61378,-83.3333333333333,4,2,1,70,0,0
64082,-83.3333333333333,4,2,1,5,0,0
64169,-66.6666666666667,4,2,1,70,0,0
66873,-66.6666666666667,4,2,1,5,0,0
66960,-50,4,2,1,70,0,0
69751,-50,4,2,1,70,0,0
69794,-50,4,2,1,70,0,0
69838,-50,4,2,1,70,0,0
69881,-50,4,2,1,70,0,0
69925,-50,4,2,1,70,0,0
69969,-50,4,2,1,70,0,0
70012,-50,4,2,1,70,0,0
70056,-50,4,2,1,70,0,0
70099,-50,4,2,1,70,0,0
70143,-50,4,2,1,70,0,0
70187,-50,4,2,1,70,0,0
70230,-50,4,2,1,70,0,0
70274,-50,4,2,1,70,0,0
70317,-50,4,2,1,70,0,0
70361,-50,4,2,1,70,0,0
70405,-50,4,2,1,70,0,0
70448,-50,4,2,1,70,0,0
70492,-50,4,2,1,70,0,0
70535,-50,4,2,1,70,0,0
70579,-50,4,2,1,70,0,0
70623,-50,4,2,1,70,0,0
70666,-50,4,2,1,70,0,0
70710,-50,4,2,1,70,0,0
70753,-50,4,2,1,70,0,0
70797,-50,4,2,1,70,0,0
70841,-50,4,2,1,70,0,0
70884,-50,4,2,1,70,0,0
70928,-50,4,2,1,70,0,0
70971,-50,4,2,1,70,0,0
71059,-50,4,2,1,70,0,0
71146,-50,4,2,1,70,0,0
72367,-50,4,2,1,5,0,0
72540,-71.4285714285714,4,2,1,80,0,1
74982,-71.4285714285714,4,2,1,80,0,0
75331,-71.4285714285714,4,2,1,80,0,1
76552,-71.4285714285714,4,2,1,80,0,1
77075,-71.4285714285714,4,2,1,80,0,1
77773,-71.4285714285714,4,2,1,80,0,0
78122,-71.4285714285714,4,2,1,80,0,1
80564,-71.4285714285714,4,2,1,80,0,0
80825,-71.4285714285714,4,2,1,80,0,0
80912,-71.4285714285714,4,2,1,80,0,1
83180,-62.5,4,2,1,80,0,1
83354,-71.4285714285714,4,2,1,80,0,0
83529,-62.5,4,2,1,80,0,0
83703,-71.4285714285714,4,2,1,80,0,1
86145,-71.4285714285714,4,2,1,80,0,0
86494,-71.4285714285714,4,2,1,80,0,1
88936,-71.4285714285714,4,2,1,80,0,0
89284,-71.4285714285714,4,2,1,80,0,1
90505,-71.4285714285714,4,2,1,80,0,1
91029,-71.4285714285714,4,2,1,80,0,1
91726,-71.4285714285714,4,2,1,80,0,0
92075,-71.4285714285714,4,2,1,80,0,1
92773,-64.5161290322581,4,2,1,80,0,1
93296,-71.4285714285714,4,2,1,80,0,1
94081,-71.4285714285714,4,2,1,80,0,0
94168,-71.4285714285714,4,2,1,80,0,1
94430,-71.4285714285714,4,2,1,80,0,0
94517,-71.4285714285714,4,2,1,80,0,1
94779,-71.4285714285714,4,2,1,80,0,0
94866,-71.4285714285714,4,2,1,80,0,0
95040,-71.4285714285714,4,2,1,80,0,0
96087,-166.666666666667,4,2,1,80,0,0
97569,-166.666666666667,4,2,1,5,0,0
97657,-166.666666666667,4,2,1,80,0,1
97831,-166.666666666667,4,2,1,80,0,0
100360,-166.666666666667,4,2,1,5,0,0
100447,-166.666666666667,4,2,1,80,0,1
100622,-166.666666666667,4,2,1,80,0,0
103151,-166.666666666667,4,2,1,5,0,0
103238,-166.666666666667,4,2,1,80,0,1
103412,-166.666666666667,4,2,1,80,0,0
106029,-166.666666666667,4,2,1,80,0,1
106203,-166.666666666667,4,2,1,80,0,0
108732,-166.666666666667,4,2,1,5,0,0
108819,-166.666666666667,4,2,1,80,0,1
108994,-166.666666666667,4,2,1,80,0,0
111523,-166.666666666667,4,2,1,5,0,0
111610,-166.666666666667,4,2,1,80,0,1
111784,-166.666666666667,4,2,1,80,0,0
114401,-166.666666666667,4,2,1,80,0,1
114575,-166.666666666667,4,2,1,80,0,0
115796,-76.9230769230769,4,2,1,80,0,0
116843,-50,4,2,1,80,0,0

[Colours]
Combo1 : 0,0,255
Combo2 : 255,0,0
Combo3 : 0,128,255
Combo4 : 255,128,128

[HitObjects]
68,174,5565,6,0,B|36:86|36:86|162:41|162:41|143:291|143:291|261:325|261:325|226:236,1,692.999978851319,4|0,0:0|0:0,0:0:0:0:
234,246,9576,1,4,0:3:0:0:
234,246,9663,1,4,0:3:0:0:
234,246,9751,2,0,P|287:241|338:187,1,107.999996704102,0|4,1:0|0:3,0:0:0:0:
204,72,10099,1,4,0:3:0:0:
204,72,10274,2,0,L|256:174,1,107.999996704102,0|4,1:0|0:3,0:0:0:0:
410,56,10623,1,4,0:3:0:0:
410,56,10797,2,0,P|356:60|305:114,1,107.999996704102,8|8,0:3|0:3,0:0:0:0:
107,200,11146,6,0,B|39:222|13:115|76:91|124:72|204:132|190:174|196:206|183:262|172:283|172:283|207:256|245:237|303:256|316:334|277:365|277:365|239:357|231:331|231:331|215:352|180:361,1,692.999978851319,4|0,0:0|0:0,0:0:0:0:
55,365,15158,1,4,0:3:0:0:
55,365,15215,1,4,0:3:0:0:
55,365,15273,1,4,0:3:0:0:
55,365,15332,6,0,P|61:316|89:289,2,60,0|4|4,1:0|0:3|0:3,0:0:0:0:
119,256,15681,2,0,P|113:207|85:180,2,60,4|4|4,0:3|0:3|0:3,0:0:0:0:
173,123,16029,2,0,P|163:94|176:47,1,60,0|4,1:0|0:3,0:0:0:0:
236,22,16261,2,0,P|266:27|300:62,1,60,4|0,0:3|1:0,0:0:0:0:
362,77,16494,37,4,3:0:0:0:
362,77,16552,2,0,L|366:141,1,60,0|0,3:0|3:0,0:0:0:0:
337,212,16727,6,0,B|376:250|376:337|297:432|163:371|126:264|191:203|220:184|220:184|189:206|155:200,1,478.799994155274,4|0,3:2|0:0,0:0:0:0:
295,141,19344,2,0,L|308:107,2,30,4|4|4,0:3|0:3|0:3,3:3:0:0:
282,250,19518,2,0,P|260:281|262:243,1,90,0|4,1:0|0:3,0:0:0:0:
271,56,19867,1,4,0:3:0:0:
437,33,20041,1,0,1:0:0:0:
437,33,20128,1,0,3:0:0:0:
437,33,20216,6,0,B|389:33|389:33|381:36|381:36|319:36,1,90,4|4,0:3|0:3,0:0:0:0:
154,135,20565,1,0,1:0:0:0:
271,56,20739,1,4,0:3:0:0:
84,62,20913,5,4,0:3:0:0:
190,213,21088,1,0,1:0:0:0:
188,221,21146,1,0,1:0:0:0:
186,229,21204,1,0,1:0:0:0:
184,237,21262,2,0,P|226:221|274:228,1,90,4|4,0:3|3:0,0:0:0:0:
240,360,21494,1,4,3:0:0:0:
239,351,21552,1,4,3:0:0:0:
238,342,21611,6,0,L|232:272,1,45,0|0,1:0|1:0,0:0:0:0:
362,174,21784,2,0,L|358:218,1,45,4|4,0:3|3:0,0:0:0:0:
441,373,21960,1,0,1:0:0:0:
89,55,22309,6,0,B|297:44|163:159|367:174,1,314.999990386963,4|8,0:0|0:3,0:0:0:0:
141,164,24227,2,0,L|137:196,2,30,4|4|4,0:3|0:3|0:3,0:0:0:0:
78,255,24402,2,0,P|142:277|183:265,1,90,0|0,1:0|0:0,0:0:0:0:
252,325,24750,2,0,L|256:278,1,45,8|0,0:3|3:0,0:0:0:0:
248,85,24924,2,0,L|251:129,1,45,8|0,0:3|3:0,0:0:0:0:
228,207,25099,5,4,0:3:0:0:
274,205,25187,1,4,0:3:0:0:
312,181,25274,1,4,0:3:0:0:
329,139,25361,1,4,0:3:0:0:
321,94,25448,5,0,1:0:0:0:
112,13,25622,2,0,L|132:91,1,45,0|0,0:0|0:0,0:0:0:0:
162,131,25797,1,4,0:3:0:0:
207,130,25884,1,4,0:3:0:0:
252,130,25971,1,0,1:0:0:0:
13,83,26146,6,0,P|-3:118|2:163,1,45,4|4,0:3|0:3,0:0:0:0:
32,203,26320,2,0,P|48:238|43:283,1,45,4|4,0:3|0:3,0:0:0:0:
28,339,26495,5,0,1:0:0:0:
55,320,26582,1,0,3:0:0:0:
88,311,26669,2,0,P|126:312|163:323,1,45,0|0,1:0|0:0,0:0:0:0:
213,267,26844,2,0,P|199:249|183:235,1,45,0|0,1:0|0:0,0:0:0:0:
256,144,27018,2,0,L|256:192,1,45,0|0,1:0|0:0,0:0:0:0:
298,267,27192,2,0,P|312:249|329:234,1,45,4|0,0:3|0:0,0:0:0:0:
423,311,27367,2,0,P|401:310|378:313,1,45,4|0,0:3|0:0,0:0:0:0:
256,344,27541,1,4,0:3:0:0:
256,24,27716,5,4,0:3:0:0:
248,32,27803,1,0,0:0:0:0:
264,32,27890,1,4,0:0:0:0:
154,103,39053,6,0,P|210:90|254:119,1,80.9999975280763,2|0,0:0|0:0,0:0:0:0:
195,248,39402,1,2,0:0:0:0:
195,248,39576,2,0,L|195:139,1,80.9999975280763,2|0,0:0|0:0,0:0:0:0:
290,316,39925,2,0,B|257:345|257:345|209:313,1,80.9999975280763,2|0,0:0|0:0,0:0:0:0:
317,167,40274,2,0,L|317:248,1,80.9999975280763,2|0,0:0|0:0,0:0:0:0:
190,328,40623,2,0,B|255:375|255:375|341:304,1,161.999995056153,2|0,0:0|0:0,0:0:0:0:
432,183,41146,6,0,P|434:235|426:285,1,80.9999975280763,0|0,0:0|0:0,0:0:0:0:
441,178,41495,2,0,P|443:230|435:280,1,80.9999975280763,0|0,0:0|0:0,0:0:0:0:
488,100,41844,6,0,P|430:93|381:117,1,80.9999975280763,2|0,0:0|0:0,0:0:0:0:
255,56,42192,1,2,0:0:0:0:
255,56,42367,2,0,L|343:54,1,80.9999975280763,2|0,0:0|0:0,0:0:0:0:
184,93,42716,2,0,P|173:54|183:15,1,80.9999975280763,2|0,0:0|0:0,0:0:0:0:
259,139,43065,2,0,P|269:177|258:216,1,80.9999975280763,2|0,0:0|0:0,0:0:0:0:
184,261,43413,2,0,L|370:251,1,161.999995056153,2|0,0:0|0:0,0:0:0:0:
375,361,43937,6,0,L|289:355,1,80.9999975280763,0|0,0:0|0:0,0:0:0:0:
371,370,44285,2,0,L|285:364,1,80.9999975280763,0|0,0:0|0:0,0:0:0:0:
110,226,44634,6,0,P|103:278|130:329,1,80.9999975280763,2|0,0:0|0:0,0:0:0:0:
154,156,44983,1,2,0:0:0:0:
154,156,45158,2,0,B|116:138|116:138|51:155,1,80.9999975280763,2|0,0:0|0:0,0:0:0:0:
67,368,45506,2,0,B|105:386|105:386|170:369,1,80.9999975280763,2|2,0:0|0:0,0:0:0:0:
212,225,45855,2,0,L|203:331,1,80.9999975280763,2|0,0:0|0:0,0:0:0:0:
326,338,46204,2,0,L|304:155,1,161.999995056153,2|0,0:0|0:0,0:0:0:0:
247,29,46727,5,0,0:0:0:0:
247,29,46902,1,2,0:0:0:0:
342,103,47076,2,0,P|283:96|243:122,1,80.9999975280763,2|0,0:0|0:0,0:0:0:0:
418,155,47425,6,0,B|459:141|494:170|494:170|462:134|470:76,1,161.999995056153,2|0,0:0|0:0,0:0:0:0:
440,350,47948,2,0,B|443:224|443:224|467:247|505:245,1,161.999995056153,2|0,0:0|0:0,0:0:0:0:
318,258,48471,1,0,0:0:0:0:
318,258,48646,2,0,L|327:349,1,80.9999975280763,0|2,0:0|0:0,0:0:0:0:
266,196,48995,2,0,P|316:175|373:200,1,80.9999975280763,0|0,0:0|0:0,0:0:0:0:
202,256,49344,1,0,0:0:0:0:
187,54,49518,6,0,B|221:107|183:174|183:174|190:175|190:175|69:159|69:159|71:152|71:152|27:201|59:278,1,377.999988464356,2|0,0:0|0:0,0:0:0:0:
52,259,50216,6,0,P|58:312|43:353,1,90,2|0,0:0|0:0,0:0:0:0:
202,368,50565,1,2,0:0:0:0:
276,323,50739,2,0,L|328:326,2,45,0|0|2,0:0|0:0|0:0,0:0:0:0:
387,369,51088,1,0,0:0:0:0:
468,250,51262,1,2,0:0:0:0:
387,369,51437,2,0,P|398:306|379:267,1,90,2|0,0:0|0:0,0:0:0:0:
326,159,51785,5,2,0:0:0:0:
326,159,51960,2,0,P|315:222|334:261,1,90,2|0,0:0|0:0,0:0:0:0:
408,128,52221,1,0,0:0:0:0:
404,119,52309,2,0,P|354:77|311:74,1,90,2|0,0:0|0:0,0:0:0:0:
238,252,52658,2,0,B|347:254|347:254|326:249|294:226,1,135,2|0,0:0|0:0,0:0:0:0:
168,208,53006,6,0,P|158:270|176:305,1,90,2|0,0:0|0:0,0:0:0:0:
172,128,53355,1,2,0:0:0:0:
4,158,53530,2,0,P|26:161|47:171,2,45,0|0|2,0:0|0:0|0:0,0:0:0:0:
172,128,53878,1,0,0:0:0:0:
258,183,54053,1,2,0:0:0:0:
332,27,54227,2,0,P|330:87|302:117,1,90,2|0,0:0|0:0,0:0:0:0:
454,61,54576,5,2,0:0:0:0:
462,235,54751,2,0,B|461:191|461:191|457:188|457:188|458:134,1,90,2|2,0:0|0:0,0:0:0:0:
418,307,55012,1,0,0:0:0:0:
427,316,55099,2,0,P|476:325|521:300,1,90,2|2,0:0|0:0,0:0:0:0:
336,246,55448,2,0,B|347:175|347:175|268:226|268:226|230:207|152:240,1,229.500004377365,2|0,0:0|0:0,0:0:0:0:
218,384,55797,6,0,P|236:320|220:273,1,90,2|0,0:0|0:0,0:0:0:0:
118,174,56146,1,2,0:0:0:0:
16,258,56320,1,0,0:0:0:0:
11,252,56408,1,0,0:0:0:0:
6,246,56495,2,0,P|42:238|72:245,2,45,2|0|0,0:0|0:0|0:0,0:0:0:0:
211,273,56844,1,2,0:0:0:0:
211,273,57018,2,0,P|179:254|121:261,1,90,2|0,0:0|0:0,0:0:0:0:
294,323,57367,5,2,0:0:0:0:
395,249,57541,1,2,0:0:0:0:
392,351,57716,1,0,0:0:0:0:
388,344,57803,1,0,0:0:0:0:
384,337,57890,1,2,0:0:0:0:
321,206,58065,1,0,0:0:0:0:
466,194,58239,2,0,B|469:172|453:149|453:149|470:126|473:83,1,90,2|0,0:0|0:0,0:0:0:0:
302,96,58501,1,0,0:0:0:0:
302,96,58588,6,0,L|415:95,1,90,2|0,0:0|0:0,0:0:0:0:
255,25,58937,1,2,0:0:0:0:
222,174,59111,1,0,0:0:0:0:
213,169,59198,1,0,0:0:0:0:
204,165,59285,2,0,P|210:195|210:228,1,45,2|0,0:0|0:0,0:0:0:0:
187,278,59460,2,0,P|170:303|146:326,1,45,0|0,0:0|0:0,0:0:0:0:
97,349,59634,1,2,0:0:0:0:
100,158,59809,1,2,0:0:0:0:
108,158,59896,1,0,0:0:0:0:
116,158,59983,5,0,0:0:0:0:
195,59,60158,1,2,0:0:0:0:
24,46,60332,1,2,0:0:0:0:
15,216,60506,1,2,0:0:0:0:
186,229,60681,5,2,0:0:0:0:
108,81,60855,1,2,0:0:0:0:
175,248,61030,1,2,0:0:0:0:
253,100,61204,1,0,0:0:0:0:
201,327,61378,6,0,P|135:323|98:287,1,107.999996704102,4|0,0:3|0:0,0:0:0:0:
299,179,61727,2,0,L|272:290,1,107.999996704102,4|0,0:3|0:0,0:0:0:0:
322,349,62076,2,0,P|365:379|418:378,1,107.999996704102,4|0,0:3|0:0,0:0:0:0:
224,158,62425,1,4,0:3:0:0:
273,283,62599,2,0,L|299:179,1,107.999996704102,0|4,0:0|0:3,0:0:0:0:
161,96,62948,5,0,0:0:0:0:
161,96,63123,2,0,P|142:149|159:215,1,107.999996704102,4|0,0:3|0:0,0:0:0:0:
236,52,63471,1,4,0:3:0:0:
50,55,63646,1,0,0:0:0:0:
0,241,63820,2,0,B|94:254|59:197|156:199,1,161.999995056153,4|0,0:3|0:0,0:0:0:0:
148,373,64169,6,0,B|135:275|135:275|162:277|184:263,1,135.000005149842,4|0,0:3|0:0,0:0:0:0:
348,334,64518,2,0,B|286:360|286:360|221:324,1,135.000005149842,4|0,0:3|0:0,0:0:0:0:
404,264,64867,2,0,B|422:272|439:269|439:269|426:367,1,135.000005149842,4|0,0:3|0:0,0:0:0:0:
304,68,65216,1,4,0:3:0:0:
290,274,65390,2,0,B|294:214|294:214|290:210|290:210|294:210|294:210|298:210|298:210|294:206|294:206|299:134,1,135.000005149842,0|4,0:0|0:3,0:0:0:0:
404,264,65739,5,0,0:0:0:0:
220,179,65913,1,4,0:3:0:0:
371,175,66088,1,0,0:0:0:0:
179,259,66262,5,4,0:3:0:0:
304,68,66437,1,0,0:0:0:0:
404,271,66611,2,0,B|352:275|352:275|346:266|346:266|358:350|358:350|349:336|349:336|262:355,1,202.500007724762,4|0,0:3|0:0,0:0:0:0:
193,316,66960,5,8,0:0:0:0:
132,138,67134,1,4,0:3:0:0:
313,77,67309,1,8,0:0:0:0:
374,255,67483,1,4,0:3:0:0:
131,280,67658,5,8,0:0:0:0:
164,76,67832,1,4,0:3:0:0:
370,110,68006,1,8,0:0:0:0:
337,314,68181,1,4,0:3:0:0:
104,211,68355,5,8,0:0:0:0:
395,173,68530,1,4,0:3:0:0:
228,46,68704,1,8,0:0:0:0:
270,338,68878,1,4,0:3:0:0:
100,132,69053,5,8,0:0:0:0:
399,245,69227,1,4,0:3:0:0:
304,38,69402,1,8,0:0:0:0:
195,340,69576,1,4,0:3:0:0:
474,152,69751,6,0,L|546:160,1,45,12|0,0:3|0:0,0:0:0:0:
466,123,69838,2,0,L|538:115,1,45,4|0,0:3|0:0,0:0:0:0:
441,146,69925,2,0,L|513:154,1,45,4|0,0:3|0:0,0:0:0:0:
433,117,70012,2,0,L|505:109,1,45,4|0,0:3|0:0,0:0:0:0:
408,139,70099,2,0,L|480:147,1,45,8|0,0:0|0:0,0:0:0:0:
400,110,70187,2,0,L|472:102,1,45,4|0,0:3|0:0,0:0:0:0:
375,133,70274,2,0,L|447:141,1,45,4|0,0:3|0:0,0:0:0:0:
367,104,70361,2,0,L|439:96,1,45,4|0,0:3|0:0,0:0:0:0:
342,129,70448,2,0,L|414:137,1,45,8|0,0:0|0:0,0:0:0:0:
334,100,70535,2,0,L|406:92,1,45,4|0,0:3|0:0,0:0:0:0:
309,123,70623,2,0,L|381:131,1,45,4|0,0:3|0:0,0:0:0:0:
301,94,70710,2,0,L|373:86,1,45,4|0,0:3|0:0,0:0:0:0:
276,116,70797,2,0,L|348:124,1,45,8|0,0:0|0:0,0:0:0:0:
268,87,70884,2,0,L|340:79,1,45,4|0,0:3|0:0,0:0:0:0:
210,44,70971,6,0,L|116:32,1,90,4|4,0:3|0:3,0:0:0:0:
256,192,71146,12,0,72367,0:0:0:0:
113,86,72541,6,0,B|200:53|200:53|270:99,1,125.999996154785,4|0,0:0|0:0,0:0:0:0:
70,21,72890,1,8,0:0:0:0:
187,257,73065,1,2,0:0:0:0:
187,257,73152,1,2,0:3:0:0:
187,257,73239,2,0,P|178:190|195:125,1,125.999996154785,2|4,0:0|3:0,0:0:0:0:
324,247,73588,1,8,0:0:0:0:
99,337,73762,6,0,B|249:330|160:250|332:247,1,251.999992309571,2|0,0:0|0:0,0:0:0:0:
431,337,74285,1,8,0:0:0:0:
398,136,74460,1,2,0:0:0:0:
398,136,74547,1,2,0:3:0:0:
398,136,74634,2,0,B|393:233|393:233|387:207|368:192,1,125.999996154785,2|4,0:0|3:0,0:0:0:0:
338,76,74983,2,0,P|428:60|471:113,1,125.999996154785,8|4,0:0|0:3,0:0:0:0:
255,179,75332,6,0,P|165:195|122:142,1,125.999996154785,4|0,0:3|0:0,0:0:0:0:
213,282,75681,1,8,0:0:0:0:
186,10,75855,1,2,0:0:0:0:
186,10,75942,1,2,0:3:0:0:
186,10,76030,2,0,B|204:53|184:93|184:93|207:114|203:147,1,125.999996154785,2|4,0:0|3:0,0:0:0:0:
81,45,76378,1,8,0:0:0:0:
263,77,76553,6,0,B|275:52|265:-2|212:-6|181:14|181:14|155:54|100:65|52:29,1,251.999992309571,2|2,0:0|0:0,0:0:0:0:
255,179,77076,1,8,0:0:0:0:
402,113,77251,1,2,0:0:0:0:
402,113,77338,1,0,0:0:0:0:
402,113,77425,2,0,P|372:136|363:185,1,62.9999980773926,4|0,0:3|0:0,0:0:0:0:
501,266,77599,2,0,P|496:228|458:196,1,62.9999980773926,4|0,0:3|0:0,0:0:0:0:
312,265,77774,2,0,P|346:279|393:262,1,62.9999980773926,8|0,0:0|0:0,0:0:0:0:
409,215,77948,1,4,0:3:0:0:
260,314,78123,6,0,P|241:250|281:197,1,125.999996154785,4|0,0:3|0:0,0:0:0:0:
440,309,78471,1,8,0:0:0:0:
318,272,78646,1,2,0:0:0:0:
318,272,78733,1,2,0:3:0:0:
318,272,78820,1,2,0:0:0:0:
501,266,78995,1,4,3:0:0:0:
333,344,79169,1,8,0:0:0:0:
419,60,79344,6,0,B|432:35|429:12|429:12|360:41|360:41|352:39|352:39|281:71|281:71|274:40|306:-4,1,251.999992309571,2|0,0:0|0:0,0:0:0:0:
414,153,79867,1,8,0:0:0:0:
414,249,80041,1,2,0:0:0:0:
414,249,80128,1,2,0:3:0:0:
414,249,80216,1,2,0:0:0:0:
303,226,80390,1,4,0:3:0:0:
191,204,80565,1,8,0:0:0:0:
317,242,80739,1,4,0:3:0:0:
176,186,80913,6,0,P|97:174|51:226,1,125.999996154785,4|0,0:3|0:0,0:0:0:0:
137,42,81262,1,8,0:0:0:0:
130,331,81437,1,2,0:0:0:0:
130,331,81524,1,2,0:3:0:0:
130,331,81611,2,0,B|126:239|126:239|140:261|167:270,1,125.999996154785,2|4,0:0|3:0,0:0:0:0:
30,283,81960,1,8,0:0:0:0:
267,326,82134,6,0,B|303:273|303:273|210:326|210:326|113:332,1,251.999992309571,0|2,0:0|0:0,0:0:0:0:
281,203,82658,1,8,0:0:0:0:
433,264,82832,1,2,0:0:0:0:
433,264,82919,1,2,0:3:0:0:
433,264,83006,6,0,B|430:293|430:293|441:334,1,62.9999980773926,2|2,0:0|0:3,0:0:0:0:
420,258,83181,2,0,B|418:293|418:293|429:336,1,72,4|0,3:0|0:0,0:0:0:0:
467,126,83355,6,0,B|470:155|470:155|459:196,1,62.9999980773926,8|0,0:0|0:0,0:0:0:0:
472,190,83530,2,0,B|482:155|482:155|480:120,1,72,4|0,0:3|0:0,0:0:0:0:
334,36,83704,6,0,P|307:15|175:47,1,125.999996154785,4|0,0:0|0:0,0:0:0:0:
100,129,84053,1,8,0:0:0:0:
241,207,84227,1,2,0:0:0:0:
241,207,84315,1,2,0:3:0:0:
241,207,84402,2,0,B|266:120|266:120|256:26,1,125.999996154785,2|4,0:0|3:0,0:0:0:0:
122,249,84751,1,8,0:0:0:0:
352,273,84925,6,0,B|174:212|174:212|114:256,1,251.999992309571,2|0,0:0|0:0,0:0:0:0:
263,333,85448,1,8,0:0:0:0:
401,183,85623,1,2,0:0:0:0:
401,183,85710,1,2,0:3:0:0:
401,183,85797,2,0,B|329:155|329:155|291:97,1,125.999996154785,2|4,0:0|3:0,0:0:0:0:
479,145,86146,1,8,0:0:0:0:
427,313,86320,1,4,0:3:0:0:
252,342,86495,6,0,B|223:316|183:335|183:335|213:297|190:244,1,125.999996154785,4|0,0:3|0:0,0:0:0:0:
131,166,86844,1,8,0:0:0:0:
8,296,87018,1,2,0:0:0:0:
8,296,87105,1,2,0:3:0:0:
8,296,87192,2,0,P|72:283|139:286,1,125.999996154785,2|4,0:0|3:0,0:0:0:0:
0,372,87541,1,8,0:0:0:0:
269,166,87716,6,0,B|194:149|194:149|192:142|192:142|90:128|90:128|128:138|147:156,1,251.999992309571,2|2,0:0|0:0,0:0:0:0:
101,54,88239,1,8,0:0:0:0:
251,239,88413,1,2,0:0:0:0:
251,239,88501,1,0,0:0:0:0:
251,239,88588,2,0,P|299:239|334:203,1,62.9999980773926,4|0,0:3|0:0,0:0:0:0:
382,71,88762,2,0,P|358:112|371:160,1,62.9999980773926,4|0,0:3|0:0,0:0:0:0:
465,268,88937,2,0,P|441:226|392:214,1,62.9999980773926,8|0,0:0|0:0,0:0:0:0:
269,166,89111,1,4,0:3:0:0:
48,192,89285,6,0,P|15:113|42:67,1,125.999996154785,4|0,0:3|0:0,0:0:0:0:
170,0,89634,1,8,0:0:0:0:
339,70,89809,1,2,0:0:0:0:
339,70,89896,1,2,0:3:0:0:
339,70,89983,2,0,B|276:121|276:121|265:184,1,125.999996154785,2|4,0:0|3:0,0:0:0:0:
428,121,90332,1,8,0:0:0:0:
121,249,90506,6,0,B|105:233|107:197|130:172|168:168|198:189|198:189|215:240|265:247|300:231,1,251.999992309571,2|0,0:0|0:0,0:0:0:0:
313,360,91030,1,8,0:0:0:0:
274,79,91204,1,2,0:0:0:0:
274,79,91291,1,2,0:3:0:0:
274,79,91378,2,0,B|264:171|264:171|299:157|339:187,1,125.999996154785,2|4,0:0|0:3,0:0:0:0:
337,28,91727,2,0,P|273:-3|202:31,1,125.999996154785,8|4,0:0|0:3,0:0:0:0:
71,73,92076,6,0,P|135:106|206:70,1,125.999996154785,4|0,0:3|0:0,0:0:0:0:
16,7,92425,1,8,0:0:0:0:
114,175,92599,1,2,0:0:0:0:
114,175,92687,1,2,0:3:0:0:
114,175,92774,2,0,L|138:14,1,139.500001064301,2|4,0:0|3:0,0:0:0:0:
0,174,93123,1,8,0:0:0:0:
165,244,93297,6,0,P|93:256|41:222,1,125.999996154785,2|4,0:0|0:3,0:0:0:0:
239,194,93646,1,8,0:1:0:0:
255,184,93733,1,8,0:1:0:0:
271,174,93820,5,8,0:1:0:0:
331,164,93907,1,8,0:1:0:0:
378,203,93994,1,8,0:1:0:0:
382,264,94081,1,8,0:1:0:0:
336,306,94168,5,8,0:1:0:0:
335,245,94256,1,8,0:1:0:0:
378,203,94343,1,8,0:1:0:0:
440,206,94430,1,8,0:1:0:0:
479,252,94518,6,0,P|485:212|459:164,1,62.9999980773926,8|8,0:1|0:1,0:0:0:0:
441,90,94692,2,0,P|419:63|357:49,1,62.9999980773926,8|8,0:1|0:1,0:0:0:0:
286,54,94867,5,4,0:0:0:0:
188,80,95041,1,0,0:0:0:0:
122,156,95216,1,2,0:0:0:0:
220,182,95390,1,2,0:0:0:0:
441,90,95565,5,8,0:0:0:0:
345,121,95739,1,2,0:0:0:0:
289,232,95913,1,2,0:0:0:0:
387,206,96088,2,0,L|498:190,1,107.999996704102,2|0,0:0|0:0,0:0:0:0:
370,288,96611,5,2,0:0:0:0:
387,206,96785,1,2,0:0:0:0:
373,375,96960,1,8,0:0:0:0:
260,324,97134,1,2,0:0:0:0:
179,366,97309,2,0,L|80:357,1,80.9999975280763,2|0,0:0|0:0,0:0:0:0:
83,346,97658,5,4,0:3:0:0:
145,272,97832,1,0,0:0:0:0:
68,211,98006,1,2,0:0:0:0:
130,137,98181,1,2,0:0:0:0:
270,93,98355,5,8,0:0:0:0:
267,179,98530,1,2,0:0:0:0:
358,182,98704,1,2,0:0:0:0:
359,96,98878,2,0,B|278:71|278:71|266:100,1,107.999996704102,2|2,0:0|0:0,0:0:0:0:
435,143,99402,5,2,0:0:0:0:
358,182,99576,1,2,0:0:0:0:
437,58,99751,1,8,0:0:0:0:
360,96,99925,1,2,0:0:0:0:
436,229,100099,2,0,P|424:288|412:320,1,80.9999975280763,2|0,0:0|0:0,0:0:0:0:
378,332,100448,5,4,0:3:0:0:
294,292,100623,1,0,0:0:0:0:
134,332,100797,1,2,0:0:0:0:
218,292,100971,1,2,0:0:0:0:
176,192,101146,5,8,0:0:0:0:
336,192,101320,1,2,0:0:0:0:
160,160,101495,1,2,0:0:0:0:
352,160,101669,2,0,P|379:158|342:144,1,107.999996704102,2|0,0:0|0:0,0:0:0:0:
440,214,102192,5,2,0:0:0:0:
437,76,102367,1,2,0:0:0:0:
296,76,102541,1,8,0:0:0:0:
299,214,102716,1,2,0:0:0:0:
496,142,102890,6,0,P|522:96|522:51,1,80.9999975280763,2|0,0:0|0:0,0:0:0:0:
506,23,103239,5,4,0:3:0:0:
437,76,103413,1,0,0:0:0:0:
350,76,103588,1,2,0:0:0:0:
281,23,103762,1,2,0:0:0:0:
293,12,103937,5,8,0:0:0:0:
268,105,104111,1,2,0:0:0:0:
333,176,104285,1,2,0:0:0:0:
362,269,104460,2,0,P|306:268|256:232,1,107.999996704102,2|2,0:0|0:0,0:0:0:0:
423,202,104983,5,2,0:0:0:0:
434,351,105158,1,2,0:0:0:0:
347,189,105332,1,8,0:0:0:0:
423,64,105505,1,4,0:3:0:0:
470,275,105681,1,4,0:3:0:0:
333,163,105855,1,4,0:3:0:0:
194,275,106030,5,4,0:0:0:0:
116,237,106204,1,0,0:0:0:0:
115,150,106378,1,2,0:0:0:0:
193,188,106552,1,2,0:0:0:0:
41,193,106727,5,8,0:0:0:0:
41,106,106902,1,2,0:0:0:0:
116,237,107076,1,2,0:0:0:0:
116,324,107251,2,0,P|170:330|228:327,1,107.999996704102,2|0,0:0|0:0,0:0:0:0:
333,272,107774,5,2,0:0:0:0:
406,317,107948,1,2,0:0:0:0:
473,262,108123,1,8,0:0:0:0:
440,182,108297,1,2,0:0:0:0:
354,188,108471,2,0,P|352:135|360:94,1,80.9999975280763,2|0,0:0|0:0,0:0:0:0:
369,89,108820,5,4,0:3:0:0:
284,40,108995,1,0,0:0:0:0:
200,89,109169,1,2,0:0:0:0:
115,40,109344,1,2,0:0:0:0:
281,19,109518,5,8,0:0:0:0:
302,113,109692,1,2,0:0:0:0:
237,186,109867,1,2,0:0:0:0:
226,276,110041,2,0,P|185:275|126:227,1,107.999996704102,2|2,0:0|0:0,0:0:0:0:
95,320,110565,5,2,0:0:0:0:
16,367,110739,1,2,0:0:0:0:
101,332,110913,1,8,0:0:0:0:
188,360,111088,1,2,0:0:0:0:
273,326,111262,2,0,P|347:317|376:319,1,80.9999975280763,2|0,0:0|0:0,0:0:0:0:
384,333,111611,5,8,0:0:0:0:
315,223,111785,1,4,0:3:0:0:
423,132,111960,1,4,0:3:0:0:
420,122,112134,5,8,0:0:0:0:
301,222,112309,1,4,0:3:0:0:
377,343,112483,1,4,0:3:0:0:
370,355,112658,5,8,0:0:0:0:
418,111,112832,1,4,0:3:0:0:
217,154,113006,5,8,0:0:0:0:
295,50,113181,1,4,0:3:0:0:
416,100,113355,1,4,0:3:0:0:
412,88,113530,5,8,0:0:0:0:
278,32,113704,1,4,0:3:0:0:
193,147,113879,1,4,0:3:0:0:
166,139,114053,5,8,0:0:0:0:
409,75,114227,1,4,0:3:0:0:
135,133,114402,5,8,0:0:0:0:
158,260,114576,1,4,0:3:0:0:
118,383,114751,1,4,0:3:0:0:
104,384,114925,5,8,0:0:0:0:
202,300,115099,1,4,0:3:0:0:
329,273,115274,1,4,0:3:0:0:
339,282,115448,5,8,0:0:0:0:
118,130,115623,1,4,0:3:0:0:
430,126,115796,5,8,0:0:0:0:
428,111,115883,1,4,0:3:0:0:
427,96,115970,1,4,0:3:0:0:
425,82,116057,1,4,0:3:0:0:
344,83,116145,5,8,0:0:0:0:
347,102,116232,1,4,0:3:0:0:
348,121,116319,1,4,0:3:0:0:
351,141,116406,1,4,0:3:0:0:
273,158,116494,5,8,0:0:0:0:
269,134,116581,1,4,0:3:0:0:
267,111,116668,1,4,0:3:0:0:
265,89,116755,1,4,0:3:0:0:
260,3,116843,6,0,B|188:9|176:81|176:81|187:198|53:196|49:154|67:62|139:108,1,360,8|4,0:0|0:0,0:0:0:0:
