osu file format v14

[General]
AudioFilename: audio.mp3
AudioLeadIn: 0
PreviewTime: 209276
Countdown: 0
SampleSet: Normal
StackLeniency: 0.7
Mode: 1
LetterboxInBreaks: 0
WidescreenStoryboard: 0

[Editor]
Bookmarks: 122764,211020,255322
DistanceSpacing: 0.5
BeatDivisor: 12
GridSize: 32
TimelineZoom: 2

[Metadata]
Title:introduction - INSANE INFLAME / NEURO-CLOUD-9
TitleUnicode:introduction - INSANE INFLAME / NEURO-CLOUD-9
Artist:Camellia
ArtistUnicode:かめりあ
Creator:Zetera
Version:Sarin / VX
Source:
Tags:かめるかめりあ featured artist INSANE INFLAME neurofunk CTCD-013 cametek kamelcamellia electronic instrumental M3-37 Masaya Oya 大箭将也
BeatmapID:3626613
BeatmapSetID:1771562

[Difficulty]
HPDrainRate:5.5
CircleSize:2
OverallDifficulty:7
ApproachRate:10
SliderMultiplier:1.4
SliderTickRate:1

[Events]
//Background and Video events
0,0,"bg_neurotoxin.jpg",0,-90
//Break Periods
2,28080,38593
2,122964,127895
2,167615,187895
//Storyboard Layer 0 (Background)
//Storyboard Layer 1 (Fail)
//Storyboard Layer 2 (Pass)
//Storyboard Layer 3 (Foreground)
//Storyboard Layer 4 (Overlay)
//Storyboard Sound Samples

[TimingPoints]
1369,348.837209302326,4,1,0,100,1,0
1369,-400,4,1,0,100,0,0
2761,-200,4,1,0,100,0,0
4156,-133.333333333333,4,1,0,100,0,0
5726,-33.3889814828128,4,1,0,100,0,0
5785,-100.000001575798,4,1,0,100,0,0
9564,-82.9875527420837,4,1,0,100,0,0
9650,-84.1984548527282,4,1,0,100,0,0
9738,-85.1024890190337,4,1,0,100,0,0
9912,-86.9483919222139,4,1,0,100,0,0
10087,-88.8874729195871,4,1,0,100,0,0
10261,-90.9031669490421,4,1,0,100,0,0
10610,-95.2348443473512,4,1,0,100,0,0
10784,-97.5524475524476,4,1,0,100,0,0
10959,-100,4,1,0,100,0,0
11133,-66.777962941538,4,1,0,100,0,0
11308,-33.3611340356029,4,1,0,100,0,0
11366,-100,4,1,0,100,0,0
15145,-98.7654320987654,4,1,0,100,0,0
15203,-93.75,4,1,0,100,0,0
15261,-88.2352941176471,4,1,0,100,0,0
15319,-83.3333333333333,4,1,0,100,0,0
15435,-84.5825794779013,4,1,0,100,0,0
15552,-85.8811179635218,4,1,0,100,0,0
15668,-87.2085276482345,4,1,0,100,0,0
15784,-88.5776153742049,4,1,0,100,0,0
15900,-89.990375360924,4,1,0,100,0,0
16017,-91.4617104527669,4,1,0,100,0,0
16278,-94.9238578680203,4,1,0,100,0,0
16366,-96.1510210077861,4,1,0,100,0,0
16453,-97.3958333333333,4,1,0,100,0,0
16540,-98.6733001658375,4,1,0,100,0,0
16627,-99.9847234952643,4,1,0,100,0,0
16715,-66.6666666666667,4,1,0,100,0,0
17412,-74.9910426370477,4,1,0,100,0,0
17935,-82.743625222376,4,1,0,100,0,0
18110,-85.7084357084357,4,1,0,100,0,0
18284,-88.8747346072187,4,1,0,100,0,0
18459,-92.3042998897464,4,1,0,100,0,0
18807,-99.97611655123,4,1,0,100,0,0
19331,-100,4,1,0,100,0,0
19389,-93.75,4,1,0,100,0,0
19447,-88.2352941176471,4,1,0,100,0,0
19505,-83.3333333333333,4,1,0,100,0,0
19680,-84.3406783173309,4,1,0,100,0,0
19854,-85.3667062853947,4,1,0,100,0,0
19941,-85.8891389983118,4,1,0,100,0,0
20028,-86.4180055205606,4,1,0,100,0,0
20203,-87.5017916009746,4,1,0,100,0,0
20377,-88.6066763425254,4,1,0,100,0,0
20552,-89.7464167585447,4,1,0,100,0,0
20639,-90.324012427874,4,1,0,100,0,0
20726,-90.9090909090909,4,1,0,100,0,0
20900,-92.102285584974,4,1,0,100,0,0
20901,-92.1092335546168,4,1,0,100,0,0
21075,-93.3343525454823,4,1,0,100,0,0
21133,-93.75,4,1,0,100,0,0
21191,-94.1693660342434,4,1,0,100,0,0
21249,-94.5925007747133,4,1,0,100,0,0
21424,-95.8925626325296,4,1,0,100,0,0
21482,-96.3313609467456,4,1,0,100,0,0
21540,-96.7741935483871,4,1,0,100,0,0
21598,-97.2211163309181,4,1,0,100,0,0
21685,-97.8992944194997,4,1,0,100,0,0
21773,-98.5949612403101,4,1,0,100,0,0
21860,-99.2925103683825,4,1,0,100,0,0
21947,-100,4,1,0,100,0,0
22296,-66.6666666666667,4,1,0,100,0,0
22993,-74.9910426370477,4,1,0,100,0,0
23517,-82.7599841834717,4,1,0,100,0,0
23691,-85.7084357084357,4,1,0,100,0,0
23692,-85.7259881220561,4,1,0,100,0,0
23866,-88.8936079847101,4,1,0,100,0,0
24040,-92.3042998897464,4,1,0,100,0,0
24214,-95.9871589085072,4,1,0,100,0,0
24273,-97.303579730358,4,1,0,100,0,0
24331,-98.6333647502356,4,1,0,100,0,0
24389,-100,4,1,0,100,0,0
24738,-100,4,1,0,100,0,0
24825,-98.9608217869088,4,1,0,100,0,0
24912,-97.9430192694172,4,1,0,100,0,0
24999,-96.9459396208753,4,1,0,100,0,0
25087,-95.9578410933519,4,1,0,100,0,0
25174,-95.0005733287467,4,1,0,100,0,0
25261,-94.0622161671208,4,1,0,100,0,0
25348,-93.1422147273749,4,1,0,100,0,0
25435,-92.2400356268092,4,1,0,100,0,0
25610,-90.4772305340177,4,1,0,100,0,0
25697,-89.6257031588057,4,1,0,100,0,0
25784,-88.7900546565213,4,1,0,100,0,0
25871,-87.9698449777023,4,1,0,100,0,0
25959,-87.1554807490006,4,1,0,100,0,0
26133,-85.5888429752066,4,1,0,100,0,0
26220,-84.826456434934,4,1,0,100,0,0
26307,-84.077531966714,4,1,0,100,0,0
26395,-83.3333333333333,4,1,0,100,0,0
26482,-83.3333333333333,4,1,0,100,0,0
26569,-84.2079864881168,4,1,0,100,0,0
26656,-85.1011948305291,4,1,0,100,0,0
26831,-86.9565217391304,4,1,0,100,0,0
26918,-87.9093198992443,4,1,0,100,0,0
27005,-88.8832293391061,4,1,0,100,0,0
27092,-89.8789595673448,4,1,0,100,0,0
27180,-90.9090909090909,4,1,0,100,0,0
27441,-94.1081299716867,4,1,0,100,0,0
27703,-97.5541579315164,4,1,0,100,0,0
27790,-98.7549518958687,4,1,0,100,0,0
27877,-99.9856754046698,4,1,0,100,0,0
27878,-100,4,1,0,100,0,0
50203,-100,4,1,0,100,0,0
50377,-98.6871887732005,4,1,0,100,0,0
50552,-97.4011467719115,4,1,0,100,0,0
50726,-96.1552598691465,4,1,0,100,0,0
50900,-94.94084343471,4,1,0,100,0,0
51075,-93.75,4,1,0,100,0,0
51249,-92.5952144980886,4,1,0,100,0,0
51424,-91.4621355149989,4,1,0,100,0,0
51599,-90.9090909090909,4,1,0,100,0,0
51773,-92.0219501899536,4,1,0,100,0,0
51947,-93.1623931623932,4,1,0,100,0,0
52121,-94.3314582431848,4,1,0,100,0,0
52296,-95.5372142283252,4,1,0,100,0,0
52470,-96.7670341052008,4,1,0,100,0,0
52645,-98.0362764203268,4,1,0,100,0,0
52994,-100,4,1,0,100,0,0
53168,-98.6871887732005,4,1,0,100,0,0
53342,-97.408400357462,4,1,0,100,0,0
53517,-96.1552598691465,4,1,0,100,0,0
53691,-94.94084343471,4,1,0,100,0,0
53866,-93.75,4,1,0,100,0,0
54040,-92.5952144980886,4,1,0,100,0,0
54214,-91.4685314685315,4,1,0,100,0,0
54389,-90.9090909090909,4,1,0,100,0,0
54563,-92.0219501899536,4,1,0,100,0,0
54738,-93.1690291331291,4,1,0,100,0,0
54912,-94.3382618103137,4,1,0,100,0,0
55087,-95.5441928414901,4,1,0,100,0,0
55261,-96.7741935483871,4,1,0,100,0,0
55435,-98.0362764203268,4,1,0,100,0,0
55493,-98.4643179765131,4,1,0,100,0,0
55552,-98.9035916824196,4,1,0,100,0,0
55610,-99.3392572339941,4,1,0,100,0,0
55785,-100,4,1,0,100,0,0
55959,-98.6871887732005,4,1,0,100,0,0
56133,-97.408400357462,4,1,0,100,0,0
56307,-96.1623290692545,4,1,0,100,0,0
56482,-94.94084343471,4,1,0,100,0,0
56656,-93.7567199483908,4,1,0,100,0,0
56831,-92.5952144980886,4,1,0,100,0,0
57005,-91.4685314685315,4,1,0,100,0,0
57354,-90.9090909090909,4,1,0,100,0,0
57528,-92.1951219512195,4,1,0,100,0,0
57703,-93.5257731958763,4,1,0,100,0,0
57877,-94.8874571165593,4,1,0,100,0,0
58052,-96.2975543478261,4,1,0,100,0,0
58226,-97.7417686605758,4,1,0,100,0,0
58575,-100,4,1,0,100,0,0
58749,-98.6871887732005,4,1,0,100,0,0
58924,-97.4011467719115,4,1,0,100,0,0
59098,-96.1552598691465,4,1,0,100,0,0
59273,-94.9339526781826,4,1,0,100,0,0
59447,-93.75,4,1,0,100,0,0
59621,-92.5952144980886,4,1,0,100,0,0
59796,-91.4621355149989,4,1,0,100,0,0
59971,-90.9090909090909,4,1,0,100,0,0
60145,-92.102285584974,4,1,0,100,0,0
60319,-93.3272185278606,4,1,0,100,0,0
60493,-94.5851731350221,4,1,0,100,0,0
60668,-95.8850321972672,4,1,0,100,0,0
60842,-97.2133757961783,4,1,0,100,0,0
61017,-98.5870004037142,4,1,0,100,0,0
61191,-99.9918106625174,4,1,0,100,0,0
61366,-66.7743109739182,4,1,0,100,0,0
61627,-98.1811164181985,4,1,0,100,0,0
61714,-97.2962635366116,4,1,0,100,0,0
61889,-95.5638344499405,4,1,0,100,0,0
62063,-93.9014073675306,4,1,0,100,0,0
62150,-93.0916964646503,4,1,0,100,0,0
62238,-92.2867616492196,4,1,0,100,0,0
62412,-90.7354700632399,4,1,0,100,0,0
62587,-89.2269917130706,4,1,0,100,0,0
62761,-88.495575221239,4,1,0,100,0,0
62935,-89.9705992881933,4,1,0,100,0,0
63023,-90.7354700632399,4,1,0,100,0,0
63110,-91.5045415030427,4,1,0,100,0,0
63284,-93.0824706115541,4,1,0,100,0,0
63459,-94.7253275820604,4,1,0,100,0,0
63546,-95.5638344499405,4,1,0,100,0,0
63633,-96.4173187930858,4,1,0,100,0,0
63720,-97.286185521011,4,1,0,100,0,0
63807,-98.1708542713568,4,1,0,100,0,0
63982,-100,4,1,0,100,0,0
64157,-100,4,1,0,100,0,0
64505,-98.6879312294989,4,1,0,100,0,0
64680,-96.1503140726591,4,1,0,100,0,0
64854,-93.7533579282926,4,1,0,100,0,0
64941,-92.5991438780203,4,1,0,100,0,0
65028,-91.4730036694042,4,1,0,100,0,0
65203,-89.2887600204674,4,1,0,100,0,0
65377,-87.2180200593116,4,1,0,100,0,0
65552,-86.2068965517241,4,1,0,100,0,0
65726,-87.9353556304554,4,1,0,100,0,0
65813,-88.8258402444348,4,1,0,100,0,0
65900,-89.7345444924596,4,1,0,100,0,0
66075,-91.6198937479365,4,1,0,100,0,0
66249,-93.5746911498728,4,1,0,100,0,0
66337,-94.5954321485017,4,1,0,100,0,0
66424,-95.6267034240782,4,1,0,100,0,0
66511,-96.6807082000443,4,1,0,100,0,0
66598,-97.7582065652522,4,1,0,100,0,0
66656,-98.4899816087504,4,1,0,100,0,0
66714,-99.2327947726017,4,1,0,100,0,0
66773,-100,4,1,0,100,0,0
66947,-66.777962941538,4,1,0,100,0,0
67122,-99.7506234376898,4,1,0,100,0,0
67296,-98.4857499550001,4,1,0,100,0,0
67470,-96.9944294419881,4,1,0,100,0,0
67645,-95.5173148278539,4,1,0,100,0,0
67819,-94.0709438450904,4,1,0,100,0,0
67993,-92.6464745355843,4,1,0,100,0,0
68168,-91.2355743192335,4,1,0,100,0,0
68342,-89.8540395940487,4,1,0,100,0,0
68343,-89.8461605051498,4,1,0,100,0,0
68517,-88.4856649792699,4,1,0,100,0,0
68691,-87.1457707575029,4,1,0,100,0,0
68866,-85.8186399904428,4,1,0,100,0,0
69040,-84.5191311957693,4,1,0,100,0,0
69214,-83.2393002136038,4,1,0,100,0,0
69389,-81.9716605406538,4,1,0,100,0,0
69563,-80.7304046340298,4,1,0,100,0,0
69738,-79.5009725813239,4,1,0,100,0,0
69825,-78.8967547574056,4,1,0,100,0,0
69912,-78.2971290682359,4,1,0,100,0,0
69999,-77.7020606129882,4,1,0,100,0,0
70087,-77.1047530291499,4,1,0,100,0,0
70174,-76.5187467882655,4,1,0,100,0,0
70261,-75.937194271709,4,1,0,100,0,0
70348,-75.3600616305909,4,1,0,100,0,0
70435,-74.787315273278,4,1,0,100,0,0
70523,-74.2124137811525,4,1,0,100,0,0
70610,-73.6483896980923,4,1,0,100,0,0
70697,-73.0886522720759,4,1,0,100,0,0
70784,-72.5331689239473,4,1,0,100,0,0
70871,-71.9819073221562,4,1,0,100,0,0
70959,-71.4285714285714,4,1,0,100,0,0
71133,-99.7506240307672,4,1,0,100,0,0
71482,-104.156712852365,4,1,0,100,0,0
71656,-108.673978065803,4,1,0,100,0,0
71831,-113.630440448267,4,1,0,100,0,0
72005,-119.028119028119,4,1,0,100,0,0
72180,-125,4,1,0,100,0,0
72529,-100,4,1,0,100,0,0
72531,-100,4,1,0,100,0,1
72703,-97.2288580984233,4,1,0,100,0,1
72877,-94.6071594607159,4,1,0,100,0,1
73052,-92.1092335546168,4,1,0,100,0,1
73139,-90.915860014892,4,1,0,100,0,1
73226,-89.7530138194649,4,1,0,100,0,1
73400,-87.5143348623853,4,1,0,100,0,1
73488,-86.4241223103058,4,1,0,100,0,1
73575,-85.3726751503286,4,1,0,100,0,1
73662,-84.3465045592705,4,1,0,100,0,1
73749,-83.3447098976109,4,1,0,100,0,1
73924,-83.3333333333333,4,1,0,100,0,1
74098,-85.3607382550336,4,1,0,100,0,1
74185,-86.411889596603,4,1,0,100,0,1
74273,-87.5017916009746,4,1,0,100,0,1
74447,-89.7398206673526,4,1,0,100,0,1
74621,-92.0953386634485,4,1,0,100,0,1
74709,-93.3343525454823,4,1,0,100,0,1
74796,-94.5925007747133,4,1,0,100,0,1
74883,-95.8850321972672,4,1,0,100,0,1
74970,-97.2133757961783,4,1,0,100,0,1
75145,-100,4,1,0,100,0,1
75319,-100,4,1,0,100,0,1
75493,-97.2288580984233,4,1,0,100,0,1
75668,-94.5925007747133,4,1,0,100,0,1
75842,-92.1092335546168,4,1,0,100,0,1
75930,-90.9023228111972,4,1,0,100,0,1
76017,-89.7398206673526,4,1,0,100,0,1
76104,-88.6066763425254,4,1,0,100,0,1
76191,-87.5017916009746,4,1,0,100,0,1
76366,-85.3607382550336,4,1,0,100,0,1
76453,-84.3348528802321,4,1,0,100,0,1
76540,-83.3333333333333,4,1,0,100,0,1
76715,-83.3333333333333,4,1,0,100,0,1
76889,-85.3607382550336,4,1,0,100,0,1
76976,-86.411889596603,4,1,0,100,0,1
77063,-87.4892519346518,4,1,0,100,0,1
77238,-89.7398206673526,4,1,0,100,0,1
77412,-92.0953386634485,4,1,0,100,0,1
77499,-93.3200856007337,4,1,0,100,0,1
77587,-94.5925007747133,4,1,0,100,0,1
77674,-95.8850321972672,4,1,0,100,0,1
77761,-97.2133757961783,4,1,0,100,0,1
77819,-98.1195756991321,4,1,0,100,0,1
77877,-99.0428293316029,4,1,0,100,0,1
77935,-99.9836226662299,4,1,0,100,0,1
78110,-100,4,1,0,100,0,1
78284,-97.2288580984233,4,1,0,100,0,1
78459,-94.5925007747133,4,1,0,100,0,1
78633,-92.1092335546168,4,1,0,100,0,1
78720,-90.915860014892,4,1,0,100,0,1
78807,-89.7530138194649,4,1,0,100,0,1
78982,-87.5017916009746,4,1,0,100,0,1
79069,-86.4241223103058,4,1,0,100,0,1
79156,-85.3726751503286,4,1,0,100,0,1
79243,-84.3465045592705,4,1,0,100,0,1
79331,-83.3333333333333,4,1,0,100,0,1
79505,-83.3333333333333,4,1,0,100,0,1
79680,-85.3726751503286,4,1,0,100,0,1
79767,-86.4241223103058,4,1,0,100,0,1
79854,-87.5017916009746,4,1,0,100,0,1
80028,-89.7398206673526,4,1,0,100,0,1
80116,-90.915860014892,4,1,0,100,0,1
80203,-92.1092335546168,4,1,0,100,0,1
80290,-93.3343525454823,4,1,0,100,0,1
80377,-94.5925007747133,4,1,0,100,0,1
80552,-97.2288580984233,4,1,0,100,0,1
80726,-100,4,1,0,100,0,1
80901,-100,4,1,0,100,0,1
81075,-97.408400357462,4,1,0,100,0,1
81249,-94.9477351916376,4,1,0,100,0,1
81424,-92.5952144980886,4,1,0,100,0,1
81511,-91.4685314685315,4,1,0,100,0,1
81598,-90.3689374050021,4,1,0,100,0,1
81685,-89.2954669579465,4,1,0,100,0,1
81773,-88.2352941176471,4,1,0,100,0,1
81947,-86.2114421302399,4,1,0,100,0,1
82034,-85.2339371823277,4,1,0,100,0,1
82121,-84.2783505154639,4,1,0,100,0,1
82471,-71.2228216315199,4,1,0,100,0,1
82645,-74.4603000365898,4,1,0,100,0,1
82819,-77.7607948032098,4,1,0,100,0,1
82906,-79.5232512700274,4,1,0,100,0,1
82993,-81.3674530187925,4,1,0,100,0,1
83081,-83.321959874437,4,1,0,100,0,1
83168,-85.3488046973298,4,1,0,100,0,1
83342,-89.7134459955915,4,1,0,100,0,1
83517,-94.577846630519,4,1,0,100,0,1
83691,-99.9672506959227,4,1,0,100,0,1
83692,-100,4,1,0,100,0,1
84040,-93.7634408602151,4,1,0,100,0,1
84214,-90.9280500521376,4,1,0,100,0,1
84302,-89.5583704210887,4,1,0,100,0,1
84389,-88.2442233091584,4,1,0,100,0,1
84563,-85.7283303293462,4,1,0,100,0,1
84650,-84.5234248788368,4,1,0,100,0,1
84738,-83.3386428798981,4,1,0,100,0,1
84825,-82.1995286724273,4,1,0,100,0,1
84912,-81.0911345319281,4,1,0,100,0,1
85087,-80,4,1,0,100,0,1
85261,-82.186616399623,4,1,0,100,0,1
85348,-83.325370281892,4,1,0,100,0,1
85435,-84.4961240310078,4,1,0,100,0,1
85610,-86.953631377763,4,1,0,100,0,1
85784,-89.5430429573849,4,1,0,100,0,1
85871,-90.8964558721334,4,1,0,100,0,1
85959,-92.3076923076923,4,1,0,100,0,1
86046,-93.7466403870274,4,1,0,100,0,1
86133,-95.2311612668366,4,1,0,100,0,1
86307,-98.3458646616541,4,1,0,100,0,1
86482,-100,4,1,0,100,0,1
86656,-96.7813540510544,4,1,0,100,0,1
86831,-93.7466403870274,4,1,0,100,0,1
87005,-90.9122502172024,4,1,0,100,0,1
87092,-89.5583704210887,4,1,0,100,0,1
87180,-88.2293423271501,4,1,0,100,0,1
87267,-86.953631377763,4,1,0,100,0,1
87354,-85.7142857142857,4,1,0,100,0,1
87528,-83.3386428798981,4,1,0,100,0,1
87703,-81.0785681078568,4,1,0,100,0,1
87878,-80,4,1,0,100,0,1
88052,-82.186616399623,4,1,0,100,0,1
88139,-83.325370281892,4,1,0,100,0,1
88226,-84.4961240310078,4,1,0,100,0,1
88400,-86.9391824526421,4,1,0,100,0,1
88488,-88.2293423271501,4,1,0,100,0,1
88575,-89.5430429573849,4,1,0,100,0,1
88662,-90.8964558721334,4,1,0,100,0,1
88749,-92.2914094196507,4,1,0,100,0,1
88924,-95.2311612668366,4,1,0,100,0,1
88982,-96.2472406181016,4,1,0,100,0,1
89040,-97.2852361472666,4,1,0,100,0,1
89098,-98.3458646616541,4,1,0,100,0,1
89273,-100,4,1,0,100,0,1
89447,-97.2288580984233,4,1,0,100,0,1
89621,-94.6071594607159,4,1,0,100,0,1
89796,-92.1092335546168,4,1,0,100,0,1
89883,-90.915860014892,4,1,0,100,0,1
89970,-89.7530138194649,4,1,0,100,0,1
90057,-88.619538394542,4,1,0,100,0,1
90145,-87.5017916009746,4,1,0,100,0,1
90319,-85.3726751503286,4,1,0,100,0,1
90406,-84.3465045592705,4,1,0,100,0,1
90493,-83.3447098976109,4,1,0,100,0,1
90668,-83.3333333333333,4,1,0,100,0,1
90842,-85.3607382550336,4,1,0,100,0,1
91017,-87.5017916009746,4,1,0,100,0,1
91191,-89.7398206673526,4,1,0,100,0,1
91278,-90.9023228111972,4,1,0,100,0,1
91366,-92.1092335546168,4,1,0,100,0,1
91453,-93.3343525454823,4,1,0,100,0,1
91540,-94.5925007747133,4,1,0,100,0,1
91714,-97.2133757961783,4,1,0,100,0,1
91889,-100,4,1,0,100,0,1
92064,-100,4,1,0,100,0,1
92238,-97.2288580984233,4,1,0,100,0,1
92412,-94.6071594607159,4,1,0,100,0,1
92587,-92.1092335546168,4,1,0,100,0,1
92674,-90.915860014892,4,1,0,100,0,1
92761,-89.7530138194649,4,1,0,100,0,1
92848,-88.619538394542,4,1,0,100,0,1
92935,-87.5143348623853,4,1,0,100,0,1
93110,-85.3726751503286,4,1,0,100,0,1
93285,-83.3333333333333,4,1,0,100,0,1
93546,-71.4285714285714,4,1,0,100,0,1
93633,-72.812291249165,4,1,0,100,0,1
93720,-74.2506811989101,4,1,0,100,0,1
93807,-75.7470465601112,4,1,0,100,0,1
93895,-77.3232442657839,4,1,0,100,0,1
93982,-78.9473684210526,4,1,0,100,0,1
94069,-80.6411837237978,4,1,0,100,0,1
94156,-82.4092741935484,4,1,0,100,0,1
94243,-84.2566348879155,4,1,0,100,0,1
94331,-86.2114421302399,4,1,0,100,0,1
94418,-88.2352941176471,4,1,0,100,0,1
94505,-90.3564520585797,4,1,0,100,0,1
94592,-92.5821064552661,4,1,0,100,0,1
94680,-94.9477351916376,4,1,0,100,0,1
94767,-97.408400357462,4,1,0,100,0,1
94854,-66.6666666666667,4,1,0,100,0,1
94857,-66.6666666666667,4,1,0,100,0,0
95029,-100.898667493028,4,1,0,100,0,0
95377,-103.694267515924,4,1,0,100,0,0
95552,-105.657111952407,4,1,0,100,0,0
95726,-107.683827582405,4,1,0,100,0,0
95813,-108.726625111309,4,1,0,100,0,0
95900,-109.789816792177,4,1,0,100,0,0
96075,-111.992662233433,4,1,0,100,0,0
96249,-114.272344408049,4,1,0,100,0,0
96250,-114.285714285714,4,1,0,100,0,0
96424,-116.660695091365,4,1,0,100,0,0
96511,-117.885590152064,4,1,0,100,0,0
96598,-119.136480058544,4,1,0,100,0,0
96773,-121.734795613161,4,1,0,100,0,0
96947,-124.433121019108,4,1,0,100,0,0
97121,-127.25377800938,4,1,0,100,0,0
97296,-130.222636981736,4,1,0,100,0,0
97383,-131.750741839763,4,1,0,100,0,0
97470,-133.315135799099,4,1,0,100,0,0
97645,-100,4,1,0,100,0,0
97819,-101.690962099125,4,1,0,100,0,0
97906,-102.558071155543,4,1,0,100,0,0
97993,-103.44009489917,4,1,0,100,0,0
98168,-105.261040136807,4,1,0,100,0,0
98342,-107.13627521245,4,1,0,100,0,0
98517,-109.090909090909,4,1,0,100,0,0
98604,-110.08942661757,4,1,0,100,0,0
98691,-111.10639201529,4,1,0,100,0,0
98778,-112.142321294609,4,1,0,100,0,0
98866,-113.209996754301,4,1,0,100,0,0
99040,-115.382070790605,4,1,0,100,0,0
99214,-117.639123102867,4,1,0,100,0,0
99302,-118.814579311911,4,1,0,100,0,0
99389,-120,4,1,0,100,0,0
99563,-122.4432483033,4,1,0,100,0,0
99738,-125.002986501015,4,1,0,100,0,0
99912,-127.656459680371,4,1,0,100,0,0
100087,-130.441286462229,4,1,0,100,0,0
100145,-131.391260673029,4,1,0,100,0,0
100203,-132.355173286112,4,1,0,100,0,0
100261,-133.333333333333,4,1,0,100,0,0
100436,-100,4,1,0,100,0,0
100610,-101.690962099125,4,1,0,100,0,0
100697,-102.558071155543,4,1,0,100,0,0
100784,-103.44009489917,4,1,0,100,0,0
100959,-105.261040136807,4,1,0,100,0,0
101133,-107.13627521245,4,1,0,100,0,0
101307,-109.079537162514,4,1,0,100,0,0
101395,-110.08942661757,4,1,0,100,0,0
101482,-111.10639201529,4,1,0,100,0,0
101656,-113.197749891822,4,1,0,100,0,0
101831,-115.382070790605,4,1,0,100,0,0
102005,-117.639123102867,4,1,0,100,0,0
102092,-118.801089918256,4,1,0,100,0,0
102180,-120,4,1,0,100,0,0
102267,-121.209313100892,4,1,0,100,0,0
102354,-122.4432483033,4,1,0,100,0,0
102528,-124.988055422838,4,1,0,100,0,0
102703,-127.656459680371,4,1,0,100,0,0
102877,-130.425028044372,4,1,0,100,0,0
102964,-131.854838709677,4,1,0,100,0,0
103052,-133.333333333333,4,1,0,100,0,0
103226,-100,4,1,0,100,0,0
103400,-101.690305032057,4,1,0,100,0,0
103488,-102.567117381932,4,1,0,100,0,0
103575,-103.448957406858,4,1,0,100,0,0
103749,-105.258924082454,4,1,0,100,0,0
103924,-107.144319344934,4,1,0,100,0,0
104098,-109.087119633181,4,1,0,100,0,0
104185,-110.085182458723,4,1,0,100,0,0
104273,-111.113469907653,4,1,0,100,0,0
104360,-112.149132204843,4,1,0,100,0,0
104447,-113.20428246999,4,1,0,100,0,0
104621,-115.37528931996,4,1,0,100,0,0
104622,-115.388007054674,4,1,0,100,0,0
104796,-117.644414475163,4,1,0,100,0,0
104970,-119.990829894544,4,1,0,100,0,0
105145,-122.447069832729,4,1,0,100,0,0
105319,-124.991044776119,4,1,0,100,0,0
105493,-127.642970369467,4,1,0,100,0,0
105668,-130.426115125841,4,1,0,100,0,0
105842,-133.31635252165,4,1,0,100,0,0
106017,-100,4,1,0,100,0,0
106191,-101.813633520951,4,1,0,100,0,0
106278,-102.745345534869,4,1,0,100,0,0
106366,-103.705276568638,4,1,0,100,0,0
106540,-105.657111952407,4,1,0,100,0,0
106714,-107.683827582405,4,1,0,100,0,0
106889,-109.802158273381,4,1,0,100,0,0
107063,-111.992662233433,4,1,0,100,0,0
107238,-114.285714285714,4,1,0,100,0,0
107412,-116.660695091365,4,1,0,100,0,0
107587,-119.151012442059,4,1,0,100,0,0
107674,-120.429046973246,4,1,0,100,0,0
107761,-121.734795613161,4,1,0,100,0,0
107935,-124.433121019108,4,1,0,100,0,0
108110,-127.270358306189,4,1,0,100,0,0
108284,-130.222636981736,4,1,0,100,0,0
108459,-133.333333333333,4,1,0,100,0,0
108808,-100,4,1,0,100,0,0
108982,-101.690962099125,4,1,0,100,0,0
109069,-102.558071155543,4,1,0,100,0,0
109156,-103.44009489917,4,1,0,100,0,0
109331,-105.261040136807,4,1,0,100,0,0
109505,-107.13627521245,4,1,0,100,0,0
109680,-109.090909090909,4,1,0,100,0,0
109767,-110.08942661757,4,1,0,100,0,0
109854,-111.10639201529,4,1,0,100,0,0
110028,-113.197749891822,4,1,0,100,0,0
110203,-115.382070790605,4,1,0,100,0,0
110377,-117.639123102867,4,1,0,100,0,0
110464,-118.801089918256,4,1,0,100,0,0
110552,-120,4,1,0,100,0,0
110726,-122.4432483033,4,1,0,100,0,0
110900,-124.988055422838,4,1,0,100,0,0
111075,-127.656459680371,4,1,0,100,0,0
111249,-130.425028044372,4,1,0,100,0,0
111307,-131.374764595104,4,1,0,100,0,0
111366,-132.355173286112,4,1,0,100,0,0
111424,-133.333333333333,4,1,0,100,0,0
111599,-100,4,1,0,100,0,0
111773,-99.7956574639105,4,1,0,100,0,0
111947,-99.3831100264674,4,1,0,100,0,0
112121,-98.8264159767297,4,1,0,100,0,0
112296,-98.1489153157435,4,1,0,100,0,0
112470,-97.376673651442,4,1,0,100,0,0
112645,-96.5149142945465,4,1,0,100,0,0
112819,-95.5849698398899,4,1,0,100,0,0
112993,-94.5919234211543,4,1,0,100,0,0
112994,-94.586050954223,4,1,0,100,0,0
113168,-93.5381924257655,4,1,0,100,0,0
113342,-92.4435024002677,4,1,0,100,0,0
113517,-91.302237889469,4,1,0,100,0,0
113691,-90.1337018628046,4,1,0,100,0,0
113866,-88.9301939951858,4,1,0,100,0,0
114040,-87.7106449963565,4,1,0,100,0,0
114214,-86.472943885177,4,1,0,100,0,0
114389,-85.2141359676246,4,1,0,100,0,0
114563,-83.952509117032,4,1,0,100,0,0
114738,-82.6771303477106,4,1,0,100,0,0
114912,-81.4057830530424,4,1,0,100,0,0
115087,-80.1267744895871,4,1,0,100,0,0
115261,-78.8573331016593,4,1,0,100,0,0
115435,-77.5924825631817,4,1,0,100,0,0
115610,-76.327104337954,4,1,0,100,0,0
115784,-75.0775311987802,4,1,0,100,0,0
115785,-75.0703777526223,4,1,0,100,0,0
115871,-74.4564762909785,4,1,0,100,0,0
115959,-73.8310736482399,4,1,0,100,0,0
116046,-73.2157151940361,4,1,0,100,0,0
116133,-72.6034433462152,4,1,0,100,0,0
116220,-71.9944128650652,4,1,0,100,0,0
116307,-71.3887683277176,4,1,0,100,0,0
116395,-70.7797445583972,4,1,0,100,0,0
116482,-70.1813096412134,4,1,0,100,0,0
116569,-69.5866388067382,4,1,0,100,0,0
116656,-68.9958399545622,4,1,0,100,0,0
116744,-68.4022911299864,4,1,0,100,0,0
116831,-67.8195748434511,4,1,0,100,0,0
116918,-67.2410075965974,4,1,0,100,0,0
117005,-66.6666666666667,4,1,0,100,0,0
117180,-50.1253130978807,4,1,0,100,0,0
117267,-100.250627318957,4,1,0,80,0,0
122793,-100.250627318957,4,1,0,20,0,0
129741,-91.1161737423803,4,1,0,20,0,0
131136,-83.5073074115144,4,1,0,20,0,0
132531,-77.0712913888992,4,1,0,20,0,0
133927,-71.5563510095183,4,1,0,20,0,0
135322,-66.7779636060247,4,1,0,20,0,0
136717,-62.5978093700919,4,1,0,30,0,0
138113,-58.9101622628037,4,1,0,40,0,0
139508,-55.632823597535,4,1,0,50,0,0
140903,-52.7009224741057,4,1,0,60,0,0
142299,-50.0625784104431,4,1,0,70,0,0
143694,-47.6758046993985,4,1,0,80,0,0
145086,-66.6666666666667,4,1,0,100,0,0
145348,-76.2008733624454,4,1,0,100,0,0
145609,-88.8605983450032,4,1,0,100,0,0
145783,-99.9284180386543,4,1,0,100,0,0
150667,-66.6666666666667,4,1,0,100,0,0
150929,-76.2008733624454,4,1,0,100,0,0
151190,-88.8605983450032,4,1,0,100,0,0
151365,-100,4,1,0,100,0,0
153459,-100,4,1,0,100,0,0
154157,-53.8359788359788,4,1,0,100,0,0
154854,-36.8492530556813,4,1,0,100,0,0
155552,-28.0013759889921,4,1,0,100,0,0
156017,-66.6666666666667,4,1,0,100,0,0
156133,-67.6132190942472,4,1,0,100,0,0
156249,-68.587037496896,4,1,0,100,0,0
156250,-68.5955544517571,4,1,0,100,0,0
156511,-70.8932238193019,4,1,0,100,0,0
156598,-71.6937053861129,4,1,0,100,0,0
156773,-73.3598937583001,4,1,0,100,0,0
156947,-75.0951604132681,4,1,0,100,0,0
157034,-75.9939468977851,4,1,0,100,0,0
157121,-76.9145084934559,4,1,0,100,0,0
157209,-77.868621370172,4,1,0,100,0,0
157296,-78.8354502640217,4,1,0,100,0,0
157557,-81.8855618144085,4,1,0,100,0,0
157645,-82.9678582156804,4,1,0,100,0,0
157819,-85.1943244910549,4,1,0,100,0,0
157906,-86.352977958418,4,1,0,100,0,0
157993,-87.5435816164818,4,1,0,100,0,0
158168,-90.040749796251,4,1,0,100,0,0
158342,-92.669015265895,4,1,0,100,0,0
158430,-94.057551506896,4,1,0,100,0,0
158517,-95.4718285516765,4,1,0,100,0,0
158604,-96.929285839621,4,1,0,100,0,0
158691,-98.431931575196,4,1,0,100,0,0
158778,-99.9819004524887,4,1,0,100,0,0
159040,-66.6666666666667,4,1,0,100,0,0
159302,-68.8917197452229,4,1,0,100,0,0
159389,-69.6637897719954,4,1,0,100,0,0
159563,-71.2610357095796,4,1,0,100,0,0
159738,-72.9430806582142,4,1,0,100,0,0
159825,-73.8091988535553,4,1,0,100,0,0
159912,-74.6961325966851,4,1,0,100,0,0
159999,-75.6046414091989,4,1,0,100,0,0
160087,-76.5463552724699,4,1,0,100,0,0
160435,-80.5121333928837,4,1,0,100,0,0
160436,-80.5241215008934,4,1,0,100,0,0
160523,-81.5809322673103,4,1,0,100,0,0
160610,-82.6658514215836,4,1,0,100,0,0
160697,-83.7800154918668,4,1,0,100,0,0
160784,-84.9246231155779,4,1,0,100,0,0
160871,-86.1009393408693,4,1,0,100,0,0
160959,-87.3243985144518,4,1,0,100,0,0
161133,-89.8488120950324,4,1,0,100,0,0
161220,-91.1665542818611,4,1,0,100,0,0
161307,-92.5235243798118,4,1,0,100,0,0
161395,-93.937814834115,4,1,0,100,0,0
161569,-96.8654845065377,4,1,0,100,0,0
161656,-98.3988355167394,4,1,0,100,0,0
161831,-66.6666666666667,4,1,0,100,0,0
162092,-69.1295116772824,4,1,0,100,0,0
162180,-70.0014332807797,4,1,0,100,0,0
162354,-71.7918565338821,4,1,0,100,0,0
162528,-73.6762709307588,4,1,0,100,0,0
162616,-74.6674820363859,4,1,0,100,0,0
162703,-75.6740006197707,4,1,0,100,0,0
162790,-76.7080257578137,4,1,0,100,0,0
162877,-77.7707006369427,4,1,0,100,0,0
163226,-82.346990389479,4,1,0,100,0,0
163313,-83.5728952772074,4,1,0,100,0,0
163400,-84.8358520062533,4,1,0,100,0,0
163488,-86.1527606279767,4,1,0,100,0,0
163575,-87.4955213185238,4,1,0,100,0,0
163662,-88.8808007279345,4,1,0,100,0,0
163749,-90.310650887574,4,1,0,100,0,0
163837,-91.8045112781955,4,1,0,100,0,0
163924,-93.330785400344,4,1,0,100,0,0
164040,-95.4465507133086,4,1,0,100,0,0
164156,-97.6604679064187,4,1,0,100,0,0
164273,-100,4,1,0,100,0,0
164622,-66.6666666666667,4,1,0,100,0,0
164883,-71.1009174311927,4,1,0,100,0,0
164970,-72.7130570758405,4,1,0,100,0,0
165145,-76.1878754778809,4,1,0,100,0,0
165319,-79.9885321100917,4,1,0,100,0,0
165406,-82.0346956777419,4,1,0,100,0,0
165493,-84.188292094146,4,1,0,100,0,0
165581,-86.4848109113453,4,1,0,100,0,0
165668,-88.8818094934693,4,1,0,100,0,0
165755,-91.4154652686763,4,1,0,100,0,0
165842,-94.0978077571669,4,1,0,100,0,0
166017,-100,4,1,0,100,0,0
166192,-33.361134087844,4,1,0,100,0,0
167412,-66.6666668968068,4,1,0,100,0,0
167471,-198.019809824452,4,1,0,100,0,0
168985,-198.019809824452,4,1,0,100,0,1
170991,-200,4,1,0,100,0,0
172037,-200,4,1,0,100,0,1
175700,-200,4,1,0,100,0,0
176834,-200,4,1,0,100,0,1
177706,-200,4,1,0,100,0,0
178055,-200,4,1,0,100,0,1
181543,-200,4,1,0,100,0,0
182328,-200,4,1,0,100,0,1
185642,-200,4,1,0,100,0,0
186427,-200,4,1,0,100,0,1
186950,-200,4,1,0,100,0,0
187386,-200,4,1,0,100,0,1
188343,-200,4,1,0,100,0,1
188345,-200,4,1,0,100,0,0
188517,-194.90961291675,4,1,0,100,0,0
188691,-190.072719303185,4,1,0,100,0,0
189040,-181.065610125552,4,1,0,100,0,0
189156,-178.260176422583,4,1,0,100,0,0
189273,-175.518707976341,4,1,0,100,0,0
189389,-172.884250987151,4,1,0,100,0,0
189738,-165.424991200215,4,1,0,100,0,0
189825,-163.667485162924,4,1,0,100,0,0
189999,-160.265891726278,4,1,0,100,0,0
190087,-158.600813249618,4,1,0,100,0,0
190261,-155.412401041091,4,1,0,100,0,0
190435,-152.355336115539,4,1,0,100,0,0
190552,-150.369824543579,4,1,0,100,0,0
190668,-148.454488602118,4,1,0,100,0,0
190784,-146.59015953927,4,1,0,100,0,0
191133,-141.270323828098,4,1,0,100,0,0
191220,-140.007978570012,4,1,0,100,0,0
191307,-138.769752183661,4,1,0,100,0,0
191482,-136.349590710739,4,1,0,100,0,0
191656,-134.032695672579,4,1,0,100,0,0
191831,-131.787921259082,4,1,0,100,0,0
191947,-130.345097254189,4,1,0,100,0,0
192063,-128.936889956254,4,1,0,100,0,0
192180,-127.550475154908,4,1,0,100,0,0
192441,-124.575021077541,4,1,0,100,0,0
192528,-123.617704247331,4,1,0,100,0,0
192529,-123.606797749979,4,1,0,100,0,0
192616,-122.666252559123,4,1,0,100,0,0
192703,-121.741904520239,4,1,0,100,0,0
192790,-120.833383705604,4,1,0,100,0,0
192877,-119.940331476872,4,1,0,100,0,0
192993,-118.773057842695,4,1,0,100,0,0
193110,-117.622144613588,4,1,0,100,0,0
193226,-116.506496007278,4,1,0,100,0,0
193342,-115.415429888757,4,1,0,100,0,0
193459,-114.339142680406,4,1,0,100,0,0
193575,-113.295349331479,4,1,0,100,0,0
193924,-110.288385600146,4,1,0,100,0,0
194098,-108.860289189243,4,1,0,100,0,0
194273,-107.469124930872,4,1,0,100,0,0
194447,-106.129011382909,4,1,0,100,0,0
194621,-104.830195017509,4,1,0,100,0,0
194738,-103.979274197893,4,1,0,100,0,0
194854,-103.152894166294,4,1,0,100,0,0
194970,-102.343272376283,4,1,0,100,0,0
195145,-101.152647445452,4,1,0,100,0,0
195319,-100.004333263638,4,1,0,100,0,0
195406,-99.4430475727378,4,1,0,100,0,0
195581,-98.3392315044482,4,1,0,100,0,0
195668,-97.8027086938626,4,1,0,100,0,0
195842,-96.7533136737145,4,1,0,100,0,0
196017,-95.7287686222207,4,1,0,100,0,0
196133,-95.0661848388271,4,1,0,100,0,0
196249,-94.4164387680789,4,1,0,100,0,0
196366,-93.7738013934538,4,1,0,100,0,0
196540,-92.8410767829617,4,1,0,100,0,0
196714,-91.9350413470564,4,1,0,100,0,0
196715,-91.9299096850717,4,1,0,100,0,0
196802,-91.4867013479696,4,1,0,100,0,0
196889,-91.0498420119463,4,1,0,100,0,0
196976,-90.6192294887179,4,1,0,100,0,0
197063,-90.1947639427146,4,1,0,100,0,0
197150,-89.7763478267202,4,1,0,100,0,0
197238,-89.3591791242249,4,1,0,100,0,0
197325,-88.9526449049378,4,1,0,100,0,0
197412,-88.5518795575005,4,1,0,100,0,0
197528,-88.0263460700643,4,1,0,100,0,0
197645,-87.5063022502999,4,1,0,100,0,0
197761,-87.0004370146151,4,1,0,100,0,0
197848,-86.6272815340979,4,1,0,100,0,0
197935,-86.2593891006755,4,1,0,100,0,0
198023,-85.8925427793592,4,1,0,100,0,0
198110,-85.5350032371236,4,1,0,100,0,0
198197,-85.1824977656107,4,1,0,100,0,0
198284,-84.834953632375,4,1,0,100,0,0
198371,-84.4922996818898,4,1,0,100,0,0
198459,-84.1506109095811,4,1,0,100,0,0
198575,-83.7076196708398,4,1,0,100,0,0
198691,-83.2729186144437,4,1,0,100,0,0
198807,-82.8463548077299,4,1,0,100,0,0
198895,-82.5280914255173,4,1,0,100,0,0
198982,-82.2179020629288,4,1,0,100,0,0
199069,-81.9120845506593,4,1,0,100,0,0
199156,-81.6105803135132,4,1,0,100,0,0
199243,-81.3133320073322,4,1,0,100,0,0
199331,-81.0169393149396,4,1,0,100,0,0
199418,-80.7280829444026,4,1,0,100,0,0
199505,-80.4433169599798,4,1,0,100,0,0
199680,-79.8826885138453,4,1,0,100,0,0
199767,-79.6099268462293,4,1,0,100,0,0
199854,-79.341050705634,4,1,0,100,0,0
199941,-79.0760116410228,4,1,0,100,0,0
200028,-78.8147621987101,4,1,0,100,0,0
200116,-78.5543176387797,4,1,0,100,0,0
200203,-78.3005511988857,4,1,0,100,0,0
200319,-77.9678700667912,4,1,0,100,0,0
200435,-77.6415792405903,4,1,0,100,0,0
200552,-77.3188467844379,4,1,0,100,0,0
200639,-77.0829548498309,4,1,0,100,0,0
200726,-76.8505053490121,4,1,0,100,0,0
200813,-76.6214588912571,4,1,0,100,0,0
200900,-76.3957768859802,4,1,0,100,0,0
200901,-76.393202250021,4,1,0,100,0,0
200988,-76.170884910517,4,1,0,100,0,0
201075,-75.9518567547068,4,1,0,100,0,0
201162,-75.7360815020904,4,1,0,100,0,0
201249,-75.5235236077085,4,1,0,100,0,0
201337,-75.3117600007897,4,1,0,100,0,0
201424,-75.1055690485482,4,1,0,100,0,0
201511,-74.902492704538,4,1,0,100,0,0
201598,-74.7024982275501,4,1,0,100,0,0
201714,-74.4405775927018,4,1,0,100,0,0
201831,-74.1818158443084,4,1,0,100,0,0
201947,-73.9305635144204,4,1,0,100,0,0
202034,-73.745543537805,4,1,0,100,0,0
202121,-73.5634221557235,4,1,0,100,0,0
202209,-73.3821272394638,4,1,0,100,0,0
202296,-73.2057510970376,4,1,0,100,0,0
202383,-73.0321899257802,4,1,0,100,0,0
202470,-72.8614170913726,4,1,0,100,0,0
202557,-72.69340650739,4,1,0,100,0,0
202645,-72.5262487364626,4,1,0,100,0,0
202732,-72.3637175613591,4,1,0,100,0,0
202819,-72.2038732876905,4,1,0,100,0,0
202906,-72.0466919292759,4,1,0,100,0,0
202993,-71.8921500004301,4,1,0,100,0,0
203110,-71.6884389770159,4,1,0,100,0,0
203226,-71.4910869178604,4,1,0,100,0,0
203342,-71.2982810665715,4,1,0,100,0,0
203430,-71.1550163164304,4,1,0,100,0,0
203517,-71.0159021521212,4,1,0,100,0,0
203604,-70.8792758680611,4,1,0,100,0,0
203691,-70.745117697345,4,1,0,100,0,0
203692,-70.7435899212251,4,1,0,100,0,0
203778,-70.6134083027863,4,1,0,100,0,0
203866,-70.4826568511822,4,1,0,100,0,0
203953,-70.3558162931603,4,1,0,100,0,0
204040,-70.2313688050618,4,1,0,100,0,0
204127,-70.1092967066437,4,1,0,100,0,0
204214,-69.9895827149292,4,1,0,100,0,0
204302,-69.8708743710852,4,1,0,100,0,0
204389,-69.7558529296029,4,1,0,100,0,0
204505,-69.6060791186659,4,1,0,100,0,0
204621,-69.4603719897476,4,1,0,100,0,0
204738,-69.3174915934046,4,1,0,100,0,0
204825,-69.2138840875753,4,1,0,100,0,0
204912,-69.1125097194999,4,1,0,100,0,0
204999,-69.013354540109,4,1,0,100,0,0
205087,-68.9153033510512,4,1,0,100,0,0
205174,-68.8205711983702,4,1,0,100,0,0
205261,-68.7280182893049,4,1,0,100,0,0
205348,-68.6376320299097,4,1,0,100,0,0
205435,-68.5494001534397,4,1,0,100,0,0
205523,-68.4623335913888,4,1,0,100,0,0
205610,-68.3783993953128,4,1,0,100,0,0
205697,-68.2965845776963,4,1,0,100,0,0
205784,-68.2168781454765,4,1,0,100,0,0
205871,-68.1392694139877,4,1,0,100,0,0
205959,-68.062892035774,4,1,0,100,0,0
206046,-67.9894716873224,4,1,0,100,0,0
206133,-67.918118691717,4,1,0,100,0,0
206220,-67.8488235682073,4,1,0,100,0,0
206307,-67.7815771284077,4,1,0,100,0,0
206395,-67.715632795431,4,1,0,100,0,0
206482,-67.6524806108634,4,1,0,100,0,0
206569,-67.5913511765543,4,1,0,100,0,0
206656,-67.5322364488886,4,1,0,100,0,0
206743,-67.475128663117,4,1,0,100,0,0
206831,-67.4193984966547,4,1,0,100,0,0
206918,-67.3663052623633,4,1,0,100,0,0
207005,-67.315197247059,4,1,0,100,0,0
207092,-67.266067781367,4,1,0,100,0,0
207180,-67.2183798657693,4,1,0,100,0,0
207267,-67.173211123221,4,1,0,100,0,0
207354,-67.1300024546361,4,1,0,100,0,0
207441,-67.0887482530119,4,1,0,100,0,0
207528,-67.0494431716846,4,1,0,100,0,0
207616,-67.0116639673024,4,1,0,100,0,0
207703,-66.9762643824702,4,1,0,100,0,0
207790,-66.9427993730103,4,1,0,100,0,0
207877,-66.911264621073,4,1,0,100,0,0
207878,-66.910913357518,4,1,0,100,0,0
207935,-66.8913118006964,4,1,0,100,0,0
207993,-66.8722139185831,4,1,0,100,0,0
208052,-66.8536628111954,4,1,0,100,0,0
208139,-66.8279174842691,4,1,0,100,0,0
208226,-66.8040876249161,4,1,0,100,0,0
208284,-66.7892636786077,4,1,0,100,0,0
208342,-66.7752888395145,4,1,0,100,0,0
208400,-66.7621623104963,4,1,0,100,0,0
208488,-66.7438644954388,4,1,0,100,0,0
208575,-66.7276902439133,4,1,0,100,0,0
208633,-66.7179645306179,4,1,0,100,0,0
208691,-66.7090838610441,4,1,0,100,0,0
208749,-66.7010477296711,4,1,0,100,0,0
208837,-66.6904667253089,4,1,0,100,0,0
208924,-66.6819147104164,4,1,0,100,0,0
208982,-66.6772671715433,4,1,0,100,0,0
209040,-66.6734623608499,4,1,0,100,0,0
209098,-66.6705000619996,4,1,0,100,0,0
209156,-66.6683801065772,4,1,0,100,0,0
209214,-66.6671023740663,4,1,0,100,0,0
209273,-66.6666666666667,4,1,0,100,0,0
210145,-66.6666666666667,4,1,0,100,0,0
210232,-68.9600632661131,4,1,0,100,0,0
210319,-71.4168714168714,4,1,0,100,0,0
210406,-74.0552016985138,4,1,0,100,0,0
210493,-76.8959435626102,4,1,0,100,0,0
210581,-80,4,1,0,100,0,0
210668,-49.9375777478371,4,1,0,100,0,0
210671,-49.9375777478371,4,1,0,100,0,1
211017,-100.250625439476,4,1,0,100,0,1
213459,-50.0625775682861,4,1,0,100,0,1
213633,-99.7506223182561,4,1,0,100,0,1
215900,-95.2380952380952,4,1,0,100,0,1
215988,-91.743119266055,4,1,0,100,0,1
216162,-86.2068965517241,4,1,0,100,0,1
216250,-83.3333333333333,4,1,0,100,0,1
216337,-100,4,1,0,100,0,1
219040,-100,4,1,0,100,0,1
219127,-97.9071445754149,4,1,0,100,0,1
219214,-95.9000942507069,4,1,0,100,0,1
219302,-93.9519852262235,4,1,0,100,0,1
219389,-92.102285584974,4,1,0,100,0,1
219476,-90.324012427874,4,1,0,100,0,1
219563,-88.6131069018071,4,1,0,100,0,1
219650,-86.965811965812,4,1,0,100,0,1
219738,-85.3607382550336,4,1,0,100,0,1
219854,-83.3333333333333,4,1,0,100,0,1
219912,-82.3553217320923,4,1,0,100,0,1
219970,-81.4,4,1,0,100,0,1
220087,-79.5387922610905,4,1,0,100,0,1
220145,-78.6473429951691,4,1,0,100,0,1
220203,-77.7756545002866,4,1,0,100,0,1
220261,-76.9230769230769,4,1,0,100,0,1
220436,-76.9230769230769,4,1,0,100,0,1
220523,-78.2090699461952,4,1,0,100,0,1
220610,-79.5387922610905,4,1,0,100,0,1
220697,-80.9145129224652,4,1,0,100,0,1
220784,-82.3386607323488,4,1,0,100,0,1
220871,-83.8138385502471,4,1,0,100,0,1
220959,-85.3607382550336,4,1,0,100,0,1
221046,-86.947233497116,4,1,0,100,0,1
221133,-88.5938180235089,4,1,0,100,0,1
221249,-90.8887896382314,4,1,0,100,0,1
221307,-92.0814479638009,4,1,0,100,0,1
221366,-93.3272185278606,4,1,0,100,0,1
221482,-95.8775029446407,4,1,0,100,0,1
221540,-97.2056364939097,4,1,0,100,0,1
221598,-98.5710825865827,4,1,0,100,0,1
221656,-99.9754360108082,4,1,0,100,0,1
221831,-49.9938578759349,4,1,0,100,0,1
221918,-100.225939314104,4,1,0,100,0,1
224621,-49.9314512280991,4,1,0,100,0,1
224709,-99.7261817944292,4,1,0,100,0,1
227064,-95.4430067419934,4,1,0,100,0,1
227150,-91.9904837430611,4,1,0,100,0,1
227325,-86.0215053763441,4,1,0,100,0,1
227412,-83.3333333333333,4,1,0,100,0,1
227587,-125,4,1,0,100,0,1
227761,-120.28923053873,4,1,0,100,0,1
227848,-118.068255861311,4,1,0,100,0,1
227935,-115.932115163718,4,1,0,100,0,1
228023,-113.854276149661,4,1,0,100,0,1
228110,-111.878711576037,4,1,0,100,0,1
228197,-109.978277880777,4,1,0,100,0,1
228284,-108.150047877178,4,1,0,100,0,1
228371,-106.391231255336,4,1,0,100,0,1
228459,-104.680097787124,4,1,0,100,0,1
228546,-103.052979271092,4,1,0,100,0,1
228633,-101.487639614058,4,1,0,100,0,1
228807,-98.5332123831826,4,1,0,100,0,1
228808,-98.5168869969933,4,1,0,100,0,1
228895,-97.1241482007508,4,1,0,100,0,1
228982,-95.7846082133496,4,1,0,100,0,1
229069,-94.4963778196319,4,1,0,100,0,1
229156,-93.2576584286659,4,1,0,100,0,1
229243,-92.0667379227061,4,1,0,100,0,1
229331,-90.9090909090909,4,1,0,100,0,1
229418,-89.8094622350221,4,1,0,100,0,1
229505,-88.752959719618,4,1,0,100,0,1
229592,-87.4089595013523,4,1,0,100,0,1
229680,-86.7528187617867,4,1,0,100,0,1
229767,-85.8179888532712,4,1,0,100,0,1
229854,-84.9210573795292,4,1,0,100,0,1
229941,-84.0608777624987,4,1,0,100,0,1
230028,-83.2363604424794,4,1,0,100,0,1
230203,-81.681724193059,4,1,0,100,0,1
230290,-80.9585608782537,4,1,0,100,0,1
230377,-80.2672141827784,4,1,0,100,0,1
230464,-79.6068454742737,4,1,0,100,0,1
230552,-78.9695890813251,4,1,0,100,0,1
230639,-78.3691686855837,4,1,0,100,0,1
230726,-77.7974593639774,4,1,0,100,0,1
230813,-77.2537886690648,4,1,0,100,0,1
230900,-76.7375216552463,4,1,0,100,0,1
230988,-76.2425870852789,4,1,0,100,0,1
231075,-75.7796642511721,4,1,0,100,0,1
231162,-75.3424459671306,4,1,0,100,0,1
231249,-74.9304346727763,4,1,0,100,0,1
231337,-74.538854912795,4,1,0,100,0,1
231424,-74.1761664530306,4,1,0,100,0,1
231511,-73.8373722694081,4,1,0,100,0,1
231598,-73.5220950291168,4,1,0,100,0,1
231599,-73.518606472485,4,1,0,100,0,1
231685,-73.2299852230705,4,1,0,100,0,1
231773,-72.957757061333,4,1,0,100,0,1
231860,-72.7112988624458,4,1,0,100,0,1
231947,-72.4871165432424,4,1,0,100,0,1
232034,-72.2849654528522,4,1,0,100,0,1
232121,-72.1046256784346,4,1,0,100,0,1
232209,-71.9442021419982,4,1,0,100,0,1
232296,-71.8071675788262,4,1,0,100,0,1
232383,-71.6914271848037,4,1,0,100,0,1
232470,-71.5968562464258,4,1,0,100,0,1
232557,-71.5233530231374,4,1,0,100,0,1
232645,-71.4703566954921,4,1,0,100,0,1
232703,-71.4471389710958,4,1,0,100,0,1
232761,-71.4332127612528,4,1,0,100,0,1
232819,-71.4285714285714,4,1,0,100,0,1
232994,-50.1253130604408,4,1,0,100,0,1
232996,-50.1253130604408,4,1,0,100,0,0
233342,-83.3333333333333,4,1,0,100,0,0
233385,-83.863569103285,4,1,0,100,0,0
233516,-85.5213520446658,4,1,0,100,0,0
233690,-87.8273671160701,4,1,0,100,0,0
233865,-90.2755654667092,4,1,0,100,0,0
233952,-91.5441770311743,4,1,0,100,0,0
234039,-92.8489515072084,4,1,0,100,0,0
234043,-92.8489515072084,4,1,0,100,0,1
234213,-95.5733558178752,4,1,0,100,0,1
234388,-98.4795829713293,4,1,0,100,0,1
234562,-101.549901451353,4,1,0,100,0,1
234737,-104.83721790603,4,1,0,100,0,1
234780,-105.67779228044,4,1,0,100,0,1
234911,-108.32377675841,4,1,0,100,0,1
234998,-110.155490767736,4,1,0,100,0,1
235086,-112.072374925845,4,1,0,100,0,1
235260,-116.065943067786,4,1,0,100,0,1
235434,-120.354640050966,4,1,0,100,0,1
235492,-121.855514943023,4,1,0,100,0,1
235551,-123.421167247387,4,1,0,100,0,1
235609,-125,4,1,0,100,0,1
235785,-50.0625777699557,4,1,0,100,0,1
236133,-66.6666666666667,4,1,0,100,0,1
236220,-67.4978503869304,4,1,0,100,0,1
236307,-68.3500217675229,4,1,0,100,0,1
236395,-69.2341613993826,4,1,0,100,0,1
236482,-70.1310303752233,4,1,0,100,0,1
236569,-71.0514406396138,4,1,0,100,0,1
236656,-71.9963313971263,4,1,0,100,0,1
236743,-72.9666924864446,4,1,0,100,0,1
236831,-73.9751845453118,4,1,0,100,0,1
236918,-75,4,1,0,100,0,1
237005,-76.0536089132892,4,1,0,100,0,1
237180,-78.2652043868395,4,1,0,100,0,1
237296,-79.8034564554388,4,1,0,100,0,1
237354,-80.5954825462012,4,1,0,100,0,1
237412,-81.4033874870377,4,1,0,100,0,1
237528,-83.0687830687831,4,1,0,100,0,1
237616,-84.3783590111071,4,1,0,100,0,1
237703,-85.7142857142857,4,1,0,100,0,1
237790,-87.0931952662722,4,1,0,100,0,1
237877,-88.5171960157865,4,1,0,100,0,1
237964,-89.9885364921666,4,1,0,100,0,1
238052,-91.5273999222697,4,1,0,100,0,1
238139,-93.1014034394149,4,1,0,100,0,1
238226,-94.7304907481899,4,1,0,100,0,1
238313,-96.417604912999,4,1,0,100,0,1
238488,-100,4,1,0,100,0,1
238575,-50.06257785025,4,1,0,100,0,1
238924,-125,4,1,0,100,0,1
238967,-125.895087427144,4,1,0,100,0,1
239098,-128.702757916241,4,1,0,100,0,1
239273,-132.654851728373,4,1,0,100,0,1
239447,-136.83257918552,4,1,0,100,0,1
239621,-141.282003363857,4,1,0,100,0,1
239709,-143.64430932928,4,1,0,100,0,1
239796,-146.058732612056,4,1,0,100,0,1
239970,-151.139544182327,4,1,0,100,0,1
239971,-151.169766046791,4,1,0,100,0,1
240145,-156.619018023617,4,1,0,100,0,1
240319,-162.47582205029,4,1,0,100,0,1
240363,-164.026903883706,4,1,0,100,0,1
240493,-168.787675820496,4,1,0,100,0,1
240581,-172.170348439991,4,1,0,100,0,1
240668,-175.650557620818,4,1,0,100,0,1
240842,-183.050847457627,4,1,0,100,0,1
241017,-191.150442477876,4,1,0,100,0,1
241075,-193.995381062356,4,1,0,100,0,1
241133,-196.926282886168,4,1,0,100,0,1
241191,-199.947103940756,4,1,0,100,0,1
241366,-200,4,1,0,100,0,1
241540,-168.487775430124,4,1,0,100,0,1
241627,-156.183547845551,4,1,0,100,0,1
241714,-145.554106910039,4,1,0,100,0,1
241889,-128.02752293578,4,1,0,100,0,1
242063,-114.338385907415,4,1,0,100,0,1
242150,-108.5358740035,4,1,0,100,0,1
242238,-103.23654521916,4,1,0,100,0,1
242412,-94.1474110305279,4,1,0,100,0,1
242587,-86.488999070344,4,1,0,100,0,1
242674,-83.1273268801191,4,1,0,100,0,1
242761,-80.0172018348624,4,1,0,100,0,1
242935,-74.4465190717525,4,1,0,100,0,1
243023,-71.9144550373615,4,1,0,100,0,1
243110,-69.5749719556276,4,1,0,100,0,1
243284,-65.3247513165594,4,1,0,100,0,1
243371,-63.3885986827163,4,1,0,100,0,1
243459,-61.5435501653804,4,1,0,100,0,1
243630,-58.1943286071727,4,1,0,100,0,1
243720,-56.8181818181818,4,1,0,100,0,1
243778,-55.5555555555556,4,1,0,100,0,1
243836,-54.3478260869565,4,1,0,100,0,1
243895,-53.1914893617021,4,1,0,100,0,1
243982,-52.0833333333333,4,1,0,100,0,1
244157,-50.0134396559448,4,1,0,100,0,0
244505,-83.3455828311039,4,1,0,100,0,0
244548,-83.8757396449704,4,1,0,100,0,0
244679,-85.5332629355861,4,1,0,100,0,0
244853,-87.8388845855926,4,1,0,100,0,0
245027,-90.2722496417768,4,1,0,100,0,0
245115,-91.5549814306475,4,1,0,100,0,0
245202,-92.8594824762529,4,1,0,100,0,0
245206,-92.8594824762529,4,1,0,100,0,1
245376,-95.5832771409305,4,1,0,100,0,1
245551,-98.4887962480458,4,1,0,100,0,1
245638,-100,4,1,0,100,0,1
245725,-101.558301988178,4,1,0,100,0,1
245899,-104.825291181364,4,1,0,100,0,1
245943,-105.684995340168,4,1,0,100,0,1
246074,-108.330149025602,4,1,0,100,0,1
246161,-110.161258985817,4,1,0,100,0,1
246248,-112.055335968379,4,1,0,100,0,1
246423,-116.069600818833,4,1,0,100,0,1
246597,-120.35661218425,4,1,0,100,0,1
246655,-121.856866537718,4,1,0,100,0,1
246713,-123.394994559304,4,1,0,100,0,1
246772,-125,4,1,0,100,0,1
246947,-50.1253128217617,4,1,0,100,0,1
247296,-66.6666666666667,4,1,0,100,0,1
247383,-67.4978503869304,4,1,0,100,0,1
247470,-68.3500217675229,4,1,0,100,0,1
247557,-69.2239858906526,4,1,0,100,0,1
247645,-70.1310303752233,4,1,0,100,0,1
247732,-71.0514406396138,4,1,0,100,0,1
247819,-71.9963313971263,4,1,0,100,0,1
247906,-72.9666924864446,4,1,0,100,0,1
247993,-73.963567839196,4,1,0,100,0,1
248081,-75,4,1,0,100,0,1
248168,-76.0536089132892,4,1,0,100,0,1
248342,-78.2522013623526,4,1,0,100,0,1
248343,-78.2652043868395,4,1,0,100,0,1
248459,-79.8034564554388,4,1,0,100,0,1
248517,-80.5954825462012,4,1,0,100,0,1
248575,-81.4033874870377,4,1,0,100,0,1
248691,-83.0687830687831,4,1,0,100,0,1
248778,-84.3632455668995,4,1,0,100,0,1
248866,-85.7142857142857,4,1,0,100,0,1
248953,-87.0931952662722,4,1,0,100,0,1
249040,-88.5171960157865,4,1,0,100,0,1
249127,-89.9885364921666,4,1,0,100,0,1
249214,-91.5096172527686,4,1,0,100,0,1
249302,-93.1014034394149,4,1,0,100,0,1
249389,-94.7304907481899,4,1,0,100,0,1
249476,-96.417604912999,4,1,0,100,0,1
249650,-99.9787730842709,4,1,0,100,0,1
249738,-50.1199789836545,4,1,0,100,0,1
249741,-50.1199789836545,4,1,0,100,0,0
250087,-125,4,1,0,100,0,0
250174,-120.701965943994,4,1,0,100,0,0
250261,-116.694596461121,4,1,0,100,0,0
250348,-112.953983335421,4,1,0,100,0,0
250435,-109.458694329495,4,1,0,100,0,0
250523,-106.153142267775,4,1,0,100,0,0
250610,-103.094962427134,4,1,0,100,0,0
250697,-100.229709689496,4,1,0,100,0,0
250784,-97.5432686367352,4,1,0,100,0,0
250871,-95.0228597224935,4,1,0,100,0,0
250959,-92.6305543400667,4,1,0,100,0,0
251046,-90.4101010840008,4,1,0,100,0,0
251133,-88.3238836420696,4,1,0,100,0,0
251220,-86.3631892470292,4,1,0,100,0,0
251307,-84.520071341741,4,1,0,100,0,0
251395,-82.7679713745966,4,1,0,100,0,0
251482,-81.1400165270532,4,1,0,100,0,0
251569,-79.6096132335321,4,1,0,100,0,0
251656,-78.1712092899948,4,1,0,100,0,0
251743,-76.8197164618128,4,1,0,100,0,0
251831,-75.5363409327203,4,1,0,100,0,0
251918,-74.3459308482274,4,1,0,100,0,0
252005,-73.2295141513318,4,1,0,100,0,0
252092,-72.1834889651128,4,1,0,100,0,0
252180,-71.1936752018039,4,1,0,100,0,0
252267,-70.2795076247137,4,1,0,100,0,0
252354,-69.4265796896439,4,1,0,100,0,0
252441,-68.6323442156359,4,1,0,100,0,0
252528,-67.8944691781505,4,1,0,100,0,0
252529,-67.8863069948732,4,1,0,100,0,0
252616,-67.2032719721714,4,1,0,100,0,0
252703,-66.5724982079664,4,1,0,100,0,0
252790,-65.9922159817899,4,1,0,100,0,0
252877,-65.4608186536697,4,1,0,100,0,0
252964,-64.9768529377046,4,1,0,100,0,0
253052,-64.534240995756,4,1,0,100,0,0
253139,-64.141860130974,4,1,0,100,0,0
253226,-63.7933781239992,4,1,0,100,0,0
253313,-63.4878792958217,4,1,0,100,0,0
253400,-63.2245670000926,4,1,0,100,0,0
253488,-63.0004485909047,4,1,0,100,0,0
253575,-62.8200415317555,4,1,0,100,0,0
253662,-62.6800993020554,4,1,0,100,0,0
253749,-62.5802645723064,4,1,0,100,0,0
253837,-62.5198246948724,4,1,0,100,0,0
253924,-62.5,4,1,0,100,0,0
254796,-66.6666666666667,4,1,0,100,0,0
254883,-68.9600632661131,4,1,0,100,0,0
254970,-71.4168714168714,4,1,0,100,0,0
255057,-74.0552016985138,4,1,0,100,0,0
255145,-76.9298632554036,4,1,0,100,0,0
255232,-80,4,1,0,100,0,0
255319,-49.9999997206032,4,1,0,100,0,0
255322,-49.9999997206032,4,1,0,100,0,1
255581,-90.7029480266285,4,1,0,100,0,1
258110,-49.9375777478371,4,1,0,100,0,1
258197,-90.909091093816,4,1,0,100,0,1
260552,-90.9090909090909,4,1,0,100,0,1
260639,-86.9673560926987,4,1,0,100,0,1
260813,-80.0275166246274,4,1,0,100,0,1
260900,-76.9570011025358,4,1,0,100,0,1
260901,-76.9230769230769,4,1,0,100,0,1
261075,-90.9090911553911,4,1,0,100,0,1
263691,-66.6666666666667,4,1,0,100,0,1
263778,-67.2562731386261,4,1,0,100,0,1
263953,-68.4888469996858,4,1,0,100,0,1
264040,-69.1185795814838,4,1,0,100,0,1
264214,-70.4134366925065,4,1,0,100,0,1
264301,-71.0792305184219,4,1,0,100,0,1
264389,-71.7656095687479,4,1,0,100,0,1
264505,-72.6908969656552,4,1,0,100,0,1
264563,-73.1625461461013,4,1,0,100,0,1
264621,-73.6403558157865,4,1,0,100,0,1
264738,-74.6234596074852,4,1,0,100,0,1
264825,-75.3716722369482,4,1,0,100,0,1
264912,-76.1350407450524,4,1,0,100,0,1
265087,-77.7183600713012,4,1,0,100,0,1
265174,-78.5302593659942,4,1,0,100,0,1
265261,-79.3593010556971,4,1,0,100,0,1
265348,-80.2060338484179,4,1,0,100,0,1
265435,-81.0710301227222,4,1,0,100,0,1
265523,-81.9651585411706,4,1,0,100,0,1
265610,-82.8687278256462,4,1,0,100,0,1
265697,-83.7924407431134,4,1,0,100,0,1
265784,-84.7369784918372,4,1,0,100,0,1
265900,-86.0299921073402,4,1,0,100,0,1
266017,-87.374749498998,4,1,0,100,0,1
266133,-88.7501696295291,4,1,0,100,0,1
266191,-89.4542470250308,4,1,0,100,0,1
266249,-90.1695849993106,4,1,0,100,0,1
266307,-90.8964558721334,4,1,0,100,0,1
266482,-49.9961773270334,4,1,0,100,0,1
266526,-91.3114502386794,4,1,0,100,0,1
269273,-50.1214714275696,4,1,0,100,0,1
269317,-90.8964558721334,4,1,0,100,0,1
271715,-89.47321615818,4,1,0,100,0,1
271802,-86.9673560926987,4,1,0,100,0,1
271976,-80.0275166246274,4,1,0,100,0,1
272063,-76.9570011025358,4,1,0,100,0,1
272412,-119.624787262322,4,1,0,100,0,1
272499,-117.110955924863,4,1,0,100,0,1
272587,-114.678237496378,4,1,0,100,0,1
272674,-112.376544958944,4,1,0,100,0,1
272761,-110.172625300502,4,1,0,100,0,1
272848,-108.061784181114,4,1,0,100,0,1
272935,-106.039610200593,4,1,0,100,0,1
273023,-104.080160029857,4,1,0,100,0,1
273110,-102.224029772109,4,1,0,100,0,1
273197,-100.444807228633,4,1,0,100,0,1
273284,-98.7390397218583,4,1,0,100,0,1
273371,-97.1034758275299,4,1,0,100,0,1
273459,-95.5174034968256,4,1,0,100,0,1
273633,-92.5720112668407,4,1,0,100,0,1
273807,-89.8625131008233,4,1,0,100,0,1
273895,-88.5759404185504,4,1,0,100,0,1
273982,-87.3563505003752,4,1,0,100,0,1
274069,-86.1867824721157,4,1,0,100,0,1
274156,-85.0653161222016,4,1,0,100,0,1
274243,-83.9901377649421,4,1,0,100,0,1
274331,-82.9479407611464,4,1,0,100,0,1
274418,-81.9607776362113,4,1,0,100,0,1
274505,-81.0150237953162,4,1,0,100,0,1
274592,-80.1092348867925,4,1,0,100,0,1
274680,-79.2322976985463,4,1,0,100,0,1
274767,-78.4028410459739,4,1,0,100,0,1
274854,-77.6094628425439,4,1,0,100,0,1
275028,-76.1264045080665,4,1,0,100,0,1
275203,-74.7672633382109,4,1,0,100,0,1
275290,-74.1386031288596,4,1,0,100,0,1
275377,-73.5400058848031,4,1,0,100,0,1
275464,-72.9706602637866,4,1,0,100,0,1
275552,-72.4237482011632,4,1,0,100,0,1
275639,-71.9109739445737,4,1,0,100,0,1
275726,-71.4252850271727,4,1,0,100,0,1
275813,-70.9660474427717,4,1,0,100,0,1
275900,-70.5326667478906,4,1,0,100,0,1
275988,-70.1200409034645,4,1,0,100,0,1
276075,-69.7370229955167,4,1,0,100,0,1
276162,-69.3782952692222,4,1,0,100,0,1
276249,-69.0434070884087,4,1,0,100,0,1
276250,-69.039694722724,4,1,0,100,0,1
276337,-68.7284950293253,4,1,0,100,0,1
276424,-68.440326283716,4,1,0,100,0,1
276511,-68.1748330716775,4,1,0,100,0,1
276598,-67.9316896771422,4,1,0,100,0,1
276685,-67.7105992620179,4,1,0,100,0,1
276773,-67.5091279176648,4,1,0,100,0,1
276860,-67.3316111420044,4,1,0,100,0,1
276947,-67.1754207269185,4,1,0,100,0,1
277034,-67.0403689436052,4,1,0,100,0,1
277121,-66.9262939364487,4,1,0,100,0,1
277209,-66.8321083562525,4,1,0,100,0,1
277296,-66.7598406271076,4,1,0,100,0,1
277383,-66.7082148522172,4,1,0,100,0,1
277470,-66.6771696177218,4,1,0,100,0,1
277557,-66.6666680227988,4,1,0,100,0,1
277645,-50.125313283208,4,1,0,100,0,1
277819,-83.160083976758,4,1,0,100,0,1
280436,-49.9999999981373,4,1,0,100,0,1
280479,-82.9875526779441,4,1,0,100,0,1
282877,-80,4,1,0,100,0,1
282964,-76.9230769230769,4,1,0,100,0,1
283139,-74.0740740740741,4,1,0,100,0,1
283226,-71.4285714285714,4,1,0,100,0,1
283401,-83.1600833636078,4,1,0,100,0,1
286017,-66.6666666666667,4,1,0,100,0,1
286133,-67.2631903733416,4,1,0,100,0,1
286191,-67.565473423214,4,1,0,100,0,1
286249,-67.8704856787049,4,1,0,100,0,1
286366,-68.4942266907549,4,1,0,100,0,1
286453,-68.9655172413793,4,1,0,100,0,1
286540,-69.4433383770009,4,1,0,100,0,1
286627,-69.9278267842823,4,1,0,100,0,1
286714,-70.4191229911976,4,1,0,100,0,1
286831,-71.0908201532692,4,1,0,100,0,1
286947,-71.7695473251029,4,1,0,100,0,1
287063,-72.4613594814692,4,1,0,100,0,1
287121,-72.812291249165,4,1,0,100,0,1
287180,-73.1727783838214,4,1,0,100,0,1
287238,-73.5306518256177,4,1,0,100,0,1
287412,-74.6255883611468,4,1,0,100,0,1
287500,-75.1918599637837,4,1,0,100,0,1
287587,-75.7602085143354,4,1,0,100,0,1
287674,-76.3372143920161,4,1,0,100,0,1
287761,-76.9230769230769,4,1,0,100,0,1
287848,-77.5180016001422,4,1,0,100,0,1
287935,-78.1222003225228,4,1,0,100,0,1
288023,-78.7430016254289,4,1,0,100,0,1
288110,-79.3665240739055,4,1,0,100,0,1
288226,-80.2134118296385,4,1,0,100,0,1
288342,-81.0785681078568,4,1,0,100,0,1
288459,-81.9702951682647,4,1,0,100,0,1
288517,-82.4196597353497,4,1,0,100,0,1
288575,-82.8739783311158,4,1,0,100,0,1
288633,-83.3333333333333,4,1,0,100,0,1
288808,-83.3333333333333,4,1,0,100,0,1
289156,-83.3973679565136,4,1,0,100,0,1
289331,-83.5286502516097,4,1,0,100,0,1
289505,-83.7072280940511,4,1,0,100,0,1
289621,-83.8493751795615,4,1,0,100,0,1
289737,-84.0085173598399,4,1,0,100,0,1
289854,-84.1853470746896,4,1,0,100,0,1
290028,-84.477196043298,4,1,0,100,0,1
290203,-84.8041063752074,4,1,0,100,0,1
290290,-84.9787135033928,4,1,0,100,0,1
290377,-85.1611987445411,4,1,0,100,0,1
290552,-85.5517968756636,4,1,0,100,0,1
290726,-85.9709383019133,4,1,0,100,0,1
290900,-86.4204865789888,4,1,0,100,0,1
291017,-86.7398085815242,4,1,0,100,0,1
291133,-87.0699331143489,4,1,0,100,0,1
291249,-87.413566568549,4,1,0,100,0,1
291337,-87.6833013932027,4,1,0,100,0,1
291424,-87.957681729881,4,1,0,100,0,1
291598,-88.5296148905669,4,1,0,100,0,1
291599,-88.5329917353861,4,1,0,100,0,1
291773,-89.1363569096623,4,1,0,100,0,1
291947,-89.7714920084439,4,1,0,100,0,1
292121,-90.439013189935,4,1,0,100,0,1
292296,-91.1437581270881,4,1,0,100,0,1
292412,-91.6297553561499,4,1,0,100,0,1
292528,-92.1310888812792,4,1,0,100,0,1
292645,-92.6525679890757,4,1,0,100,0,1
292819,-93.4581658745473,4,1,0,100,0,1
292993,-94.300715117073,4,1,0,100,0,1
292994,-94.3056664462192,4,1,0,100,0,1
293081,-94.7412845295844,4,1,0,100,0,1
293168,-95.1866073069362,4,1,0,100,0,1
293342,-96.1070522840986,4,1,0,100,0,1
293517,-97.0740922853624,4,1,0,100,0,1
293691,-98.0782502807024,4,1,0,100,0,1
293807,-98.7721467156025,4,1,0,100,0,1
293924,-99.4924771530102,4,1,0,100,0,1
294040,-100.227498129051,4,1,0,100,0,1
294214,-101.37026575424,4,1,0,100,0,1
294389,-102.570242272922,4,1,0,100,0,1
294476,-103.186424036933,4,1,0,100,0,1
294563,-103.816043879854,4,1,0,100,0,1
294650,-104.45942098287,4,1,0,100,0,1
294738,-105.124527459209,4,1,0,100,0,1
294825,-105.796595589767,4,1,0,100,0,1
294912,-106.48346059114,4,1,0,100,0,1
294999,-107.185495607592,4,1,0,100,0,1
295087,-107.911428936476,4,1,0,100,0,1
295174,-108.645169790938,4,1,0,100,0,1
295261,-109.395297484359,4,1,0,100,0,1
295348,-110.162249383319,4,1,0,100,0,1
295435,-110.946480761181,4,1,0,100,0,1
295523,-111.757788974643,4,1,0,100,0,1
295610,-112.578233747913,4,1,0,100,0,1
295697,-113.417446062048,4,1,0,100,0,1
295784,-114.275962112756,4,1,0,100,0,1
295785,-114.285944485525,4,1,0,100,0,1
295871,-115.154340823626,4,1,0,100,0,1
295959,-116.06361750603,4,1,0,100,0,1
296046,-116.983740669789,4,1,0,100,0,1
296133,-117.925558950457,4,1,0,100,0,1
296220,-118.889734767544,4,1,0,100,0,1
296307,-119.876959822188,4,1,0,100,0,1
296395,-120.89971842621,4,1,0,100,0,1
296482,-121.935528605537,4,1,0,100,0,1
296569,-122.996664379357,4,1,0,100,0,1
296656,-124.083951845132,4,1,0,100,0,1
296743,-125.198255416818,4,1,0,100,0,1
296831,-126.353774995978,4,1,0,100,0,1
296918,-127.525205906433,4,1,0,100,0,1
297005,-128.726510447943,4,1,0,100,0,1
297092,-129.958730386761,4,1,0,100,0,1
297180,-131.237680312916,4,1,0,100,0,1
297267,-132.535451352822,4,1,0,100,0,1
297354,-133.867595813424,4,1,0,100,0,1
297441,-135.235379679875,4,1,0,100,0,1
297528,-136.640133853137,4,1,0,100,0,1
297616,-138.100074674756,4,1,0,100,0,1
297703,-139.583509815055,4,1,0,100,0,1
297790,-141.108359074391,4,1,0,100,0,1
297877,-142.676259066096,4,1,0,100,0,1
297964,-144.288935787723,4,1,0,100,0,1
298052,-145.967561164119,4,1,0,100,0,1
298139,-147.675927400579,4,1,0,100,0,1
298226,-149.434872693561,4,1,0,100,0,1
298313,-151.246548748114,4,1,0,100,0,1
298400,-153.113233123654,4,1,0,100,0,1
298488,-155.059798300581,4,1,0,100,0,1
298575,-157.044587579251,4,1,0,100,0,1
298645,-158.686948439879,4,1,0,100,0,1
298714,-160.347039240818,4,1,0,100,0,1
298784,-162.074527820937,4,1,0,100,0,1
298854,-163.847306168634,4,1,0,100,0,1
298924,-165.667106156818,4,1,0,100,0,1
298993,-167.508702368171,4,1,0,100,0,1
299063,-169.427369434278,4,1,0,100,0,1
299133,-171.398790489356,4,1,0,100,0,1
299203,-173.425094839787,4,1,0,100,0,1
299273,-175.508528886235,4,1,0,100,0,1
299342,-177.620420455223,4,1,0,100,0,1
299412,-179.824458770888,4,1,0,100,0,1
299482,-182.093114607209,4,1,0,100,0,1
299552,-184.429189160723,4,1,0,100,0,1
299621,-186.800760907456,4,1,0,100,0,1
299691,-189.279676524927,4,1,0,100,0,1
299761,-191.835407608414,4,1,0,100,0,1
299831,-194.471492173227,4,1,0,100,0,1
299900,-197.152219412985,4,1,0,100,0,1
299970,-199.959241380233,4,1,0,100,0,1
299973,-200,4,1,0,100,0,0
300145,-200.363423701909,4,1,0,100,0,0
300319,-200.72817057605,4,1,0,100,0,0
300493,-201.094247861814,4,1,0,100,0,0
300581,-201.279899286614,4,1,0,100,0,0
300668,-201.46377831214,4,1,0,100,0,0
300755,-201.647993609821,4,1,0,100,0,0
300842,-201.832546102947,4,1,0,100,0,0
301017,-202.20479743687,4,1,0,100,0,0
301191,-202.576285503115,4,1,0,100,0,0
301278,-202.762541876711,4,1,0,100,0,0
301366,-202.951287882795,4,1,0,100,0,0
301540,-203.32552643571,4,1,0,100,0,0
301714,-203.701147716776,4,1,0,100,0,0
301889,-204.080330170616,4,1,0,100,0,0
301976,-204.269363854139,4,1,0,100,0,0
302063,-204.458748055159,4,1,0,100,0,0
302150,-204.648483749507,4,1,0,100,0,0
302238,-204.840758890917,4,1,0,100,0,0
302412,-205.222004727829,4,1,0,100,0,0
302587,-205.606875709969,4,1,0,100,0,0
302674,-205.798749289369,4,1,0,100,0,0
302761,-205.990981318445,4,1,0,100,0,0
302935,-206.376524750984,4,1,0,100,0,0
303110,-206.765742367255,4,1,0,100,0,0
303284,-207.154194154421,4,1,0,100,0,0
303371,-207.348967902302,4,1,0,100,0,0
303459,-207.546353389152,4,1,0,100,0,0
303546,-207.741865627199,4,1,0,100,0,0
303633,-207.937746564356,4,1,0,100,0,0
303895,-208.529878486186,4,1,0,100,0,0
303982,-208.727248990959,4,1,0,100,0,0
304156,-209.123112976184,4,1,0,100,0,0
304157,-209.125392396233,4,1,0,100,0,0
304243,-209.321608588448,4,1,0,100,0,0
304331,-209.522769465982,4,1,0,100,0,0
304418,-209.722024857077,4,1,0,100,0,0
304505,-209.921659591229,4,1,0,100,0,0
304680,-210.324377062299,4,1,0,100,0,0
304767,-210.525160752299,4,1,0,100,0,0
304854,-210.726328160181,4,1,0,100,0,0
304941,-210.927880386983,4,1,0,100,0,0
305028,-211.12981853796,4,1,0,100,0,0
305290,-211.740296432,4,1,0,100,0,0
305377,-211.943793911007,4,1,0,100,0,0
305552,-212.35431493431,4,1,0,100,0,0
305726,-212.764069864153,4,1,0,100,0,0
305900,-213.17540916212,4,1,0,100,0,0
305988,-213.384049025169,4,1,0,100,0,0
306075,-213.590719836128,4,1,0,100,0,0
306162,-213.797791372759,4,1,0,100,0,0
306249,-214.005264801678,4,1,0,100,0,0
306337,-214.215533026663,4,1,0,100,0,0
306424,-214.423818411435,4,1,0,100,0,0
306511,-214.63250922922,4,1,0,100,0,0
306598,-214.84160666495,4,1,0,100,0,0
306773,-215.263441342788,4,1,0,100,0,0
306860,-215.473770510214,4,1,0,100,0,0
306947,-215.684511095622,4,1,0,100,0,0
307121,-216.107231358414,4,1,0,100,0,0
307296,-216.534055640201,4,1,0,100,0,0
307383,-216.746876341535,4,1,0,100,0,0
307470,-216.960115796497,4,1,0,100,0,0
307557,-217.173775242235,4,1,0,100,0,0
307645,-217.390319071791,4,1,0,100,0,0
307732,-217.604827093423,4,1,0,100,0,0
307819,-217.819758861061,4,1,0,100,0,0
307993,-218.250898666788,4,1,0,100,0,0
308168,-218.686241209123,4,1,0,100,0,0
308255,-218.903315610524,4,1,0,100,0,0
308342,-219.120821389006,4,1,0,100,0,0
308343,-219.123323968112,4,1,0,100,0,0
308517,-219.559644786231,4,1,0,100,0,0
308691,-219.997706685013,4,1,0,100,0,0
308866,-220.440052852301,4,1,0,100,0,0
308953,-220.660624741225,4,1,0,100,0,0
309040,-220.88163847987,4,1,0,100,0,0
309127,-221.103095397239,4,1,0,100,0,0
309214,-221.324996827667,4,1,0,100,0,0
309476,-221.995950245878,4,1,0,100,0,0
309563,-222.219648358776,4,1,0,100,0,0
309738,-222.670984065086,4,1,0,100,0,0
309912,-223.121562060264,4,1,0,100,0,0
309999,-223.347535563782,4,1,0,100,0,0
310087,-223.576572587223,4,1,0,100,0,0
310174,-223.803469152076,4,1,0,100,0,0
310261,-224.030826716488,4,1,0,100,0,0
310435,-224.486930475277,4,1,0,100,0,0
310523,-224.71831150882,4,1,0,100,0,0
310610,-224.947532564983,4,1,0,100,0,0
310697,-225.17722172668,4,1,0,100,0,0
310784,-225.407380429291,4,1,0,100,0,0
310959,-225.871771326317,4,1,0,100,0,0
311046,-226.103352778269,4,1,0,100,0,0
311133,-226.335409588524,4,1,0,100,0,0
311307,-226.800955150484,4,1,0,100,0,0
311482,-227.27111195347,4,1,0,100,0,0
311656,-227.740518725147,4,1,0,100,0,0
311743,-227.975949998812,4,1,0,100,0,0
311831,-228.214583085524,4,1,0,100,0,0
311918,-228.450996034912,4,1,0,100,0,0
312005,-228.6878993039,4,1,0,100,0,0
312180,-229.165920139511,4,1,0,100,0,0
312354,-229.643194848409,4,1,0,100,0,0
312441,-229.882578480709,4,1,0,100,0,0
312528,-230.122461708227,4,1,0,100,0,0
312529,-230.12522189704,4,1,0,100,0,0
312703,-230.606504964062,4,1,0,100,0,0
312877,-231.089805357487,4,1,0,100,0,0
313052,-231.577930934592,4,1,0,100,0,0
313139,-231.821367294169,4,1,0,100,0,0
313226,-232.065315996371,4,1,0,100,0,0
313313,-232.309778660338,4,1,0,100,0,0
313400,-232.554756912037,4,1,0,100,0,0
313488,-232.803077184425,4,1,0,100,0,0
313575,-233.049097490465,4,1,0,100,0,0
313749,-233.542701334112,4,1,0,100,0,0
313837,-233.793137063755,4,1,0,100,0,0
313924,-234.041255474096,4,1,0,100,0,0
314098,-234.539075584025,4,1,0,100,0,0
314273,-235.041897388151,4,1,0,100,0,0
314447,-235.543988017777,4,1,0,100,0,0
314534,-235.795838607789,4,1,0,100,0,0
314621,-236.048228346457,4,1,0,100,0,0
314709,-236.30406936644,4,1,0,100,0,0
314796,-236.557548856421,4,1,0,100,0,0
315057,-237.321260699619,4,1,0,100,0,0
315145,-237.579870226361,4,1,0,100,0,0
315319,-238.092874339182,4,1,0,100,0,0
315406,-238.350208087459,4,1,0,100,0,0
315493,-238.608098696647,4,1,0,100,0,0
315581,-238.869521912351,4,1,0,100,0,0
315668,-239.128538132689,4,1,0,100,0,0
315842,-239.648259408686,4,1,0,100,0,0
315930,-239.911968088432,4,1,0,100,0,0
316017,-240.173251214261,4,1,0,100,0,0
316104,-240.435104076594,4,1,0,100,0,0
316191,-240.697528540961,4,1,0,100,0,0
316453,-241.491289900312,4,1,0,100,0,0
316540,-241.75602625975,4,1,0,100,0,0
316714,-242.287244118353,4,1,0,100,0,0
316715,-242.290303841588,4,1,0,100,0,0
316889,-242.823874854452,4,1,0,100,0,0
317063,-243.359801111139,4,1,0,100,0,0
317150,-243.628652334574,4,1,0,100,0,0
317238,-243.901198784689,4,1,0,100,0,0
317325,-244.171248218286,4,1,0,100,0,0
317412,-244.441896316681,4,1,0,100,0,0
317499,-244.71314507283,4,1,0,100,0,0
317587,-244.988124728656,4,1,0,100,0,0
317674,-245.260587776599,4,1,0,100,0,0
317761,-245.533657537753,4,1,0,100,0,0
317935,-246.081625323859,4,1,0,100,0,0
318023,-246.359690798428,4,1,0,100,0,0
318110,-246.635214870615,4,1,0,100,0,0
318284,-247.188116005514,4,1,0,100,0,0
318459,-247.746700756695,4,1,0,100,0,0
318546,-248.025337728654,4,1,0,100,0,0
318633,-248.304602163897,4,1,0,100,0,0
318720,-248.584496184294,4,1,0,100,0,0
318807,-248.865021921291,4,1,0,100,0,0
318895,-249.149416928551,4,1,0,100,0,0
318982,-249.431219854652,4,1,0,100,0,0
319069,-249.713660974594,4,1,0,100,0,0
319156,-249.996742458792,4,1,0,100,0,0
319331,-250,4,1,0,100,0,0
319418,-251.846820073024,4,1,0,100,0,0
319505,-253.721129170231,4,1,0,100,0,0
319680,-257.577073382544,4,1,0,100,0,0
319767,-259.537976898845,4,1,0,100,0,0
319854,-261.528965699674,4,1,0,100,0,0
320028,-265.604011820543,4,1,0,100,0,0
320116,-267.713692571532,4,1,0,100,0,0
320203,-269.832605531295,4,1,0,100,0,0
320377,-274.172675171011,4,1,0,100,0,0
320464,-276.39548970273,4,1,0,100,0,0
320552,-278.6808230762,4,1,0,100,0,0
320726,-283.312637310154,4,1,0,100,0,0
320813,-285.68676555577,4,1,0,100,0,0
320900,-80,4,1,0,100,0,0
321074,-77.9267202859696,4,1,0,100,0,0
321248,-75.9581881533101,4,1,0,100,0,0
321336,-75,4,1,0,100,0,0
321423,-74.0761715984709,4,1,0,100,0,0
321510,-73.1748251748252,4,1,0,100,0,0
321597,-72.2951499240016,4,1,0,100,0,0
321684,-71.4363735663572,4,1,0,100,0,0
321772,-70.5882352941176,4,1,0,100,0,0
321859,-69.7693025736765,4,1,0,100,0,0
321946,-68.9691537041919,4,1,0,100,0,0
322033,-68.1871497458621,4,1,0,100,0,0
322296,-50,4,1,0,100,0,0
322472,-125,4,1,0,100,0,0
322647,-123.375341072133,4,1,0,100,0,0
322821,-121.792643537751,4,1,0,100,0,0
322995,-120.250566658977,4,1,0,100,0,0
323112,-119.235846540285,4,1,0,100,0,0
323228,-118.246983592808,4,1,0,100,0,0
323344,-117.274871981562,4,1,0,100,0,0
323519,-115.839253589529,4,1,0,100,0,0
323693,-114.4477078677,4,1,0,100,0,0
323694,-114.439811707737,4,1,0,100,0,0
323780,-113.765003453589,4,1,0,100,0,0
323868,-113.083133782395,4,1,0,100,0,0
323955,-112.41746474882,4,1,0,100,0,0
324042,-111.760071706738,4,1,0,100,0,0
324216,-110.469616643938,4,1,0,100,0,0
324391,-109.203653689207,4,1,0,100,0,0
324507,-108.38167220221,4,1,0,100,0,0
324623,-107.573066499251,4,1,0,100,0,0
324740,-106.770774468116,4,1,0,100,0,0
324914,-105.601739047151,4,1,0,100,0,0
325088,-104.460806716856,4,1,0,100,0,0
325089,-104.454329294828,4,1,0,100,0,0
325176,-103.894228578491,4,1,0,100,0,0
325263,-103.340854963332,4,1,0,100,0,0
325350,-102.794113113783,4,1,0,100,0,0
325437,-102.253909462685,4,1,0,100,0,0
325524,-101.720152172799,4,1,0,100,0,0
325612,-101.186725621373,4,1,0,100,0,0
325699,-100.665663810058,4,1,0,100,0,0
325786,-100.150781868171,4,1,0,100,0,0
325902,-99.4737385945647,4,1,0,100,0,0
326019,-98.8016333158128,4,1,0,100,0,0
326135,-98.1457605708246,4,1,0,100,0,0
326309,-97.1811202094261,4,1,0,100,0,0
326397,-96.7018442803164,4,1,0,100,0,0
326484,-96.2335844625945,4,1,0,100,0,0
326600,-95.6177250070084,4,1,0,100,0,0
326716,-95.0114083361359,4,1,0,100,0,0
326833,-94.4093616114512,4,1,0,100,0,0
326949,-93.8217119059251,4,1,0,100,0,0
327065,-93.2431140218822,4,1,0,100,0,0
327181,-92.6734123339569,4,1,0,100,0,0
327298,-92.1076565597257,4,1,0,100,0,0
327414,-91.5553681686288,4,1,0,100,0,0
327530,-91.0115290972008,4,1,0,100,0,0
327705,-90.2067578926771,4,1,0,100,0,0
327879,-89.4248639473892,4,1,0,100,0,0
327880,-89.4204221015832,4,1,0,100,0,0
327966,-89.040610548047,4,1,0,100,0,0
328054,-88.656405336288,4,1,0,100,0,0
328141,-88.2809259685519,4,1,0,100,0,0
328228,-87.9097285077555,4,1,0,100,0,0
328315,-87.5427609949098,4,1,0,100,0,0
328402,-87.1799723449912,4,1,0,100,0,0
328490,-86.8172136085139,4,1,0,100,0,0
328577,-86.4626794459407,4,1,0,100,0,0
328693,-85.9962280494078,4,1,0,100,0,0
328809,-85.5368285688551,4,1,0,100,0,0
328926,-85.0805000029684,4,1,0,100,0,0
329013,-84.745690852233,4,1,0,100,0,0
329100,-84.4146803973103,4,1,0,100,0,0
329187,-84.0874247259483,4,1,0,100,0,0
329274,-83.7638806481684,4,1,0,100,0,0
329275,-83.7601831606493,4,1,0,100,0,0
329362,-83.4403501249003,4,1,0,100,0,0
329449,-83.1241439402865,4,1,0,100,0,0
329536,-82.8115235126351,4,1,0,100,0,0
329623,-82.502448418336,4,1,0,100,0,0
329711,-82.1933868241782,4,1,0,100,0,0
329798,-81.8913233666655,4,1,0,100,0,0
329885,-81.5926874358165,4,1,0,100,0,0
329972,-81.2974411781456,4,1,0,100,0,0
330088,-80.908988045184,4,1,0,100,0,0
330205,-80.5231354265662,4,1,0,100,0,0
330321,-80.1463937286394,4,1,0,100,0,0
330408,-79.867585770088,4,1,0,100,0,0
330495,-79.5919524528505,4,1,0,100,0,0
330583,-79.3163460244643,4,1,0,100,0,0
330670,-79.0469967081917,4,1,0,100,0,0
330786,-78.6926413104455,4,1,0,100,0,0
330902,-78.3436757162937,4,1,0,100,0,0
331019,-77.9970858430157,4,1,0,100,0,0
331106,-77.7428261331805,4,1,0,100,0,0
331193,-77.4914847276996,4,1,0,100,0,0
331280,-77.2430319254747,4,1,0,100,0,0
331368,-76.994632092476,4,1,0,100,0,0
331455,-76.75190163804,4,1,0,100,0,0
331542,-76.5119731526706,4,1,0,100,0,0
331629,-76.274818775875,4,1,0,100,0,0
331716,-76.0404110870205,4,1,0,100,0,0
331804,-75.8060757239247,4,1,0,100,0,0
331891,-75.5771116751839,4,1,0,100,0,0
331978,-75.350814321719,4,1,0,100,0,0
332065,-75.1271579359408,4,1,0,100,0,0
332066,-75.1246024262335,4,1,0,100,0,0
332181,-74.8330138835406,4,1,0,100,0,0
332298,-74.540984633195,4,1,0,100,0,0
332414,-74.2560040352698,4,1,0,100,0,0
332530,-73.9754999327962,4,1,0,100,0,0
332647,-73.6970560678817,4,1,0,100,0,0
332763,-73.4253776402348,4,1,0,100,0,0
332879,-73.1580128123937,4,1,0,100,0,0
332937,-73.025931740016,4,1,0,100,0,0
332995,-72.8949096940333,4,1,0,100,0,0
333112,-72.6338038120768,4,1,0,100,0,0
333170,-72.5059390909389,4,1,0,100,0,0
333228,-72.3791084196306,4,1,0,100,0,0
333286,-72.2533057440915,4,1,0,100,0,0
333458,-71.8798984739379,4,1,0,100,0,0
333545,-71.6976742437833,4,1,0,100,0,0
333632,-71.5176904052025,4,1,0,100,0,0
333719,-71.3399279403862,4,1,0,100,0,0
333806,-71.1643681324169,4,1,0,100,0,0
333894,-70.9890123646141,4,1,0,100,0,0
333981,-70.8178276946499,4,1,0,100,0,0
334068,-70.6487910889098,4,1,0,100,0,0
334155,-70.4818849939014,4,1,0,100,0,0
334271,-70.2626278453298,4,1,0,100,0,0
334330,-70.1525375603205,4,1,0,100,0,0
334388,-70.0452453448428,4,1,0,100,0,0
334504,-69.8334138225624,4,1,0,100,0,0
334591,-69.6769300600247,4,1,0,100,0,0
334678,-69.5224770397201,4,1,0,100,0,0
334766,-69.3682985801897,4,1,0,100,0,0
334853,-69.2178831692172,4,1,0,100,0,0
334940,-69.0694520595136,4,1,0,100,0,0
335027,-68.9229903283902,4,1,0,100,0,0
335115,-68.7768336022368,4,1,0,100,0,0
335202,-68.6342890474909,4,1,0,100,0,0
335289,-68.493670385978,4,1,0,100,0,0
335376,-68.3549636500832,4,1,0,100,0,0
335463,-68.2181551024179,4,1,0,100,0,0
335551,-68.0816912877171,4,1,0,100,0,0
335667,-67.9047301302774,4,1,0,100,0,0
335725,-67.8174873793032,4,1,0,100,0,0
335783,-67.731064772885,4,1,0,100,0,0
335899,-67.5606650275799,4,1,0,100,0,0
335987,-67.4335564973213,4,1,0,100,0,0
336074,-67.3097107688209,4,1,0,100,0,0
336161,-67.1876609953736,4,1,0,100,0,0
336248,-67.0673953878879,4,1,0,100,0,0
336249,-67.0660233509164,4,1,0,100,0,0
336335,-66.9489023599333,4,1,0,100,0,0
336423,-66.8308389744074,4,1,0,100,0,0
336510,-66.7158771953817,4,1,0,100,0,0
336597,-66.6026543030667,4,1,0,100,0,0
336684,-66.4911594998648,4,1,0,100,0,0
336771,-66.38138217905,4,1,0,100,0,0
336859,-66.2720796191262,4,1,0,100,0,0
336946,-66.165725640465,4,1,0,100,0,0
337062,-66.0265423363902,4,1,0,100,0,0
337120,-65.9580678338469,4,1,0,100,0,0
337178,-65.8903342724599,4,1,0,100,0,0
337295,-65.7559427251054,4,1,0,100,0,0
337382,-65.6579441594922,4,1,0,100,0,0
337469,-65.5615846298681,4,1,0,100,0,0
337556,-65.4668551572841,4,1,0,100,0,0
337644,-65.3726861148347,4,1,0,100,0,0
337731,-65.2812089867863,4,1,0,100,0,0
337818,-65.1913358997968,4,1,0,100,0,0
337905,-65.1030585491911,4,1,0,100,0,0
337992,-65.0163687941112,4,1,0,100,0,0
338080,-64.9302895304172,4,1,0,100,0,0
338167,-64.8467692128085,4,1,0,100,0,0
338254,-64.764812947843,4,1,0,100,0,0
338341,-64.6844132358174,4,1,0,100,0,0
338458,-64.5787308073029,4,1,0,100,0,0
338516,-64.5273745836549,4,1,0,100,0,0
338574,-64.4767005365281,4,1,0,100,0,0
338690,-64.3773908149039,4,1,0,100,0,0
338777,-64.3046842311042,4,1,0,100,0,0
338865,-64.2326828366597,4,1,0,100,0,0
338952,-64.1630165308168,4,1,0,100,0,0
339039,-64.0948521365273,4,1,0,100,0,0
339097,-64.0502405634697,4,1,0,100,0,0
339155,-64.0062919899842,4,1,0,100,0,0
339213,-63.9630046602823,4,1,0,100,0,0
339301,-63.8985862045184,4,1,0,100,0,0
339388,-63.8363864339758,4,1,0,100,0,0
339475,-63.775659233459,4,1,0,100,0,0
339562,-63.7163991722559,4,1,0,100,0,0
339649,-63.6586009582567,4,1,0,100,0,0
339737,-63.6016202815809,4,1,0,100,0,0
339795,-63.5648771685788,4,1,0,100,0,0
339853,-63.5287777634855,4,1,0,100,0,0
339911,-63.4933206401692,4,1,0,100,0,0
339998,-63.4413361791646,4,1,0,100,0,0
340085,-63.3907890970615,4,1,0,100,0,0
340173,-63.3411186963632,4,1,0,100,0,0
340260,-63.2934494616084,4,1,0,100,0,0
340347,-63.247204515537,4,1,0,100,0,0
340434,-63.2023797741116,4,1,0,100,0,0
340435,-63.201872787574,4,1,0,100,0,0
340492,-63.1732836576547,4,1,0,100,0,0
340551,-63.1443305221028,4,1,0,100,0,0
340609,-63.1165006994014,4,1,0,100,0,0
340696,-63.0759295319644,4,1,0,100,0,0
340783,-63.0367634821029,4,1,0,100,0,0
340870,-62.9989991083802,4,1,0,100,0,0
340958,-62.9622232117749,4,1,0,100,0,0
341045,-62.9272683885351,4,1,0,100,0,0
341132,-62.8937056372723,4,1,0,100,0,0
341190,-62.8721023866741,4,1,0,100,0,0
341248,-62.8511156858214,4,1,0,100,0,0
341306,-62.8307447189207,4,1,0,100,0,0
341394,-62.8010111049078,4,1,0,100,0,0
341481,-62.773004348118,4,1,0,100,0,0
341568,-62.7463761746556,4,1,0,100,0,0
341655,-62.7211242611996,4,1,0,100,0,0
341742,-62.6972464058714,4,1,0,100,0,0
341830,-62.6744898073746,4,1,0,100,0,0
341888,-62.6602576185986,4,1,0,100,0,0
341946,-62.6466337634517,4,1,0,100,0,0
342004,-62.6336177149715,4,1,0,100,0,0
342091,-62.615232185261,4,1,0,100,0,0
342178,-62.5982114947092,4,1,0,100,0,0
342237,-62.5874446076233,4,1,0,100,0,0
342295,-62.5774709517366,4,1,0,100,0,0
342353,-62.5681024299888,4,1,0,100,0,0
342440,-62.5551834891296,4,1,0,100,0,0
342527,-62.5436241699554,4,1,0,100,0,0
342585,-62.5366728021337,4,1,0,100,0,0
342644,-62.530220840405,4,1,0,100,0,0
342702,-62.5244867471851,4,1,0,100,0,0
342789,-62.5170163379276,4,1,0,100,0,0
342876,-62.510902238012,4,1,0,100,0,0
342934,-62.507579409857,4,1,0,100,0,0
342992,-62.5048590196484,4,1,0,100,0,0
343051,-62.5027097258457,4,1,0,100,0,0
343109,-62.50120430326,4,1,0,100,0,0
343167,-62.5003010729143,4,1,0,100,0,0
343225,-62.5,4,1,0,100,0,0
344010,-62.5,4,1,0,100,0,0
344097,-64.5081866305552,4,1,0,100,0,0
344184,-66.6497074535742,4,1,0,100,0,0
344272,-68.9655172413793,4,1,0,100,0,0
344359,-71.4188360365272,4,1,0,100,0,0
344446,-74.0531373657434,4,1,0,100,0,0
344533,-76.8892149669846,4,1,0,100,0,0
344622,-50.1109323388252,4,1,0,100,0,0
344969,-100,4,1,0,100,0,0
345056,-99.8229809300088,4,1,0,100,0,0
345231,-98.4082332709871,4,1,0,100,0,0
345318,-97.2278141853714,4,1,0,100,0,0
345492,-94.1081281563144,4,1,0,100,0,0
345580,-92.2398954321366,4,1,0,100,0,0
345754,-88.2149196564953,4,1,0,100,0,0
345841,-86.1289473168753,4,1,0,100,0,0
346016,-81.9833402827417,4,1,0,100,0,0
346103,-80.0110878793901,4,1,0,100,0,0
346190,-78.1313447402593,4,1,0,100,0,0
346277,-76.3631993732667,4,1,0,100,0,0
346365,-74.7034476768489,4,1,0,100,0,0
346452,-73.201180125533,4,1,0,100,0,0
346539,-71.8450384784221,4,1,0,100,0,0
346626,-70.6408731665761,4,1,0,100,0,0
346713,-69.592659167763,4,1,0,100,0,0
346801,-68.6936610470566,4,1,0,100,0,0
346888,-67.9658640324797,4,1,0,100,0,0
346975,-67.3989770164802,4,1,0,100,0,0
347062,-66.9934004364706,4,1,0,100,0,0
347120,-66.8127143497421,4,1,0,100,0,0
347179,-66.7025572164967,4,1,0,100,0,0
347237,-66.6666666666667,4,1,0,100,0,0
347412,-50.1253130978807,4,1,0,100,0,0
347415,-50.1253130978807,4,1,0,100,0,1
347587,-80.1603208830514,4,1,0,100,0,1
349853,-76.9230769230769,4,1,0,100,0,1
349940,-72.7386411004585,4,1,0,100,0,1
350115,-65.5645312793537,4,1,0,100,0,1
350202,-62.5,4,1,0,100,0,1
350290,-80,4,1,0,100,0,1
352992,-76.9230769230769,4,1,0,100,0,1
352993,-76.9230769230769,4,1,0,100,0,1
353080,-75.6786909631833,4,1,0,100,0,1
353167,-74.4739249771272,4,1,0,100,0,1
353254,-73.306916426513,4,1,0,100,0,1
353341,-72.1759177159071,4,1,0,100,0,1
353429,-71.066876200454,4,1,0,100,0,1
353516,-70.0034399724802,4,1,0,100,0,1
353603,-68.9713607863074,4,1,0,100,0,1
353690,-67.9692718770875,4,1,0,100,0,1
353806,-66.6775884665793,4,1,0,100,0,1
353923,-65.4235653431924,4,1,0,100,0,1
354039,-64.2259744358529,4,1,0,100,0,1
354097,-63.6434714620797,4,1,0,100,0,1
354155,-63.0714396404773,4,1,0,100,0,1
354213,-62.5095991399171,4,1,0,100,0,1
354388,-62.5,4,1,0,100,0,1
354475,-63.2893017854551,4,1,0,100,0,1
354649,-64.9292628443783,4,1,0,100,0,1
354737,-65.7914591821337,4,1,0,100,0,1
354853,-66.9636000614345,4,1,0,100,0,1
354911,-67.565473423214,4,1,0,100,0,1
354969,-68.1782642689601,4,1,0,100,0,1
355086,-69.4488690665817,4,1,0,100,0,1
355173,-70.424810208367,4,1,0,100,0,1
355260,-71.4285714285714,4,1,0,100,0,1
355347,-72.4613594814692,4,1,0,100,0,1
355434,-73.5244519392917,4,1,0,100,0,1
355522,-74.6319753509072,4,1,0,100,0,1
355609,-75.7602085143354,4,1,0,100,0,1
355696,-76.9230769230769,4,1,0,100,0,1
355785,-50,4,1,0,100,0,1
355872,-80,4,1,0,100,0,1
358575,-50,4,1,0,100,0,1
358662,-80,4,1,0,100,0,1
361016,-76.9230769230769,4,1,0,100,0,1
361103,-72.7386411004585,4,1,0,100,0,1
361277,-65.6015037593985,4,1,0,100,0,1
361365,-62.5,4,1,0,100,0,1
361539,-83.3333333333333,4,1,0,100,0,1
361713,-82.4346101400769,4,1,0,100,0,1
361800,-81.9924788853955,4,1,0,100,0,1
361888,-81.5500643816298,4,1,0,100,0,1
361975,-81.1173456940717,4,1,0,100,0,1
362062,-80.6891949281077,4,1,0,100,0,1
362149,-80.2655401327701,4,1,0,100,0,1
362236,-79.846310860299,4,1,0,100,0,1
362324,-79.4266945356823,4,1,0,100,0,1
362411,-79.0161596958175,4,1,0,100,0,1
362498,-78.6098469176665,4,1,0,100,0,1
362585,-78.2076914030342,4,1,0,100,0,1
362672,-77.8096296729655,4,1,0,100,0,1
362760,-77.4110936499622,4,1,0,100,0,1
362934,-76.63497551138,4,1,0,100,0,1
363108,-75.8742655028809,4,1,0,100,0,1
363196,-75.4952602599762,4,1,0,100,0,1
363283,-75.1242657026661,4,1,0,100,0,1
363370,-74.7568995559553,4,1,0,100,0,1
363457,-74.3931088488645,4,1,0,100,0,1
363544,-74.0328416365154,4,1,0,100,0,1
363632,-73.6719658782474,4,1,0,100,0,1
363719,-73.3186328555678,4,1,0,100,0,1
363806,-72.9686728479728,4,1,0,100,0,1
363893,-72.6220377853009,4,1,0,100,0,1
363981,-72.2747527442669,4,1,0,100,0,1
364068,-71.9346638541836,4,1,0,100,0,1
364155,-71.5977605512489,4,1,0,100,0,1
364156,-71.5939064434516,4,1,0,100,0,1
364329,-70.9333333333333,4,1,0,100,0,1
364504,-70.2774108322325,4,1,0,100,0,1
364591,-69.9558173784978,4,1,0,100,0,1
364679,-69.6335078534031,4,1,0,100,0,1
364766,-69.3177672382342,4,1,0,100,0,1
364853,-69.0048770364221,4,1,0,100,0,1
364940,-68.6947988223749,4,1,0,100,0,1
365027,-68.3874948580831,4,1,0,100,0,1
365115,-68.0794430794431,4,1,0,100,0,1
365202,-67.7776079090863,4,1,0,100,0,1
365289,-67.478437341451,4,1,0,100,0,1
365376,-67.1818962469061,4,1,0,100,0,1
365463,-66.8879501106417,4,1,0,100,0,1
365551,-66.5932305227318,4,1,0,100,0,1
365638,-66.3044020140585,4,1,0,100,0,1
365725,-66.0180681028492,4,1,0,100,0,1
365812,-65.7341966094993,4,1,0,100,0,1
365899,-65.4527559055118,4,1,0,100,0,1
365987,-65.1705213641709,4,1,0,100,0,1
366074,-64.8938765552574,4,1,0,100,0,1
366161,-64.6195704984938,4,1,0,100,0,1
366248,-64.3475736610383,4,1,0,100,0,1
366336,-64.0747699571229,4,1,0,100,0,1
366423,-63.8073306467089,4,1,0,100,0,1
366510,-63.5421145669103,4,1,0,100,0,1
366597,-63.2790941098106,4,1,0,100,0,1
366655,-63.1049535016132,4,1,0,100,0,1
366713,-62.9317687139207,4,1,0,100,0,1
366772,-62.7565705657528,4,1,0,100,0,1
366859,-62.5,4,1,0,100,0,1
366947,-49.9999998509884,4,1,0,100,0,1
367035,-80.000000333786,4,1,0,100,0,1
369738,-49.9999998509884,4,1,0,100,0,1
369825,-80.000000333786,4,1,0,100,0,1
372179,-76.9230769230769,4,1,0,100,0,1
372266,-72.7386411004585,4,1,0,100,0,1
372440,-65.6015037593985,4,1,0,100,0,1
372527,-62.5335961297259,4,1,0,100,0,1
372616,-80.000000333786,4,1,0,100,0,1
375318,-80,4,1,0,100,0,1
375405,-80.5354669949223,4,1,0,100,0,1
375580,-81.6345628947984,4,1,0,100,0,1
375667,-82.1922110552764,4,1,0,100,0,1
375754,-82.7575302395446,4,1,0,100,0,1
375841,-83.3306798280529,4,1,0,100,0,1
375899,-83.7172104926424,4,1,0,100,0,1
375958,-84.1141020490157,4,1,0,100,0,1
376016,-84.5079518850408,4,1,0,100,0,1
376132,-85.306820959987,4,1,0,100,0,1
376248,-86.1209378856438,4,1,0,100,0,1
376365,-86.9579664396079,4,1,0,100,0,1
376452,-87.5909965693247,4,1,0,100,0,1
376539,-88.2333108563722,4,1,0,100,0,1
376713,-89.546621043627,4,1,0,100,0,1
376714,-89.5542818034049,4,1,0,100,0,1
376801,-90.2258231339424,4,1,0,100,0,1
376975,-91.5995799789989,4,1,0,100,0,1
377062,-92.3022661140993,4,1,0,100,0,1
377237,-93.7488805301809,4,1,0,100,0,1
377411,-95.2328966521106,4,1,0,100,0,1
377527,-96.2486208164766,4,1,0,100,0,1
377586,-96.7735971156513,4,1,0,100,0,1
377644,-97.29528766614,4,1,0,100,0,1
377760,-98.3557267687682,4,1,0,100,0,1
377847,-99.1663508904888,4,1,0,100,0,1
377934,-99.9904479893018,4,1,0,100,0,1
378110,-49.9976115107754,4,1,0,100,0,1
378370,-79.9818255537411,4,1,0,100,0,1
378458,-79.958819520584,4,1,0,100,0,1
378516,-79.9386028926985,4,1,0,100,0,1
378574,-79.9143863924709,4,1,0,100,0,1
378632,-79.8861860256831,4,1,0,100,0,1
378719,-79.8364571424411,4,1,0,100,0,1
378806,-79.7778807012648,4,1,0,100,0,1
378894,-79.7097186486703,4,1,0,100,0,1
378981,-79.6336202139222,4,1,0,100,0,1
379039,-79.5781309371723,4,1,0,100,0,1
379097,-79.5188777223269,4,1,0,100,0,1
379155,-79.455898877305,4,1,0,100,0,1
379242,-79.3545344065826,4,1,0,100,0,1
379330,-79.24371978861,4,1,0,100,0,1
379504,-66.7418110723985,4,1,0,100,0,1
379505,-78.9992396362832,4,1,0,100,0,1
379678,-78.7271762759328,4,1,0,100,0,1
379766,-78.5776750574596,4,1,0,100,0,1
379824,-78.4751812791373,4,1,0,100,0,1
379882,-78.3696149272942,4,1,0,100,0,1
379940,-78.2610397898821,4,1,0,100,0,1
380027,-78.092678544355,4,1,0,100,0,1
380085,-77.9768694416124,4,1,0,100,0,1
380144,-77.8562167725834,4,1,0,100,0,1
380202,-77.7348809181481,4,1,0,100,0,1
380289,-77.5479608650947,4,1,0,100,0,1
380376,-77.3553567917204,4,1,0,100,0,1
380463,-77.1573151192162,4,1,0,100,0,1
380551,-76.9517209470282,4,1,0,100,0,1
380638,-76.7435028127957,4,1,0,100,0,1
380725,-76.5306099667167,4,1,0,100,0,1
380900,-66.7002029940528,4,1,0,100,0,1
381161,-75.4024259969421,4,1,0,100,0,1
381248,-75.1669165705232,4,1,0,100,0,1
381335,-74.9285611491402,4,1,0,100,0,1
381423,-74.6848358905993,4,1,0,100,0,1
381510,-74.441540500824,4,1,0,100,0,1
381568,-74.2781782181787,4,1,0,100,0,1
381626,-74.1139715576738,4,1,0,100,0,1
381684,-73.9489952986554,4,1,0,100,0,1
381771,-73.7002501183954,4,1,0,100,0,1
381946,-73.1961621843213,4,1,0,100,0,1
382004,-73.0282572764223,4,1,0,100,0,1
382062,-72.8600547734038,4,1,0,100,0,1
382120,-72.691624356942,4,1,0,100,0,1
382295,-66.8729604956485,4,1,0,100,0,1
382411,-71.8455288166377,4,1,0,100,0,1
382469,-71.6771500727858,4,1,0,100,0,1
382527,-71.5090079343606,4,1,0,100,0,1
382644,-71.1707981753045,4,1,0,100,0,1
382702,-71.0037443735272,4,1,0,100,0,1
382760,-70.8371720189797,4,1,0,100,0,1
382818,-70.6711395222478,4,1,0,100,0,1
382905,-70.4232282445199,4,1,0,100,0,1
382992,-70.1768497767223,4,1,0,100,0,1
383080,-69.9293865691026,4,1,0,100,0,1
383167,-69.6866431173232,4,1,0,100,0,1
383254,-69.4459703664859,4,1,0,100,0,1
383312,-69.2867553939619,4,1,0,100,0,1
383370,-69.1285839059207,4,1,0,100,0,1
383428,-68.9715032893871,4,1,0,100,0,1
383516,-68.7353606933433,4,1,0,100,0,1
383690,-66.4616416992518,4,1,0,100,0,1
383865,-67.8276180835118,4,1,0,100,0,1
384039,-67.3941572504066,4,1,0,100,0,1
384097,-67.252749542825,4,1,0,100,0,1
384155,-67.112940300913,4,1,0,100,0,1
384213,-66.9747634275659,4,1,0,100,0,1
384301,-66.7683065630461,4,1,0,100,0,1
384388,-66.568073095999,4,1,0,100,0,1
384475,-66.3717981483018,4,1,0,100,0,1
384562,-66.1795803099188,4,1,0,100,0,1
384737,-65.8056011257854,4,1,0,100,0,1
384853,-65.5673147618369,4,1,0,100,0,1
384911,-65.4511179899783,4,1,0,100,0,1
384969,-65.3369164137241,4,1,0,100,0,1
385085,-65.1145872060471,4,1,0,100,0,1
385086,-65.112706157352,4,1,0,100,0,1
385129,-65.0324018193593,4,1,0,100,0,1
385173,-64.95141074068,4,1,0,100,0,1
385260,-64.794818047733,4,1,0,100,0,1
385347,-64.6429921002191,4,1,0,100,0,1
385434,-64.4959936405117,4,1,0,100,0,1
385492,-64.4007051617764,4,1,0,100,0,1
385551,-64.3060182653031,4,1,0,100,0,1
385609,-64.2151586007745,4,1,0,100,0,1
385696,-64.0830335056358,4,1,0,100,0,1
385870,-63.8339500910799,4,1,0,100,0,1
385958,-63.7157674846616,4,1,0,100,0,1
386045,-63.6041278471543,4,1,0,100,0,1
386132,-63.4976967193314,4,1,0,100,0,1
386219,-63.3965097777954,4,1,0,100,0,1
386277,-63.3319818153456,4,1,0,100,0,1
386335,-63.2698087922921,4,1,0,100,0,1
386394,-63.2089891827226,4,1,0,100,0,1
386481,-63.1237874719428,4,1,0,100,0,1
386524,-63.0836556996318,4,1,0,100,0,1
386568,-63.0439504243654,4,1,0,100,0,1
386655,-62.9695027904153,4,1,0,100,0,1
386742,-62.9004673429441,4,1,0,100,0,1
386830,-62.8361655323018,4,1,0,100,0,1
386888,-62.7968335599437,4,1,0,100,0,1
386946,-62.759930010616,4,1,0,100,0,1
387004,-62.7254597018573,4,1,0,100,0,1
387091,-62.6783262516465,4,1,0,100,0,1
387149,-62.6499578599385,4,1,0,100,0,1
387208,-62.6236114439248,4,1,0,100,0,1
387266,-62.6001834450344,4,1,0,100,0,1
387353,-62.5696430221762,4,1,0,100,0,1
387396,-62.5565897172362,4,1,0,100,0,1
387440,-62.5446320676711,4,1,0,100,0,1
387527,-62.5251576372229,4,1,0,100,0,1
387615,-62.511097292362,4,1,0,100,0,1
387702,-62.5027745167395,4,1,0,100,0,1
387789,-62.5,4,1,0,100,0,1
387875,-25,4,1,0,100,0,1
389269,-50,4,1,0,100,0,1
389275,-50,4,1,0,100,0,0

[HitObjects]
256,192,5555,5,4,0:0:0:0:
256,192,5729,12,0,9392,0:0:0:0:
256,192,9566,5,0,0:0:0:0:
256,192,9653,1,0,0:0:0:0:
256,192,9741,1,8,0:0:0:0:
256,192,9915,1,0,0:0:0:0:
256,192,10089,1,0,0:0:0:0:
256,192,10264,1,8,0:0:0:0:
256,192,10613,1,0,0:0:0:0:
256,192,10787,1,8,0:0:0:0:
256,192,10962,1,8,0:0:0:0:
256,192,11136,1,4,0:0:0:0:
256,192,11310,12,0,14973,0:0:0:0:
256,192,15148,5,0,0:0:0:0:
256,192,15206,1,0,0:0:0:0:
256,192,15264,1,0,0:0:0:0:
256,192,15322,1,8,0:0:0:0:
256,192,15438,1,8,0:0:0:0:
256,192,15555,1,0,0:0:0:0:
256,192,15671,1,0,0:0:0:0:
256,192,15787,1,8,0:0:0:0:
256,192,15903,1,0,0:0:0:0:
256,192,16020,1,8,0:0:0:0:
256,192,16281,1,0,0:0:0:0:
256,192,16369,1,8,0:0:0:0:
256,192,16456,1,8,0:0:0:0:
256,192,16543,1,0,0:0:0:0:
256,192,16630,1,0,0:0:0:0:
256,192,16717,1,12,0:0:0:0:
256,192,17415,1,8,0:0:0:0:
256,192,17938,1,8,0:0:0:0:
256,192,18113,1,0,0:0:0:0:
256,192,18287,1,8,0:0:0:0:
256,192,18462,1,0,0:0:0:0:
256,192,18810,1,8,0:0:0:0:
256,192,19334,1,0,0:0:0:0:
256,192,19392,1,0,0:0:0:0:
256,192,19450,1,0,0:0:0:0:
256,192,19508,1,8,0:0:0:0:
256,192,19682,1,0,0:0:0:0:
256,192,19857,1,0,0:0:0:0:
256,192,19944,1,0,0:0:0:0:
256,192,20031,1,8,0:0:0:0:
256,192,20206,1,0,0:0:0:0:
256,192,20380,1,0,0:0:0:0:
256,192,20555,1,8,0:0:0:0:
256,192,20642,1,8,0:0:0:0:
256,192,20729,1,0,0:0:0:0:
256,192,20903,1,8,0:0:0:0:
256,192,21078,1,8,0:0:0:0:
256,192,21136,1,8,0:0:0:0:
256,192,21194,1,8,0:0:0:0:
256,192,21252,1,8,0:0:0:0:
256,192,21427,1,0,0:0:0:0:
256,192,21485,1,0,0:0:0:0:
256,192,21543,1,0,0:0:0:0:
256,192,21601,1,8,0:0:0:0:
256,192,21688,1,8,0:0:0:0:
256,192,21775,1,0,0:0:0:0:
256,192,21863,1,0,0:0:0:0:
256,192,21950,1,8,0:0:0:0:
256,192,22299,1,4,0:0:0:0:
256,192,22996,1,8,0:0:0:0:
256,192,23520,1,8,0:0:0:0:
256,192,23694,1,0,0:0:0:0:
256,192,23869,1,8,0:0:0:0:
256,192,24043,1,0,0:0:0:0:
256,192,24217,1,0,0:0:0:0:
256,192,24275,1,0,0:0:0:0:
256,192,24334,1,0,0:0:0:0:
256,192,24392,1,8,0:0:0:0:
256,192,24741,1,8,0:0:0:0:
256,192,24828,1,8,0:0:0:0:
256,192,24915,1,0,0:0:0:0:
256,192,25002,1,8,0:0:0:0:
256,192,25089,1,0,0:0:0:0:
256,192,25177,1,0,0:0:0:0:
256,192,25264,1,8,0:0:0:0:
256,192,25351,1,0,0:0:0:0:
256,192,25438,1,8,0:0:0:0:
256,192,25613,1,0,0:0:0:0:
256,192,25700,1,0,0:0:0:0:
256,192,25787,1,8,0:0:0:0:
256,192,25874,1,0,0:0:0:0:
256,192,25962,1,8,0:0:0:0:
256,192,26136,1,0,0:0:0:0:
256,192,26223,1,0,0:0:0:0:
256,192,26310,1,0,0:0:0:0:
256,192,26398,1,0,0:0:0:0:
256,192,26485,1,8,0:0:0:0:
256,192,26572,1,0,0:0:0:0:
256,192,26659,1,8,0:0:0:0:
256,192,26834,1,8,0:0:0:0:
256,192,26921,1,8,0:0:0:0:
256,192,27008,1,0,0:0:0:0:
256,192,27095,1,0,0:0:0:0:
256,192,27182,1,0,0:0:0:0:
256,192,27444,1,0,0:0:0:0:
256,192,27706,1,0,0:0:0:0:
256,192,27793,1,0,0:0:0:0:
256,192,27880,1,0,0:0:0:0:
256,192,39043,5,8,0:0:0:0:
256,192,39392,1,8,0:0:0:0:
256,192,39566,1,0,0:0:0:0:
256,192,39741,1,8,0:0:0:0:
256,192,40089,1,8,0:0:0:0:
256,192,40264,1,0,0:0:0:0:
256,192,40613,1,0,0:0:0:0:
256,192,40787,1,8,0:0:0:0:
256,192,41136,1,8,0:0:0:0:
256,192,41485,1,8,0:0:0:0:
256,192,41834,1,8,0:0:0:0:
256,192,42182,1,8,0:0:0:0:
256,192,42357,1,8,0:0:0:0:
256,192,42706,1,8,0:0:0:0:
256,192,42880,1,0,0:0:0:0:
256,192,43055,1,8,0:0:0:0:
256,192,43403,1,0,0:0:0:0:
256,192,43578,1,8,0:0:0:0:
256,192,43927,1,8,0:0:0:0:
256,192,44275,1,8,0:0:0:0:
256,192,44624,1,8,0:0:0:0:
256,192,44973,1,8,0:0:0:0:
256,192,45148,1,8,0:0:0:0:
256,192,45322,1,0,0:0:0:0:
256,192,45496,1,8,0:0:0:0:
256,192,45845,1,0,0:0:0:0:
256,192,46020,1,0,0:0:0:0:
256,192,46194,1,8,0:0:0:0:
256,192,46369,1,8,0:0:0:0:
256,192,46717,1,0,0:0:0:0:
256,192,46892,1,8,0:0:0:0:
256,192,47066,1,0,0:0:0:0:
256,192,47415,1,12,0:0:0:0:
256,192,47764,1,0,0:0:0:0:
256,192,47938,1,8,0:0:0:0:
256,192,48462,1,8,0:0:0:0:
256,192,48810,1,8,0:0:0:0:
256,192,49159,1,8,0:0:0:0:
128,256,49508,6,0,L|352:256,1,210
256,192,50206,1,0,0:0:0:0:
256,192,50380,1,0,0:0:0:0:
256,192,50555,1,8,0:0:0:0:
256,192,50729,1,8,0:0:0:0:
256,192,50903,1,0,0:0:0:0:
256,192,51078,1,0,0:0:0:0:
256,192,51252,1,8,0:0:0:0:
256,192,51427,1,0,0:0:0:0:
256,192,51775,1,0,0:0:0:0:
256,192,51950,1,8,0:0:0:0:
256,192,52124,1,8,0:0:0:0:
256,192,52299,1,0,0:0:0:0:
256,192,52473,1,0,0:0:0:0:
256,192,52648,1,8,0:0:0:0:
256,192,52996,1,0,0:0:0:0:
256,192,53171,1,0,0:0:0:0:
256,192,53345,1,8,0:0:0:0:
256,192,53520,1,8,0:0:0:0:
256,192,53694,1,0,0:0:0:0:
256,192,53869,1,0,0:0:0:0:
256,192,54043,1,8,0:0:0:0:
256,192,54217,1,0,0:0:0:0:
256,192,54566,1,8,0:0:0:0:
256,192,54741,1,8,0:0:0:0:
256,192,54915,1,0,0:0:0:0:
256,192,55089,1,0,0:0:0:0:
256,192,55264,1,8,0:0:0:0:
256,192,55438,1,8,0:0:0:0:
256,192,55496,1,8,0:0:0:0:
256,192,55555,1,8,0:0:0:0:
256,192,55613,1,8,0:0:0:0:
256,192,55787,1,0,0:0:0:0:
256,192,55962,1,0,0:0:0:0:
256,192,56136,1,8,0:0:0:0:
256,192,56310,1,8,0:0:0:0:
256,192,56485,1,0,0:0:0:0:
256,192,56659,1,0,0:0:0:0:
256,192,56834,1,8,0:0:0:0:
256,192,57008,1,0,0:0:0:0:
256,192,57357,1,0,0:0:0:0:
256,192,57531,1,8,0:0:0:0:
256,192,57706,1,8,0:0:0:0:
256,192,57880,1,0,0:0:0:0:
256,192,58055,1,0,0:0:0:0:
256,192,58229,1,8,0:0:0:0:
256,192,58578,1,0,0:0:0:0:
256,192,58752,1,0,0:0:0:0:
256,192,58927,1,8,0:0:0:0:
256,192,59101,1,8,0:0:0:0:
256,192,59275,1,0,0:0:0:0:
256,192,59450,1,0,0:0:0:0:
256,192,59624,1,8,0:0:0:0:
256,192,59799,1,0,0:0:0:0:
256,192,60148,1,8,0:0:0:0:
256,192,60322,1,8,0:0:0:0:
256,192,60496,1,0,0:0:0:0:
256,192,60671,1,8,0:0:0:0:
256,192,60845,1,8,0:0:0:0:
256,192,61020,1,0,0:0:0:0:
256,192,61194,1,8,0:0:0:0:
256,192,61369,1,4,0:0:0:0:
256,192,61630,1,8,0:0:0:0:
256,192,61717,1,0,0:0:0:0:
256,192,61892,1,8,0:0:0:0:
256,192,62066,1,0,0:0:0:0:
256,192,62153,1,0,0:0:0:0:
256,192,62241,1,8,0:0:0:0:
256,192,62415,1,0,0:0:0:0:
256,192,62589,1,8,0:0:0:0:
256,192,62764,1,0,0:0:0:0:
256,192,62938,1,8,0:0:0:0:
256,192,63025,1,8,0:0:0:0:
256,192,63113,1,8,0:0:0:0:
256,192,63287,1,8,0:0:0:0:
256,192,63462,1,0,0:0:0:0:
256,192,63549,1,0,0:0:0:0:
256,192,63636,1,8,0:0:0:0:
256,192,63723,1,8,0:0:0:0:
256,192,63810,1,0,0:0:0:0:
256,192,63985,1,8,0:0:0:0:
256,192,64159,1,4,0:0:0:0:
256,192,64421,1,8,0:0:0:0:
256,192,64508,1,0,0:0:0:0:
256,192,64682,1,8,0:0:0:0:
256,192,64857,1,0,0:0:0:0:
256,192,64944,1,0,0:0:0:0:
256,192,65031,1,8,0:0:0:0:
256,192,65206,1,0,0:0:0:0:
256,192,65380,1,8,0:0:0:0:
256,192,65555,1,0,0:0:0:0:
256,192,65729,1,8,0:0:0:0:
256,192,65816,1,0,0:0:0:0:
256,192,65903,1,8,0:0:0:0:
256,192,66078,1,8,0:0:0:0:
256,192,66252,1,0,0:0:0:0:
256,192,66339,1,0,0:0:0:0:
256,192,66427,1,8,0:0:0:0:
256,192,66514,1,0,0:0:0:0:
256,192,66601,1,8,0:0:0:0:
256,192,66659,1,8,0:0:0:0:
256,192,66717,1,8,0:0:0:0:
256,192,66775,1,8,0:0:0:0:
256,192,66950,1,4,0:0:0:0:
256,192,67124,1,0,0:0:0:0:
256,192,67299,1,8,0:0:0:0:
256,192,67473,1,0,0:0:0:0:
256,192,67648,1,8,0:0:0:0:
256,192,67822,1,0,0:0:0:0:
256,192,67996,1,8,0:0:0:0:
256,192,68171,1,8,0:0:0:0:
256,192,68345,1,8,0:0:0:0:
256,192,68520,1,0,0:0:0:0:
256,192,68694,1,8,0:0:0:0:
256,192,68869,1,0,0:0:0:0:
256,192,69043,1,8,0:0:0:0:
256,192,69217,1,0,0:0:0:0:
256,192,69392,1,8,0:0:0:0:
256,192,69566,1,8,0:0:0:0:
256,192,69741,1,0,0:0:0:0:
256,192,69828,1,0,0:0:0:0:
256,192,69915,1,8,0:0:0:0:
256,192,70002,1,0,0:0:0:0:
256,192,70089,1,8,0:0:0:0:
256,192,70177,1,0,0:0:0:0:
256,192,70264,1,8,0:0:0:0:
256,192,70351,1,0,0:0:0:0:
256,192,70438,1,8,0:0:0:0:
256,192,70525,1,8,0:0:0:0:
256,192,70613,1,0,0:0:0:0:
256,192,70700,1,0,0:0:0:0:
256,192,70787,1,8,0:0:0:0:
256,192,70874,1,0,0:0:0:0:
256,192,70962,1,8,0:0:0:0:
256,192,71310,1,0,0:0:0:0:
256,192,71485,1,0,0:0:0:0:
256,192,71659,1,0,0:0:0:0:
256,192,71834,1,8,0:0:0:0:
256,192,72008,1,0,0:0:0:0:
256,192,72182,1,8,0:0:0:0:
256,192,72531,1,4,0:0:0:0:
256,192,72706,1,0,0:0:0:0:
256,192,72880,1,8,0:0:0:0:
256,192,73055,1,8,0:0:0:0:
256,192,73142,1,8,0:0:0:0:
256,192,73229,1,0,0:0:0:0:
256,192,73403,1,0,0:0:0:0:
256,192,73491,1,0,0:0:0:0:
256,192,73578,1,8,0:0:0:0:
256,192,73665,1,0,0:0:0:0:
256,192,73752,1,8,0:0:0:0:
256,192,73927,1,0,0:0:0:0:
256,192,74101,1,0,0:0:0:0:
256,192,74188,1,0,0:0:0:0:
256,192,74275,1,8,0:0:0:0:
256,192,74450,1,0,0:0:0:0:
256,192,74624,1,8,0:0:0:0:
256,192,74712,1,8,0:0:0:0:
256,192,74799,1,0,0:0:0:0:
256,192,74886,1,0,0:0:0:0:
256,192,74973,1,8,0:0:0:0:
256,192,75148,1,8,0:0:0:0:
256,192,75322,1,0,0:0:0:0:
256,192,75496,1,0,0:0:0:0:
256,192,75671,1,8,0:0:0:0:
256,192,75845,1,8,0:0:0:0:
256,192,75932,1,8,0:0:0:0:
256,192,76020,1,0,0:0:0:0:
256,192,76107,1,0,0:0:0:0:
256,192,76194,1,0,0:0:0:0:
256,192,76369,1,8,0:0:0:0:
256,192,76456,1,0,0:0:0:0:
256,192,76543,1,8,0:0:0:0:
256,192,76717,1,0,0:0:0:0:
256,192,76892,1,0,0:0:0:0:
256,192,76979,1,0,0:0:0:0:
256,192,77066,1,8,0:0:0:0:
256,192,77241,1,8,0:0:0:0:
256,192,77415,1,0,0:0:0:0:
256,192,77502,1,0,0:0:0:0:
256,192,77589,1,8,0:0:0:0:
256,192,77677,1,0,0:0:0:0:
256,192,77764,1,8,0:0:0:0:
256,192,77822,1,8,0:0:0:0:
256,192,77880,1,8,0:0:0:0:
256,192,77938,1,0,0:0:0:0:
256,192,78113,1,4,0:0:0:0:
256,192,78287,1,0,0:0:0:0:
256,192,78462,1,8,0:0:0:0:
256,192,78636,1,8,0:0:0:0:
256,192,78723,1,8,0:0:0:0:
256,192,78810,1,0,0:0:0:0:
256,192,78985,1,0,0:0:0:0:
256,192,79072,1,0,0:0:0:0:
256,192,79159,1,8,0:0:0:0:
256,192,79246,1,0,0:0:0:0:
256,192,79334,1,8,0:0:0:0:
256,192,79508,1,0,0:0:0:0:
256,192,79682,1,0,0:0:0:0:
256,192,79770,1,0,0:0:0:0:
256,192,79857,1,8,0:0:0:0:
256,192,80031,1,8,0:0:0:0:
256,192,80119,1,8,0:0:0:0:
256,192,80206,1,0,0:0:0:0:
256,192,80293,1,8,0:0:0:0:
256,192,80380,1,0,0:0:0:0:
256,192,80555,1,8,0:0:0:0:
256,192,80729,1,8,0:0:0:0:
256,192,80903,1,0,0:0:0:0:
256,192,81078,1,0,0:0:0:0:
256,192,81252,1,8,0:0:0:0:
256,192,81427,1,8,0:0:0:0:
256,192,81514,1,8,0:0:0:0:
256,192,81601,1,0,0:0:0:0:
256,192,81688,1,0,0:0:0:0:
256,192,81775,1,0,0:0:0:0:
256,192,81950,1,8,0:0:0:0:
256,192,82037,1,0,0:0:0:0:
256,192,82124,1,8,0:0:0:0:
256,192,82299,1,0,0:0:0:0:
256,192,82473,1,8,0:0:0:0:
256,192,82648,1,8,0:0:0:0:
256,192,82822,1,0,0:0:0:0:
256,192,82909,1,8,0:0:0:0:
256,192,82996,1,8,0:0:0:0:
256,192,83084,1,8,0:0:0:0:
256,192,83171,1,0,0:0:0:0:
256,192,83345,1,8,0:0:0:0:
256,192,83520,1,8,0:0:0:0:
256,192,83694,1,4,0:0:0:0:
256,192,84043,1,8,0:0:0:0:
256,192,84217,1,8,0:0:0:0:
256,192,84305,1,8,0:0:0:0:
256,192,84392,1,0,0:0:0:0:
256,192,84566,1,0,0:0:0:0:
256,192,84653,1,0,0:0:0:0:
256,192,84741,1,8,0:0:0:0:
256,192,84828,1,0,0:0:0:0:
256,192,84915,1,8,0:0:0:0:
256,192,85089,1,0,0:0:0:0:
256,192,85264,1,0,0:0:0:0:
256,192,85351,1,0,0:0:0:0:
256,192,85438,1,8,0:0:0:0:
256,192,85613,1,0,0:0:0:0:
256,192,85787,1,8,0:0:0:0:
256,192,85874,1,8,0:0:0:0:
256,192,85962,1,0,0:0:0:0:
256,192,86049,1,0,0:0:0:0:
256,192,86136,1,8,0:0:0:0:
256,192,86310,1,8,0:0:0:0:
256,192,86485,1,0,0:0:0:0:
256,192,86659,1,0,0:0:0:0:
256,192,86834,1,8,0:0:0:0:
256,192,87008,1,8,0:0:0:0:
256,192,87095,1,8,0:0:0:0:
256,192,87182,1,0,0:0:0:0:
256,192,87270,1,0,0:0:0:0:
256,192,87357,1,0,0:0:0:0:
256,192,87531,1,8,0:0:0:0:
258,198,87706,1,8,0:0:0:0:
256,192,87880,1,0,0:0:0:0:
256,192,88055,1,8,0:0:0:0:
256,192,88142,1,0,0:0:0:0:
256,192,88229,1,8,0:0:0:0:
256,192,88403,1,8,0:0:0:0:
256,192,88491,1,8,0:0:0:0:
256,192,88578,1,0,0:0:0:0:
256,192,88665,1,8,0:0:0:0:
256,192,88752,1,0,0:0:0:0:
256,192,88927,1,8,0:0:0:0:
256,192,88985,1,8,0:0:0:0:
256,192,89043,1,8,0:0:0:0:
256,192,89101,1,8,0:0:0:0:
256,192,89275,1,4,0:0:0:0:
256,192,89450,1,0,0:0:0:0:
256,192,89624,1,8,0:0:0:0:
256,192,89799,1,0,0:0:0:0:
256,192,89886,1,8,0:0:0:0:
256,192,89973,1,0,0:0:0:0:
256,192,90060,1,0,0:0:0:0:
256,192,90148,1,8,0:0:0:0:
258,198,90322,1,8,0:0:0:0:
256,192,90409,1,0,0:0:0:0:
256,192,90496,1,8,0:0:0:0:
256,192,90671,1,0,0:0:0:0:
256,192,90845,1,0,0:0:0:0:
256,192,91020,1,8,0:0:0:0:
256,192,91194,1,8,0:0:0:0:
256,192,91281,1,8,0:0:0:0:
256,192,91369,1,0,0:0:0:0:
256,192,91456,1,8,0:0:0:0:
256,192,91543,1,0,0:0:0:0:
256,192,91717,1,8,0:0:0:0:
256,192,91892,1,8,0:0:0:0:
256,192,92066,1,0,0:0:0:0:
256,192,92241,1,0,0:0:0:0:
256,192,92415,1,8,0:0:0:0:
256,192,92589,1,0,0:0:0:0:
256,192,92677,1,8,0:0:0:0:
256,192,92764,1,0,0:0:0:0:
256,192,92851,1,8,0:0:0:0:
256,192,92938,1,0,0:0:0:0:
256,192,93113,1,8,0:0:0:0:
258,198,93287,1,8,0:0:0:0:
256,192,93549,1,0,0:0:0:0:
256,192,93636,1,8,0:0:0:0:
256,192,93723,1,8,0:0:0:0:
256,192,93810,1,8,0:0:0:0:
256,192,93898,1,0,0:0:0:0:
256,192,93985,1,8,0:0:0:0:
256,192,94072,1,8,0:0:0:0:
256,192,94159,1,0,0:0:0:0:
256,192,94246,1,0,0:0:0:0:
256,192,94334,1,8,0:0:0:0:
256,192,94421,1,0,0:0:0:0:
256,192,94508,1,8,0:0:0:0:
256,192,94595,1,8,0:0:0:0:
256,192,94682,1,0,0:0:0:0:
256,192,94770,1,8,0:0:0:0:
256,192,94857,1,4,0:0:0:0:
256,192,95031,1,0,0:0:0:0:
256,192,95119,1,0,0:0:0:0:
256,192,95206,1,0,0:0:0:0:
256,192,95380,1,0,0:0:0:0:
256,192,95555,1,12,0:0:0:0:
256,192,95729,1,0,0:0:0:0:
256,192,95816,1,0,0:0:0:0:
256,192,95903,1,8,0:0:0:0:
256,192,96078,1,8,0:0:0:0:
256,192,96252,1,4,0:0:0:0:
256,192,96427,1,8,0:0:0:0:
256,192,96514,1,0,0:0:0:0:
256,192,96601,1,8,0:0:0:0:
256,192,96775,1,0,0:0:0:0:
256,192,96950,1,12,0:0:0:0:
256,192,97124,1,0,0:0:0:0:
256,192,97299,1,8,0:0:0:0:
256,192,97386,1,8,0:0:0:0:
256,192,97473,1,8,0:0:0:0:
256,192,97648,1,4,0:0:0:0:
256,192,97822,1,0,0:0:0:0:
256,192,97909,1,0,0:0:0:0:
256,192,97996,1,8,0:0:0:0:
256,192,98171,1,0,0:0:0:0:
256,192,98345,1,12,0:0:0:0:
256,192,98520,1,0,0:0:0:0:
256,192,98607,1,0,0:0:0:0:
256,192,98694,1,8,0:0:0:0:
256,192,98781,1,0,0:0:0:0:
256,192,98869,1,8,0:0:0:0:
256,192,99043,1,4,0:0:0:0:
256,192,99217,1,8,0:0:0:0:
256,192,99305,1,8,0:0:0:0:
256,192,99392,1,8,0:0:0:0:
256,192,99566,1,0,0:0:0:0:
256,192,99741,1,12,0:0:0:0:
256,192,99915,1,0,0:0:0:0:
256,192,100089,1,8,0:0:0:0:
256,192,100148,1,8,0:0:0:0:
256,192,100206,1,8,0:0:0:0:
256,192,100264,1,8,0:0:0:0:
256,192,100438,1,4,0:0:0:0:
256,192,100613,1,0,0:0:0:0:
256,192,100700,1,0,0:0:0:0:
256,192,100787,1,0,0:0:0:0:
256,192,100962,1,0,0:0:0:0:
256,192,101136,1,12,0:0:0:0:
256,192,101310,1,0,0:0:0:0:
256,192,101398,1,0,0:0:0:0:
256,192,101485,1,8,0:0:0:0:
256,192,101659,1,8,0:0:0:0:
256,192,101834,1,4,0:0:0:0:
256,192,102008,1,0,0:0:0:0:
256,192,102095,1,0,0:0:0:0:
256,192,102182,1,8,0:0:0:0:
256,192,102270,1,8,0:0:0:0:
256,192,102357,1,0,0:0:0:0:
256,192,102531,1,12,0:0:0:0:
256,192,102706,1,0,0:0:0:0:
256,192,102880,1,8,0:0:0:0:
256,192,102967,1,8,0:0:0:0:
256,192,103055,1,8,0:0:0:0:
256,192,103229,1,4,0:0:0:0:
256,192,103403,1,0,0:0:0:0:
256,192,103491,1,0,0:0:0:0:
256,192,103578,1,8,0:0:0:0:
256,192,103752,1,0,0:0:0:0:
256,192,103927,1,12,0:0:0:0:
256,192,104101,1,0,0:0:0:0:
256,192,104188,1,0,0:0:0:0:
256,192,104275,1,8,0:0:0:0:
256,192,104363,1,0,0:0:0:0:
256,192,104450,1,8,0:0:0:0:
256,192,104624,1,4,0:0:0:0:
256,192,104799,1,8,0:0:0:0:
256,192,104973,1,8,0:0:0:0:
256,192,105148,1,0,0:0:0:0:
256,192,105322,1,12,0:0:0:0:
256,192,105496,1,0,0:0:0:0:
256,192,105671,1,8,0:0:0:0:
256,192,105845,1,8,0:0:0:0:
256,192,106020,1,4,0:0:0:0:
256,192,106194,1,0,0:0:0:0:
256,192,106281,1,0,0:0:0:0:
256,192,106369,1,0,0:0:0:0:
256,192,106543,1,0,0:0:0:0:
256,192,106717,1,12,0:0:0:0:
256,192,106892,1,0,0:0:0:0:
256,192,107066,1,8,0:0:0:0:
256,192,107241,1,8,0:0:0:0:
256,192,107415,1,4,0:0:0:0:
256,192,107589,1,0,0:0:0:0:
256,192,107677,1,0,0:0:0:0:
256,192,107764,1,8,0:0:0:0:
256,192,107938,1,0,0:0:0:0:
256,192,108113,1,12,0:0:0:0:
256,192,108287,1,0,0:0:0:0:
256,192,108462,1,8,0:0:0:0:
256,192,108810,1,4,0:0:0:0:
256,192,108985,1,0,0:0:0:0:
256,192,109072,1,0,0:0:0:0:
256,192,109159,1,0,0:0:0:0:
256,192,109334,1,0,0:0:0:0:
256,192,109508,1,12,0:0:0:0:
256,192,109682,1,0,0:0:0:0:
256,192,109770,1,0,0:0:0:0:
256,192,109857,1,8,0:0:0:0:
256,192,110031,1,8,0:0:0:0:
256,192,110206,1,4,0:0:0:0:
256,192,110380,1,8,0:0:0:0:
256,192,110467,1,0,0:0:0:0:
256,192,110555,1,8,0:0:0:0:
256,192,110729,1,0,0:0:0:0:
256,192,110903,1,12,0:0:0:0:
256,192,111078,1,0,0:0:0:0:
256,192,111252,1,8,0:0:0:0:
256,192,111310,1,8,0:0:0:0:
256,192,111369,1,8,0:0:0:0:
256,192,111427,1,0,0:0:0:0:
256,192,111601,1,12,0:0:0:0:
256,192,111775,1,0,0:0:0:0:
256,192,111950,1,0,0:0:0:0:
256,192,112124,1,12,0:0:0:0:
256,192,112299,1,0,0:0:0:0:
256,192,112473,1,0,0:0:0:0:
256,192,112648,1,12,0:0:0:0:
256,192,112822,1,0,0:0:0:0:
256,192,112996,1,12,0:0:0:0:
256,192,113171,1,0,0:0:0:0:
256,192,113345,1,0,0:0:0:0:
256,192,113520,1,12,0:0:0:0:
256,192,113694,1,0,0:0:0:0:
256,192,113869,1,0,0:0:0:0:
256,192,114043,1,12,0:0:0:0:
256,192,114217,1,0,0:0:0:0:
256,192,114392,1,12,0:0:0:0:
256,192,114566,1,0,0:0:0:0:
256,192,114741,1,0,0:0:0:0:
256,192,114915,1,12,0:0:0:0:
256,192,115089,1,0,0:0:0:0:
256,192,115264,1,0,0:0:0:0:
256,192,115438,1,12,0:0:0:0:
256,192,115613,1,0,0:0:0:0:
256,192,115787,1,8,0:0:0:0:
256,192,115874,1,0,0:0:0:0:
256,192,115962,1,0,0:0:0:0:
256,192,116049,1,0,0:0:0:0:
256,192,116136,1,8,0:0:0:0:
256,192,116223,1,0,0:0:0:0:
256,192,116310,1,0,0:0:0:0:
256,192,116398,1,0,0:0:0:0:
256,192,116485,1,8,0:0:0:0:
256,192,116572,1,0,0:0:0:0:
256,192,116659,1,0,0:0:0:0:
256,192,116746,1,0,0:0:0:0:
256,192,116834,1,8,0:0:0:0:
256,192,116921,1,0,0:0:0:0:
256,192,117008,1,8,0:0:0:0:
256,192,117182,1,4,0:0:0:0:
256,192,117880,1,8,0:0:0:0:
256,192,118055,1,0,0:0:0:0:
256,192,118229,1,0,0:0:0:0:
256,192,118403,1,8,0:0:0:0:
256,192,118752,1,0,0:0:0:0:
256,192,118927,1,8,0:0:0:0:
256,192,119101,1,0,0:0:0:0:
256,192,119624,1,8,0:0:0:0:
256,192,119799,1,0,0:0:0:0:
256,192,119973,1,8,0:0:0:0:
256,192,120496,1,0,0:0:0:0:
256,192,120671,1,8,0:0:0:0:
256,192,121020,1,8,0:0:0:0:
256,192,121194,1,0,0:0:0:0:
256,192,121543,1,0,0:0:0:0:
256,192,121717,1,8,0:0:0:0:
256,192,121892,1,0,0:0:0:0:
256,192,122066,1,0,0:0:0:0:
256,192,122415,1,8,0:0:0:0:
258,196,122764,1,4,0:0:0:0:
256,192,128345,12,0,136369,0:0:0:0:
256,192,136717,12,0,144915,0:0:0:0:
256,192,145089,5,4,0:0:0:0:
258,196,145351,1,4,0:0:0:0:
258,196,145613,1,4,0:0:0:0:
256,192,145787,1,12,0:0:0:0:
256,192,146485,1,0,0:0:0:0:
256,192,146572,1,0,0:0:0:0:
256,192,146659,1,8,0:0:0:0:
256,192,146775,1,8,0:0:0:0:
256,192,146950,1,8,0:0:0:0:
256,192,147124,1,8,0:0:0:0:
256,192,147299,1,8,0:0:0:0:
256,192,147473,1,8,0:0:0:0:
256,192,147880,1,4,0:0:0:0:
256,192,148752,1,0,0:0:0:0:
256,192,149275,1,8,0:0:0:0:
256,192,149450,1,8,0:0:0:0:
256,192,149653,1,8,0:0:0:0:
256,192,149857,1,8,0:0:0:0:
256,192,150089,1,8,0:0:0:0:
256,192,150322,1,8,0:0:0:0:
256,192,150671,1,4,0:0:0:0:
256,192,150932,1,4,0:0:0:0:
256,192,151194,1,4,0:0:0:0:
256,192,151369,1,12,0:0:0:0:
256,192,152066,1,0,0:0:0:0:
256,192,152153,1,0,0:0:0:0:
256,192,152241,1,8,0:0:0:0:
256,192,152328,1,8,0:0:0:0:
256,192,152415,1,8,0:0:0:0:
256,192,152502,1,8,0:0:0:0:
256,192,152589,1,8,0:0:0:0:
256,192,152677,1,8,0:0:0:0:
256,192,152764,1,8,0:0:0:0:
256,192,152880,1,8,0:0:0:0:
256,192,152996,1,8,0:0:0:0:
256,192,153113,1,8,0:0:0:0:
256,192,153462,12,0,153810,0:0:0:0:
256,192,154159,12,0,154508,0:0:0:0:
256,192,154857,12,0,155206,0:0:0:0:
256,192,155555,12,0,155903,0:0:0:0:
256,192,156020,5,8,0:0:0:0:
258,198,156136,1,8,0:0:0:0:
256,192,156252,1,4,0:0:0:0:
256,192,156514,1,0,0:0:0:0:
256,192,156601,1,8,0:0:0:0:
256,192,156775,1,4,0:0:0:0:
256,192,156950,1,8,0:0:0:0:
256,192,157037,1,8,0:0:0:0:
256,192,157124,1,0,0:0:0:0:
256,192,157212,1,0,0:0:0:0:
256,192,157299,1,8,0:0:0:0:
256,192,157560,1,0,0:0:0:0:
256,192,157648,1,0,0:0:0:0:
256,192,157822,1,0,0:0:0:0:
256,192,157909,1,0,0:0:0:0:
256,192,157996,1,8,0:0:0:0:
256,192,158171,1,8,0:0:0:0:
256,192,158345,1,8,0:0:0:0:
256,192,158432,1,0,0:0:0:0:
256,192,158520,1,8,0:0:0:0:
256,192,158607,1,0,0:0:0:0:
256,192,158694,1,0,0:0:0:0:
256,192,158781,1,8,0:0:0:0:
256,192,159043,1,4,0:0:0:0:
256,192,159305,1,0,0:0:0:0:
256,192,159392,1,8,0:0:0:0:
256,192,159566,1,4,0:0:0:0:
256,192,159741,1,8,0:0:0:0:
256,192,159828,1,8,0:0:0:0:
256,192,159915,1,0,0:0:0:0:
256,192,160002,1,0,0:0:0:0:
256,192,160089,1,8,0:0:0:0:
256,192,160438,1,0,0:0:0:0:
256,192,160525,1,8,0:0:0:0:
256,192,160613,1,8,0:0:0:0:
256,192,160700,1,0,0:0:0:0:
256,192,160787,1,8,0:0:0:0:
256,192,160874,1,8,0:0:0:0:
256,192,160962,1,0,0:0:0:0:
256,192,161136,1,8,0:0:0:0:
256,192,161223,1,0,0:0:0:0:
256,192,161310,1,0,0:0:0:0:
256,192,161398,1,8,0:0:0:0:
256,192,161572,1,0,0:0:0:0:
256,192,161659,1,8,0:0:0:0:
256,192,161834,1,4,0:0:0:0:
256,192,162095,1,0,0:0:0:0:
256,192,162182,1,8,0:0:0:0:
256,192,162357,1,4,0:0:0:0:
256,192,162531,1,8,0:0:0:0:
256,192,162619,1,8,0:0:0:0:
256,192,162706,1,0,0:0:0:0:
256,192,162793,1,0,0:0:0:0:
256,192,162880,1,8,0:0:0:0:
256,192,163229,1,0,0:0:0:0:
256,192,163316,1,0,0:0:0:0:
256,192,163403,1,8,0:0:0:0:
256,192,163491,1,0,0:0:0:0:
256,192,163578,1,8,0:0:0:0:
256,192,163665,1,8,0:0:0:0:
256,192,163752,1,0,0:0:0:0:
256,192,163839,1,0,0:0:0:0:
256,192,163927,1,8,0:0:0:0:
256,192,164043,1,8,0:0:0:0:
256,192,164159,1,0,0:0:0:0:
256,192,164275,1,8,0:0:0:0:
256,192,164624,1,4,0:0:0:0:
256,192,164886,1,0,0:0:0:0:
256,192,164973,1,8,0:0:0:0:
256,192,165148,1,4,0:0:0:0:
256,192,165322,1,8,0:0:0:0:
256,192,165409,1,8,0:0:0:0:
256,192,165496,1,0,0:0:0:0:
256,192,165584,1,0,0:0:0:0:
256,192,165671,1,8,0:0:0:0:
256,192,165758,1,0,0:0:0:0:
256,192,165845,1,8,0:0:0:0:
256,192,166020,1,4,0:0:0:0:
256,192,166194,12,0,167241,0:0:0:0:
258,196,167415,5,4,0:0:0:0:
256,192,188345,5,4,0:0:0:0:
256,192,188520,1,0,0:0:0:0:
256,192,188694,1,8,0:0:0:0:
256,192,189043,1,0,0:0:0:0:
256,192,189159,1,0,0:0:0:0:
256,192,189275,1,0,0:0:0:0:
256,192,189392,1,8,0:0:0:0:
256,192,189741,1,0,0:0:0:0:
256,192,189828,1,0,0:0:0:0:
256,192,190002,1,0,0:0:0:0:
256,192,190089,1,8,0:0:0:0:
256,192,190264,1,0,0:0:0:0:
256,192,190438,1,8,0:0:0:0:
256,192,190555,1,0,0:0:0:0:
256,192,190671,1,0,0:0:0:0:
256,192,190787,1,8,0:0:0:0:
256,192,191136,1,0,0:0:0:0:
256,192,191223,1,0,0:0:0:0:
256,192,191310,1,0,0:0:0:0:
256,192,191485,1,8,0:0:0:0:
256,192,191659,1,0,0:0:0:0:
256,192,191834,1,0,0:0:0:0:
256,192,191950,1,0,0:0:0:0:
256,192,192066,1,0,0:0:0:0:
256,192,192182,1,8,0:0:0:0:
256,192,192444,1,0,0:0:0:0:
256,192,192531,1,8,0:0:0:0:
256,192,192619,1,8,0:0:0:0:
256,192,192706,1,0,0:0:0:0:
256,192,192793,1,0,0:0:0:0:
256,192,192880,1,8,0:0:0:0:
256,192,192996,1,8,0:0:0:0:
256,192,193113,1,0,0:0:0:0:
256,192,193229,1,8,0:0:0:0:
256,192,193345,1,8,0:0:0:0:
256,192,193462,1,0,0:0:0:0:
256,192,193578,1,8,0:0:0:0:
256,192,193927,1,0,0:0:0:0:
256,192,194101,1,0,0:0:0:0:
256,192,194275,1,8,0:0:0:0:
256,192,194450,1,0,0:0:0:0:
256,192,194624,1,0,0:0:0:0:
256,192,194741,1,0,0:0:0:0:
256,192,194857,1,0,0:0:0:0:
256,192,194973,1,8,0:0:0:0:
256,192,195148,1,0,0:0:0:0:
256,192,195322,1,0,0:0:0:0:
256,192,195409,1,0,0:0:0:0:
256,192,195584,1,0,0:0:0:0:
256,192,195671,1,8,0:0:0:0:
256,192,195845,1,0,0:0:0:0:
256,192,196020,1,8,0:0:0:0:
256,192,196136,1,0,0:0:0:0:
256,192,196252,1,0,0:0:0:0:
256,192,196369,1,8,0:0:0:0:
256,192,196543,1,0,0:0:0:0:
256,192,196717,1,0,0:0:0:0:
256,192,196805,1,0,0:0:0:0:
256,192,196892,1,8,0:0:0:0:
256,192,196979,1,0,0:0:0:0:
256,192,197066,1,8,0:0:0:0:
256,192,197153,1,8,0:0:0:0:
256,192,197241,1,0,0:0:0:0:
256,192,197328,1,0,0:0:0:0:
256,192,197415,1,8,0:0:0:0:
256,192,197531,1,8,0:0:0:0:
256,192,197648,1,0,0:0:0:0:
256,192,197764,1,8,0:0:0:0:
256,192,197851,1,0,0:0:0:0:
256,192,197938,1,0,0:0:0:0:
256,192,198025,1,0,0:0:0:0:
256,192,198113,1,8,0:0:0:0:
256,192,198200,1,8,0:0:0:0:
256,192,198287,1,0,0:0:0:0:
256,192,198374,1,0,0:0:0:0:
256,192,198462,1,8,0:0:0:0:
256,192,198578,1,8,0:0:0:0:
256,192,198694,1,0,0:0:0:0:
256,192,198810,1,8,0:0:0:0:
256,192,198898,1,0,0:0:0:0:
256,192,198985,1,8,0:0:0:0:
256,192,199072,1,8,0:0:0:0:
256,192,199159,1,0,0:0:0:0:
256,192,199246,1,8,0:0:0:0:
256,192,199334,1,8,0:0:0:0:
256,192,199421,1,8,0:0:0:0:
256,192,199508,1,4,0:0:0:0:
256,192,199682,1,0,0:0:0:0:
256,192,199770,1,8,0:0:0:0:
256,192,199857,1,0,0:0:0:0:
256,192,199944,1,0,0:0:0:0:
256,192,200031,1,8,0:0:0:0:
256,192,200119,1,8,0:0:0:0:
256,192,200206,1,0,0:0:0:0:
256,192,200322,1,8,0:0:0:0:
256,192,200438,1,8,0:0:0:0:
256,192,200555,1,0,0:0:0:0:
256,192,200642,1,0,0:0:0:0:
256,192,200729,1,8,0:0:0:0:
256,192,200816,1,8,0:0:0:0:
256,192,200903,1,0,0:0:0:0:
256,192,200991,1,8,0:0:0:0:
256,192,201078,1,0,0:0:0:0:
256,192,201165,1,8,0:0:0:0:
256,192,201252,1,0,0:0:0:0:
256,192,201339,1,0,0:0:0:0:
256,192,201427,1,8,0:0:0:0:
256,192,201514,1,8,0:0:0:0:
256,192,201601,1,0,0:0:0:0:
256,192,201717,1,8,0:0:0:0:
256,192,201834,1,8,0:0:0:0:
256,192,201950,1,0,0:0:0:0:
256,192,202037,1,0,0:0:0:0:
256,192,202124,1,8,0:0:0:0:
256,192,202212,1,8,0:0:0:0:
256,192,202299,1,0,0:0:0:0:
256,192,202386,1,8,0:0:0:0:
256,192,202473,1,0,0:0:0:0:
256,192,202560,1,8,0:0:0:0:
256,192,202648,1,0,0:0:0:0:
256,192,202735,1,0,0:0:0:0:
256,192,202822,1,8,0:0:0:0:
256,192,202909,1,8,0:0:0:0:
256,192,202996,1,0,0:0:0:0:
256,192,203113,1,8,0:0:0:0:
256,192,203229,1,8,0:0:0:0:
256,192,203345,1,0,0:0:0:0:
256,192,203432,1,0,0:0:0:0:
256,192,203520,1,8,0:0:0:0:
256,192,203607,1,8,0:0:0:0:
256,192,203694,1,0,0:0:0:0:
256,192,203781,1,8,0:0:0:0:
256,192,203869,1,0,0:0:0:0:
256,192,203956,1,8,0:0:0:0:
256,192,204043,1,0,0:0:0:0:
256,192,204130,1,0,0:0:0:0:
256,192,204217,1,8,0:0:0:0:
256,192,204305,1,8,0:0:0:0:
256,192,204392,1,0,0:0:0:0:
256,192,204508,1,8,0:0:0:0:
256,192,204624,1,8,0:0:0:0:
256,192,204741,1,0,0:0:0:0:
256,192,204828,1,0,0:0:0:0:
256,192,204915,1,0,0:0:0:0:
256,192,205002,1,0,0:0:0:0:
256,192,205089,1,8,0:0:0:0:
256,192,205177,1,0,0:0:0:0:
256,192,205264,1,0,0:0:0:0:
256,192,205351,1,0,0:0:0:0:
256,192,205438,1,8,0:0:0:0:
256,192,205525,1,8,0:0:0:0:
256,192,205613,1,0,0:0:0:0:
256,192,205700,1,0,0:0:0:0:
256,192,205787,1,8,0:0:0:0:
256,192,205874,1,0,0:0:0:0:
256,192,205962,1,0,0:0:0:0:
256,192,206049,1,0,0:0:0:0:
256,192,206136,1,8,0:0:0:0:
256,192,206223,1,8,0:0:0:0:
256,192,206310,1,0,0:0:0:0:
256,192,206398,1,0,0:0:0:0:
256,192,206485,1,8,0:0:0:0:
256,192,206572,1,0,0:0:0:0:
256,192,206659,1,0,0:0:0:0:
256,192,206746,1,0,0:0:0:0:
256,192,206834,1,8,0:0:0:0:
256,192,206921,1,8,0:0:0:0:
256,192,207008,1,0,0:0:0:0:
256,192,207095,1,0,0:0:0:0:
256,192,207182,1,8,0:0:0:0:
256,192,207270,1,0,0:0:0:0:
256,192,207357,1,0,0:0:0:0:
256,192,207444,1,0,0:0:0:0:
256,192,207531,1,8,0:0:0:0:
256,192,207619,1,8,0:0:0:0:
256,192,207706,1,0,0:0:0:0:
256,192,207793,1,0,0:0:0:0:
256,192,207880,1,8,0:0:0:0:
256,192,207938,1,0,0:0:0:0:
256,192,207996,1,0,0:0:0:0:
256,192,208055,1,8,0:0:0:0:
256,192,208142,1,0,0:0:0:0:
256,192,208229,1,8,0:0:0:0:
256,192,208287,1,8,0:0:0:0:
256,192,208345,1,0,0:0:0:0:
256,192,208403,1,8,0:0:0:0:
256,192,208491,1,0,0:0:0:0:
256,192,208578,1,8,0:0:0:0:
256,192,208636,1,0,0:0:0:0:
256,192,208694,1,0,0:0:0:0:
256,192,208752,1,8,0:0:0:0:
256,192,208839,1,8,0:0:0:0:
256,192,208927,1,0,0:0:0:0:
256,192,208985,1,0,0:0:0:0:
256,192,209043,1,0,0:0:0:0:
256,192,209101,1,8,0:0:0:0:
256,192,209159,1,8,0:0:0:0:
256,192,209217,1,8,0:0:0:0:
256,192,209275,1,0,0:0:0:0:
256,192,210148,1,8,0:0:0:0:
256,192,210235,1,8,0:0:0:0:
256,192,210322,1,0,0:0:0:0:
256,192,210409,1,8,0:0:0:0:
256,192,210496,1,8,0:0:0:0:
256,192,210584,1,0,0:0:0:0:
256,192,210671,1,12,0:0:0:0:
256,192,211020,1,0,0:0:0:0:
256,192,211107,1,0,0:0:0:0:
256,192,211194,1,8,0:0:0:0:
256,192,211281,1,0,0:0:0:0:
256,192,211369,1,0,0:0:0:0:
256,192,211456,1,8,0:0:0:0:
256,192,211543,1,0,0:0:0:0:
256,192,211717,1,8,0:0:0:0:
256,192,211775,1,8,0:0:0:0:
256,192,211834,1,0,0:0:0:0:
256,192,211892,1,0,0:0:0:0:
256,192,212066,1,0,0:0:0:0:
256,192,212182,1,8,0:0:0:0:
256,192,212241,1,0,0:0:0:0:
256,192,212299,1,8,0:0:0:0:
256,192,212415,1,0,0:0:0:0:
256,192,212502,1,0,0:0:0:0:
256,192,212589,1,8,0:0:0:0:
256,192,212677,1,0,0:0:0:0:
256,192,212764,1,0,0:0:0:0:
256,192,212851,1,8,0:0:0:0:
256,192,212938,1,0,0:0:0:0:
256,192,213113,1,8,0:0:0:0:
256,192,213200,1,0,0:0:0:0:
256,192,213287,1,0,0:0:0:0:
256,192,213374,1,8,0:0:0:0:
256,192,213462,1,4,0:0:0:0:
256,192,213636,1,8,0:0:0:0:
256,192,213723,1,8,0:0:0:0:
256,192,213810,1,0,0:0:0:0:
256,192,213898,1,0,0:0:0:0:
256,192,213985,1,8,0:0:0:0:
256,192,214072,1,0,0:0:0:0:
256,192,214159,1,0,0:0:0:0:
256,192,214246,1,8,0:0:0:0:
256,192,214334,1,0,0:0:0:0:
256,192,214508,1,0,0:0:0:0:
256,192,214566,1,0,0:0:0:0:
256,192,214624,1,8,0:0:0:0:
256,192,214682,1,8,0:0:0:0:
256,192,214857,1,0,0:0:0:0:
256,192,214973,1,8,0:0:0:0:
256,192,215031,1,0,0:0:0:0:
256,192,215089,1,8,0:0:0:0:
256,192,215206,1,0,0:0:0:0:
256,192,215293,1,0,0:0:0:0:
256,192,215380,1,8,0:0:0:0:
256,192,215467,1,0,0:0:0:0:
256,192,215555,1,0,0:0:0:0:
256,192,215642,1,8,0:0:0:0:
256,192,215729,1,0,0:0:0:0:
256,192,215903,1,0,0:0:0:0:
256,192,215991,1,8,0:0:0:0:
256,192,216165,1,0,0:0:0:0:
256,192,216252,1,12,0:0:0:0:
256,192,216601,1,0,0:0:0:0:
256,192,216688,1,0,0:0:0:0:
256,192,216775,1,8,0:0:0:0:
256,192,216863,1,0,0:0:0:0:
256,192,216950,1,0,0:0:0:0:
256,192,217037,1,8,0:0:0:0:
256,192,217124,1,0,0:0:0:0:
256,192,217299,1,8,0:0:0:0:
256,192,217357,1,8,0:0:0:0:
256,192,217415,1,0,0:0:0:0:
256,192,217473,1,0,0:0:0:0:
256,192,217648,1,0,0:0:0:0:
256,192,217764,1,8,0:0:0:0:
256,192,217822,1,0,0:0:0:0:
256,192,217880,1,8,0:0:0:0:
256,192,217996,1,0,0:0:0:0:
256,192,218084,1,0,0:0:0:0:
256,192,218171,1,8,0:0:0:0:
256,192,218258,1,0,0:0:0:0:
256,192,218345,1,0,0:0:0:0:
256,192,218432,1,8,0:0:0:0:
256,192,218520,1,0,0:0:0:0:
256,192,218694,1,8,0:0:0:0:
256,192,218781,1,0,0:0:0:0:
256,192,218869,1,0,0:0:0:0:
256,192,218956,1,8,0:0:0:0:
256,192,219043,1,0,0:0:0:0:
256,192,219130,1,8,0:0:0:0:
256,192,219217,1,0,0:0:0:0:
256,192,219305,1,8,0:0:0:0:
256,192,219392,1,0,0:0:0:0:
256,192,219479,1,0,0:0:0:0:
256,192,219566,1,8,0:0:0:0:
256,192,219653,1,8,0:0:0:0:
256,192,219741,1,0,0:0:0:0:
256,192,219857,1,8,0:0:0:0:
256,192,219915,1,0,0:0:0:0:
256,192,219973,1,8,0:0:0:0:
256,192,220089,1,0,0:0:0:0:
256,192,220148,1,8,0:0:0:0:
256,192,220206,1,8,0:0:0:0:
256,192,220264,1,0,0:0:0:0:
256,192,220438,1,0,0:0:0:0:
256,192,220525,1,8,0:0:0:0:
256,192,220613,1,0,0:0:0:0:
256,192,220700,1,0,0:0:0:0:
256,192,220787,1,8,0:0:0:0:
256,192,220874,1,8,0:0:0:0:
256,192,220962,1,0,0:0:0:0:
256,192,221049,1,8,0:0:0:0:
256,192,221136,1,0,0:0:0:0:
256,192,221252,1,8,0:0:0:0:
256,192,221310,1,8,0:0:0:0:
256,192,221369,1,0,0:0:0:0:
256,192,221485,1,8,0:0:0:0:
256,192,221543,1,0,0:0:0:0:
256,192,221601,1,0,0:0:0:0:
256,192,221659,1,8,0:0:0:0:
256,192,221834,1,4,0:0:0:0:
256,192,222095,1,8,0:0:0:0:
256,192,222182,1,0,0:0:0:0:
256,192,222270,1,8,0:0:0:0:
256,192,222357,1,8,0:0:0:0:
256,192,222444,1,0,0:0:0:0:
256,192,222531,1,8,0:0:0:0:
256,192,222619,1,8,0:0:0:0:
256,192,222706,1,0,0:0:0:0:
256,192,222880,1,0,0:0:0:0:
256,192,222996,1,8,0:0:0:0:
256,192,223055,1,0,0:0:0:0:
256,192,223113,1,8,0:0:0:0:
256,192,223229,1,0,0:0:0:0:
256,192,223287,1,8,0:0:0:0:
256,192,223345,1,8,0:0:0:0:
256,192,223403,1,0,0:0:0:0:
256,192,223491,1,8,0:0:0:0:
256,192,223578,1,0,0:0:0:0:
256,192,223665,1,8,0:0:0:0:
256,192,223752,1,8,0:0:0:0:
256,192,223839,1,0,0:0:0:0:
256,192,223927,1,8,0:0:0:0:
256,192,224014,1,8,0:0:0:0:
256,192,224101,1,0,0:0:0:0:
256,192,224275,1,8,0:0:0:0:
256,192,224363,1,0,0:0:0:0:
256,192,224450,1,0,0:0:0:0:
256,192,224537,1,8,0:0:0:0:
256,192,224624,1,4,0:0:0:0:
256,192,224799,1,0,0:0:0:0:
256,192,224886,1,8,0:0:0:0:
256,192,224973,1,0,0:0:0:0:
256,192,225060,1,8,0:0:0:0:
256,192,225148,1,8,0:0:0:0:
256,192,225235,1,0,0:0:0:0:
256,192,225322,1,8,0:0:0:0:
256,192,225409,1,8,0:0:0:0:
256,192,225496,1,0,0:0:0:0:
256,192,225671,1,0,0:0:0:0:
256,192,225729,1,0,0:0:0:0:
256,192,225787,1,8,0:0:0:0:
256,192,225845,1,8,0:0:0:0:
256,192,226020,1,0,0:0:0:0:
256,192,226136,1,8,0:0:0:0:
256,192,226194,1,0,0:0:0:0:
256,192,226252,1,8,0:0:0:0:
256,192,226369,1,0,0:0:0:0:
256,192,226456,1,8,0:0:0:0:
256,192,226543,1,8,0:0:0:0:
256,192,226630,1,0,0:0:0:0:
256,192,226775,1,8,0:0:0:0:
256,192,226834,1,8,0:0:0:0:
258,198,226892,1,0,0:0:0:0:
256,192,227066,1,0,0:0:0:0:
256,192,227153,1,8,0:0:0:0:
256,192,227328,1,0,0:0:0:0:
256,192,227415,1,12,0:0:0:0:
256,192,227589,1,0,0:0:0:0:
256,192,227764,1,8,0:0:0:0:
256,192,227851,1,8,0:0:0:0:
256,192,227938,1,0,0:0:0:0:
256,192,228025,1,0,0:0:0:0:
256,192,228113,1,8,0:0:0:0:
256,192,228200,1,0,0:0:0:0:
256,192,228287,1,8,0:0:0:0:
256,192,228374,1,8,0:0:0:0:
256,192,228462,1,0,0:0:0:0:
256,192,228549,1,0,0:0:0:0:
256,192,228636,1,8,0:0:0:0:
256,192,228810,1,8,0:0:0:0:
256,192,228898,1,8,0:0:0:0:
256,192,228985,1,0,0:0:0:0:
256,192,229072,1,0,0:0:0:0:
256,192,229159,1,8,0:0:0:0:
256,192,229246,1,0,0:0:0:0:
256,192,229334,1,8,0:0:0:0:
256,192,229421,1,8,0:0:0:0:
256,192,229508,1,0,0:0:0:0:
256,192,229595,1,0,0:0:0:0:
256,192,229682,1,8,0:0:0:0:
256,192,229770,1,0,0:0:0:0:
256,192,229857,1,8,0:0:0:0:
256,192,229944,1,8,0:0:0:0:
256,192,230031,1,0,0:0:0:0:
256,192,230206,1,8,0:0:0:0:
256,192,230293,1,0,0:0:0:0:
256,192,230380,1,8,0:0:0:0:
256,192,230467,1,8,0:0:0:0:
256,192,230555,1,0,0:0:0:0:
256,192,230642,1,8,0:0:0:0:
256,192,230729,1,0,0:0:0:0:
256,192,230816,1,8,0:0:0:0:
256,192,230903,1,0,0:0:0:0:
256,192,230991,1,0,0:0:0:0:
256,192,231078,1,8,0:0:0:0:
256,192,231165,1,8,0:0:0:0:
256,192,231252,1,0,0:0:0:0:
256,192,231339,1,0,0:0:0:0:
256,192,231427,1,8,0:0:0:0:
256,192,231514,1,8,0:0:0:0:
256,192,231601,1,0,0:0:0:0:
256,192,231688,1,0,0:0:0:0:
256,192,231775,1,8,0:0:0:0:
256,192,231863,1,0,0:0:0:0:
256,192,231950,1,8,0:0:0:0:
256,192,232037,1,0,0:0:0:0:
256,192,232124,1,8,0:0:0:0:
256,192,232212,1,0,0:0:0:0:
256,192,232299,1,8,0:0:0:0:
256,192,232386,1,8,0:0:0:0:
256,192,232473,1,0,0:0:0:0:
256,192,232560,1,0,0:0:0:0:
256,192,232648,1,8,0:0:0:0:
256,192,232706,1,0,0:0:0:0:
256,192,232764,1,0,0:0:0:0:
256,192,232822,1,8,0:0:0:0:
256,192,232996,1,4,0:0:0:0:
256,192,233345,1,8,0:0:0:0:
256,192,233389,1,8,0:0:0:0:
256,192,233520,1,8,0:0:0:0:
256,192,233694,1,0,0:0:0:0:
256,192,233869,1,8,0:0:0:0:
256,192,233956,1,8,0:0:0:0:
256,192,234043,1,4,0:0:0:0:
256,192,234217,1,8,0:0:0:0:
256,192,234392,1,0,0:0:0:0:
256,192,234566,1,8,0:0:0:0:
256,192,234741,1,8,0:0:0:0:
256,192,234784,1,8,0:0:0:0:
256,192,234915,1,0,0:0:0:0:
256,192,235002,1,8,0:0:0:0:
256,192,235089,1,0,0:0:0:0:
256,192,235264,1,8,0:0:0:0:
256,192,235438,1,0,0:0:0:0:
256,192,235496,1,0,0:0:0:0:
256,192,235555,1,0,0:0:0:0:
256,192,235613,1,8,0:0:0:0:
256,192,235787,1,4,0:0:0:0:
256,192,236136,1,8,0:0:0:0:
256,192,236223,1,8,0:0:0:0:
256,192,236310,1,8,0:0:0:0:
256,192,236398,1,8,0:0:0:0:
256,192,236485,1,0,0:0:0:0:
256,192,236572,1,8,0:0:0:0:
256,192,236659,1,8,0:0:0:0:
256,192,236746,1,8,0:0:0:0:
256,192,236834,1,8,0:0:0:0:
256,192,236921,1,8,0:0:0:0:
256,192,237008,1,0,0:0:0:0:
256,192,237182,1,8,0:0:0:0:
256,192,237299,1,0,0:0:0:0:
256,192,237357,1,8,0:0:0:0:
256,192,237415,1,0,0:0:0:0:
256,192,237531,1,8,0:0:0:0:
256,192,237619,1,0,0:0:0:0:
256,192,237706,1,0,0:0:0:0:
256,192,237793,1,0,0:0:0:0:
256,192,237880,1,8,0:0:0:0:
256,192,237967,1,8,0:0:0:0:
256,192,238055,1,0,0:0:0:0:
256,192,238142,1,8,0:0:0:0:
256,192,238229,1,0,0:0:0:0:
256,192,238316,1,8,0:0:0:0:
256,192,238491,1,0,0:0:0:0:
256,192,238578,1,12,0:0:0:0:
256,192,238927,1,8,0:0:0:0:
256,192,238970,1,8,0:0:0:0:
256,192,239101,1,8,0:0:0:0:
256,192,239275,1,0,0:0:0:0:
256,192,239450,1,8,0:0:0:0:
256,192,239624,1,8,0:0:0:0:
256,192,239712,1,0,0:0:0:0:
256,192,239799,1,8,0:0:0:0:
256,192,239973,1,0,0:0:0:0:
256,192,240148,1,8,0:0:0:0:
256,192,240322,1,8,0:0:0:0:
256,192,240366,1,8,0:0:0:0:
256,192,240496,1,0,0:0:0:0:
256,192,240584,1,8,0:0:0:0:
256,192,240671,1,0,0:0:0:0:
256,192,240845,1,8,0:0:0:0:
256,192,241020,1,0,0:0:0:0:
256,192,241078,1,0,0:0:0:0:
256,192,241136,1,0,0:0:0:0:
256,192,241194,1,8,0:0:0:0:
256,192,241369,1,0,0:0:0:0:
256,192,241543,1,8,0:0:0:0:
256,192,241630,1,8,0:0:0:0:
256,192,241717,1,8,0:0:0:0:
256,192,241892,1,0,0:0:0:0:
256,192,242066,1,8,0:0:0:0:
256,192,242153,1,8,0:0:0:0:
256,192,242241,1,8,0:0:0:0:
256,192,242415,1,0,0:0:0:0:
256,192,242589,1,8,0:0:0:0:
256,192,242677,1,8,0:0:0:0:
256,192,242764,1,8,0:0:0:0:
256,192,242938,1,0,0:0:0:0:
256,192,243025,1,0,0:0:0:0:
256,192,243113,1,0,0:0:0:0:
256,192,243287,1,8,0:0:0:0:
256,192,243374,1,8,0:0:0:0:
256,192,243462,1,8,0:0:0:0:
256,192,243636,1,0,0:0:0:0:
256,192,243723,1,8,0:0:0:0:
256,192,243781,1,8,0:0:0:0:
256,192,243839,1,0,0:0:0:0:
256,192,243898,1,0,0:0:0:0:
256,192,243985,1,8,0:0:0:0:
256,192,244159,1,12,0:0:0:0:
256,192,244508,1,8,0:0:0:0:
256,192,244552,1,8,0:0:0:0:
256,192,244682,1,8,0:0:0:0:
256,192,244857,1,0,0:0:0:0:
256,192,245031,1,8,0:0:0:0:
256,192,245119,1,8,0:0:0:0:
256,192,245206,1,4,0:0:0:0:
256,192,245380,1,8,0:0:0:0:
256,192,245555,1,8,0:0:0:0:
256,192,245642,1,0,0:0:0:0:
256,192,245729,1,8,0:0:0:0:
256,192,245903,1,8,0:0:0:0:
256,192,245947,1,8,0:0:0:0:
256,192,246078,1,0,0:0:0:0:
256,192,246165,1,8,0:0:0:0:
256,192,246252,1,0,0:0:0:0:
256,192,246427,1,8,0:0:0:0:
256,192,246601,1,8,0:0:0:0:
256,192,246659,1,0,0:0:0:0:
256,192,246717,1,0,0:0:0:0:
256,192,246775,1,8,0:0:0:0:
256,192,246950,1,4,0:0:0:0:
256,192,247299,1,8,0:0:0:0:
256,192,247386,1,8,0:0:0:0:
256,192,247473,1,8,0:0:0:0:
256,192,247560,1,8,0:0:0:0:
256,192,247648,1,0,0:0:0:0:
256,192,247735,1,8,0:0:0:0:
256,192,247822,1,8,0:0:0:0:
256,192,247909,1,8,0:0:0:0:
256,192,247996,1,8,0:0:0:0:
256,192,248084,1,8,0:0:0:0:
256,192,248171,1,0,0:0:0:0:
256,192,248345,1,8,0:0:0:0:
256,192,248462,1,0,0:0:0:0:
256,192,248520,1,8,0:0:0:0:
256,192,248578,1,0,0:0:0:0:
256,192,248694,1,8,0:0:0:0:
256,192,248781,1,0,0:0:0:0:
256,192,248869,1,0,0:0:0:0:
256,192,248956,1,0,0:0:0:0:
256,192,249043,1,8,0:0:0:0:
256,192,249130,1,0,0:0:0:0:
256,192,249217,1,0,0:0:0:0:
256,192,249305,1,8,0:0:0:0:
256,192,249392,1,0,0:0:0:0:
256,192,249479,1,8,0:0:0:0:
256,192,249653,1,0,0:0:0:0:
256,192,249741,1,12,0:0:0:0:
256,192,250089,1,0,0:0:0:0:
256,192,250177,1,0,0:0:0:0:
256,192,250264,1,8,0:0:0:0:
256,192,250351,1,8,0:0:0:0:
256,192,250438,1,0,0:0:0:0:
256,192,250525,1,0,0:0:0:0:
256,192,250613,1,0,0:0:0:0:
256,192,250700,1,8,0:0:0:0:
256,192,250787,1,0,0:0:0:0:
256,192,250874,1,0,0:0:0:0:
256,192,250962,1,8,0:0:0:0:
256,192,251049,1,8,0:0:0:0:
256,192,251136,1,0,0:0:0:0:
256,192,251223,1,0,0:0:0:0:
256,192,251310,1,0,0:0:0:0:
256,192,251398,1,8,0:0:0:0:
256,192,251485,1,0,0:0:0:0:
256,192,251572,1,0,0:0:0:0:
256,192,251659,1,8,0:0:0:0:
256,192,251746,1,8,0:0:0:0:
256,192,251834,1,0,0:0:0:0:
256,192,251921,1,0,0:0:0:0:
256,192,252008,1,0,0:0:0:0:
256,192,252095,1,8,0:0:0:0:
256,192,252182,1,0,0:0:0:0:
256,192,252270,1,0,0:0:0:0:
256,192,252357,1,8,0:0:0:0:
256,192,252444,1,0,0:0:0:0:
256,192,252531,1,8,0:0:0:0:
256,192,252619,1,0,0:0:0:0:
256,192,252706,1,0,0:0:0:0:
256,192,252793,1,0,0:0:0:0:
256,192,252880,1,8,0:0:0:0:
256,192,252967,1,0,0:0:0:0:
256,192,253055,1,0,0:0:0:0:
256,192,253142,1,0,0:0:0:0:
256,192,253229,1,8,0:0:0:0:
256,192,253316,1,8,0:0:0:0:
256,192,253403,1,0,0:0:0:0:
256,192,253491,1,0,0:0:0:0:
256,192,253578,1,8,0:0:0:0:
256,192,253665,1,8,0:0:0:0:
256,192,253752,1,0,0:0:0:0:
256,192,253839,1,0,0:0:0:0:
256,192,253927,1,0,0:0:0:0:
256,192,254799,1,8,0:0:0:0:
256,192,254886,1,8,0:0:0:0:
256,192,254973,1,8,0:0:0:0:
256,192,255060,1,0,0:0:0:0:
256,192,255148,1,8,0:0:0:0:
256,192,255235,1,8,0:0:0:0:
256,192,255322,1,4,0:0:0:0:
256,192,255584,1,0,0:0:0:0:
256,192,255671,1,8,0:0:0:0:
256,192,255758,1,0,0:0:0:0:
256,192,255845,1,0,0:0:0:0:
256,192,255932,1,8,0:0:0:0:
256,192,256020,1,0,0:0:0:0:
256,192,256107,1,0,0:0:0:0:
256,192,256194,1,8,0:0:0:0:
256,192,256369,1,0,0:0:0:0:
256,192,256427,1,8,0:0:0:0:
256,192,256485,1,8,0:0:0:0:
256,192,256543,1,0,0:0:0:0:
256,192,256717,1,8,0:0:0:0:
256,192,256834,1,0,0:0:0:0:
256,192,256892,1,8,0:0:0:0:
256,192,256950,1,0,0:0:0:0:
256,192,257066,1,8,0:0:0:0:
256,192,257153,1,0,0:0:0:0:
256,192,257241,1,0,0:0:0:0:
256,192,257328,1,8,0:0:0:0:
256,192,257415,1,0,0:0:0:0:
256,192,257502,1,0,0:0:0:0:
256,192,257589,1,8,0:0:0:0:
256,192,257677,1,0,0:0:0:0:
256,192,257764,1,0,0:0:0:0:
256,192,257851,1,0,0:0:0:0:
256,192,257938,1,8,0:0:0:0:
256,192,258025,1,8,0:0:0:0:
256,192,258113,1,4,0:0:0:0:
256,192,258374,1,0,0:0:0:0:
256,192,258462,1,8,0:0:0:0:
256,192,258549,1,0,0:0:0:0:
256,192,258636,1,0,0:0:0:0:
256,192,258723,1,8,0:0:0:0:
256,192,258810,1,0,0:0:0:0:
256,192,258898,1,0,0:0:0:0:
256,192,258985,1,8,0:0:0:0:
256,192,259072,1,0,0:0:0:0:
256,192,259159,1,8,0:0:0:0:
256,192,259217,1,8,0:0:0:0:
256,192,259275,1,0,0:0:0:0:
256,192,259334,1,0,0:0:0:0:
256,192,259508,1,8,0:0:0:0:
256,192,259624,1,0,0:0:0:0:
256,192,259682,1,8,0:0:0:0:
256,192,259741,1,0,0:0:0:0:
256,192,259857,1,8,0:0:0:0:
256,192,259944,1,0,0:0:0:0:
256,192,260031,1,0,0:0:0:0:
256,192,260119,1,8,0:0:0:0:
256,192,260206,1,0,0:0:0:0:
256,192,260293,1,0,0:0:0:0:
256,192,260380,1,8,0:0:0:0:
256,192,260467,1,8,0:0:0:0:
256,192,260555,1,0,0:0:0:0:
256,192,260642,1,8,0:0:0:0:
256,192,260816,1,0,0:0:0:0:
256,192,260903,1,12,0:0:0:0:
256,192,261252,1,8,0:0:0:0:
256,192,261339,1,0,0:0:0:0:
256,192,261427,1,0,0:0:0:0:
256,192,261514,1,8,0:0:0:0:
256,192,261601,1,0,0:0:0:0:
256,192,261688,1,0,0:0:0:0:
256,192,261775,1,8,0:0:0:0:
256,192,261863,1,0,0:0:0:0:
258,198,261950,1,8,0:0:0:0:
256,192,262008,1,8,0:0:0:0:
256,192,262066,1,8,0:0:0:0:
256,192,262124,1,0,0:0:0:0:
256,192,262299,1,8,0:0:0:0:
256,192,262415,1,0,0:0:0:0:
256,192,262473,1,8,0:0:0:0:
256,192,262531,1,0,0:0:0:0:
256,192,262648,1,8,0:0:0:0:
256,192,262735,1,0,0:0:0:0:
256,192,262822,1,0,0:0:0:0:
256,192,262909,1,8,0:0:0:0:
256,192,262996,1,0,0:0:0:0:
256,192,263084,1,0,0:0:0:0:
256,192,263171,1,8,0:0:0:0:
256,192,263258,1,0,0:0:0:0:
256,192,263345,1,0,0:0:0:0:
256,192,263432,1,8,0:0:0:0:
258,194,263520,1,0,0:0:0:0:
256,192,263694,1,8,0:0:0:0:
256,192,263781,1,0,0:0:0:0:
256,192,263956,1,8,0:0:0:0:
256,192,264043,1,0,0:0:0:0:
256,192,264217,1,8,0:0:0:0:
256,192,264305,1,0,0:0:0:0:
256,192,264392,1,8,0:0:0:0:
256,192,264508,1,0,0:0:0:0:
256,192,264566,1,8,0:0:0:0:
256,192,264624,1,0,0:0:0:0:
256,192,264741,1,8,0:0:0:0:
256,192,264828,1,8,0:0:0:0:
256,192,264915,1,0,0:0:0:0:
256,192,265089,1,8,0:0:0:0:
256,192,265177,1,0,0:0:0:0:
256,192,265264,1,0,0:0:0:0:
256,192,265351,1,8,0:0:0:0:
256,192,265438,1,0,0:0:0:0:
256,192,265525,1,0,0:0:0:0:
256,192,265613,1,8,0:0:0:0:
256,192,265700,1,0,0:0:0:0:
256,192,265787,1,8,0:0:0:0:
256,192,265903,1,8,0:0:0:0:
256,192,266020,1,8,0:0:0:0:
256,192,266136,1,8,0:0:0:0:
256,192,266194,1,8,0:0:0:0:
256,192,266252,1,8,0:0:0:0:
256,192,266310,1,0,0:0:0:0:
256,192,266485,1,12,0:0:0:0:
256,192,266746,1,0,0:0:0:0:
256,192,266834,1,8,0:0:0:0:
256,192,266921,1,8,0:0:0:0:
256,192,267008,1,0,0:0:0:0:
256,192,267095,1,8,0:0:0:0:
256,192,267182,1,8,0:0:0:0:
256,192,267270,1,0,0:0:0:0:
256,192,267357,1,8,0:0:0:0:
256,192,267444,1,8,0:0:0:0:
256,192,267531,1,0,0:0:0:0:
256,192,267589,1,0,0:0:0:0:
256,192,267648,1,8,0:0:0:0:
256,192,267706,1,8,0:0:0:0:
256,192,267880,1,8,0:0:0:0:
256,192,267996,1,0,0:0:0:0:
256,192,268055,1,8,0:0:0:0:
256,192,268113,1,0,0:0:0:0:
256,192,268229,1,8,0:0:0:0:
256,192,268316,1,8,0:0:0:0:
256,192,268403,1,0,0:0:0:0:
256,192,268491,1,8,0:0:0:0:
256,192,268578,1,8,0:0:0:0:
256,192,268665,1,0,0:0:0:0:
256,192,268752,1,8,0:0:0:0:
256,192,268839,1,8,0:0:0:0:
256,192,268927,1,0,0:0:0:0:
256,192,269014,1,0,0:0:0:0:
256,192,269101,1,8,0:0:0:0:
256,192,269188,1,8,0:0:0:0:
256,192,269275,1,4,0:0:0:0:
256,192,269450,1,0,0:0:0:0:
256,192,269624,1,8,0:0:0:0:
256,192,269712,1,8,0:0:0:0:
256,192,269799,1,0,0:0:0:0:
256,192,269886,1,8,0:0:0:0:
256,192,269973,1,8,0:0:0:0:
256,192,270060,1,0,0:0:0:0:
256,192,270148,1,8,0:0:0:0:
256,192,270235,1,8,0:0:0:0:
256,192,270322,1,0,0:0:0:0:
256,192,270380,1,0,0:0:0:0:
256,192,270438,1,8,0:0:0:0:
256,192,270496,1,8,0:0:0:0:
256,192,270671,1,8,0:0:0:0:
256,192,270787,1,0,0:0:0:0:
256,192,270845,1,8,0:0:0:0:
256,192,270903,1,0,0:0:0:0:
256,192,271020,1,8,0:0:0:0:
256,192,271107,1,8,0:0:0:0:
256,192,271194,1,0,0:0:0:0:
256,192,271281,1,8,0:0:0:0:
256,192,271369,1,8,0:0:0:0:
256,192,271456,1,0,0:0:0:0:
256,192,271543,1,8,0:0:0:0:
256,192,271630,1,8,0:0:0:0:
256,192,271717,1,0,0:0:0:0:
256,192,271805,1,8,0:0:0:0:
256,192,271979,1,0,0:0:0:0:
256,192,272066,1,12,0:0:0:0:
256,192,272415,1,8,0:0:0:0:
256,192,272502,1,8,0:0:0:0:
256,192,272589,1,0,0:0:0:0:
256,192,272677,1,8,0:0:0:0:
256,192,272764,1,0,0:0:0:0:
256,192,272851,1,0,0:0:0:0:
256,192,272938,1,8,0:0:0:0:
256,192,273025,1,8,0:0:0:0:
256,192,273113,1,0,0:0:0:0:
256,192,273200,1,8,0:0:0:0:
256,192,273287,1,8,0:0:0:0:
256,192,273374,1,8,0:0:0:0:
256,192,273462,1,0,0:0:0:0:
256,192,273636,1,0,0:0:0:0:
256,192,273810,1,8,0:0:0:0:
256,192,273898,1,8,0:0:0:0:
256,192,273985,1,0,0:0:0:0:
256,192,274072,1,8,0:0:0:0:
256,192,274159,1,0,0:0:0:0:
256,192,274246,1,0,0:0:0:0:
256,192,274334,1,8,0:0:0:0:
256,192,274421,1,8,0:0:0:0:
256,192,274508,1,0,0:0:0:0:
256,192,274595,1,8,0:0:0:0:
256,192,274682,1,0,0:0:0:0:
256,192,274770,1,0,0:0:0:0:
256,192,274857,1,0,0:0:0:0:
256,192,275031,1,0,0:0:0:0:
256,192,275206,1,8,0:0:0:0:
256,192,275293,1,8,0:0:0:0:
256,192,275380,1,0,0:0:0:0:
256,192,275467,1,8,0:0:0:0:
256,192,275555,1,0,0:0:0:0:
256,192,275642,1,0,0:0:0:0:
256,192,275729,1,8,0:0:0:0:
256,192,275816,1,0,0:0:0:0:
256,192,275903,1,0,0:0:0:0:
256,192,275991,1,8,0:0:0:0:
256,192,276078,1,8,0:0:0:0:
256,192,276165,1,0,0:0:0:0:
256,192,276252,1,8,0:0:0:0:
256,192,276339,1,0,0:0:0:0:
256,192,276427,1,8,0:0:0:0:
256,192,276514,1,0,0:0:0:0:
256,192,276601,1,8,0:0:0:0:
256,192,276688,1,8,0:0:0:0:
256,192,276775,1,0,0:0:0:0:
256,192,276863,1,8,0:0:0:0:
256,192,276950,1,0,0:0:0:0:
256,192,277037,1,0,0:0:0:0:
256,192,277124,1,8,0:0:0:0:
256,192,277212,1,8,0:0:0:0:
256,192,277299,1,8,0:0:0:0:
256,192,277386,1,8,0:0:0:0:
256,192,277473,1,0,0:0:0:0:
256,192,277560,1,0,0:0:0:0:
256,192,277648,1,12,0:0:0:0:
256,192,277822,1,0,0:0:0:0:
256,192,277996,1,8,0:0:0:0:
256,192,278084,1,8,0:0:0:0:
256,192,278171,1,0,0:0:0:0:
256,192,278258,1,8,0:0:0:0:
256,192,278345,1,0,0:0:0:0:
256,192,278462,1,0,0:0:0:0:
256,192,278578,1,0,0:0:0:0:
256,192,278694,1,8,0:0:0:0:
256,192,278752,1,0,0:0:0:0:
256,192,278810,1,0,0:0:0:0:
256,192,278869,1,8,0:0:0:0:
256,192,279043,1,0,0:0:0:0:
256,192,279159,1,8,0:0:0:0:
256,192,279217,1,8,0:0:0:0:
256,192,279275,1,0,0:0:0:0:
256,192,279392,1,8,0:0:0:0:
256,192,279479,1,8,0:0:0:0:
256,192,279566,1,0,0:0:0:0:
256,192,279653,1,8,0:0:0:0:
256,192,279741,1,0,0:0:0:0:
256,192,279857,1,0,0:0:0:0:
256,192,279973,1,8,0:0:0:0:
256,192,280089,1,0,0:0:0:0:
256,192,280177,1,0,0:0:0:0:
256,192,280264,1,8,0:0:0:0:
256,192,280351,1,8,0:0:0:0:
256,192,280438,1,4,0:0:0:0:
256,192,280700,1,8,0:0:0:0:
256,192,280787,1,0,0:0:0:0:
256,192,280874,1,0,0:0:0:0:
256,192,280962,1,8,0:0:0:0:
256,192,281049,1,0,0:0:0:0:
256,192,281136,1,8,0:0:0:0:
256,192,281252,1,8,0:0:0:0:
256,192,281369,1,0,0:0:0:0:
256,192,281485,1,8,0:0:0:0:
256,192,281543,1,8,0:0:0:0:
256,192,281601,1,0,0:0:0:0:
256,192,281659,1,0,0:0:0:0:
256,192,281834,1,8,0:0:0:0:
256,192,281950,1,0,0:0:0:0:
256,192,282008,1,8,0:0:0:0:
256,192,282066,1,0,0:0:0:0:
256,192,282182,1,8,0:0:0:0:
256,192,282270,1,0,0:0:0:0:
256,192,282357,1,0,0:0:0:0:
256,192,282444,1,8,0:0:0:0:
256,192,282531,1,8,0:0:0:0:
256,192,282619,1,0,0:0:0:0:
256,192,282706,1,8,0:0:0:0:
256,192,282880,1,0,0:0:0:0:
256,192,282967,1,8,0:0:0:0:
256,192,283142,1,0,0:0:0:0:
256,192,283229,1,12,0:0:0:0:
256,192,283403,1,0,0:0:0:0:
256,192,283578,1,8,0:0:0:0:
256,192,283665,1,8,0:0:0:0:
256,192,283752,1,0,0:0:0:0:
256,192,283839,1,8,0:0:0:0:
256,192,283927,1,0,0:0:0:0:
256,192,284043,1,0,0:0:0:0:
256,192,284159,1,0,0:0:0:0:
256,192,284275,1,8,0:0:0:0:
256,192,284334,1,0,0:0:0:0:
256,192,284392,1,0,0:0:0:0:
256,192,284450,1,8,0:0:0:0:
256,192,284624,1,0,0:0:0:0:
256,192,284741,1,8,0:0:0:0:
256,192,284799,1,0,0:0:0:0:
256,192,284857,1,8,0:0:0:0:
256,192,284973,1,0,0:0:0:0:
256,192,285060,1,0,0:0:0:0:
256,192,285148,1,8,0:0:0:0:
256,192,285235,1,0,0:0:0:0:
256,192,285322,1,8,0:0:0:0:
256,192,285409,1,8,0:0:0:0:
256,192,285496,1,0,0:0:0:0:
256,192,285584,1,0,0:0:0:0:
256,192,285671,1,8,0:0:0:0:
256,192,285845,1,0,0:0:0:0:
256,192,286020,1,8,0:0:0:0:
256,192,286136,1,0,0:0:0:0:
256,192,286194,1,8,0:0:0:0:
256,192,286252,1,0,0:0:0:0:
256,192,286369,1,8,0:0:0:0:
256,192,286456,1,0,0:0:0:0:
256,192,286543,1,0,0:0:0:0:
256,192,286630,1,8,0:0:0:0:
256,192,286717,1,0,0:0:0:0:
256,192,286834,1,8,0:0:0:0:
256,192,286950,1,0,0:0:0:0:
256,192,287066,1,8,0:0:0:0:
256,192,287124,1,8,0:0:0:0:
256,192,287182,1,8,0:0:0:0:
256,192,287241,1,0,0:0:0:0:
256,192,287415,1,8,0:0:0:0:
256,192,287502,1,8,0:0:0:0:
256,192,287589,1,0,0:0:0:0:
256,192,287677,1,0,0:0:0:0:
256,192,287764,1,8,0:0:0:0:
256,192,287851,1,0,0:0:0:0:
256,192,287938,1,8,0:0:0:0:
256,192,288025,1,8,0:0:0:0:
256,192,288113,1,0,0:0:0:0:
256,192,288229,1,8,0:0:0:0:
256,192,288345,1,0,0:0:0:0:
256,192,288462,1,8,0:0:0:0:
256,192,288520,1,8,0:0:0:0:
256,192,288578,1,8,0:0:0:0:
256,192,288636,1,0,0:0:0:0:
256,192,288810,1,4,0:0:0:0:
256,192,288985,1,0,0:0:0:0:
256,192,289159,1,8,0:0:0:0:
256,192,289334,1,0,0:0:0:0:
256,192,289508,1,0,0:0:0:0:
256,192,289624,1,0,0:0:0:0:
256,192,289741,1,0,0:0:0:0:
256,192,289857,1,8,0:0:0:0:
256,192,290031,1,0,0:0:0:0:
256,192,290206,1,8,0:0:0:0:
256,192,290293,1,0,0:0:0:0:
256,192,290380,1,8,0:0:0:0:
256,192,290555,1,8,0:0:0:0:
256,192,290729,1,0,0:0:0:0:
256,192,290903,1,8,0:0:0:0:
256,192,291020,1,0,0:0:0:0:
256,192,291136,1,0,0:0:0:0:
256,192,291252,1,8,0:0:0:0:
256,192,291339,1,8,0:0:0:0:
256,192,291427,1,0,0:0:0:0:
256,192,291601,1,0,0:0:0:0:
256,192,291775,1,0,0:0:0:0:
256,192,291950,1,8,0:0:0:0:
256,192,292124,1,0,0:0:0:0:
256,192,292299,1,0,0:0:0:0:
256,192,292415,1,0,0:0:0:0:
256,192,292531,1,0,0:0:0:0:
256,192,292648,1,8,0:0:0:0:
256,192,292822,1,0,0:0:0:0:
256,192,292996,1,8,0:0:0:0:
256,192,293084,1,0,0:0:0:0:
256,192,293171,1,8,0:0:0:0:
256,192,293345,1,8,0:0:0:0:
256,192,293520,1,0,0:0:0:0:
256,192,293694,1,8,0:0:0:0:
256,192,293810,1,0,0:0:0:0:
256,192,293927,1,0,0:0:0:0:
256,192,294043,1,8,0:0:0:0:
256,192,294217,1,0,0:0:0:0:
256,192,294392,1,8,0:0:0:0:
256,192,294479,1,8,0:0:0:0:
256,192,294566,1,8,0:0:0:0:
256,192,294653,1,0,0:0:0:0:
256,192,294741,1,8,0:0:0:0:
256,192,294828,1,8,0:0:0:0:
256,192,294915,1,0,0:0:0:0:
256,192,295002,1,0,0:0:0:0:
256,192,295089,1,8,0:0:0:0:
256,192,295177,1,0,0:0:0:0:
256,192,295264,1,0,0:0:0:0:
256,192,295351,1,0,0:0:0:0:
256,192,295438,1,8,0:0:0:0:
256,192,295525,1,8,0:0:0:0:
256,192,295613,1,0,0:0:0:0:
256,192,295700,1,0,0:0:0:0:
256,192,295787,1,8,0:0:0:0:
256,192,295874,1,8,0:0:0:0:
256,192,295962,1,8,0:0:0:0:
256,192,296049,1,0,0:0:0:0:
256,192,296136,1,8,0:0:0:0:
256,192,296223,1,8,0:0:0:0:
256,192,296310,1,0,0:0:0:0:
256,192,296398,1,0,0:0:0:0:
256,192,296485,1,8,0:0:0:0:
256,192,296572,1,0,0:0:0:0:
256,192,296659,1,0,0:0:0:0:
256,192,296746,1,0,0:0:0:0:
256,192,296834,1,8,0:0:0:0:
256,192,296921,1,8,0:0:0:0:
256,192,297008,1,0,0:0:0:0:
256,192,297095,1,0,0:0:0:0:
256,192,297182,1,8,0:0:0:0:
256,192,297270,1,0,0:0:0:0:
256,192,297357,1,8,0:0:0:0:
256,192,297444,1,0,0:0:0:0:
256,192,297531,1,8,0:0:0:0:
256,192,297619,1,0,0:0:0:0:
256,192,297706,1,8,0:0:0:0:
256,192,297793,1,8,0:0:0:0:
256,192,297880,1,0,0:0:0:0:
256,192,297967,1,8,0:0:0:0:
256,192,298055,1,0,0:0:0:0:
256,192,298142,1,8,0:0:0:0:
256,192,298229,1,0,0:0:0:0:
256,192,298316,1,8,0:0:0:0:
256,192,298403,1,0,0:0:0:0:
256,192,298491,1,8,0:0:0:0:
256,192,298578,1,0,0:0:0:0:
256,192,298648,1,0,0:0:0:0:
256,192,298717,1,0,0:0:0:0:
256,192,298787,1,0,0:0:0:0:
256,192,298857,1,0,0:0:0:0:
256,192,298927,1,0,0:0:0:0:
256,192,298996,1,0,0:0:0:0:
256,192,299066,1,0,0:0:0:0:
256,192,299136,1,0,0:0:0:0:
256,192,299206,1,0,0:0:0:0:
256,192,299275,1,8,0:0:0:0:
256,192,299345,1,8,0:0:0:0:
256,192,299415,1,8,0:0:0:0:
256,192,299485,1,8,0:0:0:0:
256,192,299555,1,8,0:0:0:0:
256,192,299624,1,8,0:0:0:0:
256,192,299694,1,8,0:0:0:0:
256,192,299764,1,8,0:0:0:0:
256,192,299834,1,8,0:0:0:0:
256,192,299903,1,8,0:0:0:0:
256,192,299973,1,4,0:0:0:0:
256,192,300148,1,0,0:0:0:0:
256,192,300322,1,8,0:0:0:0:
256,192,300496,1,0,0:0:0:0:
256,192,300584,1,8,0:0:0:0:
256,192,300671,1,0,0:0:0:0:
256,192,300758,1,8,0:0:0:0:
256,192,300845,1,0,0:0:0:0:
256,192,301020,1,8,0:0:0:0:
256,192,301194,1,8,0:0:0:0:
256,192,301281,1,8,0:0:0:0:
256,192,301369,1,0,0:0:0:0:
256,192,301543,1,0,0:0:0:0:
256,192,301717,1,8,0:0:0:0:
256,192,301892,1,8,0:0:0:0:
256,192,301979,1,8,0:0:0:0:
256,192,302066,1,0,0:0:0:0:
256,192,302153,1,8,0:0:0:0:
256,192,302241,1,0,0:0:0:0:
256,192,302415,1,8,0:0:0:0:
256,192,302589,1,8,0:0:0:0:
256,192,302677,1,8,0:0:0:0:
256,192,302764,1,0,0:0:0:0:
256,192,302938,1,0,0:0:0:0:
256,192,303113,1,8,0:0:0:0:
256,192,303287,1,8,0:0:0:0:
256,192,303374,1,8,0:0:0:0:
256,192,303462,1,8,0:0:0:0:
256,192,303549,1,8,0:0:0:0:
256,192,303636,1,0,0:0:0:0:
256,192,303898,1,0,0:0:0:0:
256,192,303985,1,8,0:0:0:0:
256,192,304159,1,8,0:0:0:0:
256,192,304246,1,8,0:0:0:0:
256,192,304334,1,0,0:0:0:0:
256,192,304421,1,0,0:0:0:0:
256,192,304508,1,8,0:0:0:0:
256,192,304682,1,8,0:0:0:0:
256,192,304770,1,8,0:0:0:0:
256,192,304857,1,0,0:0:0:0:
256,192,304944,1,8,0:0:0:0:
256,192,305031,1,0,0:0:0:0:
256,192,305293,1,0,0:0:0:0:
256,192,305380,1,8,0:0:0:0:
256,192,305555,1,0,0:0:0:0:
256,192,305729,1,0,0:0:0:0:
256,192,305903,1,8,0:0:0:0:
256,192,305991,1,8,0:0:0:0:
256,192,306078,1,0,0:0:0:0:
256,192,306165,1,8,0:0:0:0:
256,192,306252,1,0,0:0:0:0:
256,192,306339,1,8,0:0:0:0:
256,192,306427,1,0,0:0:0:0:
256,192,306514,1,0,0:0:0:0:
256,192,306601,1,8,0:0:0:0:
256,192,306775,1,8,0:0:0:0:
256,192,306863,1,8,0:0:0:0:
256,192,306950,1,0,0:0:0:0:
256,192,307124,1,0,0:0:0:0:
256,192,307299,1,8,0:0:0:0:
256,192,307386,1,8,0:0:0:0:
256,192,307473,1,0,0:0:0:0:
256,192,307560,1,8,0:0:0:0:
256,192,307648,1,0,0:0:0:0:
256,192,307735,1,8,0:0:0:0:
256,192,307822,1,0,0:0:0:0:
256,192,307996,1,8,0:0:0:0:
256,192,308171,1,8,0:0:0:0:
256,192,308258,1,8,0:0:0:0:
256,192,308345,1,0,0:0:0:0:
256,192,308520,1,0,0:0:0:0:
256,192,308694,1,8,0:0:0:0:
256,192,308869,1,8,0:0:0:0:
256,192,308956,1,8,0:0:0:0:
256,192,309043,1,8,0:0:0:0:
256,192,309130,1,8,0:0:0:0:
256,192,309217,1,0,0:0:0:0:
256,192,309479,1,0,0:0:0:0:
256,192,309566,1,8,0:0:0:0:
256,192,309741,1,8,0:0:0:0:
256,192,309915,1,0,0:0:0:0:
256,192,310002,1,8,0:0:0:0:
256,192,310089,1,8,0:0:0:0:
256,192,310177,1,0,0:0:0:0:
256,192,310264,1,8,0:0:0:0:
256,192,310438,1,0,0:0:0:0:
256,192,310525,1,8,0:0:0:0:
256,192,310613,1,0,0:0:0:0:
256,192,310700,1,0,0:0:0:0:
256,192,310787,1,8,0:0:0:0:
256,192,310962,1,0,0:0:0:0:
256,192,311049,1,8,0:0:0:0:
256,192,311136,1,0,0:0:0:0:
256,192,311310,1,0,0:0:0:0:
256,192,311485,1,8,0:0:0:0:
256,192,311659,1,0,0:0:0:0:
256,192,311746,1,8,0:0:0:0:
256,192,311834,1,0,0:0:0:0:
256,192,311921,1,8,0:0:0:0:
256,192,312008,1,0,0:0:0:0:
256,192,312182,1,8,0:0:0:0:
256,192,312357,1,8,0:0:0:0:
256,192,312444,1,8,0:0:0:0:
256,192,312531,1,0,0:0:0:0:
256,192,312706,1,0,0:0:0:0:
256,192,312880,1,8,0:0:0:0:
256,192,313055,1,8,0:0:0:0:
256,192,313142,1,8,0:0:0:0:
256,192,313229,1,0,0:0:0:0:
256,192,313316,1,8,0:0:0:0:
256,192,313403,1,0,0:0:0:0:
256,192,313491,1,0,0:0:0:0:
256,192,313578,1,8,0:0:0:0:
256,192,313752,1,8,0:0:0:0:
256,192,313839,1,8,0:0:0:0:
256,192,313927,1,0,0:0:0:0:
256,192,314101,1,0,0:0:0:0:
256,192,314275,1,8,0:0:0:0:
256,192,314450,1,8,0:0:0:0:
256,192,314537,1,8,0:0:0:0:
256,192,314624,1,8,0:0:0:0:
256,192,314712,1,8,0:0:0:0:
256,192,314799,1,0,0:0:0:0:
256,192,315060,1,0,0:0:0:0:
256,192,315148,1,8,0:0:0:0:
256,192,315322,1,8,0:0:0:0:
256,192,315409,1,8,0:0:0:0:
256,192,315496,1,0,0:0:0:0:
256,192,315584,1,0,0:0:0:0:
256,192,315671,1,8,0:0:0:0:
256,192,315845,1,8,0:0:0:0:
256,192,315932,1,8,0:0:0:0:
256,192,316020,1,0,0:0:0:0:
256,192,316107,1,8,0:0:0:0:
256,192,316194,1,0,0:0:0:0:
256,192,316456,1,0,0:0:0:0:
256,192,316543,1,8,0:0:0:0:
256,192,316717,1,0,0:0:0:0:
256,192,316892,1,0,0:0:0:0:
256,192,317066,1,8,0:0:0:0:
256,192,317153,1,0,0:0:0:0:
256,192,317241,1,8,0:0:0:0:
256,192,317328,1,8,0:0:0:0:
256,192,317415,1,0,0:0:0:0:
256,192,317502,1,8,0:0:0:0:
256,192,317589,1,0,0:0:0:0:
256,192,317677,1,0,0:0:0:0:
256,192,317764,1,8,0:0:0:0:
256,192,317938,1,0,0:0:0:0:
256,192,318025,1,8,0:0:0:0:
256,192,318113,1,0,0:0:0:0:
256,192,318287,1,0,0:0:0:0:
256,192,318462,1,8,0:0:0:0:
256,192,318549,1,8,0:0:0:0:
256,192,318636,1,0,0:0:0:0:
256,192,318723,1,8,0:0:0:0:
256,192,318810,1,0,0:0:0:0:
256,192,318898,1,8,0:0:0:0:
256,192,318985,1,0,0:0:0:0:
256,192,319072,1,0,0:0:0:0:
256,192,319159,1,8,0:0:0:0:
256,192,319334,1,0,0:0:0:0:
256,192,319421,1,0,0:0:0:0:
256,192,319508,1,8,0:0:0:0:
256,192,319682,1,0,0:0:0:0:
256,192,319770,1,0,0:0:0:0:
256,192,319857,1,8,0:0:0:0:
256,192,320031,1,0,0:0:0:0:
256,192,320119,1,0,0:0:0:0:
256,192,320206,1,8,0:0:0:0:
256,192,320380,1,0,0:0:0:0:
256,192,320467,1,0,0:0:0:0:
256,192,320555,1,8,0:0:0:0:
256,192,320729,1,0,0:0:0:0:
256,192,320816,1,0,0:0:0:0:
256,192,320903,1,8,0:0:0:0:
256,192,321078,1,0,0:0:0:0:
256,192,321252,1,8,0:0:0:0:
256,192,321339,1,8,0:0:0:0:
256,192,321427,1,0,0:0:0:0:
256,192,321514,1,8,0:0:0:0:
256,192,321601,1,8,0:0:0:0:
256,192,321688,1,0,0:0:0:0:
256,192,321775,1,8,0:0:0:0:
256,192,321863,1,8,0:0:0:0:
256,192,321950,1,0,0:0:0:0:
256,192,322037,1,8,0:0:0:0:
256,192,322299,1,4,0:0:0:0:
256,192,322473,1,0,0:0:0:0:
256,192,322648,1,8,0:0:0:0:
256,192,322822,1,0,0:0:0:0:
256,192,322996,1,0,0:0:0:0:
256,192,323113,1,0,0:0:0:0:
256,192,323229,1,0,0:0:0:0:
256,192,323345,1,8,0:0:0:0:
256,192,323520,1,0,0:0:0:0:
256,192,323694,1,8,0:0:0:0:
256,192,323781,1,8,0:0:0:0:
256,192,323869,1,0,0:0:0:0:
256,192,323956,1,0,0:0:0:0:
256,192,324043,1,8,0:0:0:0:
256,192,324217,1,0,0:0:0:0:
256,192,324392,1,8,0:0:0:0:
256,192,324508,1,0,0:0:0:0:
256,192,324624,1,0,0:0:0:0:
256,192,324741,1,8,0:0:0:0:
256,192,324915,1,0,0:0:0:0:
256,192,325089,1,8,0:0:0:0:
256,192,325177,1,0,0:0:0:0:
256,192,325264,1,8,0:0:0:0:
256,192,325351,1,0,0:0:0:0:
256,192,325438,1,8,0:0:0:0:
256,192,325525,1,8,0:0:0:0:
256,192,325613,1,0,0:0:0:0:
256,192,325700,1,0,0:0:0:0:
256,192,325787,1,8,0:0:0:0:
256,192,325903,1,0,0:0:0:0:
256,192,326020,1,0,0:0:0:0:
256,192,326136,1,8,0:0:0:0:
256,192,326310,1,0,0:0:0:0:
256,192,326398,1,0,0:0:0:0:
256,192,326485,1,8,0:0:0:0:
256,192,326601,1,0,0:0:0:0:
256,192,326717,1,0,0:0:0:0:
256,192,326834,1,8,0:0:0:0:
256,192,326950,1,0,0:0:0:0:
256,192,327066,1,0,0:0:0:0:
256,192,327182,1,8,0:0:0:0:
256,192,327299,1,8,0:0:0:0:
256,192,327415,1,0,0:0:0:0:
256,192,327531,1,8,0:0:0:0:
256,192,327706,1,0,0:0:0:0:
256,192,327880,1,8,0:0:0:0:
256,192,327967,1,0,0:0:0:0:
256,192,328055,1,8,0:0:0:0:
256,192,328142,1,0,0:0:0:0:
256,192,328229,1,8,0:0:0:0:
256,192,328316,1,8,0:0:0:0:
256,192,328403,1,0,0:0:0:0:
256,192,328491,1,0,0:0:0:0:
256,192,328578,1,8,0:0:0:0:
256,192,328694,1,0,0:0:0:0:
256,192,328810,1,0,0:0:0:0:
256,192,328927,1,8,0:0:0:0:
256,192,329014,1,8,0:0:0:0:
256,192,329101,1,0,0:0:0:0:
256,192,329188,1,0,0:0:0:0:
256,192,329275,1,8,0:0:0:0:
256,192,329363,1,0,0:0:0:0:
256,192,329450,1,8,0:0:0:0:
256,192,329537,1,0,0:0:0:0:
256,192,329624,1,8,0:0:0:0:
256,192,329712,1,8,0:0:0:0:
256,192,329799,1,0,0:0:0:0:
256,192,329886,1,0,0:0:0:0:
256,192,329973,1,8,0:0:0:0:
256,192,330089,1,0,0:0:0:0:
256,192,330206,1,0,0:0:0:0:
256,192,330322,1,8,0:0:0:0:
256,192,330409,1,8,0:0:0:0:
256,192,330496,1,0,0:0:0:0:
256,192,330584,1,0,0:0:0:0:
256,192,330671,1,8,0:0:0:0:
256,192,330787,1,8,0:0:0:0:
256,192,330903,1,0,0:0:0:0:
256,192,331020,1,8,0:0:0:0:
256,192,331107,1,8,0:0:0:0:
256,192,331194,1,0,0:0:0:0:
256,192,331281,1,0,0:0:0:0:
256,192,331369,1,8,0:0:0:0:
256,192,331456,1,0,0:0:0:0:
256,192,331543,1,8,0:0:0:0:
256,192,331630,1,0,0:0:0:0:
256,192,331717,1,8,0:0:0:0:
256,192,331805,1,8,0:0:0:0:
256,192,331892,1,0,0:0:0:0:
256,192,331979,1,0,0:0:0:0:
256,192,332066,1,8,0:0:0:0:
256,192,332182,1,0,0:0:0:0:
256,192,332299,1,0,0:0:0:0:
256,192,332415,1,8,0:0:0:0:
256,192,332531,1,8,0:0:0:0:
256,192,332648,1,0,0:0:0:0:
256,192,332764,1,8,0:0:0:0:
256,192,332880,1,0,0:0:0:0:
256,192,332938,1,8,0:0:0:0:
256,192,332996,1,0,0:0:0:0:
256,192,333113,1,8,0:0:0:0:
256,192,333171,1,8,0:0:0:0:
256,192,333229,1,8,0:0:0:0:
256,192,333287,1,0,0:0:0:0:
256,192,333462,1,8,0:0:0:0:
256,192,333549,1,8,0:0:0:0:
256,192,333636,1,0,0:0:0:0:
256,192,333723,1,0,0:0:0:0:
256,192,333810,1,8,0:0:0:0:
256,192,333898,1,0,0:0:0:0:
256,192,333985,1,0,0:0:0:0:
256,192,334072,1,0,0:0:0:0:
256,192,334159,1,8,0:0:0:0:
256,192,334275,1,0,0:0:0:0:
256,192,334334,1,8,0:0:0:0:
256,192,334392,1,0,0:0:0:0:
256,192,334508,1,8,0:0:0:0:
256,192,334595,1,8,0:0:0:0:
256,192,334682,1,0,0:0:0:0:
256,192,334770,1,0,0:0:0:0:
256,192,334857,1,8,0:0:0:0:
256,192,334944,1,0,0:0:0:0:
256,192,335031,1,8,0:0:0:0:
256,192,335119,1,0,0:0:0:0:
256,192,335206,1,8,0:0:0:0:
256,192,335293,1,0,0:0:0:0:
256,192,335380,1,0,0:0:0:0:
256,192,335467,1,0,0:0:0:0:
256,192,335555,1,8,0:0:0:0:
256,192,335671,1,0,0:0:0:0:
256,192,335729,1,0,0:0:0:0:
256,192,335787,1,0,0:0:0:0:
256,192,335903,1,8,0:0:0:0:
256,192,335991,1,8,0:0:0:0:
256,192,336078,1,0,0:0:0:0:
256,192,336165,1,0,0:0:0:0:
256,192,336252,1,8,0:0:0:0:
256,192,336339,1,0,0:0:0:0:
256,192,336427,1,8,0:0:0:0:
256,192,336514,1,0,0:0:0:0:
256,192,336601,1,8,0:0:0:0:
256,192,336688,1,8,0:0:0:0:
256,192,336775,1,0,0:0:0:0:
256,192,336863,1,0,0:0:0:0:
256,192,336950,1,8,0:0:0:0:
256,192,337066,1,0,0:0:0:0:
256,192,337124,1,8,0:0:0:0:
256,192,337182,1,0,0:0:0:0:
256,192,337299,1,8,0:0:0:0:
256,192,337386,1,8,0:0:0:0:
256,192,337473,1,0,0:0:0:0:
256,192,337560,1,0,0:0:0:0:
256,192,337648,1,8,0:0:0:0:
256,192,337735,1,0,0:0:0:0:
256,192,337822,1,8,0:0:0:0:
256,192,337909,1,0,0:0:0:0:
256,192,337996,1,8,0:0:0:0:
256,192,338084,1,0,0:0:0:0:
256,192,338171,1,0,0:0:0:0:
256,192,338258,1,0,0:0:0:0:
256,192,338345,1,8,0:0:0:0:
256,192,338462,1,0,0:0:0:0:
256,192,338520,1,0,0:0:0:0:
256,192,338578,1,0,0:0:0:0:
256,192,338694,1,8,0:0:0:0:
256,192,338781,1,8,0:0:0:0:
256,192,338869,1,0,0:0:0:0:
256,192,338956,1,0,0:0:0:0:
256,192,339043,1,8,0:0:0:0:
256,192,339101,1,8,0:0:0:0:
256,192,339159,1,8,0:0:0:0:
256,192,339217,1,0,0:0:0:0:
256,192,339305,1,0,0:0:0:0:
256,192,339392,1,8,0:0:0:0:
256,192,339479,1,8,0:0:0:0:
256,192,339566,1,0,0:0:0:0:
256,192,339653,1,0,0:0:0:0:
256,192,339741,1,8,0:0:0:0:
256,192,339799,1,8,0:0:0:0:
256,192,339857,1,8,0:0:0:0:
256,192,339915,1,0,0:0:0:0:
256,192,340002,1,0,0:0:0:0:
256,192,340089,1,8,0:0:0:0:
258,198,340177,1,8,0:0:0:0:
258,194,340264,1,0,0:0:0:0:
258,194,340351,1,0,0:0:0:0:
256,192,340438,1,8,0:0:0:0:
256,192,340496,1,8,0:0:0:0:
256,192,340555,1,8,0:0:0:0:
256,192,340613,1,0,0:0:0:0:
256,192,340700,1,0,0:0:0:0:
256,192,340787,1,8,0:0:0:0:
256,192,340874,1,8,0:0:0:0:
256,192,340962,1,0,0:0:0:0:
256,192,341049,1,0,0:0:0:0:
256,192,341136,1,8,0:0:0:0:
256,192,341194,1,8,0:0:0:0:
256,192,341252,1,8,0:0:0:0:
256,192,341310,1,0,0:0:0:0:
256,192,341398,1,0,0:0:0:0:
256,192,341485,1,8,0:0:0:0:
258,198,341572,1,8,0:0:0:0:
258,194,341659,1,0,0:0:0:0:
258,194,341746,1,0,0:0:0:0:
256,192,341834,1,8,0:0:0:0:
256,192,341892,1,0,0:0:0:0:
256,192,341950,1,0,0:0:0:0:
256,192,342008,1,8,0:0:0:0:
256,192,342095,1,0,0:0:0:0:
256,192,342182,1,8,0:0:0:0:
256,192,342241,1,8,0:0:0:0:
256,192,342299,1,0,0:0:0:0:
256,192,342357,1,8,0:0:0:0:
256,192,342444,1,0,0:0:0:0:
256,192,342531,1,8,0:0:0:0:
256,192,342589,1,0,0:0:0:0:
256,192,342648,1,0,0:0:0:0:
256,192,342706,1,8,0:0:0:0:
256,192,342793,1,8,0:0:0:0:
256,192,342880,1,0,0:0:0:0:
256,192,342938,1,0,0:0:0:0:
256,192,342996,1,0,0:0:0:0:
256,192,343055,1,8,0:0:0:0:
256,192,343113,1,8,0:0:0:0:
256,192,343171,1,8,0:0:0:0:
256,192,343229,1,0,0:0:0:0:
256,192,344014,1,0,0:0:0:0:
256,192,344101,1,0,0:0:0:0:
256,192,344188,1,0,0:0:0:0:
256,192,344275,1,8,0:0:0:0:
256,192,344363,1,0,0:0:0:0:
256,192,344450,1,0,0:0:0:0:
256,192,344537,1,8,0:0:0:0:
256,192,344624,1,4,0:0:0:0:
256,192,344973,1,0,0:0:0:0:
256,192,345060,1,8,0:0:0:0:
256,192,345235,1,8,0:0:0:0:
256,192,345322,1,0,0:0:0:0:
256,192,345496,1,0,0:0:0:0:
256,192,345584,1,8,0:0:0:0:
256,192,345758,1,8,0:0:0:0:
256,192,345845,1,0,0:0:0:0:
256,192,346020,1,8,0:0:0:0:
256,192,346107,1,8,0:0:0:0:
256,192,346194,1,0,0:0:0:0:
256,192,346281,1,8,0:0:0:0:
256,192,346369,1,0,0:0:0:0:
256,192,346456,1,0,0:0:0:0:
256,192,346543,1,8,0:0:0:0:
256,192,346630,1,8,0:0:0:0:
256,192,346717,1,0,0:0:0:0:
256,192,346805,1,8,0:0:0:0:
256,192,346892,1,0,0:0:0:0:
256,192,346979,1,0,0:0:0:0:
256,192,347066,1,8,0:0:0:0:
256,192,347124,1,8,0:0:0:0:
256,192,347182,1,8,0:0:0:0:
256,192,347241,1,0,0:0:0:0:
256,192,347415,1,4,0:0:0:0:
256,192,347589,1,8,0:0:0:0:
256,192,347677,1,8,0:0:0:0:
256,192,347764,1,0,0:0:0:0:
256,192,347822,1,0,0:0:0:0:
256,192,347880,1,8,0:0:0:0:
256,192,348025,1,0,0:0:0:0:
258,198,348113,1,8,0:0:0:0:
256,192,348287,1,8,0:0:0:0:
256,192,348374,1,0,0:0:0:0:
256,192,348462,1,8,0:0:0:0:
256,192,348520,1,0,0:0:0:0:
256,192,348578,1,0,0:0:0:0:
256,192,348636,1,8,0:0:0:0:
256,192,348810,1,0,0:0:0:0:
256,192,348927,1,8,0:0:0:0:
256,192,348985,1,0,0:0:0:0:
256,192,349043,1,8,0:0:0:0:
256,192,349159,1,0,0:0:0:0:
256,192,349246,1,8,0:0:0:0:
256,192,349334,1,8,0:0:0:0:
256,192,349421,1,0,0:0:0:0:
256,192,349508,1,0,0:0:0:0:
256,192,349595,1,8,0:0:0:0:
256,192,349682,1,0,0:0:0:0:
256,192,349770,1,0,0:0:0:0:
256,192,349857,1,0,0:0:0:0:
256,192,349944,1,8,0:0:0:0:
256,192,350119,1,0,0:0:0:0:
256,192,350206,1,12,0:0:0:0:
256,192,350467,1,0,0:0:0:0:
256,192,350555,1,8,0:0:0:0:
256,192,350613,1,8,0:0:0:0:
256,192,350671,1,0,0:0:0:0:
256,192,350816,1,8,0:0:0:0:
256,192,350903,1,0,0:0:0:0:
256,192,350991,1,0,0:0:0:0:
256,192,351078,1,8,0:0:0:0:
256,192,351165,1,8,0:0:0:0:
256,192,351252,1,0,0:0:0:0:
256,192,351310,1,8,0:0:0:0:
256,192,351369,1,8,0:0:0:0:
256,192,351427,1,0,0:0:0:0:
256,192,351601,1,8,0:0:0:0:
256,192,351688,1,8,0:0:0:0:
256,192,351775,1,0,0:0:0:0:
256,192,351863,1,8,0:0:0:0:
256,192,351950,1,8,0:0:0:0:
256,192,352037,1,0,0:0:0:0:
256,192,352124,1,8,0:0:0:0:
256,192,352212,1,0,0:0:0:0:
256,192,352299,1,0,0:0:0:0:
256,192,352386,1,8,0:0:0:0:
256,192,352473,1,0,0:0:0:0:
256,192,352560,1,0,0:0:0:0:
256,192,352648,1,8,0:0:0:0:
256,192,352706,1,8,0:0:0:0:
256,192,352764,1,8,0:0:0:0:
256,192,352822,1,0,0:0:0:0:
256,192,352996,1,8,0:0:0:0:
256,192,353084,1,0,0:0:0:0:
256,192,353171,1,8,0:0:0:0:
256,192,353258,1,0,0:0:0:0:
256,192,353345,1,8,0:0:0:0:
256,192,353432,1,8,0:0:0:0:
256,192,353520,1,0,0:0:0:0:
256,192,353607,1,0,0:0:0:0:
256,192,353694,1,8,0:0:0:0:
256,192,353810,1,8,0:0:0:0:
256,192,353927,1,0,0:0:0:0:
256,192,354043,1,8,0:0:0:0:
256,192,354101,1,8,0:0:0:0:
256,192,354159,1,8,0:0:0:0:
256,192,354217,1,0,0:0:0:0:
256,192,354392,1,0,0:0:0:0:
256,192,354479,1,0,0:0:0:0:
256,192,354653,1,0,0:0:0:0:
256,192,354741,1,8,0:0:0:0:
256,192,354857,1,0,0:0:0:0:
256,192,354915,1,8,0:0:0:0:
256,192,354973,1,0,0:0:0:0:
256,192,355089,1,8,0:0:0:0:
256,192,355177,1,0,0:0:0:0:
256,192,355264,1,0,0:0:0:0:
256,192,355351,1,0,0:0:0:0:
256,192,355438,1,8,0:0:0:0:
256,192,355525,1,8,0:0:0:0:
256,192,355613,1,0,0:0:0:0:
256,192,355700,1,0,0:0:0:0:
256,192,355787,1,12,0:0:0:0:
256,192,356136,1,8,0:0:0:0:
256,192,356194,1,8,0:0:0:0:
256,192,356252,1,0,0:0:0:0:
256,192,356398,1,8,0:0:0:0:
256,192,356485,1,0,0:0:0:0:
256,192,356572,1,0,0:0:0:0:
256,192,356659,1,8,0:0:0:0:
256,192,356746,1,8,0:0:0:0:
256,192,356834,1,0,0:0:0:0:
256,192,356950,1,8,0:0:0:0:
256,192,357008,1,8,0:0:0:0:
256,192,357066,1,8,0:0:0:0:
256,192,357182,1,0,0:0:0:0:
256,192,357270,1,0,0:0:0:0:
256,192,357357,1,8,0:0:0:0:
256,192,357444,1,0,0:0:0:0:
256,192,357531,1,0,0:0:0:0:
256,192,357619,1,8,0:0:0:0:
256,192,357706,1,0,0:0:0:0:
256,192,357793,1,8,0:0:0:0:
256,192,357880,1,8,0:0:0:0:
256,192,357967,1,0,0:0:0:0:
256,192,358055,1,8,0:0:0:0:
256,192,358142,1,8,0:0:0:0:
256,192,358229,1,0,0:0:0:0:
256,192,358287,1,0,0:0:0:0:
256,192,358345,1,0,0:0:0:0:
256,192,358403,1,8,0:0:0:0:
256,192,358578,1,4,0:0:0:0:
256,192,358839,1,8,0:0:0:0:
256,192,358927,1,0,0:0:0:0:
256,192,358985,1,0,0:0:0:0:
256,192,359043,1,8,0:0:0:0:
256,192,359188,1,0,0:0:0:0:
256,192,359275,1,0,0:0:0:0:
256,192,359363,1,8,0:0:0:0:
256,192,359450,1,0,0:0:0:0:
256,192,359537,1,8,0:0:0:0:
256,192,359624,1,0,0:0:0:0:
256,192,359682,1,0,0:0:0:0:
256,192,359741,1,0,0:0:0:0:
256,192,359799,1,8,0:0:0:0:
256,192,359973,1,0,0:0:0:0:
256,192,360089,1,8,0:0:0:0:
256,192,360148,1,0,0:0:0:0:
256,192,360206,1,8,0:0:0:0:
256,192,360322,1,0,0:0:0:0:
256,192,360409,1,8,0:0:0:0:
256,192,360496,1,8,0:0:0:0:
256,192,360584,1,0,0:0:0:0:
256,192,360671,1,0,0:0:0:0:
256,192,360758,1,8,0:0:0:0:
256,192,360845,1,0,0:0:0:0:
256,192,360932,1,0,0:0:0:0:
256,192,361020,1,0,0:0:0:0:
256,192,361107,1,8,0:0:0:0:
256,192,361281,1,0,0:0:0:0:
256,192,361369,1,12,0:0:0:0:
256,192,361543,1,0,0:0:0:0:
256,192,361717,1,8,0:0:0:0:
256,192,361805,1,8,0:0:0:0:
256,192,361892,1,0,0:0:0:0:
256,192,361979,1,8,0:0:0:0:
256,192,362066,1,0,0:0:0:0:
256,192,362153,1,0,0:0:0:0:
256,192,362241,1,8,0:0:0:0:
256,192,362328,1,8,0:0:0:0:
256,192,362415,1,0,0:0:0:0:
256,192,362502,1,8,0:0:0:0:
256,192,362589,1,8,0:0:0:0:
256,192,362677,1,8,0:0:0:0:
256,192,362764,1,0,0:0:0:0:
256,192,362938,1,0,0:0:0:0:
256,192,363113,1,8,0:0:0:0:
256,192,363200,1,8,0:0:0:0:
256,192,363287,1,0,0:0:0:0:
256,192,363374,1,8,0:0:0:0:
256,192,363462,1,0,0:0:0:0:
256,192,363549,1,0,0:0:0:0:
256,192,363636,1,8,0:0:0:0:
256,192,363723,1,8,0:0:0:0:
256,192,363810,1,0,0:0:0:0:
256,192,363898,1,8,0:0:0:0:
256,192,363985,1,0,0:0:0:0:
256,192,364072,1,0,0:0:0:0:
256,192,364159,1,0,0:0:0:0:
256,192,364334,1,0,0:0:0:0:
256,192,364508,1,8,0:0:0:0:
256,192,364595,1,0,0:0:0:0:
256,192,364682,1,8,0:0:0:0:
256,192,364770,1,8,0:0:0:0:
256,192,364857,1,0,0:0:0:0:
256,192,364944,1,8,0:0:0:0:
256,192,365031,1,0,0:0:0:0:
256,192,365119,1,8,0:0:0:0:
256,192,365206,1,0,0:0:0:0:
256,192,365293,1,0,0:0:0:0:
256,192,365380,1,8,0:0:0:0:
256,192,365467,1,8,0:0:0:0:
256,192,365555,1,0,0:0:0:0:
256,192,365642,1,8,0:0:0:0:
256,192,365729,1,0,0:0:0:0:
256,192,365816,1,8,0:0:0:0:
256,192,365903,1,0,0:0:0:0:
256,192,365991,1,8,0:0:0:0:
256,192,366078,1,0,0:0:0:0:
256,192,366165,1,8,0:0:0:0:
256,192,366252,1,0,0:0:0:0:
256,192,366339,1,0,0:0:0:0:
256,192,366427,1,0,0:0:0:0:
256,192,366514,1,0,0:0:0:0:
256,192,366601,1,8,0:0:0:0:
256,192,366659,1,0,0:0:0:0:
256,192,366717,1,0,0:0:0:0:
256,192,366775,1,8,0:0:0:0:
256,192,366863,1,8,0:0:0:0:
256,192,366950,1,4,0:0:0:0:
256,192,367299,1,0,0:0:0:0:
256,192,367386,1,0,0:0:0:0:
256,192,367473,1,8,0:0:0:0:
256,192,367560,1,0,0:0:0:0:
256,192,367619,1,0,0:0:0:0:
256,192,367677,1,0,0:0:0:0:
256,192,367735,1,8,0:0:0:0:
256,192,367822,1,0,0:0:0:0:
256,192,367996,1,8,0:0:0:0:
256,192,368113,1,0,0:0:0:0:
256,192,368171,1,8,0:0:0:0:
256,192,368229,1,0,0:0:0:0:
256,192,368345,1,8,0:0:0:0:
256,192,368432,1,0,0:0:0:0:
256,192,368520,1,0,0:0:0:0:
256,192,368607,1,8,0:0:0:0:
256,192,368694,1,8,0:0:0:0:
256,192,368781,1,0,0:0:0:0:
256,192,368869,1,8,0:0:0:0:
256,192,368956,1,0,0:0:0:0:
256,192,369130,1,0,0:0:0:0:
256,192,369217,1,8,0:0:0:0:
256,192,369305,1,0,0:0:0:0:
256,192,369392,1,8,0:0:0:0:
256,192,369450,1,8,0:0:0:0:
256,192,369508,1,8,0:0:0:0:
256,192,369566,1,0,0:0:0:0:
256,192,369741,1,4,0:0:0:0:
256,192,370002,1,8,0:0:0:0:
256,192,370089,1,0,0:0:0:0:
256,192,370148,1,0,0:0:0:0:
256,192,370206,1,0,0:0:0:0:
256,192,370264,1,8,0:0:0:0:
256,192,370351,1,0,0:0:0:0:
256,192,370525,1,8,0:0:0:0:
256,192,370613,1,0,0:0:0:0:
256,192,370700,1,0,0:0:0:0:
256,192,370787,1,8,0:0:0:0:
256,192,370845,1,0,0:0:0:0:
256,192,370903,1,0,0:0:0:0:
256,192,370962,1,8,0:0:0:0:
256,192,371136,1,0,0:0:0:0:
256,192,371252,1,8,0:0:0:0:
256,192,371310,1,0,0:0:0:0:
256,192,371369,1,8,0:0:0:0:
256,192,371485,1,0,0:0:0:0:
256,192,371572,1,0,0:0:0:0:
256,192,371659,1,8,0:0:0:0:
256,192,371746,1,0,0:0:0:0:
256,192,371834,1,0,0:0:0:0:
256,192,371921,1,8,0:0:0:0:
256,192,372008,1,0,0:0:0:0:
256,192,372095,1,0,0:0:0:0:
256,192,372182,1,0,0:0:0:0:
256,192,372270,1,8,0:0:0:0:
256,192,372444,1,0,0:0:0:0:
256,192,372531,1,12,0:0:0:0:
256,192,372880,1,8,0:0:0:0:
256,192,372967,1,0,0:0:0:0:
256,192,373055,1,0,0:0:0:0:
256,192,373142,1,8,0:0:0:0:
256,192,373200,1,8,0:0:0:0:
256,192,373258,1,0,0:0:0:0:
256,192,373316,1,0,0:0:0:0:
256,192,373403,1,8,0:0:0:0:
256,192,373578,1,0,0:0:0:0:
256,192,373694,1,8,0:0:0:0:
256,192,373752,1,8,0:0:0:0:
256,192,373810,1,0,0:0:0:0:
256,192,373927,1,8,0:0:0:0:
256,192,374014,1,0,0:0:0:0:
256,192,374101,1,0,0:0:0:0:
256,192,374188,1,8,0:0:0:0:
256,192,374275,1,8,0:0:0:0:
256,192,374363,1,0,0:0:0:0:
256,192,374450,1,8,0:0:0:0:
256,192,374537,1,0,0:0:0:0:
256,192,374624,1,0,0:0:0:0:
256,192,374712,1,8,0:0:0:0:
256,192,374799,1,8,0:0:0:0:
256,192,374886,1,0,0:0:0:0:
256,192,374973,1,8,0:0:0:0:
256,192,375031,1,8,0:0:0:0:
256,192,375089,1,8,0:0:0:0:
256,192,375148,1,0,0:0:0:0:
256,192,375322,1,8,0:0:0:0:
256,192,375409,1,0,0:0:0:0:
256,192,375584,1,0,0:0:0:0:
256,192,375671,1,8,0:0:0:0:
256,192,375758,1,8,0:0:0:0:
256,192,375845,1,0,0:0:0:0:
256,192,375903,1,0,0:0:0:0:
256,192,375962,1,0,0:0:0:0:
256,192,376020,1,8,0:0:0:0:
256,192,376136,1,8,0:0:0:0:
256,192,376252,1,0,0:0:0:0:
256,192,376369,1,8,0:0:0:0:
256,192,376456,1,8,0:0:0:0:
256,192,376543,1,0,0:0:0:0:
256,192,376717,1,8,0:0:0:0:
256,192,376805,1,8,0:0:0:0:
256,192,376979,1,0,0:0:0:0:
256,192,377066,1,8,0:0:0:0:
256,192,377241,1,0,0:0:0:0:
256,192,377415,1,8,0:0:0:0:
256,192,377502,1,0,0:0:0:0:
256,192,377589,1,8,0:0:0:0:
256,192,377677,1,0,0:0:0:0:
256,192,377764,1,8,0:0:0:0:
256,192,377851,1,8,0:0:0:0:
256,192,377938,1,0,0:0:0:0:
256,192,378113,1,12,0:0:0:0:
256,192,378374,1,0,0:0:0:0:
256,192,378462,1,8,0:0:0:0:
256,192,378520,1,8,0:0:0:0:
256,192,378578,1,8,0:0:0:0:
256,192,378636,1,0,0:0:0:0:
256,192,378723,1,8,0:0:0:0:
256,192,378810,1,8,0:0:0:0:
256,192,378898,1,0,0:0:0:0:
256,192,378985,1,8,0:0:0:0:
256,192,379043,1,8,0:0:0:0:
256,192,379101,1,0,0:0:0:0:
256,192,379159,1,0,0:0:0:0:
256,192,379246,1,8,0:0:0:0:
256,192,379334,1,0,0:0:0:0:
256,192,379508,1,12,0:0:0:0:
256,192,379682,1,0,0:0:0:0:
256,192,379770,1,8,0:0:0:0:
256,192,379828,1,8,0:0:0:0:
256,192,379886,1,8,0:0:0:0:
256,192,379944,1,0,0:0:0:0:
256,192,380031,1,8,0:0:0:0:
256,192,380089,1,8,0:0:0:0:
256,192,380148,1,0,0:0:0:0:
256,192,380206,1,0,0:0:0:0:
256,192,380293,1,8,0:0:0:0:
256,192,380380,1,8,0:0:0:0:
256,192,380467,1,0,0:0:0:0:
256,192,380555,1,8,0:0:0:0:
256,192,380642,1,8,0:0:0:0:
256,192,380729,1,0,0:0:0:0:
256,192,380903,1,4,0:0:0:0:
256,192,381165,1,0,0:0:0:0:
256,192,381252,1,8,0:0:0:0:
256,192,381339,1,8,0:0:0:0:
256,192,381427,1,0,0:0:0:0:
256,192,381514,1,8,0:0:0:0:
256,192,381572,1,8,0:0:0:0:
256,192,381630,1,8,0:0:0:0:
256,192,381688,1,0,0:0:0:0:
256,192,381775,1,8,0:0:0:0:
256,192,381950,1,0,0:0:0:0:
256,192,382008,1,0,0:0:0:0:
256,192,382066,1,0,0:0:0:0:
256,192,382124,1,8,0:0:0:0:
256,192,382299,1,4,0:0:0:0:
256,192,382415,1,8,0:0:0:0:
256,192,382473,1,0,0:0:0:0:
256,192,382531,1,8,0:0:0:0:
256,192,382648,1,0,0:0:0:0:
256,192,382706,1,0,0:0:0:0:
256,192,382764,1,0,0:0:0:0:
256,192,382822,1,8,0:0:0:0:
256,192,382909,1,8,0:0:0:0:
256,192,382996,1,0,0:0:0:0:
256,192,383084,1,0,0:0:0:0:
256,192,383171,1,0,0:0:0:0:
256,192,383258,1,8,0:0:0:0:
256,192,383316,1,8,0:0:0:0:
256,192,383374,1,0,0:0:0:0:
256,192,383432,1,0,0:0:0:0:
256,192,383520,1,8,0:0:0:0:
256,192,383694,1,4,0:0:0:0:
256,192,383869,1,0,0:0:0:0:
256,192,384043,1,8,0:0:0:0:
256,192,384101,1,8,0:0:0:0:
256,192,384159,1,8,0:0:0:0:
256,192,384217,1,0,0:0:0:0:
256,192,384305,1,8,0:0:0:0:
256,192,384392,1,8,0:0:0:0:
256,192,384479,1,0,0:0:0:0:
256,192,384566,1,8,0:0:0:0:
256,192,384741,1,0,0:0:0:0:
256,192,384857,1,8,0:0:0:0:
256,192,384915,1,0,0:0:0:0:
256,192,384973,1,8,0:0:0:0:
256,192,385089,1,0,0:0:0:0:
256,192,385133,1,0,0:0:0:0:
256,192,385177,1,8,0:0:0:0:
256,192,385264,1,0,0:0:0:0:
256,192,385351,1,8,0:0:0:0:
256,192,385438,1,0,0:0:0:0:
256,192,385496,1,0,0:0:0:0:
256,192,385555,1,0,0:0:0:0:
256,192,385613,1,8,0:0:0:0:
256,192,385700,1,0,0:0:0:0:
256,192,385874,1,0,0:0:0:0:
256,192,385962,1,8,0:0:0:0:
256,192,386049,1,8,0:0:0:0:
256,192,386136,1,0,0:0:0:0:
256,192,386223,1,8,0:0:0:0:
256,192,386281,1,8,0:0:0:0:
256,192,386339,1,8,0:0:0:0:
256,192,386398,1,0,0:0:0:0:
256,192,386485,1,8,0:0:0:0:
256,192,386528,1,8,0:0:0:0:
256,192,386572,1,0,0:0:0:0:
256,192,386659,1,8,0:0:0:0:
256,192,386746,1,0,0:0:0:0:
256,192,386834,1,8,0:0:0:0:
256,192,386892,1,8,0:0:0:0:
256,192,386950,1,8,0:0:0:0:
256,192,387008,1,0,0:0:0:0:
256,192,387095,1,8,0:0:0:0:
256,192,387153,1,8,0:0:0:0:
256,192,387212,1,0,0:0:0:0:
256,192,387270,1,0,0:0:0:0:
256,192,387357,1,8,0:0:0:0:
256,192,387400,1,8,0:0:0:0:
256,192,387444,1,0,0:0:0:0:
256,192,387531,1,0,0:0:0:0:
256,192,387619,1,8,0:0:0:0:
256,192,387706,1,0,0:0:0:0:
256,192,387793,1,0,0:0:0:0:
256,192,387880,12,0,389101,0:0:0:0:
256,192,389275,5,4,0:0:0:0:
