osu file format v14

[General]
AudioFilename: audio.mp3
AudioLeadIn: 0
PreviewTime: -1
Countdown: 1
SampleSet: None
StackLeniency: 0.7
Mode: 1
LetterboxInBreaks: 0
WidescreenStoryboard: 0

[Editor]
DistanceSpacing: 1.1
BeatDivisor: 4
GridSize: 8
TimelineZoom: 1.4

[Metadata]
Title:into the lava
TitleUnicode:|И⊥○ ⊥├┤Ш ∠∧∨∧
Artist:Camellia
ArtistUnicode:Camellia
Creator:worst player
Version:swimming in fire
Source:
Tags:
BeatmapID:1889287
BeatmapSetID:905190

[Difficulty]
HPDrainRate:5
CircleSize:5
OverallDifficulty:6
ApproachRate:5
SliderMultiplier:1.4
SliderTickRate:1

[Events]
//Background and Video events
0,0,"393788.jpg",0,0
//Break Periods
//Storyboard Layer 0 (Background)
//Storyboard Layer 1 (Fail)
//Storyboard Layer 2 (Pass)
//Storyboard Layer 3 (Foreground)
//Storyboard Sound Samples

[TimingPoints]
5965,342.857142857143,4,2,0,100,1,0
48479,348.837209302326,4,2,0,100,1,0
49351,342.857142857143,4,2,0,100,1,0
71293,-100,4,2,0,100,0,1
81065,-100,4,2,0,100,0,0
82265,-100,4,2,0,100,0,1
90493,-100,4,2,0,100,0,0
93236,-100,4,2,0,100,0,1
103008,-100,4,2,0,100,0,0
104208,-100,4,2,0,100,0,1
113808,-100,4,2,0,100,0,0
115179,-100,4,2,0,100,0,1
124779,-100,4,2,0,100,0,0
126151,-100,4,2,0,100,0,1
137122,350.877192982456,4,2,0,100,1,0
137122,-100,4,2,0,100,0,1
141332,365.853658536585,4,2,0,100,1,0
142795,370.37037037037,4,2,0,100,1,0
144276,379.746835443038,4,2,0,100,1,0
145794,384.615384615385,4,2,0,100,1,0
147332,392.156862745098,4,2,0,100,1,0
148900,397.350993377483,4,2,0,100,1,0
150489,408.163265306122,4,2,0,100,1,0
152121,416.666666666667,4,2,0,100,1,0
153787,422.535211267606,4,2,0,100,1,0
155477,437.956204379562,4,2,0,100,1,0
157228,444.444444444444,4,2,0,100,1,0
159005,456.273764258555,4,2,0,100,1,0
160830,459.770114942529,4,2,0,100,1,0
162669,468.75,4,2,0,100,1,0
192669,465.116279069767,4,2,0,100,1,0
194529,454.545454545455,4,2,0,100,1,0
196347,441.176470588235,4,2,0,100,1,0
198111,434.782608695652,4,2,0,100,1,0
199850,422.535211267606,4,2,0,100,1,0
201540,416.666666666667,4,2,0,100,1,0
203206,410.958904109589,4,2,0,100,1,0
204849,400,4,2,0,100,1,0
206449,392.156862745098,4,2,0,100,1,0
208017,384.615384615385,4,2,0,100,1,0
209555,377.358490566038,4,2,0,100,1,0
211064,370.37037037037,4,2,0,100,1,0
212545,363.636363636364,4,2,0,100,1,0
213999,359.281437125748,4,2,0,100,1,0
215436,352.941176470588,4,2,0,100,1,0
216847,346.820809248555,4,2,0,100,1,0
218234,342.857142857143,4,2,0,100,1,0
262119,-100,4,2,0,100,0,1
278576,-100,4,2,0,100,0,0
278919,-100,4,2,0,100,0,1
305662,-100,4,2,0,100,0,0

[HitObjects]
429,286,5450,5,4,0:0:0:0:
456,317,5793,1,8,0:0:0:0:
456,317,5964,1,0,0:0:0:0:
478,342,6307,1,0,0:0:0:0:
478,342,6650,1,0,0:0:0:0:
478,342,6993,1,8,0:0:0:0:
478,342,7336,1,0,0:0:0:0:
478,342,7679,1,0,0:0:0:0:
478,342,7850,1,8,0:0:0:0:
506,344,8193,1,8,0:0:0:0:
433,223,8536,1,0,0:0:0:0:
467,283,8707,1,8,0:0:0:0:
486,290,9050,1,0,0:0:0:0:
486,290,9393,1,8,0:0:0:0:
486,290,9736,1,8,0:0:0:0:
481,319,10079,1,8,0:0:0:0:
481,319,10422,1,8,0:0:0:0:
481,319,10593,1,0,0:0:0:0:
451,182,10936,1,8,0:0:0:0:
475,319,11279,1,0,0:0:0:0:
475,319,11450,1,8,0:0:0:0:
477,341,11793,1,0,0:0:0:0:
476,361,12136,1,8,0:0:0:0:
476,361,12479,1,8,0:0:0:0:
363,278,12822,1,0,0:0:0:0:
476,360,13165,1,0,0:0:0:0:
419,319,13336,1,8,0:0:0:0:
481,362,13679,1,8,0:0:0:0:
399,248,14022,1,0,0:0:0:0:
440,304,14193,1,8,0:0:0:0:
479,317,14536,1,0,0:0:0:0:
479,317,14879,1,8,0:0:0:0:
479,317,15222,1,8,0:0:0:0:
479,317,15565,1,8,0:0:0:0:
486,356,15907,1,8,0:0:0:0:
486,356,16079,1,0,0:0:0:0:
508,217,16422,1,8,0:0:0:0:
485,355,16765,1,0,0:0:0:0:
501,318,16936,1,8,0:0:0:0:
501,318,17279,1,0,0:0:0:0:
485,329,17622,1,8,0:0:0:0:
485,329,17965,1,8,0:0:0:0:
500,315,18307,1,0,0:0:0:0:
486,334,18650,1,0,0:0:0:0:
486,334,18822,1,8,0:0:0:0:
486,334,19165,1,8,0:0:0:0:
486,334,19507,1,0,0:0:0:0:
486,334,19679,1,8,0:0:0:0:
486,334,20022,1,0,0:0:0:0:
486,334,20365,1,8,0:0:0:0:
486,358,20707,1,8,0:0:0:0:
486,358,21050,1,8,0:0:0:0:
486,358,21393,1,8,0:0:0:0:
486,358,21565,1,0,0:0:0:0:
508,217,21907,1,8,0:0:0:0:
485,355,22250,1,0,0:0:0:0:
501,318,22421,1,8,0:0:0:0:
501,318,22764,1,0,0:0:0:0:
485,329,23107,1,8,0:0:0:0:
485,329,23450,1,8,0:0:0:0:
500,315,23792,1,0,0:0:0:0:
486,334,24135,1,0,0:0:0:0:
486,334,24307,1,8,0:0:0:0:
486,334,24650,1,8,0:0:0:0:
486,334,24992,1,0,0:0:0:0:
486,334,25164,1,8,0:0:0:0:
486,334,25507,1,0,0:0:0:0:
486,334,25850,1,8,0:0:0:0:
486,358,26192,1,8,0:0:0:0:
486,358,26535,1,8,0:0:0:0:
486,358,26878,1,8,0:0:0:0:
486,358,27050,1,0,0:0:0:0:
371,277,27393,1,4,0:0:0:0:
485,355,27736,1,0,0:0:0:0:
501,318,27907,1,8,0:0:0:0:
501,318,28250,1,0,0:0:0:0:
485,329,28593,1,8,0:0:0:0:
485,329,28936,1,8,0:0:0:0:
500,315,29278,1,0,0:0:0:0:
486,334,29621,1,0,0:0:0:0:
486,334,29793,1,8,0:0:0:0:
486,334,30136,1,8,0:0:0:0:
486,334,30478,1,0,0:0:0:0:
486,334,30650,1,8,0:0:0:0:
486,334,30993,1,0,0:0:0:0:
486,334,31336,1,8,0:0:0:0:
486,358,31678,1,8,0:0:0:0:
486,358,32021,1,8,0:0:0:0:
486,358,32364,1,8,0:0:0:0:
486,358,32536,1,0,0:0:0:0:
508,217,32879,1,8,0:0:0:0:
485,355,33222,1,0,0:0:0:0:
501,318,33393,1,8,0:0:0:0:
501,318,33736,1,0,0:0:0:0:
485,329,34079,1,8,0:0:0:0:
485,329,34422,1,8,0:0:0:0:
500,315,34764,1,0,0:0:0:0:
486,334,35107,1,0,0:0:0:0:
486,334,35279,1,8,0:0:0:0:
486,334,35622,1,8,0:0:0:0:
486,334,35964,1,0,0:0:0:0:
486,334,36136,1,8,0:0:0:0:
486,334,36479,1,0,0:0:0:0:
486,334,36822,1,8,0:0:0:0:
486,358,37164,1,8,0:0:0:0:
486,358,37507,1,8,0:0:0:0:
486,358,37850,1,8,0:0:0:0:
486,358,38022,1,0,0:0:0:0:
508,217,38365,1,8,0:0:0:0:
485,355,38708,1,0,0:0:0:0:
501,318,38879,1,8,0:0:0:0:
501,318,39222,1,0,0:0:0:0:
485,329,39565,1,8,0:0:0:0:
485,329,39908,1,8,0:0:0:0:
500,315,40250,1,0,0:0:0:0:
486,334,40593,1,0,0:0:0:0:
486,334,40765,1,8,0:0:0:0:
486,334,41108,1,8,0:0:0:0:
486,334,41450,1,0,0:0:0:0:
486,334,41622,1,8,0:0:0:0:
486,334,41965,1,0,0:0:0:0:
486,334,42308,1,8,0:0:0:0:
486,358,42650,1,8,0:0:0:0:
486,358,42993,1,8,0:0:0:0:
486,358,43336,1,8,0:0:0:0:
486,358,43508,1,0,0:0:0:0:
508,217,43850,1,8,0:0:0:0:
485,355,44193,1,0,0:0:0:0:
501,318,44364,1,8,0:0:0:0:
501,318,44707,1,0,0:0:0:0:
485,329,45050,1,8,0:0:0:0:
485,329,45393,1,8,0:0:0:0:
500,315,45735,1,0,0:0:0:0:
486,334,46078,1,0,0:0:0:0:
486,334,46250,1,8,0:0:0:0:
486,334,46593,1,8,0:0:0:0:
486,334,46935,1,0,0:0:0:0:
486,334,47107,1,8,0:0:0:0:
486,334,47450,1,0,0:0:0:0:
486,334,47793,1,8,0:0:0:0:
486,358,48135,1,8,0:0:0:0:
486,358,48478,1,8,0:0:0:0:
486,358,48821,1,8,0:0:0:0:
486,358,48993,1,0,0:0:0:0:
387,249,49351,1,4,0:0:0:0:
468,313,50722,1,8,0:0:0:0:
471,337,51065,1,8,0:0:0:0:
474,365,51236,1,0,0:0:0:0:
491,226,51579,1,0,0:0:0:0:
491,366,51922,1,0,0:0:0:0:
435,237,52265,1,0,0:0:0:0:
464,300,52436,1,8,0:0:0:0:
477,320,52779,1,0,0:0:0:0:
477,320,52951,1,8,0:0:0:0:
477,320,53293,1,0,0:0:0:0:
477,320,53465,1,8,0:0:0:0:
485,346,53636,1,8,0:0:0:0:
474,276,53808,1,0,0:0:0:0:
469,346,54151,1,8,0:0:0:0:
469,346,54322,1,0,0:0:0:0:
469,346,54665,1,0,0:0:0:0:
469,346,55008,1,0,0:0:0:0:
510,290,55179,1,8,0:0:0:0:
481,342,55522,1,8,0:0:0:0:
481,342,55693,1,8,0:0:0:0:
481,201,56036,1,0,0:0:0:0:
484,271,56208,1,8,0:0:0:0:
474,355,56551,1,0,0:0:0:0:
474,355,56722,1,8,0:0:0:0:
474,355,57065,1,0,0:0:0:0:
462,286,57236,1,8,0:0:0:0:
496,355,57408,1,0,0:0:0:0:
398,254,57751,1,0,0:0:0:0:
444,306,57922,1,8,0:0:0:0:
480,333,58265,1,0,0:0:0:0:
480,333,58436,1,0,0:0:0:0:
480,333,58779,1,0,0:0:0:0:
475,353,58951,1,8,0:0:0:0:
475,353,59293,1,0,0:0:0:0:
482,372,59465,1,8,0:0:0:0:
482,372,59808,1,0,0:0:0:0:
482,372,59979,1,8,0:0:0:0:
483,301,60151,1,0,0:0:0:0:
360,233,60493,1,0,0:0:0:0:
360,233,60665,1,8,0:0:0:0:
467,323,61008,1,0,0:0:0:0:
467,323,61179,1,8,0:0:0:0:
486,341,61522,1,0,0:0:0:0:
486,341,61693,1,8,0:0:0:0:
499,357,62036,1,0,0:0:0:0:
499,357,62208,1,8,0:0:0:0:
499,357,62551,1,0,0:0:0:0:
499,357,62722,1,8,0:0:0:0:
499,357,62893,1,0,0:0:0:0:
370,301,63236,1,0,0:0:0:0:
370,301,63408,1,8,0:0:0:0:
499,354,63751,1,0,0:0:0:0:
436,322,63922,1,8,0:0:0:0:
481,356,64265,1,0,0:0:0:0:
481,356,64436,1,8,0:0:0:0:
481,356,64779,1,0,0:0:0:0:
481,356,64951,1,8,0:0:0:0:
474,216,65293,1,0,0:0:0:0:
481,355,65636,1,0,0:0:0:0:
481,355,65979,1,0,0:0:0:0:
481,355,66151,1,8,0:0:0:0:
481,355,66493,1,0,0:0:0:0:
481,355,66665,1,8,0:0:0:0:
481,355,67008,1,0,0:0:0:0:
481,355,67179,1,8,0:0:0:0:
481,355,67522,1,0,0:0:0:0:
481,355,67693,1,8,0:0:0:0:
481,214,68036,1,0,0:0:0:0:
472,353,68379,1,0,0:0:0:0:
472,353,68551,1,8,0:0:0:0:
495,287,68722,1,8,0:0:0:0:
477,354,68893,1,8,0:0:0:0:
477,354,69065,1,8,0:0:0:0:
477,354,69236,1,8,0:0:0:0:
477,354,69408,1,8,0:0:0:0:
496,350,69579,1,8,0:0:0:0:
496,350,69751,1,8,0:0:0:0:
473,283,69922,1,4,0:0:0:0:
444,336,71293,1,8,0:0:0:0:
477,346,71379,1,8,0:0:0:0:
444,336,71465,1,0,0:0:0:0:
483,343,71636,1,8,0:0:0:0:
483,343,71722,1,0,0:0:0:0:
483,343,71808,1,0,0:0:0:0:
508,270,71979,1,0,0:0:0:0:
498,307,72065,1,0,0:0:0:0:
498,307,72151,1,0,0:0:0:0:
430,271,72322,1,8,0:0:0:0:
394,255,72408,1,0,0:0:0:0:
358,240,72493,1,8,0:0:0:0:
425,277,72665,1,0,0:0:0:0:
455,300,72751,1,0,0:0:0:0:
480,328,72836,1,8,0:0:0:0:
481,351,73008,1,0,0:0:0:0:
481,351,73093,1,8,0:0:0:0:
444,338,73179,1,0,0:0:0:0:
508,379,73351,1,8,0:0:0:0:
475,359,73436,1,0,0:0:0:0:
475,359,73522,1,8,0:0:0:0:
475,359,73608,1,8,0:0:0:0:
475,359,73693,1,0,0:0:0:0:
467,282,73865,1,0,0:0:0:0:
439,210,74036,1,8,0:0:0:0:
429,186,74093,1,8,0:0:0:0:
418,162,74151,1,8,0:0:0:0:
407,138,74208,1,0,0:0:0:0:
422,103,74293,1,0,0:0:0:0:
444,71,74379,1,8,0:0:0:0:
392,128,74551,1,8,0:0:0:0:
471,221,74722,1,8,0:0:0:0:
463,258,74808,1,0,0:0:0:0:
456,295,74893,1,0,0:0:0:0:
456,295,75065,1,8,0:0:0:0:
456,295,75151,1,8,0:0:0:0:
488,315,75236,1,0,0:0:0:0:
411,301,75408,1,8,0:0:0:0:
411,301,75493,1,8,0:0:0:0:
411,301,75579,1,8,0:0:0:0:
483,328,75751,1,0,0:0:0:0:
502,309,75922,1,8,0:0:0:0:
502,309,76008,1,0,0:0:0:0:
502,309,76093,1,8,0:0:0:0:
457,282,76208,1,0,0:0:0:0:
498,311,76322,1,8,0:0:0:0:
498,311,76436,1,8,0:0:0:0:
498,311,76551,1,0,0:0:0:0:
498,311,76665,1,0,0:0:0:0:
498,311,76779,1,0,0:0:0:0:
422,294,76951,1,8,0:0:0:0:
490,328,77122,1,0,0:0:0:0:
490,328,77208,1,0,0:0:0:0:
490,328,77293,1,8,0:0:0:0:
490,328,77465,1,8,0:0:0:0:
454,313,77551,1,8,0:0:0:0:
454,313,77636,1,0,0:0:0:0:
490,328,77808,1,0,0:0:0:0:
490,328,77893,1,8,0:0:0:0:
490,328,77979,1,8,0:0:0:0:
490,328,78151,1,0,0:0:0:0:
490,328,78236,1,0,0:0:0:0:
490,328,78322,1,0,0:0:0:0:
473,348,78493,1,8,0:0:0:0:
473,348,78579,1,0,0:0:0:0:
473,348,78665,1,8,0:0:0:0:
486,272,78836,1,8,0:0:0:0:
479,310,78922,1,8,0:0:0:0:
479,310,79008,1,0,0:0:0:0:
479,310,79093,1,0,0:0:0:0:
479,310,79179,1,8,0:0:0:0:
482,344,79351,1,0,0:0:0:0:
482,344,79522,1,0,0:0:0:0:
476,318,79579,1,0,0:0:0:0:
470,292,79636,1,0,0:0:0:0:
465,266,79693,1,8,0:0:0:0:
460,227,79779,1,8,0:0:0:0:
472,263,79865,1,8,0:0:0:0:
466,263,80036,1,8,0:0:0:0:
487,337,80208,1,0,0:0:0:0:
487,337,80293,1,0,0:0:0:0:
487,337,80379,1,0,0:0:0:0:
437,277,80551,1,8,0:0:0:0:
482,337,80636,1,0,0:0:0:0:
482,337,80722,1,0,0:0:0:0:
478,260,80893,1,8,0:0:0:0:
480,298,80979,1,8,0:0:0:0:
485,336,81065,1,8,0:0:0:0:
1,96,82265,1,8,0:0:0:0:
36,112,82351,1,8,0:0:0:0:
70,128,82436,1,0,0:0:0:0:
104,145,82522,1,0,0:0:0:0:
138,161,82608,1,8,0:0:0:0:
172,177,82693,1,0,0:0:0:0:
206,193,82779,1,8,0:0:0:0:
240,209,82865,1,8,0:0:0:0:
274,226,82951,1,0,0:0:0:0:
341,262,83122,1,0,0:0:0:0:
375,280,83208,1,0,0:0:0:0:
409,296,83293,1,8,0:0:0:0:
466,347,83465,1,0,0:0:0:0:
466,347,83551,1,8,0:0:0:0:
466,347,83636,1,0,0:0:0:0:
466,347,83808,1,0,0:0:0:0:
466,347,83893,1,0,0:0:0:0:
466,347,83979,1,0,0:0:0:0:
466,347,84151,1,8,0:0:0:0:
466,347,84236,1,0,0:0:0:0:
466,347,84322,1,8,0:0:0:0:
415,288,84493,1,0,0:0:0:0:
386,262,84579,1,0,0:0:0:0:
355,237,84665,1,8,0:0:0:0:
318,223,84751,1,8,0:0:0:0:
318,223,84836,1,0,0:0:0:0:
318,223,84922,1,0,0:0:0:0:
352,205,85008,1,8,0:0:0:0:
375,195,85065,1,8,0:0:0:0:
399,187,85122,1,8,0:0:0:0:
423,180,85179,1,0,0:0:0:0:
436,143,85265,1,0,0:0:0:0:
436,143,85351,1,8,0:0:0:0:
441,219,85522,1,8,0:0:0:0:
402,212,85608,1,0,0:0:0:0:
441,219,85693,1,0,0:0:0:0:
484,283,85865,1,0,0:0:0:0:
509,312,85951,1,0,0:0:0:0:
509,312,86036,1,8,0:0:0:0:
458,253,86208,1,0,0:0:0:0:
482,282,86293,1,8,0:0:0:0:
482,282,86379,1,8,0:0:0:0:
486,359,86551,1,0,0:0:0:0:
486,359,86636,1,8,0:0:0:0:
480,320,86722,1,0,0:0:0:0:
480,320,86893,1,8,0:0:0:0:
500,352,86979,1,8,0:0:0:0:
500,352,87065,1,0,0:0:0:0:
491,301,87179,1,0,0:0:0:0:
489,352,87293,1,8,0:0:0:0:
489,352,87408,1,0,0:0:0:0:
489,352,87522,1,0,0:0:0:0:
469,304,87636,1,0,0:0:0:0:
469,304,87751,1,8,0:0:0:0:
467,380,87922,1,0,0:0:0:0:
467,341,88008,1,0,0:0:0:0:
467,341,88093,1,0,0:0:0:0:
467,341,88265,1,0,0:0:0:0:
467,341,88436,1,0,0:0:0:0:
467,341,88608,1,0,0:0:0:0:
467,341,88693,1,0,0:0:0:0:
467,341,88779,1,8,0:0:0:0:
491,267,88951,1,0,0:0:0:0:
480,303,89036,1,8,0:0:0:0:
471,340,89122,1,0,0:0:0:0:
489,320,89293,1,8,0:0:0:0:
489,320,89379,1,0,0:0:0:0:
489,320,89465,1,8,0:0:0:0:
489,320,89551,1,8,0:0:0:0:
481,357,89636,1,0,0:0:0:0:
481,357,89722,1,0,0:0:0:0:
481,357,89808,1,0,0:0:0:0:
471,280,89979,1,0,0:0:0:0:
477,318,90065,1,0,0:0:0:0:
477,318,90151,1,8,0:0:0:0:
477,318,90322,1,0,0:0:0:0:
475,355,90493,1,12,0:0:0:0:
256,192,90579,12,0,92893,0:0:0:0:
456,301,93236,5,8,0:0:0:0:
456,301,93322,1,8,0:0:0:0:
456,301,93408,1,0,0:0:0:0:
456,301,93493,1,0,0:0:0:0:
476,333,93579,1,8,0:0:0:0:
476,333,93665,1,0,0:0:0:0:
476,333,93751,1,8,0:0:0:0:
415,380,93922,1,0,0:0:0:0:
445,355,94008,1,0,0:0:0:0:
445,355,94093,1,8,0:0:0:0:
445,316,94179,1,0,0:0:0:0:
445,316,94265,1,8,0:0:0:0:
445,316,94351,1,8,0:0:0:0:
445,316,94436,1,0,0:0:0:0:
438,354,94522,1,0,0:0:0:0:
456,319,94608,1,8,0:0:0:0:
456,319,94693,1,0,0:0:0:0:
505,377,94779,1,8,0:0:0:0:
474,353,94865,1,0,0:0:0:0:
461,312,94951,1,8,0:0:0:0:
468,349,95036,1,0,0:0:0:0:
461,312,95122,1,8,0:0:0:0:
468,349,95208,1,0,0:0:0:0:
461,312,95293,1,8,0:0:0:0:
474,353,95465,1,0,0:0:0:0:
474,353,95551,1,0,0:0:0:0:
474,353,95636,1,8,0:0:0:0:
474,353,95722,1,0,0:0:0:0:
474,353,95808,1,8,0:0:0:0:
438,285,95979,1,8,0:0:0:0:
454,319,96065,1,8,0:0:0:0:
454,319,96151,1,8,0:0:0:0:
454,319,96236,1,0,0:0:0:0:
454,319,96322,1,8,0:0:0:0:
454,319,96408,1,0,0:0:0:0:
454,319,96493,1,8,0:0:0:0:
468,359,96665,1,0,0:0:0:0:
487,325,96751,1,0,0:0:0:0:
468,359,96836,1,0,0:0:0:0:
468,359,97008,1,8,0:0:0:0:
468,359,97093,1,0,0:0:0:0:
504,371,97179,1,0,0:0:0:0:
434,336,97351,1,8,0:0:0:0:
464,358,97436,1,8,0:0:0:0:
464,358,97522,1,0,0:0:0:0:
456,281,97693,1,8,0:0:0:0:
456,254,97751,1,8,0:0:0:0:
457,228,97808,1,8,0:0:0:0:
457,228,97865,1,0,0:0:0:0:
470,191,97951,1,0,0:0:0:0:
486,156,98036,1,8,0:0:0:0:
496,182,98208,1,8,0:0:0:0:
496,182,98379,1,4,0:0:0:0:
486,258,98551,1,0,0:0:0:0:
481,295,98636,1,0,0:0:0:0:
481,295,98722,1,8,0:0:0:0:
509,366,98893,1,0,0:0:0:0:
481,338,98979,1,0,0:0:0:0:
485,292,99065,1,8,0:0:0:0:
451,310,99151,1,0,0:0:0:0:
511,364,99236,1,8,0:0:0:0:
449,317,99408,1,0,0:0:0:0:
482,334,99493,1,0,0:0:0:0:
447,316,99579,1,8,0:0:0:0:
482,334,99665,1,8,0:0:0:0:
447,316,99751,1,0,0:0:0:0:
449,354,99836,1,0,0:0:0:0:
448,315,99922,1,8,0:0:0:0:
448,315,100008,1,8,0:0:0:0:
448,315,100093,1,0,0:0:0:0:
476,316,100179,1,0,0:0:0:0:
460,351,100265,1,8,0:0:0:0:
460,351,100351,1,0,0:0:0:0:
460,351,100436,1,8,0:0:0:0:
462,373,100522,1,0,0:0:0:0:
462,373,100608,1,8,0:0:0:0:
470,335,100693,1,0,0:0:0:0:
470,335,100779,1,8,0:0:0:0:
434,318,100865,1,0,0:0:0:0:
399,300,100951,1,8,0:0:0:0:
412,278,101008,1,8,0:0:0:0:
427,257,101065,1,8,0:0:0:0:
444,238,101122,1,0,0:0:0:0:
405,232,101208,1,0,0:0:0:0:
367,228,101293,1,8,0:0:0:0:
427,276,101465,1,8,0:0:0:0:
454,303,101551,1,0,0:0:0:0:
482,328,101636,1,0,0:0:0:0:
482,328,101722,1,0,0:0:0:0:
482,328,101808,1,8,0:0:0:0:
482,328,101893,1,0,0:0:0:0:
482,328,101979,1,8,0:0:0:0:
405,320,102151,1,0,0:0:0:0:
442,327,102236,1,0,0:0:0:0:
476,343,102322,1,0,0:0:0:0:
476,343,102493,1,8,0:0:0:0:
476,343,102579,1,0,0:0:0:0:
495,346,102665,1,0,0:0:0:0:
495,346,102836,1,8,0:0:0:0:
495,346,102922,1,8,0:0:0:0:
495,346,103008,1,0,0:0:0:0:
229,237,104208,1,12,0:0:0:0:
371,292,104551,1,12,0:0:0:0:
442,320,104722,1,12,0:0:0:0:
442,320,104893,1,0,0:0:0:0:
425,285,104979,1,8,0:0:0:0:
442,320,105065,1,0,0:0:0:0:
442,320,105151,1,0,0:0:0:0:
442,320,105236,1,8,0:0:0:0:
459,354,105322,1,0,0:0:0:0:
451,316,105408,1,0,0:0:0:0:
452,354,105493,1,0,0:0:0:0:
452,354,105579,1,8,0:0:0:0:
435,318,105665,1,0,0:0:0:0:
435,318,105751,1,8,0:0:0:0:
436,356,105836,1,0,0:0:0:0:
436,356,105922,1,8,0:0:0:0:
436,356,106008,1,0,0:0:0:0:
436,356,106093,1,8,0:0:0:0:
436,356,106179,1,0,0:0:0:0:
457,334,106265,1,8,0:0:0:0:
477,259,106436,1,0,0:0:0:0:
473,309,106522,1,0,0:0:0:0:
473,309,106608,1,8,0:0:0:0:
473,309,106693,1,0,0:0:0:0:
473,309,106779,1,8,0:0:0:0:
473,309,106951,1,8,0:0:0:0:
473,309,107036,1,8,0:0:0:0:
455,343,107122,1,0,0:0:0:0:
455,343,107208,1,0,0:0:0:0:
455,343,107293,1,8,0:0:0:0:
455,343,107379,1,0,0:0:0:0:
455,343,107465,1,8,0:0:0:0:
484,336,107636,1,0,0:0:0:0:
484,336,107722,1,0,0:0:0:0:
484,336,107808,1,0,0:0:0:0:
484,336,107979,1,8,0:0:0:0:
484,336,108065,1,0,0:0:0:0:
502,370,108151,1,0,0:0:0:0:
474,298,108322,1,8,0:0:0:0:
487,334,108408,1,8,0:0:0:0:
504,368,108493,1,0,0:0:0:0:
498,290,108665,1,0,0:0:0:0:
495,264,108722,1,0,0:0:0:0:
493,238,108779,1,0,0:0:0:0:
491,212,108836,1,8,0:0:0:0:
478,175,108922,1,8,0:0:0:0:
460,140,109008,1,8,0:0:0:0:
483,213,109179,1,8,0:0:0:0:
503,287,109351,1,4,0:0:0:0:
503,287,109522,1,0,0:0:0:0:
503,287,109608,1,0,0:0:0:0:
503,287,109693,1,8,0:0:0:0:
435,323,109865,1,8,0:0:0:0:
472,330,109951,1,8,0:0:0:0:
472,330,110036,1,8,0:0:0:0:
472,330,110208,1,8,0:0:0:0:
496,363,110379,1,0,0:0:0:0:
496,363,110465,1,0,0:0:0:0:
496,363,110551,1,8,0:0:0:0:
479,328,110636,1,0,0:0:0:0:
479,328,110722,1,0,0:0:0:0:
459,294,110808,1,8,0:0:0:0:
434,264,110893,1,0,0:0:0:0:
434,264,110979,1,0,0:0:0:0:
434,264,111065,1,8,0:0:0:0:
475,330,111151,1,0,0:0:0:0:
475,330,111236,1,8,0:0:0:0:
475,330,111322,1,0,0:0:0:0:
475,330,111408,1,8,0:0:0:0:
475,330,111493,1,0,0:0:0:0:
486,366,111579,1,8,0:0:0:0:
486,366,111665,1,0,0:0:0:0:
475,330,111751,1,8,0:0:0:0:
475,330,111836,1,0,0:0:0:0:
475,330,111922,1,0,0:0:0:0:
473,368,112008,1,0,0:0:0:0:
458,332,112093,1,8,0:0:0:0:
447,308,112151,1,8,0:0:0:0:
436,284,112208,1,8,0:0:0:0:
425,260,112265,1,0,0:0:0:0:
429,221,112351,1,0,0:0:0:0:
431,182,112436,1,8,0:0:0:0:
453,255,112608,1,0,0:0:0:0:
464,291,112693,1,0,0:0:0:0:
476,327,112779,1,8,0:0:0:0:
476,327,112865,1,0,0:0:0:0:
476,327,112951,1,8,0:0:0:0:
399,333,113122,1,0,0:0:0:0:
437,329,113208,1,8,0:0:0:0:
475,331,113293,1,8,0:0:0:0:
475,331,113379,1,8,0:0:0:0:
475,331,113465,1,0,0:0:0:0:
475,331,113551,1,8,0:0:0:0:
475,331,113636,1,8,0:0:0:0:
475,331,113722,1,8,0:0:0:0:
444,306,113808,1,4,0:0:0:0:
298,255,114151,1,0,0:0:0:0:
298,255,114493,1,0,0:0:0:0:
428,336,114836,1,0,0:0:0:0:
477,291,115179,1,8,0:0:0:0:
477,291,115265,1,0,0:0:0:0:
478,329,115351,1,0,0:0:0:0:
478,329,115436,1,0,0:0:0:0:
478,329,115522,1,8,0:0:0:0:
478,329,115608,1,0,0:0:0:0:
464,364,115693,1,8,0:0:0:0:
458,286,115865,1,0,0:0:0:0:
459,324,115951,1,8,0:0:0:0:
459,324,116036,1,0,0:0:0:0:
459,324,116122,1,0,0:0:0:0:
452,362,116208,1,8,0:0:0:0:
418,343,116293,1,0,0:0:0:0:
383,325,116379,1,0,0:0:0:0:
348,308,116465,1,0,0:0:0:0:
452,362,116551,1,8,0:0:0:0:
417,346,116636,1,8,0:0:0:0:
381,331,116722,1,0,0:0:0:0:
344,318,116808,1,0,0:0:0:0:
307,306,116893,1,8,0:0:0:0:
269,296,116979,1,0,0:0:0:0:
232,284,117065,1,8,0:0:0:0:
194,275,117151,1,8,0:0:0:0:
194,275,117236,1,8,0:0:0:0:
194,275,117322,1,0,0:0:0:0:
194,275,117408,1,8,0:0:0:0:
194,275,117493,1,8,0:0:0:0:
207,311,117579,1,0,0:0:0:0:
207,311,117665,1,0,0:0:0:0:
207,311,117751,1,8,0:0:0:0:
207,311,117836,1,0,0:0:0:0:
207,311,117922,1,8,0:0:0:0:
283,309,118093,1,0,0:0:0:0:
321,308,118179,1,0,0:0:0:0:
359,307,118265,1,8,0:0:0:0:
396,297,118351,1,0,0:0:0:0:
433,290,118436,1,8,0:0:0:0:
395,279,118522,1,0,0:0:0:0:
357,267,118608,1,0,0:0:0:0:
425,301,118779,1,0,0:0:0:0:
457,321,118865,1,0,0:0:0:0:
457,321,118951,1,8,0:0:0:0:
440,246,119122,1,0,0:0:0:0:
446,284,119208,1,8,0:0:0:0:
446,322,119293,1,8,0:0:0:0:
436,245,119465,1,0,0:0:0:0:
440,283,119551,1,0,0:0:0:0:
443,244,119636,1,8,0:0:0:0:
444,218,119693,1,8,0:0:0:0:
445,192,119751,1,8,0:0:0:0:
447,166,119808,1,0,0:0:0:0:
445,127,119893,1,0,0:0:0:0:
452,164,119979,1,8,0:0:0:0:
455,241,120151,1,8,0:0:0:0:
455,241,120322,1,4,0:0:0:0:
483,312,120493,1,0,0:0:0:0:
483,312,120579,1,0,0:0:0:0:
483,312,120665,1,8,0:0:0:0:
415,348,120836,1,0,0:0:0:0:
448,328,120922,1,0,0:0:0:0:
448,328,121008,1,8,0:0:0:0:
448,328,121093,1,0,0:0:0:0:
448,328,121179,1,8,0:0:0:0:
403,264,121351,1,0,0:0:0:0:
421,297,121436,1,0,0:0:0:0:
436,332,121522,1,8,0:0:0:0:
436,332,121608,1,0,0:0:0:0:
436,332,121693,1,8,0:0:0:0:
436,332,121779,1,8,0:0:0:0:
436,332,121865,1,0,0:0:0:0:
436,332,121951,1,0,0:0:0:0:
458,300,122036,1,8,0:0:0:0:
458,300,122122,1,0,0:0:0:0:
458,300,122208,1,0,0:0:0:0:
458,300,122293,1,0,0:0:0:0:
458,300,122379,1,8,0:0:0:0:
458,300,122465,1,0,0:0:0:0:
458,300,122551,1,8,0:0:0:0:
458,300,122636,1,8,0:0:0:0:
458,300,122722,1,0,0:0:0:0:
458,300,122808,1,8,0:0:0:0:
469,336,122893,1,8,0:0:0:0:
469,336,122979,1,8,0:0:0:0:
469,336,123065,1,0,0:0:0:0:
469,336,123151,1,8,0:0:0:0:
469,336,123236,1,8,0:0:0:0:
469,336,123322,1,8,0:0:0:0:
469,336,123408,1,8,0:0:0:0:
469,336,123579,1,0,0:0:0:0:
469,336,123665,1,0,0:0:0:0:
469,336,123751,1,8,0:0:0:0:
469,336,123836,1,0,0:0:0:0:
469,336,123922,1,8,0:0:0:0:
476,298,124008,1,0,0:0:0:0:
469,336,124093,1,0,0:0:0:0:
398,304,124265,1,0,0:0:0:0:
363,287,124351,1,0,0:0:0:0:
328,270,124436,1,8,0:0:0:0:
403,284,124608,1,0,0:0:0:0:
440,291,124693,1,8,0:0:0:0:
476,303,124779,1,8,0:0:0:0:
467,335,126151,1,12,0:0:0:0:
467,335,126493,1,12,0:0:0:0:
482,355,126665,1,12,0:0:0:0:
441,289,126836,1,0,0:0:0:0:
479,292,126922,1,8,0:0:0:0:
466,317,127008,1,8,0:0:0:0:
466,317,127093,1,8,0:0:0:0:
502,303,127179,1,0,0:0:0:0:
473,329,127265,1,0,0:0:0:0:
473,329,127351,1,8,0:0:0:0:
473,329,127436,1,8,0:0:0:0:
485,292,127522,1,0,0:0:0:0:
483,253,127608,1,8,0:0:0:0:
483,253,127693,1,0,0:0:0:0:
483,253,127779,1,0,0:0:0:0:
483,253,127865,1,8,0:0:0:0:
483,253,127951,1,0,0:0:0:0:
483,253,128036,1,0,0:0:0:0:
483,253,128122,1,8,0:0:0:0:
483,253,128208,1,0,0:0:0:0:
483,253,128293,1,0,0:0:0:0:
449,272,128379,1,8,0:0:0:0:
475,299,128465,1,0,0:0:0:0:
475,299,128551,1,8,0:0:0:0:
475,299,128636,1,8,0:0:0:0:
475,299,128722,1,8,0:0:0:0:
475,299,128808,1,0,0:0:0:0:
475,299,128893,1,8,0:0:0:0:
402,271,129065,1,0,0:0:0:0:
366,256,129151,1,0,0:0:0:0:
330,241,129236,1,8,0:0:0:0:
293,229,129322,1,0,0:0:0:0:
254,223,129408,1,8,0:0:0:0:
288,240,129493,1,0,0:0:0:0:
322,257,129579,1,0,0:0:0:0:
389,294,129751,1,0,0:0:0:0:
422,311,129836,1,0,0:0:0:0:
457,326,129922,1,8,0:0:0:0:
480,336,130093,1,8,0:0:0:0:
480,336,130179,1,0,0:0:0:0:
480,336,130265,1,8,0:0:0:0:
415,294,130436,1,0,0:0:0:0:
415,294,130522,1,0,0:0:0:0:
410,255,130608,1,8,0:0:0:0:
406,229,130665,1,8,0:0:0:0:
402,203,130722,1,8,0:0:0:0:
398,177,130779,1,0,0:0:0:0:
359,175,130865,1,0,0:0:0:0:
320,179,130951,1,8,0:0:0:0:
379,227,131122,1,8,0:0:0:0:
443,268,131293,1,4,0:0:0:0:
480,335,131465,1,0,0:0:0:0:
480,335,131551,1,0,0:0:0:0:
480,335,131636,1,8,0:0:0:0:
418,288,131808,1,8,0:0:0:0:
448,311,131893,1,8,0:0:0:0:
477,336,131979,1,8,0:0:0:0:
477,336,132151,1,8,0:0:0:0:
465,260,132322,1,0,0:0:0:0:
465,260,132408,1,0,0:0:0:0:
465,260,132493,1,8,0:0:0:0:
465,260,132579,1,0,0:0:0:0:
462,298,132665,1,8,0:0:0:0:
491,272,132751,1,8,0:0:0:0:
498,309,132836,1,0,0:0:0:0:
498,309,132922,1,0,0:0:0:0:
459,307,133008,1,8,0:0:0:0:
459,307,133093,1,0,0:0:0:0:
452,345,133179,1,0,0:0:0:0:
452,345,133265,1,8,0:0:0:0:
452,345,133351,1,0,0:0:0:0:
452,345,133436,1,0,0:0:0:0:
450,306,133522,1,8,0:0:0:0:
450,306,133608,1,8,0:0:0:0:
450,306,133693,1,0,0:0:0:0:
447,267,133779,1,0,0:0:0:0:
459,268,133865,1,8,0:0:0:0:
447,267,133951,1,8,0:0:0:0:
447,267,134036,1,0,0:0:0:0:
423,257,134093,1,0,0:0:0:0:
399,245,134151,1,0,0:0:0:0:
375,234,134208,1,8,0:0:0:0:
369,196,134293,1,8,0:0:0:0:
352,160,134379,1,8,0:0:0:0:
404,216,134551,1,0,0:0:0:0:
430,243,134636,1,0,0:0:0:0:
456,271,134722,1,8,0:0:0:0:
478,302,134808,1,0,0:0:0:0:
495,335,134893,1,8,0:0:0:0:
440,280,135065,1,0,0:0:0:0:
467,307,135151,1,0,0:0:0:0:
467,307,135236,1,8,0:0:0:0:
430,239,135408,1,0,0:0:0:0:
454,311,135579,1,0,0:0:0:0:
454,311,135665,1,8,0:0:0:0:
454,311,135751,1,8,0:0:0:0:
488,339,135922,1,0,0:0:0:0:
488,339,136008,1,0,0:0:0:0:
488,339,136093,1,8,0:0:0:0:
488,339,136179,1,8,0:0:0:0:
488,339,136265,1,0,0:0:0:0:
488,339,136351,1,8,0:0:0:0:
488,339,136436,1,0,0:0:0:0:
494,377,136522,1,0,0:0:0:0:
488,339,136608,1,8,0:0:0:0:
456,316,136693,1,8,0:0:0:0:
456,316,136779,1,0,0:0:0:0:
456,290,136836,1,0,0:0:0:0:
457,264,136893,1,0,0:0:0:0:
458,237,136951,1,8,0:0:0:0:
443,201,137036,1,8,0:0:0:0:
460,234,137122,1,4,0:0:0:0:
256,192,137209,12,0,139929,0:0:0:0:
454,307,141332,5,8,0:0:0:0:
467,329,141575,1,8,0:0:0:0:
390,281,141819,1,8,0:0:0:0:
348,250,141941,1,8,0:0:0:0:
307,218,142063,1,0,0:0:0:0:
466,245,142307,1,0,0:0:0:0:
468,296,142429,1,0,0:0:0:0:
470,347,142551,1,8,0:0:0:0:
470,347,142673,1,0,0:0:0:0:
427,318,142795,1,8,0:0:0:0:
474,319,143041,1,0,0:0:0:0:
474,319,143165,1,8,0:0:0:0:
474,319,143288,1,0,0:0:0:0:
434,352,143412,1,0,0:0:0:0:
476,323,143535,1,8,0:0:0:0:
476,323,143782,1,8,0:0:0:0:
476,323,144029,1,8,0:0:0:0:
496,323,144153,1,8,0:0:0:0:
496,323,144276,1,8,0:0:0:0:
496,323,144529,1,8,0:0:0:0:
496,323,144782,1,8,0:0:0:0:
496,323,144908,1,8,0:0:0:0:
496,323,145035,1,0,0:0:0:0:
496,323,145288,1,0,0:0:0:0:
496,323,145541,1,0,0:0:0:0:
480,342,145668,1,0,0:0:0:0:
480,342,145794,1,0,0:0:0:0:
480,342,146050,1,0,0:0:0:0:
443,306,146178,1,0,0:0:0:0:
433,356,146306,1,0,0:0:0:0:
451,307,146435,1,0,0:0:0:0:
480,342,146563,1,8,0:0:0:0:
505,242,146819,1,8,0:0:0:0:
456,332,147076,1,8,0:0:0:0:
473,283,147204,1,8,0:0:0:0:
490,235,147332,1,8,0:0:0:0:
504,336,147593,1,8,0:0:0:0:
504,336,147854,1,8,0:0:0:0:
504,336,147985,1,8,0:0:0:0:
504,336,148116,1,0,0:0:0:0:
504,336,148377,1,0,0:0:0:0:
498,360,148508,1,0,0:0:0:0:
498,360,148639,1,0,0:0:0:0:
498,360,148769,1,8,0:0:0:0:
499,309,148900,1,0,0:0:0:0:
498,337,149164,1,0,0:0:0:0:
498,337,149297,1,0,0:0:0:0:
449,321,149429,1,0,0:0:0:0:
491,349,149562,1,0,0:0:0:0:
505,300,149694,1,8,0:0:0:0:
494,350,149827,1,8,0:0:0:0:
494,350,149959,1,8,0:0:0:0:
494,350,150092,1,8,0:0:0:0:
494,350,150224,1,8,0:0:0:0:
494,350,150356,1,8,0:0:0:0:
449,326,150489,1,0,0:0:0:0:
494,350,150625,1,8,0:0:0:0:
494,350,150761,1,8,0:0:0:0:
494,350,150897,1,8,0:0:0:0:
483,370,151033,1,8,0:0:0:0:
483,370,151169,1,8,0:0:0:0:
483,370,151305,1,8,0:0:0:0:
483,370,151441,1,8,0:0:0:0:
483,370,151577,1,8,0:0:0:0:
483,370,151713,1,8,0:0:0:0:
483,370,151849,1,8,0:0:0:0:
483,370,151985,1,8,0:0:0:0:
445,336,152121,1,0,0:0:0:0:
483,370,152259,1,8,0:0:0:0:
483,370,152398,1,8,0:0:0:0:
483,370,152537,1,8,0:0:0:0:
483,370,152676,1,8,0:0:0:0:
483,370,152815,1,8,0:0:0:0:
483,370,152954,1,8,0:0:0:0:
483,370,153093,1,8,0:0:0:0:
483,370,153232,1,8,0:0:0:0:
443,336,153371,1,8,0:0:0:0:
401,306,153509,1,8,0:0:0:0:
360,274,153648,1,8,0:0:0:0:
336,229,153787,1,0,0:0:0:0:
355,279,153927,1,8,0:0:0:0:
355,279,154068,1,8,0:0:0:0:
355,279,154209,1,8,0:0:0:0:
355,279,154350,1,8,0:0:0:0:
355,279,154491,1,8,0:0:0:0:
355,279,154632,1,8,0:0:0:0:
355,279,154772,1,8,0:0:0:0:
355,279,154913,1,8,0:0:0:0:
341,328,155054,1,8,0:0:0:0:
358,279,155195,1,8,0:0:0:0:
347,329,155336,1,8,0:0:0:0:
335,280,155477,1,0,0:0:0:0:
439,321,155622,1,8,0:0:0:0:
489,310,155768,1,8,0:0:0:0:
489,310,155914,1,8,0:0:0:0:
493,361,156060,1,8,0:0:0:0:
487,309,156206,1,8,0:0:0:0:
492,360,156352,1,8,0:0:0:0:
492,360,156498,1,8,0:0:0:0:
492,360,156644,1,8,0:0:0:0:
492,360,156790,1,8,0:0:0:0:
492,360,156936,1,8,0:0:0:0:
492,360,157082,1,8,0:0:0:0:
457,323,157228,1,0,0:0:0:0:
496,309,157376,1,8,0:0:0:0:
496,309,157524,1,8,0:0:0:0:
489,359,157672,1,8,0:0:0:0:
496,308,157820,1,8,0:0:0:0:
487,358,157968,1,8,0:0:0:0:
497,307,158116,1,8,0:0:0:0:
487,357,158265,1,8,0:0:0:0:
487,357,158413,1,8,0:0:0:0:
487,357,158561,1,8,0:0:0:0:
487,357,158709,1,8,0:0:0:0:
487,357,158857,1,8,0:0:0:0:
456,317,159005,1,0,0:0:0:0:
487,357,159157,1,8,0:0:0:0:
487,357,159309,1,8,0:0:0:0:
487,357,159461,1,8,0:0:0:0:
478,306,159613,1,8,0:0:0:0:
478,306,159765,1,8,0:0:0:0:
475,357,159917,1,8,0:0:0:0:
478,305,160069,1,8,0:0:0:0:
480,356,160221,1,8,0:0:0:0:
480,304,160373,1,8,0:0:0:0:
480,253,160525,1,8,0:0:0:0:
480,304,160678,1,8,0:0:0:0:
438,273,160830,1,0,0:0:0:0:
466,318,160944,1,8,0:0:0:0:
472,280,161059,1,8,0:0:0:0:
472,280,161174,1,8,0:0:0:0:
472,280,161289,1,8,0:0:0:0:
472,280,161404,1,8,0:0:0:0:
472,280,161519,1,8,0:0:0:0:
472,280,161634,1,8,0:0:0:0:
472,280,161749,1,8,0:0:0:0:
472,280,161864,1,8,0:0:0:0:
480,317,161979,1,8,0:0:0:0:
480,317,162094,1,8,0:0:0:0:
464,281,162209,1,4,0:0:0:0:
456,326,162669,1,4,0:0:0:0:
460,223,162981,1,0,0:0:0:0:
464,274,163137,1,0,0:0:0:0:
480,322,163294,1,0,0:0:0:0:
480,322,163450,1,0,0:0:0:0:
487,372,163606,1,8,0:0:0:0:
487,372,163919,1,8,0:0:0:0:
497,339,164231,1,8,0:0:0:0:
497,339,164387,1,8,0:0:0:0:
497,339,164544,1,8,0:0:0:0:
432,259,164856,1,8,0:0:0:0:
508,327,165169,1,8,0:0:0:0:
508,327,165325,1,8,0:0:0:0:
457,333,165481,1,0,0:0:0:0:
493,302,165794,1,0,0:0:0:0:
486,347,166106,1,0,0:0:0:0:
486,347,166262,1,0,0:0:0:0:
486,347,166419,1,12,0:0:0:0:
497,245,166731,1,0,0:0:0:0:
491,295,166887,1,0,0:0:0:0:
489,346,167044,1,0,0:0:0:0:
489,346,167200,1,0,0:0:0:0:
489,346,167356,1,8,0:0:0:0:
489,346,167669,1,8,0:0:0:0:
489,346,167981,1,8,0:0:0:0:
489,346,168137,1,8,0:0:0:0:
489,346,168294,1,8,0:0:0:0:
471,378,168606,1,8,0:0:0:0:
471,378,168919,1,8,0:0:0:0:
471,378,169075,1,8,0:0:0:0:
471,378,169231,1,0,0:0:0:0:
491,363,169544,1,0,0:0:0:0:
491,363,169700,1,12,0:0:0:0:
451,329,169856,1,0,0:0:0:0:
451,329,170012,1,0,0:0:0:0:
451,329,170169,1,12,0:0:0:0:
492,350,170481,1,0,0:0:0:0:
492,350,170637,1,0,0:0:0:0:
496,369,170794,1,0,0:0:0:0:
496,369,170950,1,0,0:0:0:0:
496,369,171106,1,8,0:0:0:0:
496,369,171419,1,8,0:0:0:0:
398,338,171731,1,8,0:0:0:0:
447,352,171887,1,8,0:0:0:0:
496,367,172044,1,8,0:0:0:0:
496,367,172356,1,8,0:0:0:0:
496,367,172669,1,8,0:0:0:0:
496,367,172825,1,8,0:0:0:0:
474,320,172981,1,0,0:0:0:0:
497,345,173294,1,0,0:0:0:0:
497,345,173606,1,0,0:0:0:0:
500,372,173762,1,0,0:0:0:0:
500,372,173919,1,12,0:0:0:0:
503,269,174231,1,0,0:0:0:0:
500,320,174387,1,0,0:0:0:0:
498,371,174544,1,0,0:0:0:0:
498,371,174700,1,0,0:0:0:0:
498,371,174856,1,8,0:0:0:0:
438,286,175169,1,8,0:0:0:0:
507,361,175481,1,8,0:0:0:0:
464,331,175637,1,8,0:0:0:0:
464,331,175794,1,8,0:0:0:0:
495,353,176106,1,8,0:0:0:0:
495,353,176419,1,8,0:0:0:0:
495,353,176575,1,8,0:0:0:0:
495,353,176731,1,0,0:0:0:0:
495,353,177044,1,0,0:0:0:0:
495,353,177200,1,8,0:0:0:0:
495,353,177356,1,8,0:0:0:0:
479,366,177512,1,8,0:0:0:0:
437,334,177669,1,12,0:0:0:0:
495,329,177981,1,0,0:0:0:0:
495,329,178137,1,0,0:0:0:0:
445,315,178294,1,0,0:0:0:0:
494,329,178450,1,0,0:0:0:0:
444,314,178606,1,8,0:0:0:0:
483,348,178919,1,8,0:0:0:0:
483,348,179231,1,8,0:0:0:0:
483,348,179387,1,8,0:0:0:0:
483,348,179544,1,8,0:0:0:0:
483,348,179856,1,8,0:0:0:0:
483,348,180169,1,8,0:0:0:0:
483,348,180325,1,8,0:0:0:0:
483,348,180481,1,0,0:0:0:0:
483,348,180794,1,0,0:0:0:0:
483,348,181106,1,0,0:0:0:0:
483,348,181262,1,0,0:0:0:0:
483,348,181419,1,12,0:0:0:0:
483,348,181731,1,0,0:0:0:0:
483,348,181887,1,0,0:0:0:0:
483,348,182044,1,0,0:0:0:0:
483,348,182200,1,0,0:0:0:0:
483,348,182356,1,8,0:0:0:0:
496,327,182669,1,8,0:0:0:0:
496,327,182981,1,8,0:0:0:0:
496,327,183137,1,8,0:0:0:0:
496,327,183294,1,8,0:0:0:0:
496,327,183606,1,8,0:0:0:0:
496,327,183919,1,8,0:0:0:0:
496,327,184075,1,8,0:0:0:0:
496,327,184231,1,0,0:0:0:0:
474,360,184544,1,0,0:0:0:0:
474,360,184700,1,12,0:0:0:0:
474,360,184856,1,0,0:0:0:0:
474,360,185012,1,0,0:0:0:0:
474,360,185169,1,12,0:0:0:0:
511,264,185481,1,0,0:0:0:0:
505,314,185637,1,0,0:0:0:0:
505,314,185794,1,0,0:0:0:0:
505,314,185950,1,0,0:0:0:0:
505,314,186106,1,8,0:0:0:0:
505,314,186419,1,8,0:0:0:0:
505,314,186731,1,8,0:0:0:0:
505,314,186887,1,8,0:0:0:0:
505,314,187044,1,8,0:0:0:0:
433,240,187356,1,8,0:0:0:0:
493,323,187669,1,8,0:0:0:0:
462,281,187825,1,8,0:0:0:0:
462,281,187981,1,0,0:0:0:0:
509,372,188294,1,0,0:0:0:0:
492,270,188606,1,0,0:0:0:0:
500,320,188762,1,0,0:0:0:0:
500,320,188919,1,12,0:0:0:0:
500,320,189231,1,0,0:0:0:0:
500,320,189387,1,0,0:0:0:0:
500,320,189544,1,0,0:0:0:0:
500,320,189700,1,0,0:0:0:0:
500,320,189856,1,8,0:0:0:0:
500,320,190169,1,8,0:0:0:0:
500,320,190481,1,8,0:0:0:0:
500,320,190637,1,8,0:0:0:0:
500,320,190794,1,8,0:0:0:0:
490,350,191106,1,8,0:0:0:0:
490,350,191419,1,8,0:0:0:0:
490,350,191575,1,8,0:0:0:0:
490,350,191731,1,0,0:0:0:0:
490,350,192044,1,0,0:0:0:0:
490,350,192200,1,0,0:0:0:0:
490,350,192356,1,0,0:0:0:0:
490,350,192512,1,0,0:0:0:0:
490,350,192669,1,12,0:0:0:0:
466,276,192901,1,0,0:0:0:0:
477,312,193017,1,0,0:0:0:0:
477,312,193134,1,8,0:0:0:0:
477,312,193366,1,8,0:0:0:0:
409,275,193599,1,0,0:0:0:0:
376,253,193715,1,0,0:0:0:0:
477,312,193831,1,8,0:0:0:0:
460,346,193948,1,8,0:0:0:0:
460,346,194064,1,8,0:0:0:0:
426,327,194180,1,0,0:0:0:0:
460,346,194296,1,8,0:0:0:0:
448,309,194413,1,8,0:0:0:0:
483,324,194529,1,8,0:0:0:0:
483,324,194642,1,0,0:0:0:0:
483,324,194756,1,8,0:0:0:0:
483,324,194869,1,8,0:0:0:0:
483,324,194983,1,0,0:0:0:0:
483,324,195097,1,0,0:0:0:0:
498,336,195210,1,8,0:0:0:0:
498,336,195324,1,0,0:0:0:0:
498,336,195438,1,8,0:0:0:0:
498,336,195551,1,8,0:0:0:0:
498,336,195665,1,8,0:0:0:0:
498,336,195779,1,0,0:0:0:0:
509,319,195892,1,8,0:0:0:0:
509,319,196006,1,8,0:0:0:0:
509,319,196119,1,0,0:0:0:0:
509,319,196233,1,0,0:0:0:0:
509,319,196347,1,8,0:0:0:0:
432,314,196567,1,0,0:0:0:0:
465,333,196677,1,0,0:0:0:0:
465,333,196788,1,8,0:0:0:0:
465,333,197008,1,8,0:0:0:0:
491,340,197229,1,0,0:0:0:0:
491,340,197339,1,0,0:0:0:0:
491,340,197449,1,8,0:0:0:0:
510,306,197560,1,8,0:0:0:0:
510,306,197670,1,8,0:0:0:0:
479,329,197780,1,0,0:0:0:0:
510,306,197891,1,8,0:0:0:0:
510,306,198001,1,8,0:0:0:0:
473,320,198111,1,8,0:0:0:0:
473,320,198219,1,0,0:0:0:0:
511,314,198328,1,8,0:0:0:0:
511,314,198437,1,8,0:0:0:0:
511,314,198545,1,0,0:0:0:0:
493,348,198654,1,0,0:0:0:0:
493,348,198763,1,8,0:0:0:0:
493,348,198871,1,0,0:0:0:0:
493,348,198980,1,0,0:0:0:0:
493,348,199089,1,0,0:0:0:0:
493,348,199197,1,8,0:0:0:0:
493,348,199306,1,0,0:0:0:0:
481,311,199415,1,12,0:0:0:0:
481,311,199632,1,0,0:0:0:0:
481,311,199741,1,0,0:0:0:0:
499,346,199850,1,8,0:0:0:0:
476,272,200061,1,0,0:0:0:0:
483,309,200166,1,0,0:0:0:0:
495,345,200272,1,8,0:0:0:0:
495,345,200483,1,8,0:0:0:0:
453,279,200695,1,0,0:0:0:0:
473,311,200800,1,0,0:0:0:0:
453,277,200906,1,8,0:0:0:0:
473,311,201011,1,8,0:0:0:0:
473,311,201117,1,8,0:0:0:0:
448,281,201223,1,0,0:0:0:0:
448,281,201328,1,8,0:0:0:0:
462,316,201434,1,8,0:0:0:0:
462,316,201540,1,8,0:0:0:0:
462,316,201644,1,0,0:0:0:0:
493,293,201748,1,8,0:0:0:0:
493,293,201852,1,8,0:0:0:0:
493,293,201956,1,0,0:0:0:0:
483,330,202060,1,0,0:0:0:0:
483,330,202165,1,8,0:0:0:0:
501,322,202269,1,0,0:0:0:0:
504,283,202373,1,8,0:0:0:0:
504,283,202477,1,8,0:0:0:0:
504,283,202581,1,0,0:0:0:0:
468,269,202685,1,8,0:0:0:0:
431,255,202790,1,8,0:0:0:0:
431,255,202894,1,8,0:0:0:0:
431,255,202998,1,0,0:0:0:0:
431,255,203102,1,0,0:0:0:0:
431,255,203206,1,8,0:0:0:0:
498,291,203411,1,0,0:0:0:0:
498,291,203514,1,0,0:0:0:0:
498,291,203616,1,8,0:0:0:0:
498,291,203822,1,8,0:0:0:0:
498,291,204027,1,0,0:0:0:0:
498,291,204130,1,0,0:0:0:0:
498,291,204233,1,8,0:0:0:0:
465,270,204336,1,8,0:0:0:0:
465,270,204438,1,8,0:0:0:0:
465,270,204541,1,0,0:0:0:0:
465,270,204644,1,8,0:0:0:0:
465,270,204747,1,8,0:0:0:0:
465,270,204849,1,8,0:0:0:0:
474,307,204949,1,0,0:0:0:0:
466,344,205049,1,8,0:0:0:0:
466,344,205149,1,8,0:0:0:0:
466,344,205249,1,0,0:0:0:0:
466,344,205349,1,8,0:0:0:0:
466,344,205449,1,0,0:0:0:0:
466,344,205549,1,8,0:0:0:0:
466,344,205649,1,8,0:0:0:0:
466,344,205749,1,8,0:0:0:0:
466,344,205849,1,0,0:0:0:0:
466,344,205949,1,8,0:0:0:0:
444,311,206049,1,12,0:0:0:0:
486,310,206249,1,0,0:0:0:0:
486,310,206349,1,0,0:0:0:0:
486,310,206449,1,8,0:0:0:0:
486,310,206645,1,0,0:0:0:0:
486,310,206743,1,0,0:0:0:0:
486,310,206841,1,8,0:0:0:0:
486,310,207037,1,8,0:0:0:0:
494,332,207233,1,0,0:0:0:0:
494,332,207331,1,0,0:0:0:0:
494,332,207429,1,8,0:0:0:0:
508,367,207527,1,8,0:0:0:0:
482,350,207625,1,0,0:0:0:0:
508,367,207723,1,0,0:0:0:0:
508,367,207821,1,8,0:0:0:0:
508,367,207919,1,8,0:0:0:0:
475,345,208017,1,0,0:0:0:0:
475,345,208113,1,8,0:0:0:0:
475,345,208209,1,0,0:0:0:0:
475,345,208305,1,0,0:0:0:0:
475,345,208401,1,8,0:0:0:0:
475,345,208497,1,0,0:0:0:0:
511,331,208593,1,8,0:0:0:0:
511,331,208690,1,8,0:0:0:0:
474,343,208786,1,0,0:0:0:0:
474,343,208882,1,8,0:0:0:0:
498,313,208978,1,8,0:0:0:0:
498,313,209074,1,8,0:0:0:0:
478,346,209170,1,0,0:0:0:0:
478,346,209267,1,8,0:0:0:0:
503,316,209363,1,8,0:0:0:0:
478,346,209459,1,8,0:0:0:0:
478,346,209555,1,8,0:0:0:0:
471,269,209743,1,0,0:0:0:0:
470,307,209838,1,0,0:0:0:0:
470,307,209932,1,8,0:0:0:0:
470,307,210121,1,8,0:0:0:0:
397,283,210309,1,0,0:0:0:0:
360,270,210404,1,0,0:0:0:0:
326,251,210498,1,8,0:0:0:0:
288,241,210592,1,8,0:0:0:0:
326,239,210687,1,0,0:0:0:0:
358,259,210781,1,0,0:0:0:0:
358,259,210875,1,8,0:0:0:0:
358,259,210970,1,8,0:0:0:0:
358,259,211064,1,0,0:0:0:0:
358,259,211156,1,0,0:0:0:0:
358,259,211249,1,8,0:0:0:0:
371,294,211341,1,0,0:0:0:0:
371,294,211434,1,0,0:0:0:0:
365,256,211526,1,0,0:0:0:0:
365,256,211619,1,8,0:0:0:0:
365,256,211712,1,0,0:0:0:0:
365,256,211804,1,8,0:0:0:0:
365,256,211897,1,8,0:0:0:0:
399,272,211989,1,0,0:0:0:0:
367,249,212082,1,8,0:0:0:0:
332,231,212175,1,12,0:0:0:0:
405,253,212360,1,0,0:0:0:0:
442,261,212452,1,0,0:0:0:0:
442,261,212545,1,8,0:0:0:0:
499,311,212726,1,0,0:0:0:0:
468,288,212817,1,0,0:0:0:0:
468,288,212908,1,8,0:0:0:0:
468,288,213090,1,8,0:0:0:0:
468,288,213272,1,0,0:0:0:0:
468,288,213363,1,0,0:0:0:0:
468,288,213454,1,8,0:0:0:0:
468,288,213545,1,8,0:0:0:0:
443,259,213635,1,0,0:0:0:0:
443,259,213726,1,0,0:0:0:0:
443,259,213817,1,8,0:0:0:0:
443,259,213908,1,8,0:0:0:0:
443,259,213999,1,0,0:0:0:0:
471,330,214178,1,8,0:0:0:0:
451,296,214268,1,0,0:0:0:0:
451,296,214358,1,8,0:0:0:0:
451,296,214448,1,8,0:0:0:0:
451,296,214537,1,8,0:0:0:0:
451,296,214627,1,0,0:0:0:0:
451,296,214717,1,8,0:0:0:0:
460,333,214807,1,8,0:0:0:0:
460,333,214897,1,0,0:0:0:0:
460,333,214987,1,0,0:0:0:0:
460,333,215076,1,8,0:0:0:0:
460,333,215166,1,0,0:0:0:0:
460,333,215256,1,8,0:0:0:0:
460,333,215346,1,8,0:0:0:0:
460,333,215436,1,8,0:0:0:0:
505,271,215612,1,0,0:0:0:0:
487,305,215700,1,0,0:0:0:0:
473,340,215788,1,8,0:0:0:0:
473,340,215965,1,8,0:0:0:0:
457,264,216141,1,0,0:0:0:0:
458,302,216230,1,8,0:0:0:0:
459,340,216318,1,8,0:0:0:0:
459,340,216406,1,8,0:0:0:0:
459,340,216494,1,0,0:0:0:0:
459,340,216583,1,8,0:0:0:0:
459,340,216671,1,8,0:0:0:0:
459,340,216759,1,8,0:0:0:0:
459,340,216847,1,0,0:0:0:0:
472,304,216933,1,8,0:0:0:0:
459,340,217020,1,8,0:0:0:0:
459,340,217107,1,8,0:0:0:0:
459,340,217193,1,0,0:0:0:0:
459,340,217280,1,8,0:0:0:0:
459,340,217367,1,8,0:0:0:0:
459,340,217453,1,8,0:0:0:0:
459,340,217540,1,0,0:0:0:0:
485,311,217627,1,8,0:0:0:0:
463,343,217714,1,8,0:0:0:0:
463,343,217800,1,8,0:0:0:0:
463,343,217887,1,8,0:0:0:0:
463,343,217974,1,8,0:0:0:0:
501,340,218060,1,8,0:0:0:0:
501,340,218147,1,8,0:0:0:0:
472,313,218234,1,4,0:0:0:0:
256,192,218319,12,0,220976,0:0:0:0:
495,299,223719,5,8,0:0:0:0:
386,190,224062,1,0,0:0:0:0:
443,241,224234,1,8,0:0:0:0:
480,303,224576,1,0,0:0:0:0:
499,289,224919,1,8,0:0:0:0:
499,289,225262,1,8,0:0:0:0:
474,317,225605,1,0,0:0:0:0:
474,317,225948,1,0,0:0:0:0:
474,317,226119,1,8,0:0:0:0:
508,321,226462,1,8,0:0:0:0:
511,297,226805,1,0,0:0:0:0:
441,264,226976,1,8,0:0:0:0:
297,207,227319,1,0,0:0:0:0:
434,275,227662,1,8,0:0:0:0:
484,286,228005,1,8,0:0:0:0:
484,286,228348,1,8,0:0:0:0:
484,286,228691,1,8,0:0:0:0:
484,286,228862,1,0,0:0:0:0:
495,299,229205,5,8,0:0:0:0:
386,190,229548,1,0,0:0:0:0:
443,241,229720,1,8,0:0:0:0:
480,303,230062,1,0,0:0:0:0:
499,289,230405,1,8,0:0:0:0:
499,289,230748,1,8,0:0:0:0:
474,317,231091,1,0,0:0:0:0:
474,317,231434,1,0,0:0:0:0:
474,317,231605,1,8,0:0:0:0:
508,321,231948,1,8,0:0:0:0:
511,297,232291,1,0,0:0:0:0:
441,264,232462,1,8,0:0:0:0:
297,207,232805,1,0,0:0:0:0:
434,275,233148,1,8,0:0:0:0:
484,286,233491,1,8,0:0:0:0:
484,286,233834,1,8,0:0:0:0:
484,286,234177,1,8,0:0:0:0:
484,286,234348,1,0,0:0:0:0:
486,317,234691,1,0,0:0:0:0:
486,317,234862,1,0,0:0:0:0:
486,317,235034,1,8,0:0:0:0:
441,379,235205,1,0,0:0:0:0:
376,281,235291,1,0,0:0:0:0:
446,309,235376,1,8,0:0:0:0:
446,309,235462,1,0,0:0:0:0:
446,309,235548,1,0,0:0:0:0:
475,296,235719,1,0,0:0:0:0:
475,296,235891,1,8,0:0:0:0:
454,327,235976,1,0,0:0:0:0:
427,356,236062,1,0,0:0:0:0:
474,295,236234,1,0,0:0:0:0:
454,327,236319,1,0,0:0:0:0:
454,327,236405,1,8,0:0:0:0:
454,327,236576,1,0,0:0:0:0:
454,327,236662,1,8,0:0:0:0:
454,327,236748,1,0,0:0:0:0:
454,327,236834,1,0,0:0:0:0:
454,327,236919,1,0,0:0:0:0:
454,327,237005,1,0,0:0:0:0:
454,327,237091,1,8,0:0:0:0:
476,311,237262,1,0,0:0:0:0:
476,311,237348,1,0,0:0:0:0:
476,311,237434,1,8,0:0:0:0:
465,349,237605,1,0,0:0:0:0:
465,349,237691,1,8,0:0:0:0:
465,349,237776,1,8,0:0:0:0:
471,272,237948,1,0,0:0:0:0:
464,310,238034,1,8,0:0:0:0:
464,310,238119,1,0,0:0:0:0:
464,310,238205,1,8,0:0:0:0:
464,310,238291,1,0,0:0:0:0:
467,348,238376,1,0,0:0:0:0:
467,348,238462,1,8,0:0:0:0:
467,348,238634,1,0,0:0:0:0:
467,348,238719,1,0,0:0:0:0:
467,348,238805,1,8,0:0:0:0:
467,348,238891,1,8,0:0:0:0:
432,332,238976,1,0,0:0:0:0:
467,348,239062,1,8,0:0:0:0:
467,348,239148,1,8,0:0:0:0:
467,348,239234,1,8,0:0:0:0:
432,330,239319,1,0,0:0:0:0:
467,348,239405,1,8,0:0:0:0:
467,348,239491,1,8,0:0:0:0:
467,348,239576,1,8,0:0:0:0:
432,330,239662,1,0,0:0:0:0:
501,364,239748,1,8,0:0:0:0:
501,364,239834,1,8,0:0:0:0:
501,364,239919,1,8,0:0:0:0:
501,364,240005,1,8,0:0:0:0:
501,364,240091,1,8,0:0:0:0:
476,334,240176,1,4,0:0:0:0:
386,190,240519,1,0,0:0:0:0:
443,241,240691,1,8,0:0:0:0:
480,303,241033,1,0,0:0:0:0:
499,289,241376,1,8,0:0:0:0:
499,289,241719,1,8,0:0:0:0:
474,317,242062,1,0,0:0:0:0:
474,317,242405,1,0,0:0:0:0:
474,317,242576,1,8,0:0:0:0:
508,321,242919,1,8,0:0:0:0:
511,297,243262,1,0,0:0:0:0:
441,264,243433,1,8,0:0:0:0:
297,207,243776,1,0,0:0:0:0:
434,275,244119,1,8,0:0:0:0:
484,286,244462,1,8,0:0:0:0:
484,286,244805,1,8,0:0:0:0:
484,286,245148,1,8,0:0:0:0:
484,286,245319,1,0,0:0:0:0:
495,299,245662,5,8,0:0:0:0:
386,190,246005,1,0,0:0:0:0:
443,241,246177,1,8,0:0:0:0:
480,303,246519,1,0,0:0:0:0:
499,289,246862,1,8,0:0:0:0:
499,289,247205,1,8,0:0:0:0:
474,317,247548,1,0,0:0:0:0:
474,317,247891,1,0,0:0:0:0:
474,317,248062,1,8,0:0:0:0:
508,321,248405,1,8,0:0:0:0:
511,297,248748,1,0,0:0:0:0:
441,264,248919,1,8,0:0:0:0:
297,207,249262,1,0,0:0:0:0:
434,275,249605,1,8,0:0:0:0:
484,286,249948,1,8,0:0:0:0:
484,286,250291,1,8,0:0:0:0:
350,209,250634,1,0,0:0:0:0:
405,262,250805,1,8,0:0:0:0:
495,299,251148,5,8,0:0:0:0:
386,190,251491,1,0,0:0:0:0:
443,241,251663,1,8,0:0:0:0:
480,303,252005,1,0,0:0:0:0:
499,289,252348,1,8,0:0:0:0:
499,289,252691,1,8,0:0:0:0:
474,317,253034,1,0,0:0:0:0:
474,317,253377,1,0,0:0:0:0:
474,317,253548,1,8,0:0:0:0:
508,321,253891,1,8,0:0:0:0:
511,297,254234,1,0,0:0:0:0:
441,264,254405,1,8,0:0:0:0:
297,207,254748,1,0,0:0:0:0:
434,275,255091,1,8,0:0:0:0:
484,286,255434,1,8,0:0:0:0:
484,286,255777,1,8,0:0:0:0:
484,286,256120,1,8,0:0:0:0:
484,286,256291,1,0,0:0:0:0:
495,299,256634,5,8,0:0:0:0:
386,190,256977,1,0,0:0:0:0:
443,241,257149,1,8,0:0:0:0:
480,303,257491,1,0,0:0:0:0:
499,289,257834,1,8,0:0:0:0:
499,289,258177,1,8,0:0:0:0:
474,317,258520,1,0,0:0:0:0:
474,317,258863,1,0,0:0:0:0:
474,317,259034,1,8,0:0:0:0:
474,317,259205,1,0,0:0:0:0:
391,187,259376,1,8,0:0:0:0:
431,252,259548,1,8,0:0:0:0:
472,316,259719,1,8,0:0:0:0:
472,316,259891,1,8,0:0:0:0:
472,316,260062,1,8,0:0:0:0:
439,295,260148,1,0,0:0:0:0:
462,325,260234,1,0,0:0:0:0:
462,325,260319,1,0,0:0:0:0:
462,325,260405,1,8,0:0:0:0:
462,325,260491,1,0,0:0:0:0:
462,325,260576,1,0,0:0:0:0:
462,325,260662,1,0,0:0:0:0:
462,325,260748,1,4,0:0:0:0:
462,325,261776,1,4,0:0:0:0:
495,299,262119,5,8,0:0:0:0:
457,289,262205,1,0,0:0:0:0:
419,280,262291,1,8,0:0:0:0:
381,271,262376,1,8,0:0:0:0:
386,190,262462,1,0,0:0:0:0:
353,210,262548,1,0,0:0:0:0:
443,241,262634,1,8,0:0:0:0:
405,245,262719,1,8,0:0:0:0:
366,250,262805,1,0,0:0:0:0:
327,254,262891,1,0,0:0:0:0:
480,303,262976,1,0,0:0:0:0:
442,295,263062,1,8,0:0:0:0:
403,288,263148,1,0,0:0:0:0:
364,282,263234,1,0,0:0:0:0:
499,289,263319,1,8,0:0:0:0:
462,300,263405,1,0,0:0:0:0:
429,320,263491,1,0,0:0:0:0:
429,320,263576,1,0,0:0:0:0:
499,289,263662,1,8,0:0:0:0:
472,316,263748,1,0,0:0:0:0:
448,346,263834,1,8,0:0:0:0:
448,346,263919,1,8,0:0:0:0:
448,346,264005,1,0,0:0:0:0:
413,328,264091,1,8,0:0:0:0:
378,310,264176,1,8,0:0:0:0:
343,293,264262,1,8,0:0:0:0:
474,317,264348,1,0,0:0:0:0:
437,304,264434,1,0,0:0:0:0:
474,317,264519,1,8,0:0:0:0:
438,301,264605,1,0,0:0:0:0:
402,285,264691,1,0,0:0:0:0:
367,269,264776,1,0,0:0:0:0:
508,321,264862,1,8,0:0:0:0:
474,317,264948,1,0,0:0:0:0:
437,303,265034,1,8,0:0:0:0:
437,303,265119,1,8,0:0:0:0:
511,297,265205,1,0,0:0:0:0:
474,308,265291,1,0,0:0:0:0:
441,264,265376,1,8,0:0:0:0:
453,300,265462,1,0,0:0:0:0:
465,336,265548,1,0,0:0:0:0:
465,336,265634,1,8,0:0:0:0:
297,207,265719,1,0,0:0:0:0:
465,336,265805,1,0,0:0:0:0:
465,336,265891,1,8,0:0:0:0:
465,336,265976,1,0,0:0:0:0:
434,275,266062,1,8,0:0:0:0:
451,240,266148,1,0,0:0:0:0:
451,240,266234,1,0,0:0:0:0:
451,240,266319,1,0,0:0:0:0:
484,286,266405,1,8,0:0:0:0:
451,240,266491,1,0,0:0:0:0:
451,240,266576,1,0,0:0:0:0:
451,240,266662,1,0,0:0:0:0:
484,286,266748,1,8,0:0:0:0:
451,240,266834,1,0,0:0:0:0:
451,240,266919,1,0,0:0:0:0:
451,240,267005,1,0,0:0:0:0:
484,286,267091,1,8,0:0:0:0:
454,262,267176,1,8,0:0:0:0:
484,286,267262,1,0,0:0:0:0:
408,268,267434,1,0,0:0:0:0:
370,259,267519,1,0,0:0:0:0:
495,299,267605,5,8,0:0:0:0:
457,288,267691,1,8,0:0:0:0:
419,279,267776,1,0,0:0:0:0:
431,315,267862,1,8,0:0:0:0:
386,190,267948,1,0,0:0:0:0:
403,224,268034,1,0,0:0:0:0:
443,241,268120,1,8,0:0:0:0:
450,278,268205,1,0,0:0:0:0:
458,315,268291,1,0,0:0:0:0:
458,315,268376,1,8,0:0:0:0:
480,303,268462,1,0,0:0:0:0:
441,296,268548,1,0,0:0:0:0:
441,296,268634,1,8,0:0:0:0:
441,296,268719,1,0,0:0:0:0:
499,289,268805,1,8,0:0:0:0:
441,296,268891,1,8,0:0:0:0:
441,296,268976,1,0,0:0:0:0:
441,296,269062,1,0,0:0:0:0:
499,289,269148,1,8,0:0:0:0:
441,296,269234,1,8,0:0:0:0:
441,296,269319,1,0,0:0:0:0:
446,335,269405,1,8,0:0:0:0:
474,317,269491,1,0,0:0:0:0:
446,335,269576,1,0,0:0:0:0:
446,335,269662,1,8,0:0:0:0:
446,335,269748,1,8,0:0:0:0:
413,314,269834,1,0,0:0:0:0:
384,289,269919,1,0,0:0:0:0:
474,317,270005,1,8,0:0:0:0:
508,321,270176,1,0,0:0:0:0:
475,342,270262,1,0,0:0:0:0:
508,321,270348,1,8,0:0:0:0:
475,342,270434,1,0,0:0:0:0:
475,342,270519,1,8,0:0:0:0:
475,342,270605,1,8,0:0:0:0:
511,297,270691,1,0,0:0:0:0:
476,312,270776,1,8,0:0:0:0:
441,264,270862,1,8,0:0:0:0:
451,301,270948,1,8,0:0:0:0:
460,338,271034,1,0,0:0:0:0:
460,338,271119,1,8,0:0:0:0:
297,207,271205,1,0,0:0:0:0:
460,338,271291,1,0,0:0:0:0:
460,338,271376,1,8,0:0:0:0:
460,338,271462,1,0,0:0:0:0:
434,275,271548,1,8,0:0:0:0:
457,305,271634,1,0,0:0:0:0:
475,338,271719,1,0,0:0:0:0:
475,338,271805,1,0,0:0:0:0:
484,286,271891,1,8,0:0:0:0:
475,338,271976,1,0,0:0:0:0:
475,338,272062,1,0,0:0:0:0:
475,338,272148,1,0,0:0:0:0:
484,286,272234,1,8,0:0:0:0:
475,338,272319,1,0,0:0:0:0:
445,313,272405,1,0,0:0:0:0:
484,286,272577,1,8,0:0:0:0:
462,317,272662,1,0,0:0:0:0:
484,286,272748,1,0,0:0:0:0:
481,362,272919,1,0,0:0:0:0:
495,299,273091,5,8,0:0:0:0:
458,288,273176,1,0,0:0:0:0:
420,277,273262,1,8,0:0:0:0:
382,267,273348,1,0,0:0:0:0:
386,190,273434,1,0,0:0:0:0:
348,193,273519,1,0,0:0:0:0:
443,241,273606,1,8,0:0:0:0:
449,278,273691,1,8,0:0:0:0:
457,315,273776,1,0,0:0:0:0:
457,315,273862,1,8,0:0:0:0:
480,303,273948,1,0,0:0:0:0:
457,315,274034,1,0,0:0:0:0:
457,315,274119,1,8,0:0:0:0:
457,315,274205,1,0,0:0:0:0:
499,289,274291,1,8,0:0:0:0:
457,315,274376,1,8,0:0:0:0:
457,315,274462,1,0,0:0:0:0:
457,315,274548,1,0,0:0:0:0:
499,289,274634,1,8,0:0:0:0:
473,317,274719,1,0,0:0:0:0:
473,317,274805,1,8,0:0:0:0:
473,317,274891,1,8,0:0:0:0:
474,317,274977,1,0,0:0:0:0:
442,295,275062,1,8,0:0:0:0:
407,277,275148,1,8,0:0:0:0:
407,277,275234,1,8,0:0:0:0:
474,317,275320,1,0,0:0:0:0:
407,277,275405,1,0,0:0:0:0:
474,317,275491,1,8,0:0:0:0:
438,303,275576,1,0,0:0:0:0:
438,303,275662,1,0,0:0:0:0:
438,303,275748,1,0,0:0:0:0:
508,321,275834,1,8,0:0:0:0:
471,332,275919,1,0,0:0:0:0:
442,358,276005,1,8,0:0:0:0:
442,358,276091,1,8,0:0:0:0:
511,297,276177,1,0,0:0:0:0:
479,318,276262,1,0,0:0:0:0:
441,264,276348,1,8,0:0:0:0:
424,298,276434,1,0,0:0:0:0:
424,298,276519,1,8,0:0:0:0:
424,298,276605,1,8,0:0:0:0:
297,207,276691,1,0,0:0:0:0:
326,231,276776,1,0,0:0:0:0:
356,254,276862,1,8,0:0:0:0:
386,277,276948,1,8,0:0:0:0:
434,275,277034,1,8,0:0:0:0:
449,309,277119,1,0,0:0:0:0:
449,309,277205,1,8,0:0:0:0:
449,309,277291,1,8,0:0:0:0:
484,286,277377,1,8,0:0:0:0:
460,316,277462,1,0,0:0:0:0:
460,316,277548,1,0,0:0:0:0:
460,316,277634,1,8,0:0:0:0:
484,286,277720,1,8,0:0:0:0:
460,316,277805,1,0,0:0:0:0:
460,316,277891,1,0,0:0:0:0:
460,316,277976,1,8,0:0:0:0:
484,286,278063,1,8,0:0:0:0:
465,319,278148,1,0,0:0:0:0:
484,286,278234,1,0,0:0:0:0:
440,349,278405,1,0,0:0:0:0:
462,317,278491,1,0,0:0:0:0:
495,299,278576,5,8,0:0:0:0:
386,190,278919,1,0,0:0:0:0:
347,189,279005,1,0,0:0:0:0:
443,241,279091,1,8,0:0:0:0:
405,236,279176,1,0,0:0:0:0:
366,230,279262,1,8,0:0:0:0:
327,229,279348,1,8,0:0:0:0:
480,303,279433,1,0,0:0:0:0:
443,289,279519,1,0,0:0:0:0:
407,273,279605,1,8,0:0:0:0:
371,257,279691,1,8,0:0:0:0:
499,289,279776,1,8,0:0:0:0:
461,277,279862,1,0,0:0:0:0:
424,265,279948,1,8,0:0:0:0:
386,254,280034,1,0,0:0:0:0:
499,289,280119,1,8,0:0:0:0:
462,277,280205,1,0,0:0:0:0:
432,252,280291,1,8,0:0:0:0:
403,226,280376,1,8,0:0:0:0:
474,317,280462,1,0,0:0:0:0:
474,317,280548,1,0,0:0:0:0:
441,296,280634,1,8,0:0:0:0:
441,296,280719,1,8,0:0:0:0:
474,317,280805,1,0,0:0:0:0:
474,317,280891,1,0,0:0:0:0:
474,317,280976,1,8,0:0:0:0:
402,288,281148,1,0,0:0:0:0:
365,275,281234,1,0,0:0:0:0:
508,321,281319,1,8,0:0:0:0:
471,309,281405,1,0,0:0:0:0:
434,297,281491,1,8,0:0:0:0:
397,286,281576,1,8,0:0:0:0:
511,297,281662,1,0,0:0:0:0:
473,289,281748,1,0,0:0:0:0:
441,264,281833,1,8,0:0:0:0:
402,258,281919,1,0,0:0:0:0:
363,253,282005,1,8,0:0:0:0:
324,248,282091,1,8,0:0:0:0:
297,207,282176,1,0,0:0:0:0:
290,245,282262,1,0,0:0:0:0:
290,245,282348,1,8,0:0:0:0:
290,245,282434,1,8,0:0:0:0:
434,275,282519,1,8,0:0:0:0:
290,245,282605,1,0,0:0:0:0:
290,245,282691,1,8,0:0:0:0:
255,228,282776,1,0,0:0:0:0:
484,286,282862,1,8,0:0:0:0:
290,245,282948,1,0,0:0:0:0:
290,245,283034,1,8,0:0:0:0:
290,245,283119,1,0,0:0:0:0:
484,286,283205,1,8,0:0:0:0:
290,245,283291,1,0,0:0:0:0:
290,245,283376,1,8,0:0:0:0:
290,245,283462,1,0,0:0:0:0:
484,286,283548,1,8,0:0:0:0:
290,245,283634,1,0,0:0:0:0:
315,216,283719,1,4,0:0:0:0:
370,269,283891,1,0,0:0:0:0:
396,295,283976,1,0,0:0:0:0:
495,299,284062,5,8,0:0:0:0:
456,300,284148,1,0,0:0:0:0:
417,303,284234,1,0,0:0:0:0:
386,190,284405,1,0,0:0:0:0:
404,223,284491,1,8,0:0:0:0:
443,241,284577,1,8,0:0:0:0:
445,317,284748,1,0,0:0:0:0:
445,317,284834,1,8,0:0:0:0:
480,303,284919,1,0,0:0:0:0:
453,332,285005,1,0,0:0:0:0:
430,362,285091,1,8,0:0:0:0:
453,332,285176,1,0,0:0:0:0:
499,289,285262,1,8,0:0:0:0:
463,305,285348,1,0,0:0:0:0:
463,305,285434,1,0,0:0:0:0:
463,305,285519,1,0,0:0:0:0:
499,289,285605,1,8,0:0:0:0:
470,315,285691,1,8,0:0:0:0:
443,342,285776,1,0,0:0:0:0:
443,342,285862,1,8,0:0:0:0:
474,317,285948,1,0,0:0:0:0:
443,342,286034,1,8,0:0:0:0:
443,342,286119,1,8,0:0:0:0:
443,342,286205,1,8,0:0:0:0:
474,317,286291,1,0,0:0:0:0:
436,310,286376,1,0,0:0:0:0:
474,317,286462,1,8,0:0:0:0:
440,336,286548,1,0,0:0:0:0:
440,336,286634,1,0,0:0:0:0:
440,336,286719,1,0,0:0:0:0:
508,321,286805,1,8,0:0:0:0:
431,315,286976,1,8,0:0:0:0:
431,315,287062,1,0,0:0:0:0:
511,297,287148,1,0,0:0:0:0:
431,315,287234,1,8,0:0:0:0:
441,264,287319,1,8,0:0:0:0:
428,340,287491,1,0,0:0:0:0:
433,302,287576,1,0,0:0:0:0:
297,207,287662,1,0,0:0:0:0:
324,234,287748,1,8,0:0:0:0:
350,262,287834,1,0,0:0:0:0:
374,291,287919,1,0,0:0:0:0:
434,275,288005,1,8,0:0:0:0:
418,310,288091,1,0,0:0:0:0:
404,345,288176,1,0,0:0:0:0:
404,345,288262,1,0,0:0:0:0:
484,286,288348,1,8,0:0:0:0:
404,345,288434,1,0,0:0:0:0:
404,345,288519,1,0,0:0:0:0:
404,345,288605,1,0,0:0:0:0:
484,286,288691,1,8,0:0:0:0:
404,345,288776,1,0,0:0:0:0:
404,345,288862,1,0,0:0:0:0:
404,345,288948,1,0,0:0:0:0:
484,286,289034,1,8,0:0:0:0:
461,317,289119,1,0,0:0:0:0:
423,327,289205,1,4,0:0:0:0:
463,300,289548,1,0,0:0:0:0:
463,300,289634,1,0,0:0:0:0:
463,300,289719,1,0,0:0:0:0:
386,190,289891,1,0,0:0:0:0:
443,241,290063,1,8,0:0:0:0:
366,238,290234,1,0,0:0:0:0:
327,237,290319,1,8,0:0:0:0:
480,303,290405,1,0,0:0:0:0:
452,275,290491,1,0,0:0:0:0:
405,283,290576,1,8,0:0:0:0:
367,273,290662,1,0,0:0:0:0:
499,289,290748,1,8,0:0:0:0:
474,318,290834,1,0,0:0:0:0:
454,350,290919,1,0,0:0:0:0:
454,350,291005,1,0,0:0:0:0:
499,289,291091,1,8,0:0:0:0:
454,350,291176,1,8,0:0:0:0:
454,350,291262,1,0,0:0:0:0:
454,350,291348,1,8,0:0:0:0:
474,317,291434,1,0,0:0:0:0:
454,350,291519,1,0,0:0:0:0:
454,350,291605,1,8,0:0:0:0:
454,350,291691,1,8,0:0:0:0:
474,317,291777,1,0,0:0:0:0:
454,350,291862,1,0,0:0:0:0:
474,317,291948,1,8,0:0:0:0:
454,350,292034,1,0,0:0:0:0:
454,350,292119,1,0,0:0:0:0:
454,350,292205,1,0,0:0:0:0:
508,321,292291,1,8,0:0:0:0:
432,332,292462,1,0,0:0:0:0:
470,337,292548,1,8,0:0:0:0:
511,297,292634,1,0,0:0:0:0:
470,337,292719,1,0,0:0:0:0:
441,264,292805,1,8,0:0:0:0:
462,337,292976,1,0,0:0:0:0:
462,337,293062,1,8,0:0:0:0:
297,207,293148,1,0,0:0:0:0:
329,228,293234,1,0,0:0:0:0:
359,250,293319,1,8,0:0:0:0:
390,272,293405,1,8,0:0:0:0:
434,275,293491,1,8,0:0:0:0:
454,307,293576,1,0,0:0:0:0:
472,340,293662,1,8,0:0:0:0:
472,340,293748,1,8,0:0:0:0:
484,286,293834,1,8,0:0:0:0:
472,340,293919,1,0,0:0:0:0:
472,340,294005,1,8,0:0:0:0:
472,340,294091,1,8,0:0:0:0:
484,286,294177,1,8,0:0:0:0:
474,323,294262,1,0,0:0:0:0:
472,361,294348,1,8,0:0:0:0:
472,361,294434,1,8,0:0:0:0:
484,286,294520,1,8,0:0:0:0:
448,273,294605,1,0,0:0:0:0:
484,286,294691,1,0,0:0:0:0:
483,260,294748,1,0,0:0:0:0:
481,234,294805,1,0,0:0:0:0:
478,208,294862,1,8,0:0:0:0:
459,174,294948,1,8,0:0:0:0:
420,171,295034,1,0,0:0:0:0:
454,239,295205,1,0,0:0:0:0:
386,190,295377,1,0,0:0:0:0:
443,241,295549,1,8,0:0:0:0:
441,317,295719,1,0,0:0:0:0:
441,317,295805,1,8,0:0:0:0:
480,303,295891,1,0,0:0:0:0:
449,326,295976,1,0,0:0:0:0:
449,326,296062,1,8,0:0:0:0:
449,326,296148,1,8,0:0:0:0:
499,289,296234,1,8,0:0:0:0:
449,326,296319,1,0,0:0:0:0:
449,326,296405,1,8,0:0:0:0:
449,326,296491,1,8,0:0:0:0:
499,289,296577,1,8,0:0:0:0:
449,326,296662,1,0,0:0:0:0:
449,326,296748,1,8,0:0:0:0:
449,326,296834,1,8,0:0:0:0:
474,317,296920,1,0,0:0:0:0:
454,349,297005,1,0,0:0:0:0:
454,349,297091,1,8,0:0:0:0:
454,349,297176,1,8,0:0:0:0:
474,317,297263,1,0,0:0:0:0:
436,310,297348,1,0,0:0:0:0:
474,317,297434,1,8,0:0:0:0:
436,312,297519,1,0,0:0:0:0:
397,308,297605,1,0,0:0:0:0:
358,304,297691,1,0,0:0:0:0:
508,321,297777,1,8,0:0:0:0:
433,302,297948,1,0,0:0:0:0:
433,302,298034,1,0,0:0:0:0:
511,297,298120,1,0,0:0:0:0:
433,302,298205,1,0,0:0:0:0:
441,264,298291,1,8,0:0:0:0:
455,339,298462,1,0,0:0:0:0:
455,339,298548,1,0,0:0:0:0:
297,207,298634,1,0,0:0:0:0:
455,339,298719,1,8,0:0:0:0:
455,339,298805,1,0,0:0:0:0:
455,339,298891,1,0,0:0:0:0:
434,275,298977,1,8,0:0:0:0:
455,339,299062,1,0,0:0:0:0:
455,339,299148,1,0,0:0:0:0:
455,339,299234,1,0,0:0:0:0:
484,286,299320,1,8,0:0:0:0:
455,339,299405,1,0,0:0:0:0:
455,339,299491,1,0,0:0:0:0:
455,339,299576,1,0,0:0:0:0:
484,286,299663,1,8,0:0:0:0:
455,339,299748,1,0,0:0:0:0:
455,339,299834,1,0,0:0:0:0:
455,339,299919,1,0,0:0:0:0:
484,286,300006,1,8,0:0:0:0:
455,339,300091,1,8,0:0:0:0:
436,305,300176,1,4,0:0:0:0:
382,248,300348,5,0,0:0:0:0:
355,220,300434,1,0,0:0:0:0:
322,199,300519,1,8,0:0:0:0:
347,227,300605,1,8,0:0:0:0:
372,255,300691,1,8,0:0:0:0:
397,283,300776,1,8,0:0:0:0:
418,319,300862,1,0,0:0:0:0:
466,379,301034,1,8,0:0:0:0:
448,317,301205,1,0,0:0:0:0:
448,317,301291,1,8,0:0:0:0:
480,303,301376,1,0,0:0:0:0:
448,317,301462,1,0,0:0:0:0:
448,317,301548,1,8,0:0:0:0:
448,317,301634,1,8,0:0:0:0:
499,289,301719,1,8,0:0:0:0:
448,317,301805,1,0,0:0:0:0:
448,317,301891,1,8,0:0:0:0:
448,317,301976,1,8,0:0:0:0:
499,289,302062,1,8,0:0:0:0:
448,317,302148,1,0,0:0:0:0:
448,317,302234,1,8,0:0:0:0:
448,317,302319,1,8,0:0:0:0:
474,317,302405,1,0,0:0:0:0:
458,352,302491,1,8,0:0:0:0:
458,352,302576,1,8,0:0:0:0:
458,352,302662,1,8,0:0:0:0:
474,317,302748,1,0,0:0:0:0:
458,352,302834,1,0,0:0:0:0:
474,317,302919,1,8,0:0:0:0:
474,317,303005,1,0,0:0:0:0:
468,355,303091,1,0,0:0:0:0:
468,355,303176,1,0,0:0:0:0:
508,321,303262,1,8,0:0:0:0:
431,327,303434,1,8,0:0:0:0:
456,355,303519,1,0,0:0:0:0:
511,297,303605,1,0,0:0:0:0:
441,264,303776,1,8,0:0:0:0:
457,299,303862,1,0,0:0:0:0:
475,332,303948,1,0,0:0:0:0:
435,325,304034,1,8,0:0:0:0:
297,207,304119,1,0,0:0:0:0:
329,228,304205,1,8,0:0:0:0:
360,250,304291,1,0,0:0:0:0:
389,274,304376,1,0,0:0:0:0:
434,275,304462,1,8,0:0:0:0:
445,311,304548,1,8,0:0:0:0:
456,347,304634,1,0,0:0:0:0:
456,347,304719,1,0,0:0:0:0:
484,286,304805,1,8,0:0:0:0:
460,316,304891,1,8,0:0:0:0:
460,316,304976,1,8,0:0:0:0:
484,286,305148,1,8,0:0:0:0:
473,323,305234,1,8,0:0:0:0:
462,359,305319,1,0,0:0:0:0:
484,286,305491,1,8,0:0:0:0:
473,322,305576,1,0,0:0:0:0:
438,305,305662,1,12,0:0:0:0:
456,379,305834,1,0,0:0:0:0:
446,342,305919,1,0,0:0:0:0:
446,342,306005,1,8,0:0:0:0:
481,357,306091,1,8,0:0:0:0:
481,357,306176,1,0,0:0:0:0:
438,292,306348,1,8,0:0:0:0:
457,325,306434,1,0,0:0:0:0:
457,325,306519,1,0,0:0:0:0:
470,351,306691,1,8,0:0:0:0:
442,324,306776,1,8,0:0:0:0:
445,321,306862,1,0,0:0:0:0:
470,351,307034,1,0,0:0:0:0:
470,351,307119,1,0,0:0:0:0:
470,351,307205,1,8,0:0:0:0:
470,351,307376,1,0,0:0:0:0:
470,351,307462,1,8,0:0:0:0:
473,372,307548,1,0,0:0:0:0:
439,302,307719,1,0,0:0:0:0:
455,336,307805,1,8,0:0:0:0:
452,338,307891,1,8,0:0:0:0:
452,338,308062,1,8,0:0:0:0:
452,338,308148,1,0,0:0:0:0:
452,338,308234,1,8,0:0:0:0:
452,338,308405,1,0,0:0:0:0:
452,338,308491,1,0,0:0:0:0:
452,338,308576,1,0,0:0:0:0:
458,260,308748,1,8,0:0:0:0:
460,234,308805,1,8,0:0:0:0:
463,208,308862,1,8,0:0:0:0:
470,183,308919,1,0,0:0:0:0:
442,155,309005,1,0,0:0:0:0:
442,155,309091,1,8,0:0:0:0:
463,305,309262,1,8,0:0:0:0:
503,370,309434,1,8,0:0:0:0:
425,296,309519,1,0,0:0:0:0:
387,288,309605,1,0,0:0:0:0:
459,312,309776,1,8,0:0:0:0:
459,312,309862,1,8,0:0:0:0:
485,323,309948,1,0,0:0:0:0:
485,323,310119,1,8,0:0:0:0:
485,323,310205,1,8,0:0:0:0:
485,323,310291,1,8,0:0:0:0:
476,340,310462,1,0,0:0:0:0:
452,266,310634,1,8,0:0:0:0:
462,302,310719,1,8,0:0:0:0:
471,264,310805,1,0,0:0:0:0:
446,218,310919,1,0,0:0:0:0:
415,176,311034,1,8,0:0:0:0:
447,215,311148,1,0,0:0:0:0:
447,215,311262,1,8,0:0:0:0:
447,215,311376,1,8,0:0:0:0:
447,215,311491,1,0,0:0:0:0:
461,290,311662,1,0,0:0:0:0:
474,366,311834,1,0,0:0:0:0:
453,333,311919,1,0,0:0:0:0:
453,333,312005,1,8,0:0:0:0:
453,333,312176,1,0,0:0:0:0:
453,333,312262,1,8,0:0:0:0:
453,333,312348,1,0,0:0:0:0:
453,333,312519,1,8,0:0:0:0:
477,362,312605,1,0,0:0:0:0:
477,362,312691,1,0,0:0:0:0:
477,362,312862,1,0,0:0:0:0:
477,362,312948,1,8,0:0:0:0:
477,362,313034,1,8,0:0:0:0:
425,305,313205,1,8,0:0:0:0:
444,337,313291,1,8,0:0:0:0:
444,337,313376,1,0,0:0:0:0:
444,337,313548,1,8,0:0:0:0:
444,337,313634,1,0,0:0:0:0:
444,337,313719,1,8,0:0:0:0:
444,337,313891,1,0,0:0:0:0:
444,337,313976,1,0,0:0:0:0:
444,337,314062,1,0,0:0:0:0:
430,260,314234,1,0,0:0:0:0:
425,234,314291,1,0,0:0:0:0:
421,208,314348,1,0,0:0:0:0:
418,182,314405,1,8,0:0:0:0:
404,145,314491,1,8,0:0:0:0:
388,110,314576,1,8,0:0:0:0:
419,180,314748,1,8,0:0:0:0:
440,253,314919,1,0,0:0:0:0:
459,286,315005,1,8,0:0:0:0:
480,318,315091,1,8,0:0:0:0:
480,318,315262,1,0,0:0:0:0:
480,318,315348,1,0,0:0:0:0:
497,326,315434,1,8,0:0:0:0:
497,326,315605,1,8,0:0:0:0:
481,347,316976,1,8,0:0:0:0:
481,347,317062,1,0,0:0:0:0:
481,347,317148,1,8,0:0:0:0:
481,347,317234,1,0,0:0:0:0:
481,347,317319,1,8,0:0:0:0:
462,313,317405,1,0,0:0:0:0:
462,313,317491,1,8,0:0:0:0:
490,288,317576,1,8,0:0:0:0:
480,325,317662,1,8,0:0:0:0:
480,325,317834,1,0,0:0:0:0:
480,325,317919,1,0,0:0:0:0:
480,325,318005,1,8,0:0:0:0:
480,325,318176,1,0,0:0:0:0:
480,325,318262,1,8,0:0:0:0:
480,325,318348,1,0,0:0:0:0:
480,325,318519,1,8,0:0:0:0:
480,325,318605,1,0,0:0:0:0:
480,325,318691,1,0,0:0:0:0:
480,325,318862,1,8,0:0:0:0:
480,325,318948,1,8,0:0:0:0:
480,325,319034,1,0,0:0:0:0:
480,325,319205,1,8,0:0:0:0:
480,325,319291,1,0,0:0:0:0:
480,325,319376,1,8,0:0:0:0:
480,325,319548,1,0,0:0:0:0:
480,325,319634,1,0,0:0:0:0:
475,287,319719,1,8,0:0:0:0:
471,261,319776,1,8,0:0:0:0:
463,235,319834,1,8,0:0:0:0:
457,210,319891,1,0,0:0:0:0:
455,171,319976,1,0,0:0:0:0:
452,132,320062,1,8,0:0:0:0:
467,207,320234,1,8,0:0:0:0:
479,315,320319,1,0,0:0:0:0:
490,279,320405,1,0,0:0:0:0:
479,315,320576,1,8,0:0:0:0:
479,315,320662,1,8,0:0:0:0:
479,315,320748,1,0,0:0:0:0:
479,315,320919,1,8,0:0:0:0:
479,315,321005,1,8,0:0:0:0:
494,305,321091,1,8,0:0:0:0:
422,332,321262,1,0,0:0:0:0:
460,326,321348,1,0,0:0:0:0:
460,326,321434,1,0,0:0:0:0:
404,273,321605,1,8,0:0:0:0:
404,273,321691,1,0,0:0:0:0:
404,273,321776,1,0,0:0:0:0:
407,221,321891,1,8,0:0:0:0:
413,170,322005,1,0,0:0:0:0:
421,119,322119,1,0,0:0:0:0:
421,119,322234,1,8,0:0:0:0:
421,119,322348,1,0,0:0:0:0:
429,169,322462,1,8,0:0:0:0:
440,245,322634,1,0,0:0:0:0:
445,282,322719,1,0,0:0:0:0:
451,319,322805,1,0,0:0:0:0:
455,362,322976,1,0,0:0:0:0:
455,362,323148,1,0,0:0:0:0:
483,344,323319,1,0,0:0:0:0:
483,344,323405,1,0,0:0:0:0:
483,344,323491,1,8,0:0:0:0:
483,344,323662,1,0,0:0:0:0:
483,344,323748,1,8,0:0:0:0:
483,344,323834,1,0,0:0:0:0:
483,344,324005,1,0,0:0:0:0:
483,344,324091,1,8,0:0:0:0:
483,344,324176,1,8,0:0:0:0:
457,314,324262,1,0,0:0:0:0:
468,363,324348,1,8,0:0:0:0:
468,363,324434,1,0,0:0:0:0:
468,363,324519,1,8,0:0:0:0:
468,363,324691,1,0,0:0:0:0:
468,363,324776,1,0,0:0:0:0:
468,363,324862,1,0,0:0:0:0:
468,363,325034,1,0,0:0:0:0:
413,309,325205,1,12,0:0:0:0:
256,192,325291,12,0,327605,0:0:0:0:
441,323,327948,5,4,0:0:0:0:
441,323,328291,1,4,0:0:0:0:
458,352,328634,1,4,0:0:0:0:
441,323,328976,5,4,0:0:0:0:
441,323,329319,1,4,0:0:0:0:
458,352,329662,1,4,0:0:0:0:
441,323,330005,5,4,0:0:0:0:
441,323,330348,1,4,0:0:0:0:
458,352,330691,1,4,0:0:0:0:
441,323,331034,5,4,0:0:0:0:
441,323,331377,1,4,0:0:0:0:
458,352,331720,1,4,0:0:0:0:
441,323,332062,5,4,0:0:0:0:
441,323,332405,1,4,0:0:0:0:
458,352,332748,1,4,0:0:0:0:
458,352,333605,1,0,0:0:0:0:
478,342,333776,1,0,0:0:0:0:
478,342,334119,1,0,0:0:0:0:
478,342,334462,1,0,0:0:0:0:
383,220,334805,1,0,0:0:0:0:
478,342,335148,1,0,0:0:0:0:
478,342,335491,1,0,0:0:0:0:
383,220,335834,1,0,0:0:0:0:
478,342,336176,1,0,0:0:0:0:
478,342,336519,1,0,0:0:0:0:
383,220,336862,1,0,0:0:0:0:
471,345,337205,1,0,0:0:0:0:
450,192,337548,1,0,0:0:0:0:
470,364,338919,1,0,0:0:0:0:
470,364,339091,1,0,0:0:0:0:
470,364,339262,1,0,0:0:0:0:
470,364,339434,1,0,0:0:0:0:
470,364,339605,1,0,0:0:0:0:
470,364,339948,1,0,0:0:0:0:
470,364,340291,1,0,0:0:0:0:
470,364,340634,1,0,0:0:0:0:
470,364,340976,1,0,0:0:0:0:
470,364,341319,1,0,0:0:0:0:
470,364,341662,1,0,0:0:0:0:
470,364,342005,1,0,0:0:0:0:
470,364,342348,1,0,0:0:0:0:
470,364,342691,1,0,0:0:0:0:
482,210,343034,1,0,0:0:0:0:
470,363,343376,1,0,0:0:0:0:
488,308,343719,1,0,0:0:0:0:
488,308,344576,1,0,0:0:0:0:
488,308,344662,1,0,0:0:0:0:
488,308,344748,1,0,0:0:0:0:
451,375,344919,1,0,0:0:0:0:
497,313,345091,1,0,0:0:0:0:
480,335,345434,1,0,0:0:0:0:
480,335,345776,1,0,0:0:0:0:
480,335,346119,1,0,0:0:0:0:
256,192,346462,12,0,349891,0:0:0:0:
