osu file format v14

[General]
AudioFilename: audio.mp3
AudioLeadIn: 0
PreviewTime: 87902
Countdown: 0
SampleSet: Drum
StackLeniency: 0.7
Mode: 2
LetterboxInBreaks: 0
WidescreenStoryboard: 0

[Editor]
DistanceSpacing: 1.4
BeatDivisor: 16
GridSize: 16
TimelineZoom: 4.399998

[Metadata]
Title:ill intelligence
TitleUnicode:ill intelligence
Artist:Camellia
ArtistUnicode:かめりあ
Creator:Razor Sharp
Version:ERROR 404 - DIFFICULTY NOT FOUND
Source:osu!
Tags:hardcore speedcore hardstyle electronic electro kameria kamerukameria kamelcamellia かめるかめりあ planet//shaper c88 CTCD-011 Hareimu fa featured artist cametek Masaya Oya 大箭マサヤ Mappers' Guild MG MPG Instrumental Arthas
BeatmapID:2998626
BeatmapSetID:1459275

[Difficulty]
HPDrainRate:6
CircleSize:5
OverallDifficulty:9.8
ApproachRate:9.8
SliderMultiplier:2.2
SliderTickRate:2

[Events]
//Background and Video events
0,0,"jpgver.jpg",0,0
//Break Periods
2,30845,39393
2,175930,180295
//Storyboard Layer 0 (Background)
//Storyboard Layer 1 (Fail)
//Storyboard Layer 2 (Pass)
//Storyboard Layer 3 (Foreground)
//Storyboard Layer 4 (Overlay)
//Storyboard Sound Samples

[TimingPoints]
131,342.857142857143,4,1,1,100,1,0
4245,-47.6190476190476,4,1,1,100,0,0
4266,-47.6190476190476,4,1,1,100,0,0
4566,-47.6190476190476,4,1,1,5,0,0
4588,-47.6190476190476,4,1,1,100,0,0
4609,-47.6190476190476,4,1,1,100,0,0
4931,-100,4,1,1,100,0,0
9731,-100,4,3,2,100,0,0
11102,-100,4,1,1,100,0,0
15216,-47.6190476190476,4,1,1,100,0,0
15237,-47.6190476190476,4,1,1,100,0,0
15537,-47.6190476190476,4,1,1,5,0,0
15559,-47.6190476190476,4,1,1,100,0,0
15580,-47.6190476190476,4,1,1,100,0,0
15902,-100,4,1,1,100,0,0
25331,-100,4,2,1,50,0,0
30216,-100,4,3,2,50,0,0
44016,-100,4,2,2,20,0,0
44616,-100,4,2,1,20,0,0
49502,-100,4,2,1,25,0,0
50873,-100,4,2,1,30,0,0
52245,-100,4,2,1,35,0,0
53959,-100,4,2,1,40,0,0
54645,-100,4,2,1,50,0,0
55331,-100,4,2,1,60,0,0
56359,-100,4,2,1,70,0,0
57045,-100,4,2,1,80,0,0
57731,-100,4,2,1,85,0,0
58416,-100,4,2,1,90,0,0
59102,-100,4,2,1,95,0,0
59788,-100,4,2,1,100,0,0
65959,-100,4,1,1,100,0,1
70073,-47.6190476190476,4,1,1,100,0,1
70094,-47.6190476190476,4,1,1,100,0,1
70394,-47.6190476190476,4,1,1,5,0,1
70416,-47.6190476190476,4,1,1,100,0,1
70437,-47.6190476190476,4,1,1,100,0,1
70759,-100,4,1,1,100,0,1
71102,-47.6190476190476,4,1,1,100,0,1
71123,-47.6190476190476,4,1,1,100,0,1
71359,-47.6190476190476,4,1,1,5,0,1
71445,-100,4,1,1,100,0,1
81045,-47.6190476190476,4,1,1,100,0,1
81066,-47.6190476190476,4,1,1,100,0,1
81366,-47.6190476190476,4,1,1,5,0,1
81388,-47.6190476190476,4,1,1,100,0,1
81409,-47.6190476190476,4,1,1,100,0,1
81731,-100,4,1,1,100,0,1
82073,-47.6190476190476,4,1,1,100,0,1
82095,-47.6190476190476,4,1,1,100,0,1
82416,-100,4,1,1,100,0,1
85159,-100,4,1,1,100,0,0
85502,-100,4,3,2,50,0,0
86531,-100,4,1,1,100,0,0
87902,-100,4,1,2,100,0,1
96473,-100,4,1,1,100,0,1
97502,-100,4,1,2,100,0,1
108473,-100,4,2,1,100,0,0
109845,-100,4,1,1,100,0,0
113959,-100,4,3,2,25,0,0
114579,292.682926829268,4,1,1,25,1,0
114872,363.636363636364,4,1,1,25,1,0
115234,332.409972299169,4,1,1,30,1,0
115898,333.333333333333,4,1,1,35,1,0
116564,324.324324324324,4,1,1,40,1,0
118509,-100,4,1,1,50,0,0
120455,315.789473684211,4,1,1,60,1,0
124244,309.278350515464,4,1,1,70,1,0
124862,-100,4,1,1,80,0,0
125481,-100,4,1,1,100,0,0
129192,295.566502463054,4,2,1,100,1,0
130374,300,4,1,1,100,1,1
130374,-83.3333333333333,4,1,1,100,0,1
140274,-100,4,1,1,100,0,1
141174,-83.3333333333333,4,1,1,100,0,1
147474,-83.3333333333333,4,3,2,75,0,1
148374,-83.3333333333333,4,1,1,100,0,1
150774,-100,4,1,1,100,0,0
151074,-100,4,2,1,100,0,0
151974,-83.3333333333333,4,1,1,100,0,1
171174,284.765068818225,4,1,1,100,1,0
174021,-100,4,3,2,25,0,0
175730,315.291644771414,4,1,1,100,1,0
180774,300,4,1,1,100,1,0
181074,315.789473684211,4,1,1,40,1,0
181231,322.58064516129,4,1,1,40,1,0
181392,322.58064516129,4,1,1,40,1,0
182359,322.58064516129,4,1,1,45,1,0
183649,-100,4,1,1,50,0,0
183811,329.67032967033,4,1,1,50,1,0
184964,329.67032967033,4,1,1,55,1,0
186283,331.491712707182,4,1,1,60,1,0
187608,335.195530726257,4,1,1,65,1,0
188946,375,4,1,1,70,1,0
189039,344.827586206897,4,1,1,70,1,0
189298,346.820809248555,4,1,1,70,1,0
189627,340.909090909091,4,1,1,75,1,0
190308,-100,4,1,1,80,0,0
190990,-100,4,1,1,85,0,0
191672,-100,4,2,1,100,0,0
193050,342.857142857143,4,1,1,100,1,0
193050,-90.9090909090909,4,1,1,100,0,0
201621,-90.9090909090909,4,1,1,90,0,0
201964,-90.9090909090909,4,1,1,80,0,0
202307,-90.9090909090909,4,1,1,70,0,0
202650,-90.9090909090909,4,1,1,60,0,0
202992,-90.9090909090909,4,1,1,50,0,0
203335,-90.9090909090909,4,1,1,40,0,0
204021,-90.9090909090909,4,1,1,30,0,0
206764,-90.9090909090909,4,1,1,40,0,0
208135,-90.9090909090909,4,1,1,50,0,0
209507,-90.9090909090909,4,1,1,60,0,0
210192,-90.9090909090909,4,1,1,70,0,0
210878,-90.9090909090909,4,1,1,80,0,0
211564,-90.9090909090909,4,1,1,90,0,0
214992,-100,4,1,1,100,0,0
216364,-83.3333333333333,4,1,1,100,0,1
218764,-45.4545454545455,4,1,1,100,0,1
219107,-83.3333333333333,4,1,1,100,0,1
224250,-45.4545454545455,4,1,1,100,0,1
224592,-83.3333333333333,4,1,1,100,0,1
229735,-45.4545454545455,4,1,1,100,0,1
230077,-83.3333333333333,4,1,1,100,0,1
235564,-100,4,1,1,100,0,0
238307,-83.3333333333333,4,1,2,100,0,1
248935,-83.3333333333333,4,1,1,100,0,1
249278,-83.3333333333333,4,1,2,100,0,1
258878,-100,4,1,2,100,0,0
260250,-100,4,1,1,100,0,0
269850,-100,4,3,2,100,0,0
271221,-100,4,1,1,100,0,0
282278,-100,4,3,2,75,0,0
289735,-100,4,3,2,50,0,0
292478,-100,4,3,2,35,0,0
294535,-100,4,3,2,20,0,0
298650,-100,4,3,2,18,0,0
302764,-100,4,3,2,16,0,0
306878,-100,4,3,2,14,0,0
309621,-100,4,3,2,10,0,0
312364,-100,4,3,2,8,0,0
315107,-100,4,3,2,6,0,0
317850,-100,4,3,2,5,0,0

[Colours]
Combo1 : 175,175,175
Combo2 : 234,0,0
Combo3 : 116,116,116
Combo4 : 117,0,0

[HitObjects]
144,52,131,5,4,0:2:0:0:
374,170,302,1,0,0:0:0:0:
144,52,473,2,0,P|91:76|156:120,1,165
238,125,816,2,0,P|291:149|226:193,1,165
319,201,1159,2,0,P|372:225|307:269,1,165
174,276,1502,6,0,P|121:252|186:208,1,165
268,203,1845,2,0,P|215:179|280:135,1,165
362,135,2188,2,0,P|415:159|350:203,1,165
268,208,2531,2,0,P|321:232|256:276,1,165
125,200,2873,5,0,0:0:0:0:
355,318,3044,1,0,0:0:0:0:
125,200,3216,2,0,P|140:136|239:96,1,165
311,100,3559,2,0,P|296:164|197:204,1,165
125,200,3902,2,0,P|140:136|239:96,1,165
362,234,4245,6,0,B|132:234|132:234|342:234,1,433.124986782074
362,234,4588,2,0,B|132:234|132:234|363:234,1,461.999985900879
132,30,5102,1,0,0:0:0:0:
461,329,5273,6,0,P|488:278|452:177,1,165,8|0,0:0|0:0,0:0:0:0:
318,117,5616,5,0,0:0:0:0:
86,236,5788,1,0,0:0:0:0:
318,117,5959,2,0,P|390:133|433:210,1,165
344,209,6302,2,0,P|272:225|229:302,1,165
140,296,6645,2,0,P|68:280|25:203,1,165
164,105,6988,6,0,L|336:105,1,165
240,105,7331,2,0,L|68:105,1,165
164,105,7673,2,0,L|336:105,1,165
417,106,8016,2,0,L|245:106,1,165
114,196,8359,5,0,0:0:0:0:
252,214,8445,1,0,0:0:0:0:
390,196,8531,1,0,0:0:0:0:
252,214,8617,1,0,0:0:0:0:
114,196,8702,2,0,P|64:165|123:97,1,165
252,100,9045,1,0,0:0:0:0:
22,115,9216,1,0,0:0:0:0:
252,100,9388,2,0,P|318:117|359:204,1,165
221,316,9731,5,0,0:0:0:0:
197,301,9773,1,0,0:0:0:0:
180,280,9816,1,0,0:0:0:0:
171,254,9859,1,0,0:0:0:0:
171,227,9902,1,0,0:0:0:0:
180,201,9945,1,0,0:0:0:0:
198,181,9988,1,0,0:0:0:0:
222,167,10031,1,0,0:0:0:0:
330,352,10073,5,0,0:0:0:0:
346,352,10095,1,0,0:0:0:0:
353,337,10115,1,0,0:0:0:0:
369,337,10137,1,0,0:0:0:0:
374,320,10158,1,0,0:0:0:0:
390,320,10180,1,0,0:0:0:0:
393,300,10201,1,0,0:0:0:0:
409,300,10223,1,0,0:0:0:0:
408,277,10244,1,0,0:0:0:0:
424,277,10266,1,0,0:0:0:0:
420,252,10287,1,0,0:0:0:0:
436,252,10309,1,0,0:0:0:0:
428,226,10330,1,0,0:0:0:0:
444,226,10352,1,0,0:0:0:0:
431,199,10373,1,0,0:0:0:0:
447,199,10395,1,0,0:0:0:0:
431,171,10415,5,0,0:0:0:0:
447,171,10437,1,0,0:0:0:0:
427,144,10458,1,0,0:0:0:0:
443,144,10480,1,0,0:0:0:0:
418,118,10501,1,0,0:0:0:0:
434,118,10523,1,0,0:0:0:0:
406,93,10544,1,0,0:0:0:0:
422,93,10566,1,0,0:0:0:0:
390,71,10587,1,0,0:0:0:0:
406,71,10609,1,0,0:0:0:0:
371,51,10630,1,0,0:0:0:0:
387,51,10652,1,0,0:0:0:0:
349,34,10673,1,0,0:0:0:0:
365,34,10695,1,0,0:0:0:0:
325,21,10715,1,0,0:0:0:0:
341,21,10738,1,0,0:0:0:0:
306,14,10759,5,0,3:0:0:0:
279,21,10801,1,0,0:0:0:0:
259,39,10844,1,0,0:0:0:0:
247,63,10887,1,0,0:0:0:0:
247,91,10930,1,0,0:0:0:0:
258,116,10973,1,0,0:0:0:0:
278,134,11016,1,0,0:0:0:0:
416,314,11102,5,4,0:2:0:0:
186,329,11273,1,0,0:0:0:0:
416,314,11445,2,0,P|468:289|410:233,1,165
323,229,11788,2,0,P|267:184|327:147,1,165
415,146,12131,2,0,P|467:121|409:65,1,165
274,132,12473,6,0,L|99:132,1,165
197,130,12816,2,0,P|250:157|193:222,1,165
112,224,13159,2,0,L|287:224,1,165
188,224,13502,2,0,P|135:251|192:316,1,165
323,331,13845,5,0,0:0:0:0:
93,185,14016,1,0,0:0:0:0:
323,331,14188,2,0,L|153:331,1,165
69,329,14531,2,0,L|239:329,1,165
323,331,14873,2,0,L|153:331,1,165
296,181,15216,6,0,B|66:181|66:181|274:181,1,433.124986782074
296,181,15559,2,0,B|66:181|66:181|297:181,1,461.999985900879
66,63,16073,1,0,0:0:0:0:
397,315,16245,6,0,L|400:146,1,165,8|0,0:0|0:0,0:0:0:0:
262,117,16588,5,0,0:0:0:0:
32,166,16759,1,0,0:0:0:0:
262,117,16931,2,0,P|316:165|257:217,1,165
175,217,17273,2,0,L|345:217,1,165
427,217,17616,2,0,L|257:217,1,165
400,349,17959,6,0,P|385:290|284:244,1,165
210,242,18302,2,0,L|39:242,1,165
133,243,18645,2,0,P|190:238|244:142,1,165
156,149,18988,2,0,P|101:129|163:80,1,165
295,68,19331,5,0,0:0:0:0:
158,211,19416,1,0,0:0:0:0:
295,68,19502,1,0,0:0:0:0:
432,211,19587,1,0,0:0:0:0:
295,68,19673,2,0,P|237:93|304:130,1,165
433,124,20016,1,0,0:0:0:0:
157,226,20188,1,0,0:0:0:0:
433,124,20359,2,0,P|491:149|424:186,1,165
291,231,20702,5,0,0:0:0:0:
401,231,20873,1,0,0:0:0:0:
269,232,21045,1,0,0:0:0:0:
423,231,21216,1,0,0:0:0:0:
247,231,21388,1,0,0:0:0:0:
477,221,21559,1,0,0:0:0:0:
234,195,21731,1,0,0:0:0:0:
486,170,21902,1,0,0:0:0:0:
157,152,22073,5,4,0:0:0:0:
256,192,22245,12,0,30645,0:0:0:0:
256,192,39902,12,0,43673,0:0:0:0:
213,36,44016,6,0,L|199:95,1,55,0|0,3:0|3:0,0:0:0:0:
273,38,44188,2,0,L|259:97,1,55,0|0,3:0|3:0,0:0:0:0:
333,42,44359,2,0,L|319:101,1,55,0|0,3:0|0:0,0:0:0:0:
393,44,44531,2,0,L|379:103,1,55,0|2,0:0|0:0,0:0:0:0:
453,48,44702,5,2,0:0:0:0:
489,87,44787,1,0,0:0:0:0:
489,140,44873,1,0,0:0:0:0:
452,179,44959,1,0,0:0:0:0:
379,187,45045,2,0,L|262:187,1,110,0|0,3:0|0:0,0:0:0:0:
256,240,45302,1,0,0:0:0:0:
344,246,45388,6,0,L|330:305,1,55,2|0,0:0|0:0,0:0:0:0:
243,299,45559,2,0,L|229:358,1,55
141,348,45731,1,0,0:0:0:0:
371,354,45988,6,0,L|357:295,1,55,2|2,0:0|0:0,0:0:0:0:
270,301,46159,2,0,L|256:242,1,55,0|2,0:0|0:0,0:0:0:0:
168,252,46331,1,0,0:0:0:0:
257,247,46416,2,0,L|377:248,1,110,0|0,3:0|3:0,0:0:0:0:
379,194,46673,1,2,0:0:0:0:
290,189,46759,6,0,L|276:130,1,55,2|0,0:0|0:0,0:0:0:0:
366,131,46931,2,0,L|380:72,1,55,2|0,0:0|0:0,0:0:0:0:
290,73,47102,2,0,L|120:73,1,165,0|2,0:0|0:0,0:0:0:0:
213,70,47445,6,0,L|227:129,1,55,2|0,0:0|0:0,0:0:0:0:
137,128,47616,2,0,L|123:187,1,55,2|0,0:0|0:0,0:0:0:0:
213,182,47788,2,0,P|265:213|206:277,1,165,0|2,3:0|0:0,0:0:0:0:
125,279,48131,6,0,L|171:242,1,55,2|0,0:0|0:0,0:0:0:0:
255,234,48302,2,0,L|209:197,1,55
123,198,48473,1,0,0:0:0:0:
354,183,48731,6,0,L|308:146,1,55,2|2,0:0|0:0,0:0:0:0:
224,138,48902,2,0,L|270:101,1,55
356,102,49073,2,0,L|241:102,1,110
156,103,49331,2,0,L|147:162,1,55,0|2,0:0|0:0,0:0:0:0:
286,319,49502,6,0,L|294:258,1,55,2|0,0:0|0:0,0:0:0:0:
204,262,49673,2,0,L|201:205,1,55,2|0,0:0|0:0,0:0:0:0:
290,205,49845,2,0,L|299:145,2,55
201,202,50102,1,2,0:0:0:0:
112,202,50188,6,0,L|110:141,1,55,2|0,0:0|0:0,0:0:0:0:
198,144,50359,2,0,L|200:83,1,55,2|0,0:0|0:0,0:0:0:0:
110,84,50531,2,0,L|101:24,2,55,0|0|0,3:0|0:0|0:0,0:0:0:0:
198,83,50788,1,2,0:0:0:0:
286,85,50873,6,0,L|294:146,1,55,2|0,0:0|0:0,0:0:0:0:
204,142,51045,2,0,L|201:199,1,55,2|0,0:0|0:0,0:0:0:0:
290,199,51216,2,0,L|299:259,2,55
201,202,51473,1,2,0:0:0:0:
112,202,51559,6,0,L|110:263,1,55,2|0,0:0|0:0,0:0:0:0:
198,260,51730,2,0,L|200:321,1,55,2|0,0:0|0:0,0:0:0:0:
110,320,51902,2,0,L|101:380,2,55,0|0|0,3:0|0:0|3:0,0:0:0:0:
198,321,52159,1,2,0:0:0:0:
286,321,52245,6,0,L|344:321,1,55,2|0,0:0|0:0,0:0:0:0:
252,321,52416,2,0,L|252:261,1,55,2|0,0:0|0:0,0:0:0:0:
162,265,52588,2,0,L|104:265,2,55
250,260,52845,1,2,0:0:0:0:
161,262,52931,6,0,L|159:198,1,55,2|0,0:0|0:0,0:0:0:0:
247,208,53102,2,0,L|247:147,1,55,2|0,0:0|0:0,0:0:0:0:
335,153,53273,2,0,L|390:153,2,55,0|0|0,3:0|0:0|0:0,0:0:0:0:
247,153,53531,1,2,0:0:0:0:
159,153,53616,6,0,L|156:90,1,55,2|0,0:0|0:0,0:0:0:0:
245,94,53788,2,0,L|182:94,1,55,2|0,0:0|0:0,0:0:0:0:
101,95,53959,2,0,L|45:95,2,55
189,96,54216,1,2,0:0:0:0:
277,93,54302,6,0,L|336:93,1,55,2|0,0:0|0:0,0:0:0:0:
243,184,54473,2,0,L|184:184,1,55,2|0,0:0|0:0,0:0:0:0:
277,184,54645,2,0,L|333:184,2,55,0|0|0,3:0|0:0|0:0,0:0:0:0:
188,183,54902,1,2,0:0:0:0:
326,355,54988,6,0,L|333:294,1,55,2|0,0:0|0:0,0:0:0:0:
244,297,55159,2,0,L|239:239,1,55,2|0,0:0|0:0,0:0:0:0:
379,162,55331,2,0,L|438:162,2,55,0|0|0,3:0|0:0|0:0,0:0:0:0:
290,162,55588,1,2,0:0:0:0:
153,41,55673,6,0,L|146:102,1,55,2|0,3:2|0:0,0:0:0:0:
235,99,55845,2,0,L|240:157,1,55,2|0,0:0|0:0,0:0:0:0:
100,234,56016,2,0,L|41:234,2,55,0|0|0,3:0|0:0|0:0,0:0:0:0:
189,234,56273,1,2,0:0:0:0:
327,337,56359,6,0,L|303:287,1,55,2|0,3:2|0:0,0:0:0:0:
214,273,56531,2,0,L|238:223,1,55,2|0,0:0|0:0,0:0:0:0:
376,197,56702,2,0,L|437:197,2,55,0|0|0,1:0|0:0|0:0,0:0:0:0:
287,195,56959,1,2,0:0:0:0:
148,194,57045,6,0,L|172:144,1,55,2|0,1:2|0:0,0:0:0:0:
261,130,57217,2,0,L|237:80,1,55,2|0,0:0|0:0,0:0:0:0:
99,54,57388,2,0,L|38:54,2,55,0|0|0,1:0|0:0|0:0,0:0:0:0:
188,52,57645,1,2,0:0:0:0:
326,192,57731,6,0,L|387:192,1,55,2|0,1:2|0:0,0:0:0:0:
292,191,57902,2,0,L|235:191,1,55,2|0,0:0|0:0,0:0:0:0:
375,289,58073,2,0,L|431:289,2,55,0|0|0,1:0|0:0|0:0,0:0:0:0:
285,286,58331,1,2,0:0:0:0:
148,131,58416,6,0,L|87:131,1,55,2|0,1:2|0:0,0:0:0:0:
182,130,58587,2,0,L|239:130,1,55,2|0,0:0|0:0,0:0:0:0:
99,228,58759,2,0,L|43:228,2,55,0|0|0,1:0|0:0|0:0,0:0:0:0:
189,225,59016,1,2,0:0:0:0:
327,90,59102,6,0,L|269:90,1,55,2|0,1:2|0:0,0:0:0:0:
183,90,59273,2,0,L|241:90,1,55,2|0,0:0|0:0,0:0:0:0:
378,200,59445,2,0,L|434:200,2,55,0|0|0,1:0|0:0|0:0,0:0:0:0:
289,199,59702,1,2,0:2:0:0:
151,148,59788,6,0,L|209:148,1,55,2|0,1:2|0:0,0:0:0:0:
295,148,59959,2,0,L|237:148,1,55
100,258,60131,2,0,L|44:258,2,55,0|0|0,1:0|0:0|0:0,0:0:0:0:
189,257,60388,1,0,0:2:0:0:
353,321,60473,6,0,L|358:263,1,55,0|0,1:0|0:0,0:0:0:0:
218,184,60645,2,0,L|218:122,1,55
52,263,60816,2,0,L|47:205,1,55,0|0,1:0|0:0,0:0:0:0:
187,126,60988,2,0,L|123:126,1,55,0|0,3:0|0:0,0:0:0:0:
298,241,61159,6,0,L|359:241,1,55,0|0,1:0|0:0,0:0:0:0:
213,318,61331,2,0,L|274:318,1,55,0|0,3:0|0:0,0:0:0:0:
434,299,61502,2,0,L|437:243,1,55,0|0,1:0|0:0,0:0:0:0:
299,167,61673,2,0,L|299:106,1,55,0|0,3:0|0:0,0:0:0:0:
131,152,61845,6,0,L|67:152,1,55,0|0,1:0|0:0,0:0:0:0:
214,250,62016,2,0,L|270:250,1,55,0|0,3:0|0:0,0:0:0:0:
101,337,62188,2,0,L|161:337,1,55,0|0,1:0|0:0,0:0:0:0:
294,292,62359,2,0,L|237:292,1,55,0|0,3:0|0:0,0:0:0:0:
407,154,62531,6,0,L|464:154,1,55,0|0,1:0|0:0,0:0:0:0:
324,121,62702,2,0,L|266:121,1,55,0|0,3:0|0:0,0:0:0:0:
103,146,62873,2,0,L|46:146,1,55,0|0,1:0|0:0,0:0:0:0:
186,113,63045,2,0,L|244:113,1,55,0|0,3:0|0:0,0:0:0:0:
409,54,63216,6,0,L|466:54,1,55,0|0,1:0|0:0,0:0:0:0:
324,247,63388,2,0,L|324:189,1,55,0|0,3:0|0:0,0:0:0:0:
158,94,63559,2,0,L|101:94,1,55,0|0,1:0|0:0,0:0:0:0:
243,287,63731,2,0,L|243:229,1,55,0|0,3:0|0:0,0:0:0:0:
409,54,63902,6,0,L|466:54,1,55,0|0,1:0|0:0,0:0:0:0:
324,247,64074,2,0,L|324:189,1,55,0|0,3:0|0:0,0:0:0:0:
158,143,64245,1,0,1:0:0:0:
324,192,64331,1,0,1:0:0:0:
158,143,64416,1,0,1:0:0:0:
324,192,64502,1,0,1:0:0:0:
158,143,64588,6,0,B|48:143|48:143|48:33|48:33|213:33|213:33|49:36|49:36|49:123,1,632.5,2|0,1:2|0:0,0:0:0:0:
270,297,65616,6,0,P|321:261|266:195,1,165,8|0,1:0|0:0,0:0:0:0:
131,197,65959,5,4,1:0:0:0:
363,53,66131,1,0,0:0:0:0:
131,197,66302,2,0,L|15:197,1,110,0|2,0:0|2:0,0:0:0:0:
254,322,66645,2,0,L|368:322,1,110,0|2,0:0|2:0,0:0:0:0:
132,28,66988,2,0,L|126:148,1,110,0|2,0:0|2:0,0:0:0:0:
358,218,67331,5,2,0:0:0:0:
382,205,67373,1,0,0:0:0:0:
399,184,67416,1,0,0:0:0:0:
405,157,67459,1,0,0:0:0:0:
398,131,67502,1,0,2:0:0:0:
381,110,67545,1,0,0:0:0:0:
356,99,67588,1,0,0:0:0:0:
220,256,67673,6,0,L|205:233,1,27.5
276,222,67759,2,0,L|291:199,1,27.5,0|0,2:0|0:0,0:0:0:0:
149,163,67845,2,0,L|116:163,1,27.5,2|0,2:1|0:0,0:0:0:0:
121,163,67931,2,0,L|149:163,1,27.5
287,337,68016,6,0,L|314:337,2,27.5
197,334,68188,2,0,L|170:334,2,27.5,2|0|0,2:1|0:0|0:0,0:0:0:0:
335,216,68359,6,0,L|505:217,1,165,8|0,0:0|0:0,0:0:0:0:
362,61,68702,5,0,1:0:0:0:
131,192,68873,1,0,0:0:0:0:
362,61,69045,2,0,L|249:61,1,110,0|2,0:0|2:0,0:0:0:0:
484,323,69388,2,0,L|486:207,1,110,0|2,0:0|2:0,0:0:0:0:
253,134,69731,2,0,L|370:134,1,110,0|2,0:0|2:0,0:0:0:0:
131,267,70073,6,0,B|361:268|361:268|142:267,1,433.124986782074,2|0,0:0|0:0,0:0:0:0:
131,267,70416,2,0,B|361:268|361:268|127:267,1,461.999985900879,2|0,0:0|0:0,0:0:0:0:
362,47,70931,1,0,0:0:0:0:
131,267,71102,6,0,B|361:267|361:267|376:233|370:155|362:127,1,346.49998942566,10|0,0:0|0:0,0:0:0:0:
229,60,71445,5,4,1:3:0:0:
460,234,71616,1,0,0:0:0:0:
228,338,71788,2,0,L|111:337,1,110,0|2,0:0|2:0,0:0:0:0:
350,78,72131,2,0,L|233:77,1,110,0|2,0:0|2:0,0:0:0:0:
470,316,72473,2,0,L|478:188,1,110,0|2,0:0|2:0,0:0:0:0:
244,264,72816,5,2,0:0:0:0:
219,251,72858,1,0,0:0:0:0:
203,229,72901,1,0,0:0:0:0:
197,203,72944,1,0,0:0:0:0:
204,176,72987,1,0,2:0:0:0:
221,155,73030,1,0,0:0:0:0:
246,144,73073,1,0,0:0:0:0:
385,144,73159,6,0,L|400:167,1,27.5
329,178,73245,2,0,L|314:201,1,27.5,0|0,2:0|0:0,0:0:0:0:
456,237,73331,2,0,L|489:237,1,27.5,2|0,2:1|0:0,0:0:0:0:
484,237,73417,2,0,L|456:237,1,27.5
318,63,73502,6,0,L|291:63,2,27.5
408,66,73674,2,0,L|435:66,2,27.5,2|0|0,2:1|0:0|0:0,0:0:0:0:
270,198,73845,6,0,L|105:198,1,165,8|0,0:0|0:0,0:0:0:0:
243,286,74188,5,0,0:0:0:0:
380,315,74273,1,0,0:0:0:0:
243,286,74359,1,0,0:0:0:0:
380,315,74444,1,0,0:0:0:0:
212,223,74531,2,0,P|165:192|215:114,1,165,8|0,0:2|0:0,0:0:0:0:
347,68,74873,1,0,0:0:0:0:
114,132,75045,1,0,0:0:0:0:
347,68,75216,2,0,P|394:99|344:177,1,165,8|0,0:2|0:0,0:0:0:0:
211,60,75559,5,0,0:0:0:0:
187,75,75601,1,0,0:0:0:0:
170,96,75644,1,0,0:0:0:0:
161,122,75687,1,0,0:0:0:0:
161,149,75730,1,0,2:0:0:0:
170,175,75773,1,0,0:0:0:0:
188,195,75816,1,0,2:0:0:0:
212,209,75859,1,0,0:0:0:0:
320,24,75901,5,2,2:0:0:0:
336,24,75923,1,0,0:0:0:0:
343,39,75945,1,0,0:0:0:0:
359,39,75965,1,0,0:0:0:0:
364,56,75988,1,0,0:0:0:0:
380,56,76008,1,0,0:0:0:0:
383,76,76031,1,0,0:0:0:0:
399,76,76051,1,0,0:0:0:0:
398,99,76072,1,0,0:0:0:0:
414,99,76095,1,0,0:0:0:0:
410,124,76115,1,0,0:0:0:0:
426,124,76137,1,0,0:0:0:0:
418,150,76158,1,0,0:0:0:0:
434,150,76180,1,0,0:0:0:0:
421,177,76201,1,0,0:0:0:0:
286,200,76245,5,8,1:0:0:0:
270,200,76265,1,0,0:0:0:0:
290,227,76288,1,0,0:0:0:0:
274,227,76308,1,0,0:0:0:0:
299,253,76331,1,0,0:0:0:0:
283,253,76351,1,0,0:0:0:0:
311,278,76372,1,0,0:0:0:0:
295,278,76394,1,0,0:0:0:0:
327,300,76415,1,0,2:0:0:0:
311,300,76437,1,0,0:0:0:0:
346,320,76458,1,0,0:0:0:0:
330,320,76480,1,0,0:0:0:0:
368,337,76501,1,0,2:0:0:0:
352,337,76523,1,0,0:0:0:0:
392,350,76545,1,0,0:0:0:0:
376,350,76566,1,0,0:0:0:0:
411,357,76587,5,2,2:0:0:0:
438,350,76631,1,0,0:0:0:0:
458,332,76672,1,0,2:0:0:0:
470,308,76715,1,0,0:0:0:0:
470,280,76758,1,0,2:0:0:0:
459,255,76801,1,0,0:0:0:0:
439,237,76844,1,0,2:0:0:0:
299,77,76931,5,4,1:0:0:0:
69,164,77102,1,0,0:0:0:0:
299,77,77273,2,0,L|182:77,1,110,0|2,0:0|2:0,0:0:0:0:
421,328,77616,2,0,L|426:203,1,110,0|2,0:0|2:0,0:0:0:0:
193,112,77959,2,0,L|317:112,1,110,0|2,0:0|2:0,0:0:0:0:
71,300,78302,5,2,0:0:0:0:
76,273,78344,1,0,0:0:0:0:
88,248,78387,1,0,0:0:0:0:
106,227,78430,1,0,0:0:0:0:
129,212,78473,1,0,2:0:0:0:
155,204,78516,1,0,0:0:0:0:
182,203,78559,1,0,0:0:0:0:
321,201,78645,6,0,L|336:178,1,27.5
265,167,78731,2,0,L|250:144,1,27.5,0|0,2:0|0:0,0:0:0:0:
392,108,78817,2,0,L|425:108,1,27.5,2|0,2:1|0:0,0:0:0:0:
420,108,78903,2,0,L|392:108,1,27.5
254,51,78988,6,0,L|227:51,2,27.5
344,54,79160,2,0,L|371:54,2,27.5,2|0|0,2:1|0:0|0:0,0:0:0:0:
206,120,79331,6,0,L|33:120,1,165,8|0,0:0|0:0,0:0:0:0:
178,222,79673,5,0,1:0:0:0:
410,302,79845,1,0,0:0:0:0:
178,222,80016,2,0,L|59:222,1,110,0|2,0:0|2:0,0:0:0:0:
300,342,80359,2,0,L|300:230,1,110,0|2,0:0|2:0,0:0:0:0:
68,90,80702,2,0,L|199:90,1,110,0|2,0:0|2:0,0:0:0:0:
410,209,81045,6,0,B|180:209|180:209|394:209,1,433.124986782074,2|0,0:0|0:0,0:0:0:0:
410,209,81388,2,0,B|180:209|180:209|411:209,1,461.999985900879,2|0,0:0|0:0,0:0:0:0:
179,77,81902,1,0,0:0:0:0:
410,209,82073,6,0,B|180:209|180:209|159:170|185:91,1,346.49998942566,8|2,0:0|2:0,0:0:0:0:
322,48,82416,5,4,0:3:0:0:
90,277,82588,1,0,0:0:0:0:
320,80,82759,2,0,L|453:80,1,110,0|2,0:0|2:0,0:0:0:0:
197,331,83102,2,0,L|77:331,1,110,0|2,0:0|2:0,0:0:0:0:
319,133,83445,2,0,L|199:133,1,110,0|2,0:0|2:0,0:0:0:0:
441,84,83788,5,2,0:0:0:0:
436,111,83830,1,0,0:0:0:0:
424,136,83873,1,0,0:0:0:0:
406,157,83916,1,0,0:0:0:0:
383,172,83959,1,0,2:0:0:0:
357,180,84002,1,0,0:0:0:0:
330,181,84045,1,0,0:0:0:0:
191,183,84131,6,0,L|176:206,1,27.5
247,217,84217,2,0,L|262:240,1,27.5,0|0,2:0|0:0,0:0:0:0:
120,276,84303,2,0,L|87:276,1,27.5,2|0,2:1|0:0,0:0:0:0:
92,276,84389,2,0,L|120:276,1,27.5
258,333,84474,6,0,L|285:333,2,27.5
168,330,84646,2,0,L|141:330,2,27.5,2|0|0,2:1|0:0|0:0,0:0:0:0:
306,87,84816,6,0,L|119:87,1,165,8|0,1:0|0:0,0:0:0:0:
307,207,85159,6,0,B|417:207|417:207|306:207,1,220,4|0,0:0|3:0,0:0:0:0:
302,152,85588,1,0,3:0:0:0:
389,145,85673,2,0,L|384:87,1,55,0|0,3:0|3:0,3:0:0:0:
294,90,85845,2,0,L|219:90,1,55,2|0,3:2|3:0,3:0:0:0:
101,158,86016,2,0,L|163:158,1,55,0|0,3:0|3:0,3:0:0:0:
66,153,86188,2,0,L|6:153,1,55,0|0,3:0|3:0,3:0:0:0:
101,158,86359,2,0,L|163:158,1,55,0|0,3:0|3:0,3:0:0:0:
324,251,86531,5,8,0:0:0:0:
170,252,86702,1,0,0:0:0:0:
478,249,86959,1,0,0:0:0:0:
323,250,87131,1,8,0:2:0:0:
459,105,87216,1,0,0:0:0:0:
228,103,87473,1,0,0:0:0:0:
382,104,87645,1,8,0:2:0:0:
244,183,87731,1,8,0:2:0:0:
476,279,87902,5,4,0:0:0:0:
245,253,88073,1,0,0:0:0:0:
476,279,88245,1,8,0:0:0:0:
322,280,88416,1,0,0:0:0:0:
460,65,88502,6,0,L|390:65,1,55
172,111,88759,1,0,0:0:0:0:
326,116,88931,1,8,0:0:0:0:
189,252,89016,2,0,L|115:252,1,55
366,203,89273,5,0,0:0:0:0:
133,170,89445,1,0,0:0:0:0:
366,203,89616,1,8,0:0:0:0:
211,203,89788,1,0,0:0:0:0:
348,323,89873,6,0,L|414:323,1,55
169,70,90131,1,0,0:0:0:0:
322,72,90302,1,8,0:0:0:0:
184,147,90388,1,0,0:0:0:0:
322,72,90473,2,0,L|261:72,1,55
127,217,90645,5,0,0:0:0:0:
358,306,90816,1,0,0:0:0:0:
127,217,90988,1,8,0:0:0:0:
280,217,91159,1,0,0:0:0:0:
142,114,91245,6,0,L|140:59,1,55
372,147,91502,1,0,0:0:0:0:
218,147,91673,1,8,0:0:0:0:
356,258,91759,2,0,L|296:258,1,55
69,290,92016,5,0,0:0:0:0:
302,333,92188,1,0,0:0:0:0:
69,290,92359,1,8,0:0:0:0:
223,287,92531,1,0,0:0:0:0:
86,160,92616,6,0,L|78:100,1,55
219,93,92788,1,8,0:0:0:0:
355,124,92873,1,0,0:0:0:0:
200,128,93045,1,8,0:0:0:0:
338,60,93131,1,0,0:0:0:0:
200,128,93216,1,0,0:0:0:0:
434,302,93388,6,0,L|437:125,1,165,8|0,0:0|0:0,0:0:0:0:
271,110,93731,5,8,0:0:0:0:
117,108,93902,1,0,0:0:0:0:
255,184,93988,2,0,L|316:183,1,55
77,292,94245,1,0,0:0:0:0:
230,292,94416,1,8,0:0:0:0:
92,212,94502,2,0,L|154:212,1,55
379,102,94759,5,0,0:0:0:0:
146,269,94931,1,0,0:0:0:0:
379,102,95102,1,8,0:0:0:0:
225,102,95273,1,0,0:0:0:0:
364,272,95359,6,0,L|370:336,1,55
135,159,95616,1,0,0:0:0:0:
289,154,95788,1,8,0:0:0:0:
151,234,95873,1,0,0:0:0:0:
289,154,95959,1,0,0:0:0:0:
57,321,96131,5,4,0:0:0:0:
287,248,96302,1,0,0:0:0:0:
57,321,96473,6,0,P|174:103|266:322,1,605,8|0,0:0|0:0,0:0:0:0:
126,328,97502,5,12,0:0:0:0:
266,321,97588,1,0,0:0:0:0:
36,135,97759,1,0,0:0:0:0:
190,134,97931,1,8,0:0:0:0:
53,68,98016,5,0,0:0:0:0:
286,202,98188,1,0,0:0:0:0:
132,202,98359,1,8,0:0:0:0:
270,334,98445,5,0,0:0:0:0:
39,231,98616,2,0,P|30:176|52:119,1,110,0|0,0:0|2:0,0:0:0:0:
186,93,98873,5,4,0:0:0:0:
418,216,99045,1,0,0:0:0:0:
186,93,99216,1,8,0:0:0:0:
340,93,99388,1,0,0:0:0:0:
203,250,99473,6,0,L|133:250,1,55
381,341,99731,1,0,0:0:0:0:
227,341,99902,1,8,0:0:0:0:
366,211,99988,2,0,L|302:211,1,55
79,60,100245,5,0,0:0:0:0:
310,252,100416,1,0,0:0:0:0:
79,60,100588,1,8,0:0:0:0:
232,56,100759,1,0,0:0:0:0:
93,209,100845,6,0,L|153:209,1,55
381,150,101102,1,0,0:0:0:0:
227,151,101273,1,8,0:0:0:0:
365,249,101359,1,0,0:0:0:0:
227,151,101445,1,0,0:0:0:0:
380,154,101616,6,0,L|386:-22,1,165,0|0,2:0|0:0,0:0:0:0:
215,47,101959,5,8,0:0:0:0:
369,52,102131,1,0,0:0:0:0:
232,185,102216,2,0,L|166:185,1,55
410,312,102473,1,0,0:0:0:0:
177,285,102645,1,8,0:0:0:0:
316,133,102731,2,0,L|387:133,1,55
139,45,102988,5,0,0:0:0:0:
369,247,103159,1,0,0:0:0:0:
139,45,103331,1,8,0:0:0:0:
292,49,103502,1,0,0:0:0:0:
154,154,103588,6,0,L|152:221,1,55
291,263,103759,1,8,0:0:0:0:
153,322,103845,1,0,0:0:0:0:
306,323,104016,1,8,0:0:0:0:
167,236,104102,1,0,0:0:0:0:
306,323,104188,2,0,L|308:256,1,55,0|8,0:0|0:0,0:0:0:0:
169,148,104359,6,0,L|158:27,1,110,8|0,0:0|0:0,0:0:0:0:
343,148,104702,2,0,L|354:27,1,110,8|0,0:0|0:0,0:0:0:0:
120,292,105045,2,0,L|110:171,1,110,8|0,0:0|0:0,0:0:0:0:
392,292,105388,2,0,L|402:171,1,110,8|0,0:0|0:0,0:0:0:0:
65,350,105731,6,0,L|45:216,1,110,8|0,0:0|0:0,0:0:0:0:
447,350,106073,2,0,L|467:216,1,110,8|0,0:0|0:0,0:0:0:0:
123,338,106416,2,0,L|34:270,1,110,8|0,0:0|0:0,0:0:0:0:
389,338,106759,2,0,L|478:270,1,110,8|0,0:0|0:0,0:0:0:0:
74,230,107102,6,0,L|64:162,1,55,8|0,0:0|0:0,0:0:0:0:
204,111,107273,2,0,L|144:111,1,55
317,111,107445,2,0,L|327:179,1,55,8|0,0:0|0:0,0:0:0:0:
187,230,107616,2,0,L|247:230,1,55
74,230,107788,6,0,L|64:162,1,55,8|0,0:0|0:0,0:0:0:0:
231,145,107959,1,0,0:0:0:0:
93,140,108045,1,0,0:0:0:0:
314,243,108131,2,0,L|324:311,1,55,8|0,0:0|0:0,0:0:0:0:
157,328,108302,1,0,0:0:0:0:
295,333,108388,1,0,0:0:0:0:
34,338,108473,6,0,P|257:49|476:353,1,852.5,2|0,1:2|0:0,0:0:0:0:
256,336,109845,5,4,0:0:0:0:
256,192,110016,12,0,113959,0:0:0:0:
141,238,114579,6,0,P|89:205|160:93,1,220,2|0,0:2|0:0,0:0:0:0:
390,93,115234,2,0,L|159:93,1,220,2|0,0:2|0:0,0:0:0:0:
389,93,115898,6,0,P|441:126|370:238,1,220,2|0,0:2|0:0,0:0:0:0:
153,240,116564,2,0,L|384:240,1,220,2|0,0:2|0:0,0:0:0:0:
109,240,117212,6,0,L|101:14,1,220,2|0,0:2|0:0,0:0:0:0:
365,32,117861,2,0,L|127:32,1,220,2|0,0:2|0:0,0:0:0:0:
408,34,118509,6,0,L|416:260,1,220,2|0,0:2|0:0,0:0:0:0:
152,242,119158,2,0,L|390:242,1,220,2|0,0:2|0:0,0:0:0:0:
107,244,119807,2,0,L|99:18,1,220,2|0,0:2|0:0,0:0:0:0:
369,45,120455,5,2,0:2:0:0:
500,46,120612,1,0,0:0:0:0:
345,45,120770,1,0,0:0:0:0:
476,46,120927,1,0,0:0:0:0:
320,45,121086,1,2,0:2:0:0:
451,46,121243,1,0,0:0:0:0:
296,45,121401,1,0,0:0:0:0:
427,46,121560,1,0,0:0:0:0:
143,339,121718,5,2,0:2:0:0:
12,338,121875,1,0,0:0:0:0:
167,339,122033,1,0,0:0:0:0:
36,338,122190,1,0,0:0:0:0:
192,339,122349,1,2,0:2:0:0:
61,338,122506,1,0,0:0:0:0:
216,339,122664,1,0,0:0:0:0:
85,338,122823,1,0,0:0:0:0:
369,339,122981,5,2,0:2:0:0:
500,338,123138,1,0,0:0:0:0:
345,339,123296,1,0,0:0:0:0:
476,338,123455,1,0,0:0:0:0:
243,88,123612,1,2,0:2:0:0:
374,87,123769,1,0,0:0:0:0:
219,88,123927,1,0,0:0:0:0:
350,87,124086,1,0,0:0:0:0:
190,84,124244,5,2,0:2:0:0:
59,83,124398,1,0,0:0:0:0:
214,84,124553,1,0,0:0:0:0:
83,83,124707,1,0,0:0:0:0:
315,237,124862,1,2,0:2:0:0:
184,236,125017,1,0,0:0:0:0:
339,237,125171,1,0,0:0:0:0:
208,236,125326,1,0,0:0:0:0:
476,318,125481,6,0,L|470:261,1,55,2|0,0:2|0:0,0:0:0:0:
333,336,125635,2,0,L|327:279,1,55
186,287,125790,2,0,L|180:230,1,55
43,305,125944,2,0,L|37:248,1,55,0|2,0:0|0:2,0:0:0:0:
329,269,126099,6,0,L|323:212,1,55,2|0,0:2|0:0,0:0:0:0:
186,287,126253,2,0,L|180:230,1,55
39,238,126408,2,0,L|33:181,1,55
180,232,126563,2,0,L|186:175,1,55,0|2,0:0|0:2,0:0:0:0:
36,66,126718,6,0,L|42:123,1,55,2|0,0:2|0:0,0:0:0:0:
179,48,126872,2,0,L|185:105,1,55
326,97,127027,2,0,L|332:154,1,55
469,79,127181,2,0,L|475:136,1,55,0|2,0:0|0:2,0:0:0:0:
183,115,127336,6,0,L|189:172,1,55,2|0,0:2|0:0,0:0:0:0:
326,97,127490,2,0,L|332:154,1,55
473,146,127645,2,0,L|479:203,1,55
332,152,127800,2,0,L|326:209,1,55,0|2,0:0|0:2,0:0:0:0:
159,253,127955,6,0,L|125:252,2,27.5,2|0|0,0:2|0:0|0:0,0:0:0:0:
256,259,128071,1,0,0:0:0:0:
353,253,128109,2,0,L|387:252,2,27.5
256,259,128225,1,0,0:0:0:0:
131,252,128264,6,0,L|97:251,2,27.5
256,259,128380,1,0,0:0:0:0:
381,252,128419,2,0,L|415:251,2,27.5,0|0|2,0:0|0:0|0:2,0:0:0:0:
256,259,128535,1,0,0:0:0:0:
103,251,128573,6,0,L|69:250,2,27.5,2|0|0,0:2|0:0|0:0,0:0:0:0:
256,259,128689,1,0,0:0:0:0:
409,251,128728,2,0,L|443:250,2,27.5
256,259,128844,1,0,0:0:0:0:
75,250,128883,6,0,L|41:249,2,27.5
256,259,128999,1,0,0:0:0:0:
437,250,129037,2,0,L|471:249,2,27.5,0|0|2,0:0|0:0|0:2,0:0:0:0:
289,254,129154,1,0,0:0:0:0:
143,192,129192,6,0,B|33:192|33:192|33:82|33:82|198:82|198:82|34:85|34:85|34:366,1,825,2|0,1:2|0:0,0:0:0:0:
231,288,130374,6,0,L|308:288,1,65.9999979858399,6|0,0:0|0:0,0:0:0:0:
217,288,130524,2,0,L|142:288,1,65.9999979858399,2|0,0:2|0:0,0:0:0:0:
316,188,130674,2,0,L|321:112,1,65.9999979858399,2|0,0:2|0:0,0:0:0:0:
154,102,130824,2,0,L|226:102,1,65.9999979858399,2|0,0:2|0:0,0:0:0:0:
299,102,130974,6,0,L|227:102,1,65.9999979858399,2|0,0:2|0:0,0:0:0:0:
68,320,131124,2,0,L|63:244,1,65.9999979858399,2|0,0:2|0:0,0:0:0:0:
229,239,131274,2,0,L|306:239,1,65.9999979858399,2|0,0:2|0:0,0:0:0:0:
215,239,131424,2,0,L|140:239,1,65.9999979858399,2|0,0:2|0:0,0:0:0:0:
314,169,131574,6,0,L|391:167,3,65.9999979858399,2|0|2|0,0:2|0:0|0:2|0:0,0:0:0:0:
215,320,131874,2,0,L|138:318,3,65.9999979858399,2|0|2|0,0:2|0:0|0:2|0:0,0:0:0:0:
314,169,132174,6,0,L|391:167,1,65.9999979858399,2|0,0:2|0:0,0:0:0:0:
215,247,132324,2,0,L|292:245,1,65.9999979858399,2|0,0:2|0:0,0:0:0:0:
116,209,132474,2,0,P|43:184|118:165,1,197.99999395752,8|0,0:0|2:0,0:0:0:0:
311,262,132774,5,4,0:0:0:0:
47,323,132924,2,0,P|18:258|65:137,1,197.99999395752,2|0,0:2|0:0,0:0:0:0:
192,136,133224,2,0,L|268:136,1,65.9999979858399,2|0,0:2|0:0,0:0:0:0:
126,312,133374,1,2,0:2:0:0:
364,154,133524,6,0,L|284:154,1,65.9999979858399
166,237,133674,2,0,L|246:237,1,65.9999979858399,2|0,0:2|0:0,0:0:0:0:
364,154,133824,1,2,0:2:0:0:
100,71,133974,6,0,L|180:71,1,65.9999979858399
298,154,134124,2,0,L|218:154,1,65.9999979858399,2|0,0:2|0:0,0:0:0:0:
100,71,134274,1,2,0:2:0:0:
364,154,134424,6,0,L|284:154,1,65.9999979858399
166,237,134574,2,0,L|246:237,1,65.9999979858399,2|0,0:2|0:0,0:0:0:0:
364,154,134724,1,2,0:2:0:0:
100,337,134874,6,0,L|309:337,1,197.99999395752,2|0,0:2|0:0,0:0:0:0:
166,136,135174,5,0,0:0:0:0:
430,46,135324,2,0,P|459:111|412:232,1,197.99999395752,2|0,0:2|0:0,0:0:0:0:
287,231,135624,2,0,L|209:231,2,65.9999979858399,2|0|2,0:2|0:0|0:2,0:0:0:0:
50,262,135924,6,0,L|44:187,1,65.9999979858399
124,185,136074,2,0,L|118:110,1,65.9999979858399,2|0,0:2|0:0,0:0:0:0:
39,121,136224,1,2,0:2:0:0:
435,161,136374,6,0,L|441:236,1,65.9999979858399
361,238,136524,2,0,L|367:313,1,65.9999979858399,2|0,0:2|0:0,0:0:0:0:
446,298,136674,1,2,0:2:0:0:
50,237,136824,6,0,L|134:237,2,65.9999979858399,0|0|2,0:0|0:0|0:2,0:0:0:0:
462,237,137274,1,2,0:2:0:0:
50,237,137574,5,4,0:3:0:0:
314,331,137724,2,0,P|236:325|184:209,1,197.99999395752,2|0,0:2|0:0,0:0:0:0:
315,168,138024,2,0,L|241:168,1,65.9999979858399,2|0,0:2|0:0,0:0:0:0:
117,164,138174,1,2,0:2:0:0:
381,260,138324,6,0,L|451:260,1,65.9999979858399
314,215,138474,2,0,L|243:215,1,65.9999979858399,2|0,0:2|0:0,0:0:0:0:
381,260,138624,1,2,0:2:0:0:
117,97,138774,6,0,L|47:97,1,65.9999979858399,0|0,0:2|0:0,0:0:0:0:
184,52,138924,2,0,L|255:52,1,65.9999979858399,2|0,0:2|0:0,0:0:0:0:
117,97,139074,1,2,0:2:0:0:
381,260,139224,6,0,L|451:260,1,65.9999979858399,0|0,0:2|0:0,0:0:0:0:
314,215,139374,2,0,L|243:215,1,65.9999979858399,2|0,0:2|0:0,0:0:0:0:
381,260,139524,1,2,0:2:0:0:
117,325,139674,6,0,P|50:308|129:266,1,197.99999395752,4|0,0:3|0:0,0:0:0:0:
319,317,139974,5,4,0:0:0:0:
350,307,140011,1,0,0:0:0:0:
374,286,140049,1,0,0:0:0:0:
387,255,140086,1,0,0:0:0:0:
386,223,140124,1,0,0:0:0:0:
372,194,140161,1,0,0:0:0:0:
346,173,140199,1,0,0:0:0:0:
314,166,140236,1,0,0:0:0:0:
173,373,140274,5,0,0:0:0:0:
160,373,140292,1,0,0:0:0:0:
148,360,140311,1,0,0:0:0:0:
135,360,140329,1,0,0:0:0:0:
126,344,140349,1,0,0:0:0:0:
113,344,140367,1,0,0:0:0:0:
106,324,140386,1,0,0:0:0:0:
93,324,140404,1,0,0:0:0:0:
90,302,140424,1,0,0:0:0:0:
77,302,140442,1,0,0:0:0:0:
78,278,140461,1,0,0:0:0:0:
65,278,140479,1,0,0:0:0:0:
70,251,140499,1,0,0:0:0:0:
57,251,140517,1,0,0:0:0:0:
66,224,140536,1,0,0:0:0:0:
53,224,140554,1,0,0:0:0:0:
53,199,140574,5,0,0:0:0:0:
66,199,140592,1,0,0:0:0:0:
57,172,140611,1,0,0:0:0:0:
70,172,140629,1,0,0:0:0:0:
65,145,140649,1,0,0:0:0:0:
78,145,140667,1,0,0:0:0:0:
77,121,140686,1,0,0:0:0:0:
90,121,140704,1,0,0:0:0:0:
93,99,140724,1,0,0:0:0:0:
106,99,140742,1,0,0:0:0:0:
113,79,140761,1,0,0:0:0:0:
126,79,140779,1,0,0:0:0:0:
135,63,140799,1,0,0:0:0:0:
148,63,140817,1,0,0:0:0:0:
160,50,140836,1,0,0:0:0:0:
173,50,140854,1,0,0:0:0:0:
190,49,140874,5,0,2:0:0:0:
216,52,140911,1,0,0:0:0:0:
237,70,140949,1,0,0:0:0:0:
245,96,140986,1,0,0:0:0:0:
237,122,141024,1,0,0:0:0:0:
216,140,141061,1,0,0:0:0:0:
190,143,141099,1,0,0:0:0:0:
58,372,141174,5,8,0:2:0:0:
322,227,141324,6,0,L|399:227,1,65.9999979858399
256,346,141474,2,0,L|181:346,1,65.9999979858399
322,227,141624,1,8,0:2:0:0:
84,72,141774,6,0,L|164:72,1,65.9999979858399
282,165,141924,2,0,L|202:165,1,65.9999979858399
84,72,142074,2,0,L|288:72,1,197.99999395752,8|0,0:2|0:0,0:0:0:0:
150,315,142374,5,4,0:0:0:0:
414,334,142524,2,0,P|400:266|285:205,1,197.99999395752
161,159,142824,2,0,L|152:88,1,65.9999979858399,2|0,0:2|0:0,0:0:0:0:
285,155,142974,1,2,0:2:0:0:
47,265,143124,6,0,L|126:264,1,65.9999979858399
247,333,143274,2,0,L|168:332,1,65.9999979858399,2|0,0:2|0:0,0:0:0:0:
47,265,143424,1,2,0:2:0:0:
284,85,143574,6,0,L|205:84,1,65.9999979858399
84,153,143724,2,0,L|163:152,1,65.9999979858399,2|0,0:2|0:0,0:0:0:0:
284,85,143874,1,2,0:2:0:0:
47,265,144024,6,0,L|126:264,1,65.9999979858399
247,333,144174,2,0,L|168:332,1,65.9999979858399,2|0,0:2|0:0,0:0:0:0:
47,265,144324,1,2,0:2:0:0:
284,85,144474,6,0,L|490:85,1,197.99999395752,2|0,0:2|0:0,0:0:0:0:
350,211,144774,5,0,0:0:0:0:
86,311,144924,2,0,P|35:265|95:165,1,197.99999395752
222,157,145224,2,0,L|302:157,2,65.9999979858399,2|0|2,0:2|0:0|0:2,0:0:0:0:
460,263,145524,6,0,L|389:263,1,65.9999979858399
314,262,145674,2,0,L|385:262,1,65.9999979858399,2|0,0:2|0:0,0:0:0:0:
460,263,145824,1,2,0:2:0:0:
196,215,145974,6,0,L|123:215,1,65.9999979858399
209,213,146124,2,0,L|280:213,1,65.9999979858399,2|0,0:2|0:0,0:0:0:0:
196,215,146274,1,2,0:2:0:0:
434,99,146424,6,0,L|500:99,2,65.9999979858399,0|0|2,0:0|0:0|0:2,0:0:0:0:
78,99,146874,1,2,0:2:0:0:
434,99,147174,6,0,P|429:184|184:368,1,395.999987915039,4|2,0:3|0:2,0:0:0:0:
144,346,147699,1,2,0:2:0:0:
105,294,147774,1,2,0:2:0:0:
102,229,147849,1,0,0:0:0:0:
136,173,147924,1,2,0:2:0:0:
194,145,147999,1,2,0:2:0:0:
273,143,148074,2,0,L|345:143,3,65.9999979858399,2|0|0|0,0:2|0:0|0:0|0:0,0:0:0:0:
207,80,148374,6,0,L|132:81,1,65.9999979858399
305,80,148524,2,0,L|380:81,1,65.9999979858399,2|0,0:2|0:0,0:0:0:0:
141,80,148674,1,2,0:2:0:0:
386,296,148824,6,0,L|321:297,1,65.9999979858399
157,296,148974,2,0,L|223:297,1,65.9999979858399,2|0,0:2|0:0,0:0:0:0:
387,297,149124,1,2,0:2:0:0:
157,296,149274,5,0,0:0:0:0:
25,298,149424,1,0,0:0:0:0:
183,297,149574,1,0,0:0:0:0:
25,298,149724,1,0,0:0:0:0:
250,298,149874,1,0,0:0:0:0:
25,298,150024,1,0,0:0:0:0:
316,292,150174,6,0,L|243:291,1,65.9999979858399
25,298,150324,1,0,0:0:0:0:
369,287,150474,2,0,L|434:281,1,65.9999979858399,2|0,0:2|0:0,0:0:0:0:
96,217,150624,2,0,L|20:216,1,65.9999979858399
413,283,150774,5,8,0:0:0:0:
207,315,151974,5,6,0:0:0:0:
471,156,152124,1,2,0:2:0:0:
74,160,152424,2,0,L|153:160,2,65.9999979858399,2|0|0,0:2|0:0|0:0,0:0:0:0:
312,256,152724,6,0,L|222:256,1,65.9999979858399,2|0,0:2|0:0,0:0:0:0:
378,315,152874,2,0,L|382:243,1,65.9999979858399,2|0,0:2|0:0,0:0:0:0:
247,173,153024,1,0,0:0:0:0:
485,51,153174,6,0,L|411:51,1,65.9999979858399,2|0,0:2|0:0,0:0:0:0:
287,106,153324,2,0,L|221:106,1,65.9999979858399,2|0,0:2|0:0,0:0:0:0:
353,219,153474,1,2,0:2:0:0:
116,339,153624,6,0,L|191:339,1,65.9999979858399
50,333,153774,2,0,L|45:254,1,65.9999979858399
180,193,153924,1,0,0:0:0:0:
444,315,154074,6,0,P|485:243|424:147,1,197.99999395752,2|0,0:1|0:0,0:0:0:0:
299,312,154374,5,2,0:0:0:0:
35,153,154524,1,2,0:2:0:0:
432,157,154824,2,0,L|353:157,2,65.9999979858399,2|0|0,0:2|0:0|0:0,0:0:0:0:
168,193,155124,6,0,L|250:192,1,65.9999979858399,2|0,0:2|0:0,0:0:0:0:
368,283,155274,2,0,L|286:282,1,65.9999979858399,2|0,0:2|0:0,0:0:0:0:
168,193,155424,1,0,0:0:0:0:
433,47,155574,6,0,L|351:47,1,65.9999979858399,2|0,0:2|0:0,0:0:0:0:
235,79,155724,2,0,L|153:79,1,65.9999979858399,2|0,0:2|0:0,0:0:0:0:
301,209,155874,1,2,0:2:0:0:
38,291,156024,6,0,L|120:292,1,65.9999979858399,2|0,0:2|0:0,0:0:0:0:
238,201,156174,2,0,L|156:202,1,65.9999979858399,2|0,0:2|0:0,0:0:0:0:
38,291,156324,1,2,2:0:0:0:
303,327,156474,6,0,L|504:327,1,197.99999395752,2|2,0:1|0:2,0:0:0:0:
368,92,156774,5,2,0:0:0:0:
104,204,156924,1,2,0:2:0:0:
481,222,157224,2,0,L|393:223,1,65.9999979858399,2|0,0:2|0:0,0:0:0:0:
281,251,157374,1,0,0:0:0:0:
44,186,157524,6,0,L|122:186,1,65.9999979858399,2|0,0:2|0:0,0:0:0:0:
242,159,157674,2,0,L|324:159,1,65.9999979858399,2|0,0:2|0:0,0:0:0:0:
176,80,157824,1,0,0:0:0:0:
440,132,157974,6,0,L|362:132,1,65.9999979858399,2|0,0:2|0:0,0:0:0:0:
242,159,158124,2,0,L|160:159,1,65.9999979858399,2|0,0:2|0:0,0:0:0:0:
308,238,158274,1,2,0:2:0:0:
70,339,158424,6,0,L|61:268,1,65.9999979858399
194,361,158574,2,0,L|126:361,1,65.9999979858399
260,268,158724,1,2,0:2:0:0:
23,243,158874,6,0,P|40:173|161:122,1,197.99999395752,2|0,0:2|2:0,0:0:0:0:
345,91,159174,6,0,P|427:114|328:268,1,329.9999899292,4|0,0:3|0:0,0:0:0:0:
142,260,159624,2,0,L|429:252,1,263.99999194336,4|0,0:3|2:0,0:0:0:0:
487,148,160074,2,0,L|405:252,1,131.99999597168,0|0,0:0|2:0,0:0:0:0:
168,137,160374,6,0,L|88:137,1,65.9999979858399,8|0,0:2|0:0,0:0:0:0:
234,191,160524,2,0,L|234:265,1,65.9999979858399
399,187,160674,2,0,L|479:187,1,65.9999979858399,8|0,0:2|0:0,0:0:0:0:
333,241,160824,2,0,L|333:315,1,65.9999979858399,2|0,0:2|0:0,0:0:0:0:
168,137,160974,6,0,L|88:137,1,65.9999979858399,8|0,0:2|0:0,0:0:0:0:
234,191,161124,2,0,L|234:265,1,65.9999979858399
399,187,161274,2,0,P|461:150|391:159,1,197.99999395752,8|0,0:0|2:0,0:0:0:0:
226,108,161574,5,6,0:0:0:0:
463,301,161724,2,0,L|252:301,1,197.99999395752,2|2,0:2|2:2,0:0:0:0:
398,90,162024,2,0,L|468:90,2,65.9999979858399,2|0|0,0:2|0:0|0:0,0:0:0:0:
160,88,162324,6,0,L|151:172,1,65.9999979858399,2|0,0:2|0:0,0:0:0:0:
287,269,162474,2,0,L|296:353,1,65.9999979858399,2|0,0:2|0:0,0:0:0:0:
428,341,162624,1,0,0:0:0:0:
191,171,162774,6,0,L|120:171,1,65.9999979858399,2|0,0:2|0:0,0:0:0:0:
258,89,162924,2,0,L|326:89,1,65.9999979858399,2|0,0:2|0:0,0:0:0:0:
191,171,163074,1,2,0:2:0:0:
428,268,163224,6,0,L|354:268,1,65.9999979858399
229,231,163374,2,0,L|303:231,1,65.9999979858399
161,300,163524,1,0,0:0:0:0:
400,338,163674,6,0,P|465:304|386:246,1,197.99999395752,2|0,0:1|0:0,0:2:0:0:
264,150,163974,5,2,0:0:0:0:
26,152,164124,2,0,L|236:152,1,197.99999395752,2|2,0:2|2:0,0:0:0:0:
92,66,164424,2,0,L|19:66,2,65.9999979858399,2|0|0,0:2|0:0|0:0,0:0:0:0:
331,114,164724,6,0,L|257:114,1,65.9999979858399
397,253,164874,2,0,L|327:253,1,65.9999979858399
199,217,165024,1,0,0:0:0:0:
437,339,165174,6,2,L|366:339,1,65.9999979858399,2|2,0:1|0:2,0:2:0:0:
239,336,165324,2,0,L|172:336,1,65.9999979858399,2|0,0:2|0:0,0:0:0:0:
305,167,165474,1,2,0:1:0:0:
65,104,165624,6,0,L|139:104,1,65.9999979858399
266,96,165774,2,0,P|343:123|262:162,1,197.99999395752
140,184,166074,2,0,P|63:211|144:250,1,197.99999395752,2|0,0:1|0:0,0:0:0:0:
266,96,166374,6,0,P|343:123|262:162,1,197.99999395752,6|0,0:0|0:0,0:0:0:0:
77,283,166674,1,2,0:2:0:0:
64,125,166824,1,0,0:0:0:0:
222,122,166974,1,2,0:2:0:0:
235,280,167124,1,0,0:0:0:0:
393,279,167274,1,2,0:2:0:0:
380,121,167424,1,0,0:0:0:0:
141,213,167574,5,2,0:2:0:0:
273,126,167724,1,0,0:0:0:0:
115,143,167874,1,2,0:2:0:0:
273,146,168024,1,0,0:0:0:0:
35,104,168174,1,2,0:2:0:0:
297,111,168324,1,0,0:0:0:0:
35,104,168474,1,2,0:2:0:0:
330,113,168624,1,0,0:0:0:0:
36,219,168774,6,0,L|108:219,1,65.9999979858399,2|0,0:2|0:0,0:0:0:0:
228,216,168924,2,0,L|306:217,1,65.9999979858399
476,219,169074,2,0,L|404:219,1,65.9999979858399,2|0,0:2|0:0,0:0:0:0:
284,216,169224,2,0,L|206:217,1,65.9999979858399,2|0,0:2|0:0,0:0:0:0:
408,107,169374,6,0,L|502:108,1,65.9999979858399,2|0,0:2|0:0,0:0:0:0:
200,69,169524,2,0,L|106:70,1,65.9999979858399,2|0,0:2|0:0,0:0:0:0:
417,158,169674,2,0,L|511:159,1,65.9999979858399,2|0,0:2|0:0,0:0:0:0:
158,116,169824,2,0,L|64:117,1,65.9999979858399,2|0,0:2|0:0,0:0:0:0:
414,206,169974,6,0,L|276:207,1,131.99999597168,4|8,0:3|0:2,0:0:0:0:
144,247,170199,2,0,L|356:248,1,197.99999395752,4|4,0:3|0:3,0:0:0:0:
34,174,170574,6,0,L|172:173,1,131.99999597168,4|8,0:3|0:2,0:0:0:0:
304,133,170799,2,0,L|126:133,1,131.99999597168,4|8,0:3|0:2,0:0:0:0:
344,197,171024,2,0,L|425:197,1,65.9999979858399,0|8,0:0|0:2,0:0:0:0:
198,85,171174,5,4,0:0:0:0:
256,192,171316,12,0,174021,0:0:0:0:
373,70,175730,5,8,0:0:0:0:
46,257,180774,5,8,0:0:0:0:
422,308,181074,6,0,L|430:187,1,110,4|0,0:0|0:0,0:0:0:0:
276,184,181392,2,0,L|268:63,1,110
115,81,181714,2,0,L|123:202,1,110,2|0,0:2|0:0,0:0:0:0:
276,193,182037,2,0,L|284:314,1,110
53,295,182359,6,0,L|49:171,1,110,2|0,0:2|0:0,0:0:0:0:
202,177,182681,2,0,L|332:176,1,110
157,176,183004,2,0,L|153:295,1,110,2|0,0:2|0:0,0:0:0:0:
307,283,183326,2,0,L|174:282,1,110
429,274,183649,6,0,L|313:275,1,110,2|0,0:2|0:0,0:0:0:0:
473,273,183975,2,0,L|476:157,1,110
320,169,184305,2,0,L|311:51,1,110,2|0,0:2|0:0,0:0:0:0:
466,57,184635,2,0,L|346:57,1,110
124,195,184964,6,0,L|235:195,1,110,2|0,0:2|0:0,0:0:0:0:
79,196,185293,2,0,L|193:195,1,110
422,280,185623,2,0,L|493:280,3,55,2|0|0|0,0:2|0:0|0:0|0:0,0:0:0:0:
338,191,185953,2,0,L|267:191,3,55,0|0|0|2,0:0|0:0|0:0|0:2,0:0:0:0:
422,67,186283,6,0,L|305:67,1,110,12|0,0:0|0:0,0:0:0:0:
79,263,186614,2,0,L|196:263,1,110,8|0,0:2|0:0,0:0:0:0:
420,305,186945,2,0,L|474:200,1,110,8|0,0:2|0:0,0:0:0:0:
236,9,187277,2,0,L|355:9,1,110,8|0,0:2|0:0,0:0:0:0:
117,344,187608,6,0,L|63:239,1,110,8|0,0:2|0:0,0:0:0:0:
301,129,187943,2,0,L|187:129,1,110,8|0,0:2|0:0,0:0:0:0:
423,278,188278,1,8,0:2:0:0:
269,280,188445,1,0,0:0:0:0:
37,273,188613,1,8,0:2:0:0:
269,206,188781,1,0,0:0:0:0:
37,273,188946,6,0,L|33:212,1,55,12|0,0:0|0:0,0:0:0:0:
110,214,189125,2,0,L|114:151,1,55
36,163,189298,2,0,L|35:106,1,55,8|0,0:2|0:0,0:0:0:0:
123,107,189471,2,0,L|128:42,1,55
54,50,189627,6,0,L|41:117,1,55,8|0,0:2|0:0,0:0:0:0:
181,142,189797,2,0,L|203:74,1,55
45,71,189967,2,0,L|32:134,1,55,8|0,0:2|0:0,0:0:0:0:
224,172,190138,2,0,L|280:179,1,55
53,338,190308,6,0,L|48:271,1,55,8|0,0:2|0:0,0:0:0:0:
189,229,190479,2,0,L|122:229,1,55
299,190,190649,2,0,L|304:123,1,55,8|0,0:2|0:0,0:0:0:0:
163,81,190820,2,0,L|230:81,1,55
80,192,190990,6,0,L|19:192,1,55,8|0,0:2|0:0,0:0:0:0:
192,261,191161,2,0,L|131:261,1,55
324,253,191331,2,0,L|385:253,1,55,8|0,0:2|0:0,0:0:0:0:
240,321,191502,2,0,L|301:321,1,55
158,143,191672,6,0,B|48:143|48:143|48:33|48:33|213:33|213:33|49:36|49:36|49:123,1,632.5,2|0,1:2|0:0,0:0:0:0:
270,297,192695,6,0,P|321:261|266:195,1,165,8|0,0:1|0:0,0:0:0:0:
109,187,193050,6,0,L|27:187,3,60.5000018463135,14|0|0|0,0:0|0:0|0:0|0:0,0:0:0:0:
199,118,193392,2,0,L|387:118,1,181.500005538941,2|0,0:0|2:0,0:0:0:0:
229,260,193735,6,0,L|102:260,1,121.000003692627,2|0,0:0|2:0,0:0:0:0:
339,306,194078,2,0,P|385:261|332:171,1,181.500005538941,2|0,0:0|2:0,0:0:0:0:
182,173,194421,6,0,L|308:173,1,121.000003692627,2|0,0:0|2:0,0:0:0:0:
72,107,194764,2,0,L|258:107,1,181.500005538941,2|0,0:0|2:0,0:0:0:0:
102,225,195107,6,0,L|96:361,1,121.000003692627,2|0,0:0|2:0,0:0:0:0:
327,261,195450,2,0,L|138:261,1,181.500005538941,2|0,0:0|2:0,0:0:0:0:
296,168,195792,6,0,L|418:168,1,121.000003692627,2|0,0:0|2:0,0:0:0:0:
188,230,196135,2,0,P|200:169|311:120,1,181.500005538941,2|0,0:0|2:0,0:0:0:0:
451,113,196478,6,0,L|326:112,1,121.000003692627,2|0,0:0|2:0,0:0:0:0:
99,306,196821,2,0,P|42:272|109:205,1,181.500005538941,2|0,0:0|2:0,0:0:0:0:
253,165,197164,6,0,L|126:165,1,121.000003692627,2|0,0:0|2:2,0:0:0:0:
363,97,197507,2,0,P|426:122|365:186,1,181.500005538941,2|0,0:0|2:0,0:0:0:0:
194,246,197850,6,0,L|68:247,1,121.000003692627,2|2,0:0|0:2,0:0:0:0:
225,157,198107,2,0,L|104:156,1,121.000003692627,2|2,0:0|0:2,0:0:0:0:
256,93,198364,2,0,L|190:92,1,60.5000018463135,2|0,0:0|0:0,0:0:0:0:
348,151,198535,6,0,L|409:151,3,60.5000018463135,2|0|0|0,0:0|0:0|0:0|0:0,0:0:0:0:
257,237,198878,2,0,P|178:245|139:344,1,181.500005538941,2|0,0:0|2:0,0:0:0:0:
290,323,199221,6,0,L|414:323,1,121.000003692627,2|0,0:0|2:0,0:0:0:0:
180,273,199564,2,0,P|118:266|61:157,1,181.500005538941,2|0,0:0|2:0,0:0:0:0:
211,61,199907,6,0,L|87:61,1,121.000003692627,2|0,0:0|2:0,0:0:0:0:
321,111,200250,2,0,P|383:118|440:227,1,181.500005538941,2|0,0:0|2:0,0:0:0:0:
291,286,200592,6,0,L|168:286,1,121.000003692627,2|0,0:0|2:0,0:0:0:0:
401,339,200935,2,0,L|215:338,1,181.500005538941,2|0,0:0|2:0,0:0:0:0:
68,205,201278,6,0,P|59:144|68:79,1,121.000003692627,2|0,0:0|0:0,0:0:0:0:
189,81,201507,1,0,0:0:0:0:
311,88,201564,1,0,0:0:0:0:
432,132,201621,6,0,P|441:193|432:258,1,121.000003692627,2|0,0:0|0:0,0:0:0:0:
311,256,201850,1,0,0:0:0:0:
189,249,201907,1,0,0:0:0:0:
68,205,201964,6,0,P|59:144|68:79,1,121.000003692627,2|0,0:0|0:0,0:0:0:0:
146,86,202192,1,0,0:0:0:0:
227,87,202250,1,0,0:0:0:0:
311,88,202307,6,0,P|320:149|311:214,1,121.000003692627,2|0,0:0|0:0,0:0:0:0:
232,208,202535,1,0,0:0:0:0:
150,208,202593,1,0,0:0:0:0:
68,205,202650,6,0,P|59:144|68:79,1,121.000003692627,2|0,0:0|0:0,0:0:0:0:
126,84,202878,1,0,0:0:0:0:
186,85,202935,1,0,0:0:0:0:
246,88,202992,6,0,P|255:149|246:214,1,121.000003692627,2|0,0:0|0:0,0:0:0:0:
188,209,203220,1,0,0:0:0:0:
128,208,203277,1,0,0:0:0:0:
68,205,203335,6,0,P|29:108|67:-26,1,242.000007385254,2|0,0:0|1:0,0:0:0:0:
64,65,203764,2,0,L|56:128,2,60.5000018463135,0|0|2,0:0|0:0|0:2,0:0:0:0:
252,109,204021,6,0,L|322:109,3,60.5000018463135,6|0|0|0,0:0|0:0|0:0|0:0,0:0:0:0:
161,283,204364,1,2,0:0:0:0:
116,245,204449,1,0,0:0:0:0:
117,186,204535,1,0,0:0:0:0:
164,151,204621,1,0,2:0:0:0:
316,155,204707,6,0,L|324:221,1,60.5000018463135,2|0,0:0|0:0,0:0:0:0:
238,222,204878,2,0,L|233:289,1,60.5000018463135,0|0,2:0|0:0,0:0:0:0:
387,325,205050,2,0,L|458:325,1,60.5000018463135,2|0,0:0|0:0,0:0:0:0:
362,324,205221,2,0,L|297:324,1,60.5000018463135,0|0,0:0|2:0,0:0:0:0:
150,320,205392,6,0,L|146:253,1,60.5000018463135,2|0,0:0|0:0,0:0:0:0:
232,258,205564,2,0,L|299:259,1,60.5000018463135,0|0,2:0|0:0,0:0:0:0:
140,177,205735,2,0,L|136:110,1,60.5000018463135,2|0,0:0|0:0,0:0:0:0:
222,115,205907,2,0,L|289:116,1,60.5000018463135,0|0,2:0|2:0,0:0:0:0:
130,303,206078,6,0,L|126:236,1,60.5000018463135,2|0,0:0|0:0,0:0:0:0:
212,241,206250,2,0,L|279:242,1,60.5000018463135,0|0,2:0|0:0,0:0:0:0:
425,249,206421,2,0,L|429:182,1,60.5000018463135,2|0,0:0|0:0,0:0:0:0:
343,187,206593,2,0,L|276:188,1,60.5000018463135,0|0,2:0|2:0,0:0:0:0:
434,103,206764,6,0,L|371:103,1,60.5000018463135,2|0,0:0|2:0,0:0:0:0:
288,103,206935,2,0,L|210:102,1,60.5000018463135,0|0,2:0|2:0,0:0:0:0:
382,237,207107,2,0,L|445:240,1,60.5000018463135,2|0,0:0|2:0,0:0:0:0:
442,324,207278,2,0,L|379:327,1,60.5000018463135,0|0,2:0|2:0,0:0:0:0:
228,293,207450,6,0,L|291:293,1,60.5000018463135,2|0,0:0|2:0,0:0:0:0:
374,293,207621,2,0,L|452:294,1,60.5000018463135,0|0,2:0|2:0,0:0:0:0:
280,159,207793,2,0,L|217:156,1,60.5000018463135,2|0,0:0|2:0,0:0:0:0:
220,72,207964,2,0,L|283:69,1,60.5000018463135,0|0,2:0|2:0,0:0:0:0:
128,170,208135,6,0,L|121:106,1,60.5000018463135,2|0,0:0|2:0,0:0:0:0:
207,110,208307,2,0,L|211:40,1,60.5000018463135,0|0,2:0|2:0,0:0:0:0:
57,94,208478,2,0,L|131:94,1,60.5000018463135,2|0,0:0|2:0,0:0:0:0:
203,99,208650,2,0,L|123:99,1,60.5000018463135,0|0,2:0|2:0,0:0:0:0:
295,157,208821,6,0,L|357:157,1,60.5000018463135,2|0,0:0|2:0,0:0:0:0:
204,280,208992,1,2,2:2:0:0:
355,157,209078,2,0,L|417:157,1,60.5000018463135,2|0,2:1|0:0,0:0:0:0:
264,280,209249,1,2,2:2:0:0:
415,157,209335,2,0,L|477:157,1,60.5000018463135,2|0,2:1|2:0,0:0:0:0:
321,62,209507,6,0,L|253:62,3,60.5000018463135,6|0|0|0,0:0|0:0|0:0|0:0,0:0:0:0:
464,83,209850,2,0,L|474:150,1,60.5000018463135,6|0,0:2|0:0,0:0:0:0:
288,194,210021,2,0,L|217:194,1,60.5000018463135,2|0,0:2|0:0,0:0:0:0:
48,83,210192,6,0,L|38:150,1,60.5000018463135,6|0,0:2|0:0,0:0:0:0:
224,194,210364,2,0,L|295:194,1,60.5000018463135,2|0,0:2|0:0,0:0:0:0:
464,83,210535,2,0,L|474:150,1,60.5000018463135,6|0,0:2|0:0,0:0:0:0:
288,194,210706,2,0,L|217:194,1,60.5000018463135,2|0,0:2|0:0,0:0:0:0:
475,199,210878,6,0,L|401:199,1,60.5000018463135,6|0,0:2|0:0,0:0:0:0:
261,202,211050,2,0,L|198:202,1,60.5000018463135,2|0,0:2|0:0,0:0:0:0:
37,185,211221,2,0,L|111:185,1,60.5000018463135,6|0,0:2|0:0,0:0:0:0:
251,182,211393,2,0,L|314:182,1,60.5000018463135,2|0,0:2|0:0,0:0:0:0:
37,185,211564,6,0,L|111:185,1,60.5000018463135,6|0,0:2|0:0,0:0:0:0:
251,182,211736,2,0,L|314:182,1,60.5000018463135,2|0,0:2|0:0,0:0:0:0:
475,199,211907,2,0,L|401:199,1,60.5000018463135,6|0,0:2|0:0,0:0:0:0:
261,202,212079,2,0,L|198:202,1,60.5000018463135,2|0,0:2|0:0,0:0:0:0:
463,296,212250,6,0,L|467:228,1,60.5000018463135,6|0,0:2|0:0,0:0:0:0:
315,239,212421,2,0,L|311:172,1,60.5000018463135,2|0,0:2|0:0,0:0:0:0:
463,296,212592,2,0,L|467:228,1,60.5000018463135,6|0,0:2|0:0,0:0:0:0:
291,219,212764,2,0,L|274:153,1,60.5000018463135,2|0,0:2|0:0,0:0:0:0:
428,271,212935,6,0,L|436:207,1,60.5000018463135,6|0,0:2|0:0,0:0:0:0:
256,188,213107,2,0,L|228:132,1,60.5000018463135,2|0,0:2|0:0,0:0:0:0:
419,232,213278,2,0,L|447:177,1,60.5000018463135,6|0,0:2|0:0,0:0:0:0:
221,174,213450,2,0,L|178:127,1,60.5000018463135,2|0,0:2|0:0,0:0:0:0:
388,195,213621,6,0,L|431:148,1,60.5000018463135,6|0,0:2|0:0,0:0:0:0:
193,167,213792,2,0,L|134:132,1,60.5000018463135,2|0,0:2|0:0,0:0:0:0:
368,167,213964,2,0,L|425:127,1,60.5000018463135,6|0,0:2|0:0,0:0:0:0:
151,164,214135,2,0,L|90:139,1,60.5000018463135,2|0,0:2|0:0,0:0:0:0:
339,139,214307,6,0,L|411:121,1,60.5000018463135,6|0,0:2|0:0,0:0:0:0:
107,169,214478,2,0,L|39:147,1,60.5000018463135,2|0,0:2|0:0,0:0:0:0:
315,98,214650,1,6,0:2:0:0:
464,90,214735,1,0,0:0:0:0:
197,98,214821,1,2,0:2:0:0:
48,90,214906,1,0,0:0:0:0:
354,143,214992,6,0,B|464:143|464:143|464:33|464:33|299:33|299:33|463:36|463:36|463:123,1,632.5,2|0,0:2|0:0,0:0:0:0:
242,297,216021,6,0,P|191:261|246:195,1,165,8|0,0:1|0:0,0:0:0:0:
408,144,216364,5,6,1:0:0:0:
143,80,216535,1,2,0:0:0:0:
408,144,216707,2,0,L|426:277,1,131.99999597168,2|2,0:0|2:0,0:0:0:0:
161,313,217050,2,0,L|25:313,1,131.99999597168,2|2,0:0|2:0,0:0:0:0:
292,151,217392,2,0,L|156:151,1,131.99999597168,2|2,0:0|2:0,0:0:0:0:
426,320,217735,6,0,L|433:182,1,131.99999597168,2|2,0:0|2:0,0:0:0:0:
168,125,218078,2,0,L|28:125,1,131.99999597168,2|2,0:0|2:0,2:0:0:0:
301,257,218421,2,2,L|436:257,1,131.99999597168,2|2,0:0|2:0,0:0:0:0:
191,257,218764,2,0,L|433:257,1,242.000007385254,10|0,0:0|2:0,0:0:0:0:
168,150,219107,5,2,1:0:0:0:
431,40,219278,1,0,0:0:0:0:
168,150,219450,2,0,L|14:149,1,131.99999597168,2|2,0:0|2:0,0:0:0:0:
300,341,219792,2,0,L|306:199,1,131.99999597168,2|2,0:0|2:0,0:0:0:0:
41,66,220135,2,0,L|176:65,1,131.99999597168,2|2,0:0|2:0,0:0:0:0:
437,55,220478,6,0,L|475:184,1,131.99999597168,2|2,0:0|2:0,0:0:0:0:
208,336,220821,2,0,L|314:245,1,131.99999597168,2|2,0:0|2:0,0:0:0:0:
41,197,221164,2,0,L|186:198,1,131.99999597168,2|0,0:0|0:0,0:0:0:0:
339,125,221421,1,2,2:1:0:0:
172,197,221507,2,0,L|166:269,1,65.9999979858399,0|0,0:0|2:1,0:0:0:0:
332,279,221678,2,0,L|266:276,1,65.9999979858399,2|0,0:0|0:0,0:0:0:0:
434,336,221850,6,0,L|514:336,1,65.9999979858399,4|0,0:3|0:0,0:0:0:0:
333,203,222021,2,0,L|413:203,1,65.9999979858399
160,117,222192,2,0,L|23:117,1,131.99999597168,2|2,0:0|2:0,0:0:0:0:
295,312,222535,2,0,L|159:313,1,131.99999597168,2|2,0:0|2:0,0:0:0:0:
427,284,222878,2,0,L|431:141,1,131.99999597168,2|2,0:0|2:0,0:0:0:0:
165,115,223221,6,0,L|313:115,1,131.99999597168,2|2,0:0|2:0,0:0:0:0:
33,317,223564,2,0,L|26:176,1,131.99999597168,2|2,0:0|2:0,0:0:0:0:
291,154,223907,2,0,L|141:153,1,131.99999597168,2|2,0:0|2:0,0:0:0:0:
401,153,224250,2,0,L|159:153,1,242.000007385254,10|0,0:0|2:0,0:0:0:0:
423,283,224592,6,0,L|341:283,1,65.9999979858399,2|0,0:0|0:0,0:0:0:0:
189,273,224764,2,0,L|268:273,1,65.9999979858399
89,182,224935,2,0,L|82:111,1,65.9999979858399,10|0,0:0|0:0,0:0:0:0:
251,101,225107,2,0,L|326:102,1,65.9999979858399
151,264,225278,6,0,L|80:264,1,65.9999979858399,2|0,0:0|0:0,0:0:0:0:
253,353,225450,2,0,L|182:353,1,65.9999979858399
353,215,225621,2,0,L|421:215,1,65.9999979858399,10|0,0:0|0:0,0:0:0:0:
252,145,225792,2,0,L|184:145,1,65.9999979858399
354,48,225964,6,0,L|276:47,1,65.9999979858399,2|0,0:0|0:0,0:0:0:0:
195,47,226135,1,0,0:0:0:0:
354,48,226221,1,0,0:0:0:0:
369,50,226242,5,0,0:0:0:0:
383,62,226263,1,0,0:0:0:0:
398,64,226284,1,0,0:0:0:0:
407,85,226306,1,2,0:0:0:0:
422,87,226327,1,0,0:0:0:0:
423,113,226349,1,0,0:0:0:0:
438,115,226370,1,0,0:0:0:0:
432,145,226392,1,0,0:0:0:0:
447,147,226413,1,0,0:0:0:0:
431,178,226435,1,0,0:0:0:0:
446,180,226456,1,0,0:0:0:0:
421,209,226478,1,0,0:0:0:0:
436,211,226499,1,0,0:0:0:0:
402,237,226520,1,0,0:0:0:0:
417,239,226541,1,0,0:0:0:0:
377,258,226563,1,0,0:0:0:0:
392,260,226584,1,0,0:0:0:0:
347,271,226606,1,0,0:0:0:0:
92,309,226650,6,0,P|31:271|107:194,1,197.99999395752,10|0,0:0|0:0,0:0:0:0:
272,176,226992,2,0,L|69:175,1,197.99999395752,8|0,0:0|0:0,0:0:0:0:
287,287,227335,6,0,L|364:287,1,65.9999979858399,6|0,1:0|0:0,0:0:0:0:
185,353,227507,2,0,L|262:353,1,65.9999979858399,2|0,0:0|0:0,0:0:0:0:
84,191,227678,2,0,L|221:192,1,131.99999597168,2|2,0:0|2:0,0:0:0:0:
481,136,228021,2,0,L|340:136,1,131.99999597168,2|2,0:0|2:0,0:0:0:0:
83,325,228364,2,0,L|74:185,1,131.99999597168,2|2,0:0|2:0,0:0:0:0:
340,185,228707,6,0,L|478:185,1,131.99999597168,2|2,0:0|2:0,0:0:0:0:
205,55,229050,2,0,L|343:55,1,131.99999597168,2|2,0:0|2:0,0:0:0:0:
74,286,229392,2,0,L|66:131,1,131.99999597168,2|2,0:0|2:0,0:0:0:0:
309,154,229735,2,0,L|52:154,1,242.000007385254,10|0,0:0|2:0,0:0:0:0:
332,239,230078,5,6,1:0:0:0:
67,334,230250,1,0,0:0:0:0:
332,239,230421,2,0,L|482:239,1,131.99999597168,2|2,0:0|2:0,0:0:0:0:
199,336,230764,2,0,L|193:196,1,131.99999597168,2|2,0:0|2:0,0:0:0:0:
462,143,231107,2,0,L|324:143,1,131.99999597168,2|2,0:0|2:0,0:0:0:0:
65,146,231450,6,0,L|53:290,1,131.99999597168,2|2,0:0|2:0,0:0:0:0:
320,311,231792,2,0,L|453:314,1,131.99999597168,2|2,0:0|2:0,0:0:0:0:
185,300,232135,2,0,L|40:301,1,131.99999597168,2|0,0:0|0:0,0:0:0:0:
219,74,232392,1,2,2:1:0:0:
53,80,232478,2,0,L|47:152,1,65.9999979858399,0|0,0:0|2:1,0:0:0:0:
213,191,232649,2,0,L|279:188,1,65.9999979858399,2|0,0:0|0:0,0:0:0:0:
43,311,232821,6,0,L|42:234,1,65.9999979858399,6|2,0:0|2:1,0:0:0:0:
134,241,232992,2,0,L|138:168,1,65.9999979858399,2|2,0:0|2:1,0:0:0:0:
305,120,233164,2,0,L|141:118,1,131.99999597168,2|0,0:0|0:0,0:0:0:0:
469,311,233507,6,0,L|470:234,1,65.9999979858399,2|2,0:0|2:1,0:0:0:0:
378,241,233678,2,0,L|374:168,1,65.9999979858399,2|2,1:1|2:1,0:0:0:0:
207,120,233850,2,0,L|371:118,1,131.99999597168,2|0,0:0|0:0,0:0:0:0:
43,205,234192,6,0,L|137:205,1,65.9999979858399,2|2,0:0|0:0,0:0:0:0:
278,290,234364,2,0,L|184:290,1,65.9999979858399,2|2,0:0|0:0,0:0:0:0:
43,205,234535,2,0,L|137:205,1,65.9999979858399,2|0,0:0|0:0,0:0:0:0:
202,204,234707,2,0,L|108:204,1,65.9999979858399
302,78,234878,6,0,L|368:78,1,65.9999979858399,2|2,0:0|0:0,0:0:0:0:
201,168,235050,2,0,L|135:168,1,65.9999979858399,2|2,0:0|0:0,0:0:0:0:
349,216,235221,2,0,L|415:216,1,65.9999979858399,10|0,0:0|0:0,0:0:0:0:
155,254,235392,2,0,L|89:254,1,65.9999979858399
390,333,235564,6,0,P|254:37|139:342,1,825,6|0,0:0|0:0,0:0:0:0:
324,251,236935,5,8,0:0:0:0:
170,252,237106,1,0,0:0:0:0:
478,249,237363,1,0,0:0:0:0:
323,250,237535,1,8,0:2:0:0:
459,105,237620,1,0,0:0:0:0:
228,103,237877,1,0,0:0:0:0:
382,104,238049,1,8,0:2:0:0:
244,183,238135,1,0,0:0:0:0:
466,313,238307,6,0,L|470:237,1,65.9999979858399,6|0,0:0|0:0,0:0:0:0:
303,243,238478,2,0,L|298:172,1,65.9999979858399,2|0,0:0|0:0,0:0:0:0:
129,157,238650,2,0,L|56:153,2,65.9999979858399,10|0|0,0:0|0:0|0:0,0:0:0:0:
295,90,238907,6,0,L|368:86,2,65.9999979858399,0|2|0,0:0|2:1|0:0,0:0:0:0:
128,256,239164,2,0,L|207:256,1,65.9999979858399
361,253,239335,1,10,0:0:0:0:
194,201,239421,2,0,L|184:131,1,65.9999979858399
277,133,239592,1,0,0:0:0:0:
110,71,239678,6,0,L|185:70,1,65.9999979858399,2|0,0:0|0:0,0:0:0:0:
345,81,239850,2,0,L|420:80,1,65.9999979858399
245,195,240021,2,0,L|170:196,2,65.9999979858399,10|0|0,0:0|0:0|0:0,0:0:0:0:
411,282,240278,6,0,L|476:282,2,65.9999979858399,0|2|0,0:0|2:1|0:0,0:0:0:0:
246,283,240535,2,0,L|238:206,1,65.9999979858399
407,73,240707,1,10,0:0:0:0:
243,79,240792,1,0,0:0:0:0:
407,73,240878,2,0,L|478:73,1,65.9999979858399
304,207,241050,6,0,L|299:135,1,65.9999979858399,2|0,0:0|0:0,0:0:0:0:
134,114,241221,2,0,L|201:114,1,65.9999979858399
366,261,241392,2,0,L|295:260,2,65.9999979858399,10|0|0,0:0|0:0|0:0,0:0:0:0:
197,301,241650,6,0,L|190:230,1,65.9999979858399,0|2,0:0|2:1,0:0:0:0:
283,235,241821,1,0,0:0:0:0:
117,144,241907,2,0,L|200:143,1,65.9999979858399
351,140,242078,1,10,0:0:0:0:
185,91,242164,2,0,L|111:90,2,65.9999979858399
371,93,242421,6,0,L|292:92,1,65.9999979858399,2|0,0:0|0:0,0:0:0:0:
139,231,242592,2,0,L|214:231,1,65.9999979858399
36,241,242764,2,0,L|29:154,1,65.9999979858399,10|0,0:0|0:0,0:0:0:0:
123,169,242935,1,0,0:0:0:0:
290,154,243021,6,0,L|220:126,1,65.9999979858399,0|2,0:0|0:0,0:0:0:0:
64,116,243192,1,0,0:0:0:0:
230,80,243278,2,0,L|301:82,1,65.9999979858399,2|0,0:0|0:0,0:0:0:0:
128,252,243450,1,10,0:0:0:0:
293,257,243535,1,0,0:0:0:0:
459,262,243621,2,0,L|385:260,1,65.9999979858399
194,338,243792,5,10,0:0:0:0:
148,292,243877,1,0,0:0:0:0:
150,228,243963,1,0,0:0:0:0:
198,185,244049,1,0,0:0:0:0:
363,169,244135,2,0,L|279:169,2,65.9999979858399,10|0|0,0:0|0:0|0:0,0:0:0:0:
197,108,244392,6,0,L|113:108,2,65.9999979858399,0|2|0,0:0|2:1|0:0,0:0:0:0:
365,36,244650,2,0,L|294:36,1,65.9999979858399
133,47,244821,1,10,0:0:0:0:
299,107,244907,2,0,L|304:179,1,65.9999979858399
211,186,245078,1,0,0:0:0:0:
378,273,245164,6,0,L|296:273,1,65.9999979858399,2|0,0:0|0:0,0:0:0:0:
146,332,245335,2,0,L|228:332,1,65.9999979858399
380,213,245507,2,0,L|448:213,2,65.9999979858399,10|0|0,0:0|0:0|0:0,0:0:0:0:
213,164,245764,6,0,L|271:132,1,65.9999979858399,0|2,0:0|2:1,0:0:0:0:
363,131,245935,1,0,0:0:0:0:
196,121,246021,2,0,L|254:89,1,65.9999979858399
420,82,246192,1,10,0:0:0:0:
254,57,246278,1,0,0:0:0:0:
420,82,246364,2,0,L|362:114,1,65.9999979858399
58,275,246535,6,0,P|30:222|66:158,1,131.99999597168,6|0,0:0|0:0,0:0:0:0:
194,152,246764,1,0,0:0:0:0:
326,155,246821,1,0,0:0:0:0:
458,157,246878,6,0,P|486:210|450:274,1,131.99999597168,10|0,0:0|0:0,0:0:0:0:
366,273,247107,1,0,0:0:0:0:
278,273,247164,1,0,0:0:0:0:
190,272,247221,6,0,P|162:219|198:155,1,131.99999597168,2|0,0:0|0:0,0:0:0:0:
236,158,247450,1,0,0:0:0:0:
279,158,247507,1,0,0:0:0:0:
411,160,247564,5,2,0:0:0:0:
147,76,247735,1,0,0:0:0:0:
411,160,247907,5,10,0:0:0:0:
146,311,248078,2,0,L|227:311,1,65.9999979858399
380,211,248250,2,0,L|299:211,1,65.9999979858399,2|0,0:0|0:0,0:0:0:0:
146,311,248421,5,8,0:0:0:0:
469,34,248592,2,0,L|388:34,1,65.9999979858399,2|0,0:0|0:0,0:0:0:0:
235,134,248764,2,0,L|316:134,1,65.9999979858399
469,34,248935,5,8,0:0:0:0:
46,71,249278,6,0,L|42:147,1,65.9999979858399,6|0,0:0|0:0,0:0:0:0:
209,141,249449,2,0,L|214:212,1,65.9999979858399,2|0,0:0|0:0,0:0:0:0:
382,244,249621,2,0,L|448:245,2,65.9999979858399,10|0|0,0:0|0:0|0:0,0:0:0:0:
216,244,249878,6,0,L|209:173,1,65.9999979858399,0|2,0:0|2:1,0:0:0:0:
303,171,250050,1,0,0:0:0:0:
139,127,250135,2,0,L|133:194,1,65.9999979858399
301,236,250307,1,10,0:0:0:0:
137,309,250392,2,0,L|67:309,2,65.9999979858399
305,316,250650,6,0,L|239:316,1,65.9999979858399,2|0,0:0|0:0,0:0:0:0:
406,222,250821,2,0,L|340:222,1,65.9999979858399
174,156,250992,2,0,L|248:157,2,65.9999979858399,10|0|0,0:0|0:0|0:0,0:0:0:0:
341,67,251250,6,0,L|409:66,2,65.9999979858399,0|2|0,0:0|2:1|0:0,0:0:0:0:
174,87,251507,2,0,L|106:86,1,65.9999979858399
274,217,251678,1,10,0:0:0:0:
108,86,251764,1,0,0:0:0:0:
274,217,251850,2,0,L|349:217,1,65.9999979858399
173,309,252021,5,2,2:1:0:0:
123,269,252106,1,0,0:0:0:0:
123,205,252192,1,0,0:0:0:0:
173,165,252278,1,0,2:0:0:0:
339,155,252364,2,0,L|266:155,2,65.9999979858399,10|0|0,0:0|0:0|0:0,0:0:0:0:
173,94,252621,6,0,L|240:94,2,65.9999979858399,0|2|0,0:0|2:1|0:0,0:0:0:0:
340,324,252878,2,0,L|346:252,1,65.9999979858399
178,248,253050,1,10,0:0:0:0:
343,202,253135,2,0,L|417:203,2,65.9999979858399
177,202,253392,6,0,L|167:126,1,65.9999979858399,2|0,0:0|0:0,0:0:0:0:
337,33,253564,2,0,L|254:32,1,65.9999979858399
103,88,253735,2,0,L|29:88,2,65.9999979858399,10|0|0,0:0|0:0|0:0,0:0:0:0:
269,156,253992,6,0,L|354:156,1,65.9999979858399,0|2,0:0|2:1,0:0:0:0:
166,250,254164,1,8,0:0:0:0:
332,317,254250,2,0,L|264:317,1,65.9999979858399,2|0,0:0|0:0,0:0:0:0:
433,225,254421,1,10,0:0:0:0:
267,217,254507,1,0,0:0:0:0:
103,213,254592,1,0,0:0:0:0:
267,217,254678,1,8,0:0:0:0:
103,213,254764,6,0,L|26:99,1,131.99999597168,10|0,0:0|0:0,0:0:0:0:
336,196,255107,2,0,L|413:82,1,131.99999597168,10|0,0:0|0:0,0:0:0:0:
176,196,255450,2,0,L|99:82,1,131.99999597168,10|0,0:0|0:0,0:0:0:0:
409,213,255792,2,0,L|486:99,1,131.99999597168,10|0,0:0|0:0,0:0:0:0:
147,182,256135,6,0,L|9:182,1,131.99999597168,10|0,0:0|0:0,0:0:0:0:
365,182,256478,2,0,L|503:182,1,131.99999597168,10|0,0:0|0:0,0:0:0:0:
15,182,256821,2,0,L|147:182,1,131.99999597168,10|0,0:0|0:0,0:0:0:0:
497,182,257164,2,0,L|365:182,1,131.99999597168,10|0,0:0|0:0,0:0:0:0:
51,313,257507,6,0,L|41:227,1,65.9999979858399,10|0,0:0|0:0,0:0:0:0:
222,212,257678,2,0,L|294:212,1,65.9999979858399,2|0,0:0|0:0,0:0:0:0:
461,71,257850,2,0,L|471:157,1,65.9999979858399,10|0,0:0|0:0,0:0:0:0:
290,172,258021,2,0,L|218:172,1,65.9999979858399,2|0,0:0|0:0,0:0:0:0:
51,313,258192,6,0,L|41:227,1,65.9999979858399,10|0,0:0|0:0,0:0:0:0:
288,212,258364,2,0,L|222:212,1,65.9999979858399,2|0,0:0|0:0,0:0:0:0:
461,71,258535,2,0,L|471:157,1,65.9999979858399,10|0,0:0|0:0,0:0:0:0:
175,119,258707,1,2,0:0:0:0:
339,119,258792,1,0,0:0:0:0:
52,315,258878,6,0,B|20:258|21:201|50:101|50:101|215:97|215:97|50:88|50:88|22:170|52:364,1,825,2|0,1:2|0:0,0:0:0:0:
191,330,260250,5,4,0:2:0:0:
421,227,260421,1,2,0:2:0:0:
191,330,260592,2,0,P|131:296|196:247,1,165,2|0,0:2|0:0,0:0:0:0:
270,245,260935,2,0,P|330:211|265:162,1,165
366,156,261278,2,0,P|426:190|361:239,1,165
237,248,261621,6,0,P|175:236|136:142,1,165
222,147,261964,2,0,P|284:135|323:41,1,165
237,51,262307,2,0,P|175:63|136:157,1,165
222,147,262650,2,0,P|284:159|323:253,1,165
188,279,262992,5,0,0:2:0:0:
421,331,263164,1,2,0:2:0:0:
188,279,263335,6,0,L|185:104,1,165,2|0,0:2|0:0,0:0:0:0:
273,116,263678,2,0,L|276:291,1,165
364,276,264021,2,0,L|361:101,1,165
222,52,264364,6,0,P|163:69|235:105,1,165
126,119,264707,2,0,P|67:136|139:172,1,165
259,190,265050,1,0,0:0:0:0:
30,276,265221,1,0,0:0:0:0:
259,190,265392,2,0,L|74:190,1,165,8|0,0:0|0:0,0:0:0:0:
232,113,265735,5,0,0:0:0:0:
465,129,265907,1,2,0:2:0:0:
232,113,266078,2,0,L|61:114,1,165,2|0,0:2|0:0,0:0:0:0:
155,114,266421,2,0,L|326:115,1,165
232,113,266764,2,0,L|61:114,1,165
205,351,267107,6,0,P|264:328|201:287,1,165
295,284,267450,2,0,L|306:109,1,165
218,118,267792,2,0,P|159:141|222:182,1,165
128,185,268135,2,0,L|117:360,1,165
256,345,268478,5,0,0:0:0:0:
395,342,268564,1,0,0:0:0:0:
256,345,268650,1,2,0:2:0:0:
117,342,268736,1,0,0:0:0:0:
256,345,268821,2,0,P|303:303|241:237,1,165,2|0,0:2|0:0,0:0:0:0:
110,196,269164,1,0,0:0:0:0:
341,105,269335,1,0,0:0:0:0:
110,196,269507,2,0,P|63:154|125:88,1,165
255,66,269850,5,0,0:0:0:0:
279,81,269892,1,0,0:0:0:0:
296,102,269935,1,0,0:0:0:0:
305,128,269978,1,0,0:0:0:0:
305,155,270021,1,0,0:0:0:0:
296,181,270064,1,0,0:0:0:0:
278,201,270107,1,0,0:0:0:0:
254,215,270150,1,0,0:0:0:0:
146,30,270192,5,0,0:0:0:0:
130,30,270214,1,0,0:0:0:0:
123,45,270234,1,0,0:0:0:0:
107,45,270256,1,0,0:0:0:0:
102,62,270277,1,0,0:0:0:0:
86,62,270299,1,0,0:0:0:0:
83,82,270320,1,0,0:0:0:0:
67,82,270342,1,0,0:0:0:0:
68,105,270363,1,0,0:0:0:0:
52,105,270385,1,0,0:0:0:0:
56,130,270406,1,0,0:0:0:0:
40,130,270428,1,0,0:0:0:0:
48,156,270449,1,0,0:0:0:0:
32,156,270471,1,0,0:0:0:0:
45,183,270492,1,0,0:0:0:0:
29,183,270514,1,0,0:0:0:0:
45,211,270534,5,0,0:0:0:0:
29,211,270556,1,0,0:0:0:0:
49,238,270577,1,0,0:0:0:0:
33,238,270599,1,0,0:0:0:0:
58,264,270620,1,0,0:0:0:0:
42,264,270642,1,0,0:0:0:0:
70,289,270663,1,0,0:0:0:0:
54,289,270685,1,0,0:0:0:0:
86,311,270706,1,0,0:0:0:0:
70,311,270728,1,0,0:0:0:0:
105,331,270749,1,0,0:0:0:0:
89,331,270771,1,0,0:0:0:0:
127,348,270792,1,0,0:0:0:0:
111,348,270814,1,0,0:0:0:0:
151,361,270834,1,0,0:0:0:0:
135,361,270857,1,0,0:0:0:0:
170,368,270878,5,0,3:0:0:0:
197,361,270920,1,0,0:0:0:0:
217,343,270963,1,0,0:0:0:0:
229,319,271006,1,0,0:0:0:0:
229,291,271049,1,0,0:0:0:0:
218,266,271092,1,0,0:0:0:0:
198,248,271135,1,0,0:0:0:0:
59,88,271221,5,4,0:2:0:0:
291,178,271392,1,2,0:2:0:0:
59,88,271564,2,0,L|236:88,1,165,2|0,0:2|0:0,0:0:0:0:
135,87,271907,2,0,L|312:87,1,165
211,86,272250,2,0,L|388:86,1,165
239,318,272592,6,0,P|189:286|250:222,1,165
330,224,272935,2,0,P|380:192|319:128,1,165
238,123,273278,2,0,P|188:91|249:27,1,165
328,34,273621,2,0,P|378:66|317:130,1,165
187,264,273964,5,0,0:0:0:0:
417,332,274135,1,2,0:2:0:0:
187,264,274307,2,0,P|132:244|193:188,1,165,2|0,0:2|0:0,0:0:0:0:
271,181,274650,2,0,L|100:181,1,165
193,180,274992,2,0,P|248:160|187:104,1,165
59,82,275335,6,0,L|226:82,1,165
312,80,275678,2,0,L|145:80,1,165
286,153,276021,1,0,0:0:0:0:
55,270,276192,1,0,0:0:0:0:
286,153,276364,2,0,L|468:153,1,165,8|0,0:0|0:0,0:0:0:0:
313,65,276707,5,0,0:0:0:0:
81,145,276878,1,2,0:2:0:0:
313,65,277050,2,0,L|481:65,1,165,2|0,0:2|0:0,0:0:0:0:
390,64,277392,2,0,L|222:64,1,165
136,63,277735,2,0,L|304:63,1,165
155,296,278078,6,0,P|96:281|58:179,1,165
143,188,278421,2,0,L|324:187,1,165
395,197,278764,2,0,P|454:182|492:80,1,165
407,89,279107,2,0,L|226:88,1,165
104,200,279450,5,0,0:0:0:0:
241,237,279535,1,0,0:0:0:0:
378,200,279621,1,2,0:2:0:0:
241,237,279706,1,0,0:0:0:0:
104,200,279792,2,0,P|46:225|113:262,1,165,2|0,0:2|0:0,0:0:0:0:
242,272,280135,1,0,0:0:0:0:
474,272,280307,1,0,0:0:0:0:
242,272,280478,2,0,P|194:271|136:164,1,165
298,134,280821,5,0,0:0:0:0:
188,134,280992,1,0,0:0:0:0:
320,135,281164,1,0,0:0:0:0:
166,134,281335,1,0,0:0:0:0:
342,134,281507,1,0,0:0:0:0:
112,124,281678,1,0,0:0:0:0:
355,98,281850,1,0,0:0:0:0:
103,73,282021,1,0,0:0:0:0:
432,55,282192,5,4,0:0:0:0:
251,321,282621,2,0,L|251:263,1,55
190,268,282792,6,0,L|176:205,1,55
333,203,283050,2,0,P|390:174|305:30,1,275
239,30,283564,2,0,L|104:32,1,110
432,269,284164,6,0,L|438:202,1,55
282,208,284421,2,0,P|144:167|106:38,1,275
181,50,284935,2,0,L|301:50,1,110
45,146,285535,6,0,L|33:213,1,55
189,202,285792,2,0,L|477:199,1,275
385,201,286307,2,0,L|260:202,1,110
71,56,286907,6,0,L|142:55,1,55
280,50,287164,2,0,P|223:58|288:198,1,275
197,201,287678,2,0,L|78:203,1,110
351,305,288278,6,0,L|358:228,1,55
201,247,288535,2,0,P|186:174|339:71,1,275
406,71,289050,2,0,L|441:189,1,110
93,351,289650,6,0,L|159:349,1,55
302,347,289907,2,0,P|237:344|136:162,1,275
208,174,290421,2,0,L|354:171,1,110
46,162,291021,6,0,L|36:93,1,55
192,105,291278,2,0,P|255:114|198:255,1,275
126,251,291792,2,0,L|47:150,1,110
419,351,292392,6,0,L|353:349,1,55
210,347,292649,2,0,P|275:344|376:162,1,275
304,174,293163,2,0,L|158:171,1,110
466,162,293764,6,0,L|476:93,1,55
320,105,294021,2,0,P|257:114|314:255,1,275
386,251,294535,2,0,L|465:150,1,110
104,329,295135,5,0,0:0:0:0:
96,252,295221,2,0,L|86:127,1,110
333,299,295821,5,0,0:0:0:0:
341,222,295907,2,0,L|351:97,1,110
179,299,296507,5,0,0:0:0:0:
171,222,296593,2,0,L|161:97,1,110
408,329,297192,5,0,0:0:0:0:
416,252,297278,2,0,L|426:127,1,110
140,229,297878,5,0,0:0:0:0:
217,229,297964,2,0,L|221:109,1,110
43,153,298564,5,0,0:0:0:0:
120,153,298650,2,0,L|124:33,1,110
372,229,299250,5,0,0:0:0:0:
295,229,299336,2,0,L|291:109,1,110
469,153,299936,5,0,0:0:0:0:
392,153,300022,2,0,L|388:33,1,110
104,329,300621,5,0,0:0:0:0:
96,252,300707,2,0,L|86:127,1,110
222,321,301307,5,0,0:0:0:0:
214,244,301393,2,0,L|204:119,1,110
357,317,301992,5,0,0:0:0:0:
349,240,302078,2,0,L|339:115,1,110
472,307,302678,5,0,0:0:0:0:
464,230,302764,2,0,L|454:105,1,110
357,317,303364,5,0,0:0:0:0:
349,240,303450,2,0,L|339:115,1,110
215,243,304050,6,0,L|212:178,1,55
256,192,304307,12,0,317850,0:0:0:0:
