osu file format v14

[General]
AudioFilename: audio.mp3
AudioLeadIn: 0
PreviewTime: 231420
Countdown: 0
SampleSet: Soft
StackLeniency: 0.2
Mode: 0
LetterboxInBreaks: 0
WidescreenStoryboard: 1

[Editor]
Bookmarks: 25136,26220,28028,30919,32003,33811,37787,39594,43570,45196,45377,70678
DistanceSpacing: 0.7
BeatDivisor: 4
GridSize: 32
TimelineZoom: 1

[Metadata]
Title:flying in the flow of deep-sea
TitleUnicode:flying in the flow of deep-sea
Artist:Camellia
ArtistUnicode:Camellia
Creator:sonic8889
Version:water dog
Source:
Tags:
BeatmapID:1353170
BeatmapSetID:637839

[Difficulty]
HPDrainRate:5
CircleSize:4
OverallDifficulty:10
ApproachRate:9.5
SliderMultiplier:1.6
SliderTickRate:1

[Events]
//Background and Video events
0,0,"woof alfie woof.png",0,0
//Break Periods
2,54251,58587
//Storyboard Layer 0 (Background)
//Storyboard Layer 1 (Fail)
//Storyboard Layer 2 (Pass)
//Storyboard Layer 3 (Foreground)
//Storyboard Sound Samples

[TimingPoints]
0,-10,4,2,1,25,0,0
2004,361.44578313253,4,2,1,10,1,0
25136,-100,4,2,1,25,0,0
30016,-200,4,2,1,25,0,0
30919,-100,4,2,1,25,0,0
41582,-200,4,2,1,25,0,0
42485,-100,4,2,1,25,0,0
69232,-200,4,2,1,25,0,0
70678,-100,4,2,1,25,0,0
71401,-25,4,2,1,100,0,1
73208,-100,4,2,1,100,0,1
73570,-25,4,2,1,100,0,1
74654,-100,4,2,1,100,0,1
74835,-25,4,2,1,100,0,1
78991,-100,4,2,1,100,0,1
79353,-25,4,2,1,100,0,1
80257,-66.6666666666667,4,2,1,100,0,1
80799,-25,4,2,1,100,0,1
82967,-100,4,2,1,100,0,0
83690,-25,4,2,1,100,0,1
84775,-100,4,2,1,100,0,1
85136,-25,4,2,1,100,0,1
90558,-100,4,2,1,100,0,1
90919,-25,4,2,1,100,0,1
94534,-50,4,2,1,100,0,1
95618,-100,4,2,1,100,0,1
95799,-25,4,2,1,100,0,1
188509,359.281437125748,4,2,1,40,1,0
189947,357.142857142857,4,2,1,45,1,0
192807,354.097199681313,4,2,1,50,1,0
194223,353.097199681312,4,2,1,50,1,0
197047,350.877192982456,4,2,1,55,1,0
198450,348.938644954929,4,2,1,60,1,0
201241,346.820809248555,4,2,1,65,1,0
202630,344.827586206897,4,2,1,65,1,0
204007,344.827586206897,4,2,1,70,1,0
209524,344.827586206897,4,2,1,50,1,1

[Colours]
Combo1 : 13,198,198
Combo2 : 0,128,192
Combo3 : 21,14,118

[HitObjects]
137,99,2726,6,0,L|222:121,1,80
332,226,3088,2,0,L|161:180,1,160
291,71,3811,1,0,0:0:0:0:
291,71,4172,6,0,L|270:148,1,80
195,219,4533,2,0,P|262:251|342:222,1,160
270,148,5257,1,0,0:0:0:0:
270,148,5618,6,0,P|235:128|216:93,1,80
301,63,5979,2,0,L|168:194,1,160
146,20,6702,1,0,0:0:0:0:
146,20,7064,6,0,L|231:42,1,80
140,163,7425,2,0,P|172:92|145:19,1,160
69,89,8148,1,0,0:0:0:0:
69,89,8510,6,0,L|47:174,1,80
128,156,8871,2,0,L|106:241,1,80
86,310,9232,1,0,0:0:0:0:
92,316,9594,1,0,0:0:0:0:
98,322,9956,6,0,L|118:244,1,80
183,289,10317,2,0,L|203:211,1,80
227,135,10678,1,0,0:0:0:0:
233,141,11040,1,0,0:0:0:0:
239,147,11402,6,0,P|262:104|262:65,1,80
119,25,11763,2,0,P|96:68|96:107,1,80
179,86,12124,1,0,0:0:0:0:
185,92,12486,1,0,0:0:0:0:
191,98,12847,6,0,P|230:101|264:122,1,80
216,267,13208,2,0,P|176:263|142:242,1,80
204,183,13569,1,0,0:0:0:0:
261,127,13750,1,0,0:0:0:0:
332,163,13931,1,0,0:0:0:0:
320,242,14112,1,0,0:0:0:0:
241,255,14293,6,0,P|206:275|187:310,1,80
272,340,14654,2,0,L|139:209,1,160
117,383,15377,1,0,0:0:0:0:
117,383,15738,6,0,L|81:301,1,80
244,327,16100,2,0,L|84:309,1,160
149,198,16823,1,0,0:0:0:0:
149,198,17184,6,0,L|234:220,1,80
344,325,17546,2,0,L|173:279,1,160
303,170,18269,1,0,0:0:0:0:
303,170,18630,6,0,P|326:127|326:88,1,80
135,0,18991,2,0,P|93:77|93:147,1,160
243,109,19714,1,0,0:0:0:0:
243,109,20076,6,0,L|287:184,1,80
203,189,20437,2,0,L|247:264,1,80
285,326,20798,1,0,0:0:0:0:
290,334,21160,1,0,0:0:0:0:
296,340,21522,6,0,L|336:271,1,80
386,332,21883,2,0,L|426:263,1,80
471,196,22244,1,0,0:0:0:0:
476,203,22606,1,0,0:0:0:0:
482,209,22968,6,0,P|493:161|484:123,1,80
335,118,23329,2,0,P|324:155|330:195,1,80
409,164,23690,6,0,P|421:103|386:49,2,106.666666666667
302,26,24413,5,0,0:0:0:0:
402,64,24655,1,0,0:0:0:0:
409,164,24895,1,0,0:0:0:0:
30,197,25136,6,0,B|-15:95|38:16|155:-18|258:48|247:182|173:226|173:226|395:79|527:119|517:530|184:420|74:147|390:91|503:155,1,1280
484,145,29293,5,0,0:0:0:0:
460,113,29383,1,0,0:0:0:0:
424,95,29473,1,0,0:0:0:0:
399,264,29654,2,0,P|438:261|472:240,1,80
423,94,30016,6,0,P|383:98|350:119,2,80
140,283,30919,6,0,B|36:295|-92:107|182:-32|241:164|241:164|189:35|319:-115|573:-60|563:233|429:267|299:272|249:179,1,1200
350,119,33811,1,0,0:0:0:0:
350,119,35257,5,0,0:0:0:0:
303,54,35437,1,0,0:0:0:0:
226,79,35618,1,0,0:0:0:0:
226,159,35799,1,0,0:0:0:0:
278,261,35979,5,0,0:0:0:0:
303,184,36160,1,0,0:0:0:0:
383,184,36341,1,0,0:0:0:0:
408,261,36522,1,0,0:0:0:0:
133,310,36702,6,0,B|79:287|54:200|133:157|133:157|165:171|195:157|195:157|276:194|259:305|172:317|172:317|190:257|274:247|274:247|377:286|461:179|469:91|341:-16|266:47|232:82|232:82|200:1|135:3|83:-5|47:49|42:69,1,1280
43,82,40859,5,0,0:0:0:0:
67,50,40949,1,0,0:0:0:0:
103,33,41039,1,0,0:0:0:0:
128,201,41220,2,0,P|89:198|55:177,1,80
104,33,41582,6,0,P|144:37|177:58,2,80
505,247,42485,6,0,B|584:114|358:-10|303:119|271:237|363:286|363:286|289:265|251:327|251:327|180:301|136:359|136:359|86:276|180:168|278:220|278:220|338:200|352:141|402:41|248:-113|25:73|174:215,1,1520
236,128,46100,1,0,0:0:0:0:
236,128,46281,1,0,0:0:0:0:
415,198,46462,5,0,0:0:0:0:
415,198,46642,1,0,0:0:0:0:
226,310,46823,5,0,0:0:0:0:
226,310,47003,1,0,0:0:0:0:
236,128,47184,5,0,0:0:0:0:
236,128,47365,1,0,0:0:0:0:
415,198,47546,5,0,0:0:0:0:
226,310,47727,1,0,0:0:0:0:
223,90,47907,5,0,0:0:0:0:
226,310,48088,1,0,0:0:0:0:
415,198,48269,6,0,B|442:176|428:101|330:133|362:193|362:193|345:150|306:151|272:162|259:226|314:244,2,320
181,51,51160,6,0,B|149:38|91:88|167:157|204:98|204:98|175:135|195:169|222:193|283:172|272:115,2,320
181,51,53329,5,0,0:0:0:0:
204,98,53690,1,0,0:0:0:0:
273,132,54051,1,0,0:0:0:0:
273,132,59112,5,0,0:0:0:0:
181,51,59293,1,0,0:0:0:0:
325,263,59473,5,0,0:0:0:0:
511,201,59654,1,0,0:0:0:0:
273,132,59835,6,0,B|284:15|146:-44|71:48|71:48|79:94|51:130|51:130|81:248|201:242|251:181,1,640
273,132,62003,5,0,0:0:0:0:
273,252,62726,1,0,0:0:0:0:
273,132,63088,5,0,0:0:0:0:
226,109,63269,1,0,0:0:0:0:
192,40,63449,1,0,0:0:0:0:
354,40,63810,5,0,0:0:0:0:
401,63,63991,1,0,0:0:0:0:
435,132,64171,1,0,0:0:0:0:
226,109,64534,5,0,0:0:0:0:
401,63,64895,1,0,0:0:0:0:
192,40,65257,1,0,0:0:0:0:
435,132,65618,6,0,L|435:237,1,80
361,179,65979,2,0,L|308:269,1,80
279,179,66341,2,0,L|188:231,1,80
200,139,66702,2,0,L|95:139,1,80
435,132,67064,5,0,0:0:0:0:
435,212,67244,1,0,0:0:0:0:
361,179,67425,1,0,0:0:0:0:
321,248,67605,1,0,0:0:0:0:
209,219,67787,5,0,0:0:0:0:
200,139,67967,1,0,0:0:0:0:
279,179,68148,5,0,0:0:0:0:
120,139,68328,1,0,0:0:0:0:
115,331,68510,6,0,L|140:348,1,20
132,343,69232,6,0,P|182:261|153:361,1,300
116,292,70678,5,0,0:0:0:0:
185,251,70858,1,0,0:0:0:0:
244,305,71039,1,0,0:0:0:0:
212,378,71220,1,0,0:0:0:0:
107,214,71402,6,0,P|223:87|236:289,1,480
208,189,71763,2,0,P|318:129|287:250,1,160
239,287,71944,5,0,0:0:0:0:
155,217,72034,1,0,0:0:0:0:
144,108,72124,2,0,B|126:42|234:20|244:78|243:132|199:141|199:141|232:141|241:172|241:172|274:169|285:199|285:199,1,320
269,259,72395,2,0,P|249:148|334:238,1,320
333,238,72666,6,0,B|441:118|347:-31|184:-81|68:37|52:185|158:255|158:255|86:218|28:282|28:282|-50:247|-104:309|-104:309,1,800
105,326,73208,2,0,P|113:268|138:240,1,80
236,144,73570,5,0,0:0:0:0:
246,187,73660,1,0,0:0:0:0:
297,260,73750,1,0,0:0:0:0:
378,299,73841,1,0,0:0:0:0:
507,275,73931,5,0,0:0:0:0:
476,218,74022,1,0,0:0:0:0:
431,199,74112,1,0,0:0:0:0:
399,200,74202,1,0,0:0:0:0:
318,254,74293,6,0,P|204:184|341:206,1,320
271,202,74654,1,0,0:0:0:0:
392,217,74835,5,0,0:0:0:0:
479,144,74926,1,0,0:0:0:0:
482,35,75016,2,0,B|442:30|424:67|424:67|401:44|401:44|324:-20|218:54|215:175|380:222,1,320
207,181,75287,2,0,B|246:185|264:148|264:148|287:171|287:171|364:236|470:161|473:40|308:-6,1,320
264,148,75558,2,0,B|270:186|311:193|311:193|296:222|296:222|257:314|359:394|476:361|472:190,1,320
374,258,75919,5,0,0:0:0:0:
393,258,76010,1,0,0:0:0:0:
287,261,76100,2,0,B|358:287|416:214|421:153|333:79|281:123|258:147|258:147|235:91|191:92|155:87|130:124|126:138,1,480
97,263,76461,5,0,0:0:0:0:
161,261,76551,1,0,0:0:0:0:
230,312,76641,5,0,0:0:0:0:
298,312,76732,1,0,0:0:0:0:
367,261,76822,5,0,0:0:0:0:
434,312,76912,1,0,0:0:0:0:
503,261,77003,6,0,P|396:195|420:317,1,160
435,252,77184,2,0,P|405:58|230:197,1,480
348,167,77546,2,0,P|358:91|290:58,1,160
183,88,77726,5,0,0:0:0:0:
99,158,77816,1,0,0:0:0:0:
88,267,77906,2,0,B|70:333|178:355|188:297|187:243|143:234|143:234|176:234|185:203|185:203|218:206|229:176|229:176,1,320
245,237,78178,2,0,P|265:126|180:216,1,320
181,216,78449,6,0,B|73:96|167:-53|330:-103|446:15|462:163|356:233|356:233|428:196|486:260|486:260|564:225|618:287|618:287,1,800
409,293,78991,2,0,P|401:235|376:207,1,80
3,92,79353,6,0,B|8:145|62:173|112:146|112:146|104:206|169:250|225:212|225:212|217:263|268:308|323:286|323:286|320:360|378:419|507:441|623:260|419:121|335:250,1,960
409,293,80076,1,0,0:0:0:0:
189,164,80257,5,0,0:0:0:0:
189,164,80347,1,0,0:0:0:0:
189,164,80438,5,0,0:0:0:0:
244,75,80528,1,0,0:0:0:0:
302,169,80618,1,0,0:0:0:0:
392,225,80709,1,0,0:0:0:0:
488,176,80799,6,0,B|535:162|558:56|413:44|421:140|421:140|421:76|363:58|308:54,1,320
349,137,81070,2,0,P|242:241|364:252,1,320
307,201,81341,2,0,P|207:265|243:358,1,160
290,286,81522,5,0,0:0:0:0:
20,200,81702,1,0,0:0:0:0:
20,200,81793,2,0,L|205:150,1,160
307,201,81973,1,0,0:0:0:0:
307,201,82064,2,0,L|121:250,1,160
191,73,82244,5,0,0:0:0:0:
461,159,82424,1,0,0:0:0:0:
461,159,82515,2,0,L|275:208,1,160
174,158,82695,1,0,0:0:0:0:
174,158,82786,2,0,L|359:108,1,160
482,87,82967,6,0,P|432:5|461:105,1,280
498,194,83690,6,0,P|434:265|377:258,1,160
194,234,83871,1,0,0:0:0:0:
194,234,83961,2,0,P|116:235|73:298,1,160
82,121,84232,6,0,B|-26:241|68:390|231:440|347:322|363:174|257:104|257:104|329:141|387:77|387:77|465:112|519:50|519:50,1,800
311,38,84775,2,0,P|275:56|253:88,1,80
180,309,85136,5,0,0:0:0:0:
222,299,85226,1,0,0:0:0:0:
296,248,85316,1,0,0:0:0:0:
336,165,85407,1,0,0:0:0:0:
311,38,85497,5,0,0:0:0:0:
254,69,85588,1,0,0:0:0:0:
235,114,85678,1,0,0:0:0:0:
236,145,85768,1,0,0:0:0:0:
290,227,85859,6,0,P|220:341|242:204,1,320
238,274,86220,1,0,0:0:0:0:
236,145,86401,5,0,0:0:0:0:
339,103,86491,1,0,0:0:0:0:
432,166,86582,2,0,B|491:186|490:263|462:305|366:307|356:251|353:224|353:224|309:248|281:224|255:209|259:172|263:161,1,320
62,130,86853,2,0,B|64:156|91:169|115:156|115:156|111:186|143:207|171:189|171:189|167:214|192:236|219:225|219:225|221:282|261:309|328:306,1,320
353,224,87124,2,0,B|349:183|309:173|309:173|327:146|327:146|373:58|279:-30|160:-8|148:163,1,320
234,105,87485,5,0,0:0:0:0:
253,105,87576,1,0,0:0:0:0:
146,113,87666,2,0,B|213:78|279:143|292:203|213:288|156:250|131:229|131:229|115:288|71:292|36:301|6:268|1:254,1,480
7,78,88028,5,0,0:0:0:0:
66,113,88118,1,0,0:0:0:0:
133,48,88208,5,0,0:0:0:0:
192,13,88298,1,0,0:0:0:0:
270,78,88389,5,0,0:0:0:0:
347,13,88479,1,0,0:0:0:0:
419,84,88570,6,0,P|312:150|336:28,1,160
351,93,88750,2,0,P|321:287|146:148,1,480
264,178,89112,2,0,P|337:201|338:276,1,160
174,324,89293,5,0,0:0:0:0:
144,216,89383,1,0,0:0:0:0:
189,114,89473,2,0,B|123:94|162:-8|216:13|261:42|246:84|246:84|263:56|294:65|294:65|309:36|340:42|340:42,1,320
396,153,89744,2,0,P|315:227|265:68,1,320
310,142,90016,6,0,B|424:256|338:409|177:468|55:356|32:209|134:134|134:134|64:174|3:114|3:114|-72:153|-130:93|-130:93,1,800
78,65,90558,2,0,P|121:25|158:20,1,80
509,92,90919,6,0,B|504:145|450:173|400:146|400:146|408:206|343:250|287:212|287:212|295:263|244:308|189:286|189:286|192:360|134:419|5:441|-111:260|93:121|177:250,1,960
103,293,91642,1,0,0:0:0:0:
337,162,91823,5,0,0:0:0:0:
337,162,91913,1,0,0:0:0:0:
337,162,92004,5,0,0:0:0:0:
282,73,92094,1,0,0:0:0:0:
224,167,92184,1,0,0:0:0:0:
134,223,92275,1,0,0:0:0:0:
38,174,92365,6,0,B|-9:160|-32:54|113:42|105:138|105:138|105:74|163:56|218:52,1,320
177,135,92636,2,0,P|284:239|162:250,1,320
219,199,92907,2,0,P|319:263|283:356,1,160
236,284,93088,5,0,0:0:0:0:
446,113,93269,1,0,0:0:0:0:
193,17,93449,5,0,0:0:0:0:
236,284,93630,1,0,0:0:0:0:
446,113,93811,5,0,0:0:0:0:
193,17,93991,1,0,0:0:0:0:
236,284,94172,5,0,0:0:0:0:
446,113,94353,1,0,0:0:0:0:
203,307,94534,6,0,P|155:205|236:284,1,320
259,288,95618,6,0,P|282:267|290:234,1,40
369,244,95799,5,0,0:0:0:0:
323,142,95889,1,0,0:0:0:0:
216,110,95979,1,0,0:0:0:0:
