osu file format v14

[General]
AudioFilename: audio.mp3
AudioLeadIn: 0
PreviewTime: 208144
Countdown: 0
SampleSet: None
StackLeniency: 0.4
Mode: 0
LetterboxInBreaks: 0
WidescreenStoryboard: 1

[Editor]
Bookmarks: 25135,54050,54141,54321,54412,54592,54683,54863,54954,55044,55225,55315,55406,55496,55677,55767,55857,55948,56038,56128,56400,56490,56671,56761,56851,56942,57032,57122,57213,57303,57394,57484,57574,57755,57845,58116,58207,58297,58478,58659,58839,58930,59110,71401,94534,117666,161038,161151,161196,161309,161400,161422,161513,161625,161716,161806,161919,162009,162077,162213,162303,162394,162506,162597,162687,162800,162891,162981,163139,169714,169735,169781,169848,169916,169984,170052,170119,170187,170210,170300,170413,170503,170594,170684,170775,170888,170978,171091,171204,171294,171384,171497,171588,171678,171769,171881,171972,172085,172198,172288,172401,172491,172604,172695,172808,172898,173011,173101,173214,173327,173440,173531,173621,173711,173847,173937,174050,174141,174231,174366,174434,174570,174683,174773,183991,188237,188327,196782,209696,220558,225558,231592,232024,251765,253661,275730,297799
DistanceSpacing: 3
BeatDivisor: 4
GridSize: 8
TimelineZoom: 2.399999

[Metadata]
Title:flying in the flow of deep-sea
TitleUnicode:flying in the flow of deep-sea
Artist:Camellia
ArtistUnicode:かめりあ
Creator:anime girl
Version:trench
Source:
Tags:planet shaper planet//shaper kamel cametek c88 dubstep dance electro kamelcamellia scubdomino
BeatmapID:1484886
BeatmapSetID:701625

[Difficulty]
HPDrainRate:6
CircleSize:3
OverallDifficulty:9
ApproachRate:9.4
SliderMultiplier:2.05
SliderTickRate:1

[Events]
//Background and Video events
0,0,"__original_drawn_by_bayashiko__91024ef671efcb6688962d434aa2bb59.jpg",0,0
//Break Periods
2,54250,58570
2,169913,174234
//Storyboard Layer 0 (Background)
//Storyboard Layer 1 (Fail)
//Storyboard Layer 2 (Pass)
//Storyboard Layer 3 (Foreground)
//Storyboard Sound Samples

[TimingPoints]
1642,361.44578313253,4,2,2,5,1,0
2545,-500,4,2,2,10,0,0
23328,361.44578313253,3,2,2,15,1,0
23328,-500,4,2,2,15,0,0
23930,-500,4,2,2,20,0,0
24171,-500,4,2,2,25,0,0
24412,-500,4,2,2,30,0,0
24653,-500,4,2,2,35,0,0
24894,-500,4,2,2,35,0,0
25135,361.44578313253,4,2,2,25,1,0
25135,-500,4,2,2,25,0,0
45375,-500,4,2,2,30,0,0
46098,-250,4,2,2,35,0,0
46821,-166.666666666667,4,2,2,40,0,0
47544,-166.666666666667,4,2,2,40,0,0
48267,-500,4,2,2,40,0,0
59110,-333.333333333333,4,2,2,40,0,0
59472,-333.333333333333,4,2,2,40,0,0
59833,-333.333333333333,4,2,2,40,0,0
63448,-250,4,2,2,40,0,0
65616,-250,4,3,2,40,0,0
67062,-250,4,3,2,39,0,0
67424,-250,4,3,2,36,0,0
67785,-250,4,3,2,33,0,0
68147,-250,4,3,2,30,0,0
68508,-250,4,3,3,60,0,0
71399,-100,4,3,3,70,0,0
71941,-66.6666666666667,4,3,3,70,0,0
72303,-66.6666666666667,4,3,3,5,0,0
72394,-66.6666666666667,4,3,3,70,0,0
72574,-66.6666666666667,4,3,3,5,0,0
72664,-50,4,3,3,70,0,0
74291,-100,4,3,3,70,0,0
74562,-100,4,3,3,5,0,0
74653,-100,4,3,3,70,0,0
75195,-100,4,3,3,5,0,0
75285,-100,4,3,3,70,0,0
75466,-100,4,3,3,5,0,0
75556,-66.6666666666667,4,3,3,70,0,0
75918,-66.6666666666667,4,3,3,70,0,0
76369,-66.6666666666667,4,3,3,5,0,0
76460,-66.6666666666667,4,3,3,70,0,0
78086,-66.6666666666667,4,3,3,5,0,0
78177,-66.6666666666667,4,3,3,70,0,0
78357,-66.6666666666667,4,3,3,5,0,0
78448,-66.6666666666667,4,3,3,70,0,0
79261,-100,4,3,3,70,0,0
80074,-66.6666666666667,4,3,3,70,0,0
80435,-100,4,3,3,70,0,0
80978,-100,4,3,3,5,0,0
81068,-100,4,3,3,70,0,0
81249,-100,4,3,3,5,0,0
81339,-100,4,3,3,70,0,0
82965,-200,4,2,2,70,0,0
83598,-66.6666666666667,4,3,3,5,0,0
83689,-66.6666666666667,4,3,3,70,0,0
84140,-100,4,3,3,70,0,0
85857,-66.6666666666667,4,3,3,70,0,0
86761,-66.6666666666667,4,3,3,5,0,0
86851,-66.6666666666667,4,3,3,70,0,0
87032,-66.6666666666667,4,3,3,5,0,0
87122,-66.6666666666667,4,3,3,70,0,0
87936,-66.6666666666667,4,3,3,5,0,0
88026,-66.6666666666667,4,3,3,70,0,0
89653,-66.6666666666667,4,3,3,5,0,0
89743,-66.6666666666667,4,3,3,70,0,0
89924,-66.6666666666667,4,3,3,5,0,0
90014,-100,4,3,3,70,0,0
91640,-66.6666666666667,4,3,3,70,0,0
92182,-100,4,3,3,70,0,0
92544,-100,4,3,3,5,0,0
92634,-100,4,3,3,70,0,0
92815,-100,4,3,3,5,0,0
92906,-100,4,3,3,70,0,0
94532,-66.6666666666667,4,3,3,70,0,0
96339,-100,4,3,3,70,0,0
96610,-100,4,3,3,5,0,0
96700,-66.6666666666667,4,3,3,70,0,0
96972,-66.6666666666667,4,3,3,70,0,0
98869,-133.333333333333,4,3,3,70,0,0
99592,-66.6666666666667,4,3,3,70,0,0
100676,-200,4,3,3,70,0,0
101761,-66.6666666666667,4,3,3,70,0,0
103206,-100,4,3,3,70,0,0
103387,-66.6666666666667,4,3,3,70,0,0
107905,-100,4,3,3,70,0,0
108267,-133.333333333333,4,3,3,70,0,0
109442,-66.6666666666667,4,3,3,70,0,0
109712,-50,4,3,3,70,0,0
110435,-66.6666666666667,4,3,3,70,0,0
111881,-100,4,3,3,70,0,0
113327,-66.6666666666667,4,3,3,70,0,0
113688,-100,4,3,3,70,0,0
114050,-66.6666666666667,4,3,3,70,0,0
114773,-100,4,3,3,70,0,0
115496,-100,4,3,3,70,0,0
115677,-100,4,3,3,5,0,0
115767,-100,4,3,3,70,0,0
115948,-100,4,3,3,5,0,0
116038,-100,4,3,3,70,0,0
116128,-100,4,3,3,5,0,0
116219,-100,4,3,3,70,0,0
116400,-100,4,3,3,5,0,0
116490,-100,4,3,3,70,0,0
116671,-100,4,3,3,5,0,0
116761,-100,4,3,3,70,0,0
116851,-100,4,3,3,5,0,0
116942,-100,4,3,3,70,0,0
117665,-500,4,3,3,40,0,0
119833,-333.333333333333,4,3,3,40,0,0
119923,-500,4,3,3,40,0,0
122905,-333.333333333333,4,3,3,40,0,0
122995,-500,4,3,3,40,0,0
125616,-333.333333333333,4,3,3,40,0,0
126339,-500,4,3,3,40,0,0
131218,-333.333333333333,4,3,3,40,0,0
131568,-500,4,3,3,40,0,0
137092,-333.333333333333,4,3,3,40,0,0
137273,-500,4,3,3,40,0,0
140797,-285.714285714286,4,2,2,25,0,0
143688,-133.333333333333,4,2,2,25,0,0
145586,-266.666666666667,4,2,2,25,0,0
146489,-333.333333333333,4,2,2,25,0,0
151821,-400,4,2,2,25,0,0
156520,-133.333333333333,4,2,2,25,0,0
156881,-200,4,2,2,25,0,0
157423,-333.333333333333,4,2,2,25,0,0
163207,-333.333333333333,4,2,2,30,0,0
175496,-333.333333333333,4,2,2,35,0,0
179110,-250,4,2,2,35,0,0
181279,-250,4,3,2,45,0,0
181821,-200,4,3,2,45,0,0
183267,-166.666666666667,4,3,2,50,0,0
184712,-142.857142857143,4,3,2,55,0,0
186791,-142.857142857143,4,3,2,60,0,0
186881,-142.857142857143,4,3,2,65,0,0
186971,-100,4,3,2,70,0,0
188509,359.281437125748,4,3,2,75,1,0
189947,357.142857142857,4,3,2,75,1,0
192807,354.097199681313,4,3,2,75,1,0
194223,353.097199681312,4,3,2,75,1,0
197047,350.877192982456,4,3,2,75,1,0
198450,348.938644954929,4,3,2,80,1,0
198450,-100,4,3,2,80,0,0
198624,-100,4,3,2,60,0,0
198798,-100,4,3,2,80,0,0
198972,-100,4,3,2,60,0,0
199147,-100,4,3,2,80,0,0
199321,-100,4,3,2,60,0,0
199496,-100,4,3,2,80,0,0
199670,-100,4,3,2,60,0,0
199845,-100,4,3,2,80,0,0
200019,-100,4,3,2,60,0,0
200194,-100,4,3,2,80,0,0
200368,-100,4,3,2,60,0,0
200543,-100,4,3,2,80,0,0
200717,-100,4,3,2,60,0,0
200892,-100,4,3,2,80,0,0
201066,-100,4,3,2,60,0,0
201241,346.820809248555,4,3,2,80,1,0
201241,-100,4,3,2,80,0,0
201414,-100,4,3,2,60,0,0
201587,-100,4,3,2,70,0,0
201761,-100,4,3,2,60,0,0
201934,-100,4,3,2,80,0,0
202107,-100,4,3,2,60,0,0
202280,-100,4,3,2,70,0,0
202454,-100,4,3,2,60,0,0
202628,-100,4,3,2,80,0,0
202630,344.827586206897,4,3,2,80,1,0
202801,-100,4,3,2,60,0,0
202974,-100,4,3,2,70,0,0
203148,-100,4,3,2,60,0,0
203319,-100,4,3,2,80,0,0
203492,-100,4,3,2,60,0,0
203665,-100,4,3,2,70,0,0
203839,-100,4,3,2,60,0,0
204007,344.827586206897,4,3,2,80,1,0
204351,-111.111111111111,4,3,2,70,0,0
204696,-125,4,3,2,70,0,0
204869,-142.857142857143,4,3,2,70,0,0
205041,-166.666666666667,4,3,2,70,0,0
205127,-200,4,3,2,70,0,0
205558,-222.222222222222,4,3,2,70,0,0
205903,-250,4,3,2,70,0,0
206248,-285.714285714286,4,3,2,70,0,0
206420,-333.333333333333,4,3,2,70,0,0
206765,-100,4,3,2,70,0,0
207110,-100,4,3,2,73,0,0
207455,-100,4,3,2,76,0,0
207800,-100,4,3,2,79,0,0
208144,-181.818181818181,4,3,2,60,0,0
209524,344.827586206897,4,3,3,80,1,1
209524,-66.6666666666667,4,3,3,80,0,1
214696,-500,4,3,3,80,0,1
214782,-66.6666666666667,4,3,3,80,0,1
220213,-500,4,3,3,80,0,1
220299,-66.6666666666667,4,3,3,80,0,1
225730,-500,4,3,3,80,0,1
225816,-66.6666666666667,4,3,3,80,0,1
228489,-500,4,3,3,80,0,1
228834,-100,4,3,3,60,0,0
229006,-100,4,3,3,50,0,0
229179,-100,4,3,3,55,0,0
229351,-100,4,3,3,45,0,0
229524,-100,4,3,3,50,0,0
229696,-100,4,3,3,40,0,0
229868,-100,4,3,3,45,0,0
230040,-100,4,3,3,35,0,0
230213,-100,4,3,3,45,0,0
230558,-100,4,3,3,55,0,0
230903,-100,4,3,3,65,0,0
231248,-100,4,3,3,75,0,0
231592,-57.1428571428571,4,3,3,80,0,1
236765,-500,4,3,3,80,0,1
236851,-57.1428571428571,4,3,3,80,0,1
242282,-500,4,3,3,80,0,1
242368,-57.1428571428571,4,3,3,80,0,1
247799,-500,4,3,3,80,0,1
248144,-57.1428571428571,4,3,3,80,0,1
248834,-52.9100529100529,4,3,3,80,0,1
249351,-50,4,3,3,80,0,1
249524,-57.1428571428571,4,3,3,80,0,1
250214,-52.9100529100529,4,3,3,80,0,1
250731,-100,4,3,3,80,0,1
252282,-57.1428571428571,4,3,3,70,0,0
253661,-100,4,3,3,70,0,0
254092,-66.6666666666667,4,3,3,70,0,0
254524,-66.6666666666667,4,3,3,5,0,0
254610,-66.6666666666667,4,3,3,70,0,0
254782,-66.6666666666667,4,3,3,5,0,0
254868,-66.6666666666667,4,3,3,70,0,0
256420,-100,4,3,3,70,0,0
256679,-100,4,3,3,5,0,0
256765,-100,4,3,3,70,0,0
257282,-100,4,3,3,5,0,0
257368,-100,4,3,3,70,0,0
257541,-100,4,3,3,5,0,0
257627,-66.6666666666667,4,3,3,70,0,0
257886,-66.6666666666667,4,3,3,5,0,0
257972,-66.6666666666667,4,3,3,70,0,0
258403,-66.6666666666667,4,3,3,5,0,0
258489,-66.6666666666667,4,3,3,70,0,0
259179,-100,4,3,3,70,0,0
259437,-100,4,3,3,5,0,0
259524,-100,4,3,3,70,0,0
259610,-66.6666666666667,4,3,3,70,0,0
260041,-66.6666666666667,4,3,3,5,0,0
260127,-66.6666666666667,4,3,3,70,0,0
260299,-66.6666666666667,4,3,3,5,0,0
260386,-66.6666666666667,4,3,3,70,0,0
261075,-100,4,3,3,70,0,0
261937,-66.6666666666667,4,3,3,70,0,0
262024,-100,4,3,3,70,0,0
262799,-100,4,3,3,5,0,0
262886,-100,4,3,3,70,0,0
263058,-100,4,3,3,5,0,0
263144,-66.6666666666667,4,3,3,70,0,0
263403,-66.6666666666667,4,3,3,5,0,0
263489,-66.6666666666667,4,3,3,70,0,0
263661,-100,4,3,3,70,0,0
263920,-100,4,3,3,5,0,0
264006,-133.333333333333,4,3,3,70,0,0
264696,-100,4,3,3,70,0,0
264868,-100,4,3,3,65,0,0
265041,-100,4,3,3,60,0,0
265386,-66.6666666666667,4,3,3,70,0,0
265558,-66.6666666666667,4,3,3,5,0,0
265644,-66.6666666666667,4,3,3,70,0,0
265817,-66.6666666666667,4,3,3,5,0,0
265903,-100,4,3,3,70,0,0
267713,-100,4,3,3,5,0,0
267799,-100,4,3,3,70,0,0
268317,-100,4,3,3,5,0,0
268403,-100,4,3,3,70,0,0
268575,-100,4,3,3,5,0,0
268661,-66.6666666666667,4,3,3,70,0,0
268920,-66.6666666666667,4,3,3,5,0,0
269006,-66.6666666666667,4,3,3,70,0,0
269179,-100,4,3,3,70,0,0
269437,-100,4,3,3,5,0,0
269524,-100,4,3,3,70,0,0
269696,-100,4,3,3,5,0,0
269782,-100,4,3,3,70,0,0
269955,-100,4,3,3,5,0,0
270041,-100,4,3,3,73,0,0
272972,-100,4,3,3,73,0,0
273230,-100,4,3,3,76,0,0
273489,-100,4,3,3,79,0,0
273748,-100,4,3,3,81,0,0
274006,-100,4,3,3,83,0,0
274179,-100,4,3,3,85,0,0
274351,-133.333333333333,4,3,2,60,0,0
274437,-133.333333333333,4,3,2,10,0,0
274524,-133.333333333333,4,3,2,55,0,0
274610,-133.333333333333,4,3,2,10,0,0
274696,-133.333333333333,4,3,2,50,0,0
274782,-133.333333333333,4,3,2,10,0,0
274868,-133.333333333333,4,3,2,45,0,0
274954,-133.333333333333,4,3,2,10,0,0
275041,-133.333333333333,4,3,2,40,0,0
275127,-133.333333333333,4,3,2,10,0,0
275213,-142.857142857143,4,3,2,35,0,0
275299,-142.857142857143,4,3,2,10,0,0
275386,-250,4,3,2,30,0,0
275644,-250,4,3,2,10,0,0
275730,-500,4,2,2,25,0,0
297799,-500,4,2,2,15,0,0
303834,-500,4,2,2,15,0,0
314868,-500,4,2,2,10,0,0
317627,-500,4,2,2,10,0,0
319179,-500,4,2,2,5,0,0

[Colours]
Combo1 : 154,154,154
Combo2 : 81,255,124
Combo3 : 62,236,255
Combo4 : 47,255,187
Combo5 : 0,202,121
Combo6 : 190,190,190

[HitObjects]
0,20,2726,70,0,P|1:9|0:-4,1,20.5,2|0,0:0|0:0,0:0:0:0:
1,110,3087,6,0,P|10:142|44:184,1,82,2|2,0:0|0:0,0:0:0:0:
39,180,4172,2,0,P|28:175|16:172,1,20.5,2|0,0:0|0:0,0:0:0:0:
102,252,4533,70,0,P|135:253|185:233,1,82,2|2,0:0|0:0,0:0:0:0:
180,237,5617,2,0,P|172:245|165:256,1,20.5,2|0,0:0|0:0,0:0:0:0:
278,222,5979,6,0,P|289:190|286:136,1,82,2|2,0:0|0:0,0:0:0:0:
288,142,7063,2,0,P|293:151|302:161,1,20.5,2|0,0:0|0:0,0:0:0:0:
330,43,7425,70,0,P|303:22|251:8,1,82,2|2,0:0|0:0,0:0:0:0:
257,8,8509,6,0,P|272:26|274:30,1,20.5,2|0,0:0|0:0,0:0:0:0:
192,72,8870,2,0,P|184:93|181:96,1,20.5,2|0,0:0|0:0,0:0:0:0:
104,46,9232,2,0,P|81:49|56:47,1,41,2|2,0:0|0:0,0:0:0:0:
63,48,9955,70,0,P|80:33|84:31,1,20.5,2|0,0:0|0:0,0:0:0:0:
87,139,10316,2,0,P|108:146|111:149,1,20.5,2|0,0:0|0:0,0:0:0:0:
36,220,10678,2,0,P|39:242|37:268,1,41,2|2,0:0|0:0,0:0:0:0:
38,260,11401,6,0,P|34:237|34:233,1,20.5,2|0,0:0|0:0,0:0:0:0:
128,210,11762,2,0,P|145:195|149:193,1,20.5,2|0,0:0|0:0,0:0:0:0:
227,255,12123,2,0,P|248:262|269:278,1,41,2|2,0:0|0:0,0:0:0:0:
263,273,12846,70,0,P|241:265|238:262,1,20.5,2|0,0:0|0:0,0:0:0:0:
177,192,13207,2,0,P|173:169|173:165,1,20.5,2|0,0:0|0:0,0:0:0:0:
188,79,13569,2,0,P|205:64|229:54,1,41,2|2,0:0|0:0,0:0:0:0:
221,56,14111,2,0,P|235:68|243:74,2,20.5,0|2|0,0:0|0:0|0:0,0:0:0:0:
307,12,14654,6,0,P|348:9|392:23,1,82,2|2,0:0|0:0,0:0:0:0:
386,20,15557,2,0,P|398:5|403:-3,2,20.5,0|2|0,0:0|0:0|0:0,0:0:0:0:
451,94,16099,70,0,P|454:135|440:179,1,82,2|2,0:0|0:0,0:0:0:0:
442,173,17004,2,0,P|457:184|465:190,2,20.5,0|2|0,0:0|0:0|0:0,0:0:0:0:
388,262,17545,6,0,P|347:265|303:251,1,82,2|2,0:0|0:0,0:0:0:0:
308,253,18449,2,0,P|297:267|291:275,2,20.5,0|2|0,0:0|0:0|0:0,0:0:0:0:
201,228,18992,70,0,P|198:187|212:143,1,82,2|2,0:0|0:0,0:0:0:0:
209,148,20075,6,0,P|196:156|186:164,1,20.5,2|0,0:0|0:0,0:0:0:0:
268,72,20437,2,0,P|254:64|242:59,1,20.5,2|0,0:0|0:0,0:0:0:0:
363,84,20798,2,0,P|362:68|359:42,1,41,2|2,0:0|0:0,0:0:0:0:
359,43,21521,70,0,P|351:29|343:19,1,20.5,2|0,0:0|0:0,0:0:0:0:
411,133,21883,2,0,P|418:119|423:107,1,20.5,2|0,0:0|0:0,0:0:0:0:
379,232,22244,2,0,P|394:231|421:228,1,41,2|2,0:0|0:0,0:0:0:0:
419,228,22967,6,0,P|432:220|442:212,1,20.5,2|0,0:0|0:0,0:0:0:0:
323,284,23329,2,0,P|336:291|348:296,1,20.5,2|0,0:0|0:0,0:0:0:0:
200,291,23689,70,0,P|198:277|198:263,2,27.3333333333333,2|2|2,0:2|0:2|0:2,0:0:0:0:
129,158,24412,2,0,P|140:150|152:145,2,27.3333333333333,2|2|2,0:2|0:2|0:2,0:0:0:0:
218,64,25135,6,0,B|255:92|264:138|253:176|253:176|283:238|354:238|396:175|368:128,1,328,6|0,0:2|0:0,0:0:0:0:
152,155,29231,69,2,0:2:0:0:
152,155,29351,1,2,0:2:0:0:
152,155,29472,2,0,P|150:172|152:188,1,20.5,2|2,0:2|0:2,0:0:0:0:
102,260,30014,2,0,P|122:272|152:278,1,41,2|2,0:2|0:2,0:0:0:0:
212,350,30918,6,0,B|248:314|249:269|234:235|234:235|308:248|342:156|272:104|221:136,1,328,6|0,0:2|0:0,0:0:0:0:
231,130,35255,1,2,0:0:0:0:
231,130,36701,70,0,B|230:46|119:21|63:121|133:184|133:184|163:210|160:249,1,328,6|0,0:2|0:0,0:0:0:0:
160,235,40797,5,2,0:2:0:0:
160,235,40917,1,2,0:2:0:0:
160,235,41038,2,0,P|177:237|193:235,1,20.5,2|0,0:2|0:0,0:0:0:0:
237,342,41580,2,0,P|249:322|255:292,1,41,2|2,0:2|0:2,0:0:0:0:
300,167,42484,70,0,B|303:194|329:217|329:217|241:221|208:113|263:69|308:55,1,287,6|0,0:2|0:0,0:0:0:0:
401,144,45375,6,0,P|419:136|434:126,3,20.5,0|0|0|0,0:0|0:0|0:0|0:0,0:0:0:0:
428,244,46098,2,2,P|443:255|472:268,3,41
329,295,46821,2,2,P|326:314|332:364,3,61.499998123169
220,260,47544,69,2,0:2:0:0:
209,171,47724,1,2,0:2:0:0:
240,88,47906,1,2,0:2:0:0:
304,32,48086,1,2,0:2:0:0:
389,0,48267,6,0,P|440:-3|472:4,2,82,6|2|2,0:2|0:2|0:2,0:0:0:0:
240,88,51159,70,0,P|189:85|157:92,2,82,2|2|2,0:2|0:2|0:2,0:0:0:0:
424,201,53327,6,0,P|401:195|378:193,1,41,2|2,0:2|0:2,0:0:0:0:
294,203,54050,1,2,0:2:0:0:
232,176,59110,70,0,L|263:173,1,30.7499990615845,2|0,0:2|0:0,0:0:0:0:
359,164,59472,2,0,L|390:161,1,30.7499990615845,2|0,0:2|0:0,0:0:0:0:
246,272,59833,6,0,P|189:266|143:216,1,122.999996246338,2|2,0:2|0:2,0:0:0:0:
340,309,61279,2,0,P|305:357|244:377,1,122.999996246338,2|2,0:2|0:2,0:0:0:0:
414,241,62725,70,0,P|431:267|439:297,1,61.499998123169,2|2,0:2|0:2,0:0:0:0:
443,301,63267,1,2,0:2:0:0:
447,305,63448,2,0,L|457:179,1,122.999996246338,2|0,0:2|0:0,0:0:0:0:
387,91,64171,6,0,L|394:3,1,82,2|2,0:2|0:2,0:0:0:0:
283,219,64894,2,0,L|290:131,1,82,2|2,0:2|0:2,0:0:0:0:
290,137,65616,70,0,P|259:147|235:147,3,41
147,115,66339,2,0,P|123:92|111:72,3,41,0|0|0|0,0:0|0:0|0:0|0:0,0:0:0:0:
82,220,67062,6,0,P|113:210|137:210,1,41
225,242,67424,2,0,P|249:265|261:285,1,41,0|0,0:0|0:0,0:0:0:0:
197,142,67785,69,0,0:0:0:0:
192,55,67966,1,0,0:0:0:0:
280,16,68147,1,0,0:0:0:0:
352,89,68327,1,0,0:0:0:0:
106,41,68508,21,6,1:2:0:0:
256,192,69231,12,2,70677,2:2:0:0:
106,41,71400,6,0,P|71:110|57:34,1,205,2|2,1:2|0:2,0:0:0:0:
151,221,71942,1,0,1:0:0:0:
151,221,72033,1,0,1:0:0:0:
151,221,72122,6,2,P|69:213|17:269,1,153.750005865097,14|2,0:2|0:0,0:0:0:0:
336,162,72394,2,2,P|254:170|202:114,1,153.750005865097,2|2,0:2|0:0,0:0:0:0:
512,226,72665,6,2,B|456:194|359:210|401:294|372:404|199:373|162:301,1,410,2|2,1:2|0:0,0:0:0:0:
152,221,73117,1,0,1:0:0:0:
151,220,73207,1,0,1:0:0:0:
99,384,73388,1,2,0:2:0:0:
175,128,73568,37,8,0:2:0:0:
134,125,73660,1,0,0:0:0:0:
96,140,73750,1,0,0:0:0:0:
68,169,73840,1,0,0:0:0:0:
44,160,73930,5,0,0:0:0:0:
82,122,74020,1,0,0:0:0:0:
132,103,74110,1,0,0:0:0:0:
186,106,74201,1,0,0:0:0:0:
265,158,74291,6,0,P|279:90|189:15,1,153.75,4|0,1:2|0:0,0:0:0:0:
230,25,74653,2,0,L|282:21,1,51.25
512,134,74833,1,0,1:0:0:0:
512,134,74924,1,0,1:0:0:0:
512,134,75014,6,2,P|465:114|414:119,1,102.5,10|2,0:2|0:0,0:0:0:0:
324,368,75285,2,2,P|288:277|303:234,1,102.5,2|2,0:2|0:0,0:0:0:0:
489,242,75556,2,2,P|393:232|431:321,1,230.625008797646,2|2,1:2|0:1,0:0:0:0:
428,320,75918,1,0,1:0:0:0:
62,303,76098,38,0,B|177:293|177:293|184:285|184:285|288:276,1,230.625008797646,2|0,1:2|0:0,0:0:0:0:
49,182,76460,6,0,P|85:194|124:192,1,76.8750029325486,10|0,0:2|0:0,0:0:0:0:
181,115,76641,2,0,P|173:77|153:46,1,76.8750029325486,2|0,0:2|0:0,0:0:0:0:
12,93,76822,1,2,0:2:0:0:
12,93,76912,1,2,0:2:0:0:
12,93,77002,2,0,P|29:59|59:35,1,76.8750029325486,2|0,0:2|0:0,0:0:0:0:
486,97,77183,6,0,B|342:109|342:109|333:102|333:102|166:116,1,307.500011730195,2|2,1:2|0:2,0:0:0:0:
347,208,77725,1,0,1:0:0:0:
347,208,77816,1,0,1:0:0:0:
347,208,77906,6,2,L|512:193,1,153.750005865097,10|2,0:2|0:0,0:0:0:0:
28,129,78177,2,2,L|181:115,1,153.750005865097,2|2,0:2|0:0,0:0:0:0:
0,343,78448,38,2,P|48:245|188:342,1,307.500011730195,2|2,0:2|0:0,0:0:0:0:
98,330,78900,1,0,1:0:0:0:
98,330,78990,1,0,1:0:0:0:
310,310,79171,1,2,0:2:0:0:
39,148,79351,6,2,B|113:122|182:160|182:160|189:169|189:169|256:208|341:182,1,307.5,10|2,0:2|2:0,0:2:0:0:
471,100,80074,6,0,B|422:53|316:39|261:96|261:96|316:104|343:63,1,307.500011730195,4|0,1:2|0:0,0:0:0:0:
214,276,80617,1,0,1:0:0:0:
214,276,80707,1,0,1:0:0:0:
214,276,80798,6,2,P|307:283|348:252,1,102.5,10|2,0:2|0:0,0:0:0:0:
26,209,81069,2,2,P|75:199|124:214,1,102.5,2|2,0:2|0:0,0:0:0:0:
70,291,81340,1,2,1:2:0:0:
168,40,81520,37,8,0:2:0:0:
328,216,81701,1,0,1:0:0:0:
407,209,81791,2,0,L|470:203,1,51.25,0|0,1:0|0:0,0:0:0:0:
184,216,81972,1,0,1:0:0:0:
105,209,82062,2,0,L|41:203,1,51.25,0|0,1:0|0:0,0:0:0:0:
344,40,82243,5,8,0:2:0:0:
152,310,82423,1,0,1:0:0:0:
73,303,82515,2,0,L|9:297,1,51.25,0|0,1:0|0:0,0:0:0:0:
360,310,82695,1,0,1:0:0:0:
439,303,82786,2,0,L|502:297,1,51.25,0|0,1:0|0:0,0:0:0:0:
221,48,82966,54,0,P|256:112|292:48,1,179.375,2|0,1:2|0:0,0:0:0:0:
134,137,83689,2,0,P|120:102|119:64,1,76.8750029325486,12|0,0:2|0:0,0:0:0:0:
377,137,83870,1,0,1:0:0:0:
377,137,83960,2,0,P|391:102|393:64,1,76.8750029325486,12|0,0:2|0:0,0:0:0:0:
429,361,84231,6,2,P|423:271|317:229,1,205,2|2,1:2|0:0,0:0:0:0:
345,319,84683,1,0,1:0:0:0:
345,319,84774,1,0,1:0:0:0:
377,137,84954,1,2,0:2:0:0:
139,242,85135,5,8,0:2:0:0:
170,239,85225,1,0,0:0:0:0:
201,236,85315,1,0,0:0:0:0:
231,234,85406,1,0,0:0:0:0:
258,251,85496,5,2,0:2:0:0:
212,255,85587,1,2,0:2:0:0:
166,259,85677,1,2,0:2:0:0:
120,264,85767,1,2,0:2:0:0:
56,328,85858,6,0,B|24:304|16:248|32:208|80:176|80:176|160:120|80:0,1,307.500011730195,6|0,1:2|0:0,0:0:0:0:
263,151,86400,1,0,1:0:0:0:
263,151,86490,1,0,1:0:0:0:
263,151,86580,38,2,P|225:87|245:15,1,153.750005865097,10|2,0:2|0:0,0:0:0:0:
472,48,86851,2,2,P|400:40|318:76,1,153.750005865097,2|2,0:2|0:0,0:0:0:0:
408,248,87122,6,2,P|382:156|473:182,1,230.625008797646,2|2,0:2|0:1,0:0:0:0:
497,282,87484,1,0,1:0:0:0:
279,154,87665,2,0,B|266:202|284:255|284:255|291:264|291:264|309:331|280:376,1,230.625008797646,2|0,1:2|0:0,0:0:0:0:
183,129,88026,6,0,P|208:79|265:46,1,76.8750029325486,10|0,0:2|0:0,0:0:0:0:
150,234,88207,2,0,P|179:281|179:347,1,76.8750029325486,2|0,0:2|0:0,0:0:0:0:
0,149,88388,1,2,0:2:0:0:
0,149,88478,1,2,0:2:0:0:
0,149,88568,2,0,P|37:157|75:153,1,76.8750029325486,2|0,0:2|0:0,0:0:0:0:
506,53,88749,6,0,B|450:117|362:65|362:65|355:74|355:74|282:29|205:78,1,307.500011730195,2|2,1:2|0:2,0:0:0:0:
292,160,89292,1,0,1:0:0:0:
292,160,89382,1,0,1:0:0:0:
292,160,89472,38,2,P|228:224|236:296,1,153.750005865097,10|2,0:2|0:0,0:0:0:0:
61,268,89743,2,2,P|123:310|136:384,1,153.750005865097,2|2,0:2|0:0,0:0:0:0:
120,3,90014,6,2,P|80:107|152:195,1,205,2|2,0:2|0:0,0:0:0:0:
280,152,90466,1,0,1:0:0:0:
280,152,90557,1,0,1:0:0:0:
232,288,90737,1,2,0:2:0:0:
496,240,90918,6,2,B|500:122|372:125|372:125|385:175|360:224|320:240,1,307.5,10|2,0:2|2:2,0:2:0:0:
248,16,91641,6,0,B|235:159|235:159|226:166|226:166|213:318,1,307.500011730195,6|0,1:2|0:0,0:0:0:0:
148,107,92183,1,0,1:0:0:0:
148,107,92274,1,0,1:0:0:0:
148,107,92363,38,2,P|97:107|56:136,1,102.5,10|2,0:2|0:0,0:0:0:0:
337,51,92635,2,2,P|287:47|248:15,1,102.5,2|2,0:2|0:0,0:0:0:0:
432,0,92906,1,2,1:2:0:0:
432,232,93087,5,8,0:2:0:0:
420,96,93268,1,8,0:2:0:0:
192,280,93448,5,8,0:2:0:0:
204,144,93629,1,8,0:2:0:0:
320,280,93810,5,8,0:2:0:0:
308,144,93991,1,8,0:2:0:0:
80,232,94171,37,8,0:2:0:0:
92,96,94352,1,8,0:2:0:0:
72,336,94532,6,0,B|224:349|224:349|231:358|231:358|374:371,1,307.500011730195,6|2,1:2|0:2,0:0:0:0:
376,376,95797,5,0,1:0:0:0:
376,376,95887,1,0,1:0:0:0:
376,376,95978,2,0,L|280:385,1,76.8750029325486,12|0,0:2|0:0,0:0:0:0:
384,288,96159,2,2,L|460:295,1,76.8750029325486,2|2,0:2|0:0,0:0:0:0:
400,200,96340,2,0,B|364:193|336:211|336:211|323:209|323:209|321:222|321:222|293:251|293:289,1,153.75
115,347,96701,6,2,B|238:362|238:362|189:329,1,153.750005865097,2|2,0:2|1:0,0:0:0:0:
99,173,96972,2,2,B|-24:158|-24:158|25:191,1,153.750005865097,2|2,0:2|1:0,0:0:0:0:
107,260,97243,37,2,1:2:0:0:
99,173,97333,1,2,0:2:0:0:
91,86,97424,6,0,B|274:69,1,153.750005865097,6|0,1:2|0:0,0:0:0:0:
244,71,97966,2,2,L|247:108,2,38.4375014662743,2|2|2,0:2|3:0|0:0,0:0:0:0:
472,184,98147,2,0,B|318:173,1,153.750005865097,2|0,0:2|0:0,0:0:0:0:
107,264,98509,5,2,1:2:0:0:
221,249,98629,5,0,1:0:0:0:
152,156,98749,37,0,1:0:0:0:
208,344,98869,6,0,B|244:351|272:333|272:333|285:335|285:335|287:322|287:322|315:293|315:255,1,153.75,10|0,0:2|0:0,0:0:0:0:
314,268,99412,1,0,1:0:0:0:
424,8,99592,6,2,B|304:-2|304:-2|261:33,1,153.750005865097,2|2,0:2|1:0,0:0:0:0:
335,187,99864,2,2,B|455:197|455:197|498:162,1,153.750005865097,2|2,0:2|1:0,0:0:0:0:
418,101,100134,2,0,L|282:89,1,76.8750029325486,2|0,0:2|0:0,0:0:0:0:
205,81,100316,6,2,P|189:154|253:258,1,153.750005865097,6|2,1:2|0:0,0:0:0:0:
216,225,101038,38,2,L|114:234,1,102.5,2|2,1:2|0:0,0:0:0:0:
300,322,101581,5,0,1:0:0:0:
388,315,101672,1,0,1:0:0:0:
476,307,101761,2,0,P|512:248|504:192,1,76.8750029325486,8|0,0:2|0:0,0:0:0:0:
379,163,101942,2,2,P|412:223|464:244,1,76.8750029325486,2|2,0:2|0:0,0:0:0:0:
416,40,102123,1,0,0:0:0:0:
416,40,102484,6,2,B|442:61|442:61|298:74,1,153.750005865097,2|2,0:2|1:0,0:0:0:0:
111,118,102755,2,2,B|88:91|88:91|232:103,1,153.750005865097,2|2,0:2|1:2,0:0:0:0:
205,100,103207,6,0,P|211:150|199:199,1,102.5,6|0,0:2|0:0,0:0:0:0:
199,199,103749,2,2,L|236:196,2,38.4375014662743,2|2|2,3:2|3:0|3:0,3:0:0:0:
160,304,103930,2,0,B|314:315,1,153.750005865097,2|0,0:2|0:0,0:0:0:0:
394,117,104292,37,2,1:2:0:0:
400,232,104412,5,0,1:0:0:0:
498,168,104532,5,0,1:0:0:0:
290,66,104653,6,2,B|186:75|186:75|171:84|171:84|35:96,1,230.625008797646,10|2,0:2|0:2,0:0:0:0:
62,93,105195,2,0,P|88:152|72:224,1,76.8750029325486,0|2,1:0|0:2,0:0:0:0:
32,248,105376,37,8,0:2:0:0:
264,176,105557,5,0,1:0:0:0:
264,176,105648,1,10,0:2:0:0:
416,368,105828,5,0,1:0:0:0:
416,368,105919,1,14,0:2:0:0:
317,1,106821,5,2,1:2:0:0:
464,165,107002,1,2,1:2:0:0:
464,165,107093,1,0,1:0:0:0:
451,30,107273,37,0,1:2:0:0:
248,116,107454,1,0,1:0:0:0:
248,116,107544,1,10,0:2:0:0:
130,282,107725,6,2,P|133:244|153:211,1,76.8750029325486
336,192,107906,2,0,B|302:199|302:199|271:233|239:262|239:262|232:296,1,153.75,2|0,0:2|0:0,0:0:0:0:
247,115,108267,6,2,P|292:99|356:117,1,76.8750029325486
130,282,108538,2,2,P|133:244|153:211,1,76.8750029325486
16,24,108809,5,2,1:2:0:0:
8,111,108899,1,2,1:2:0:0:
0,198,108990,38,0,B|153:212,1,153.750005865097,4|0,1:2|0:0,0:0:0:0:
368,40,109533,2,2,L|415:44,2,38.4375014662743,2|2|2,3:2|3:0|3:0,3:0:0:0:
269,32,109713,2,0,B|257:176|257:176|263:192|263:192|250:352,1,307.5,0|0,0:2|0:0,0:0:0:0:
39,319,110075,5,2,1:2:0:0:
150,267,110195,5,0,1:0:0:0:
251,337,110316,5,0,1:0:0:0:
393,328,110436,38,2,B|466:310|466:310|299:295|299:295|250:336,1,307.500011730195,10|2,0:2|0:0,0:0:0:0:
464,216,110978,2,0,L|328:204,1,76.8750029325486,0|0,1:0|0:0,0:0:0:0:
179,0,111159,6,2,B|143:11|125:36|125:36|115:38|115:38|116:48|116:48|99:73|100:111,1,153.750005865097,2|2,0:2|1:2,0:2:0:0:
336,136,111430,2,2,B|344:99|331:71|331:71|335:61|335:61|325:57|325:57|312:30|279:12,1,153.750005865097,2|2,0:2|1:0,0:0:0:0:
139,203,111701,1,0,0:0:0:0:
139,203,111792,1,0,0:0:0:0:
139,203,111881,6,2,B|224:209|224:209|232:219|232:219|380:232|380:232|320:314|320:314|275:223,1,410,6|2,1:2|0:0,0:0:0:0:
432,312,112786,5,0,0:2:0:0:
210,330,112966,1,0,0:2:0:0:
304,130,113147,1,0,1:0:0:0:
304,130,113237,1,0,1:0:0:0:
304,130,113327,37,10,0:2:0:0:
477,125,113508,2,2,L|389:132,1,76.8750029325486
217,28,113689,2,0,L|376:41,1,153.75
133,82,114050,6,2,B|13:92|13:92|81:116,1,153.750005865097,2|2,0:2|1:0,0:0:0:0:
117,256,114322,2,2,B|236:245|236:245|169:222,1,153.750005865097,2|2,0:2|1:2,0:0:0:0:
477,125,114773,6,0,B|445:141|359:133|334:103|334:103|372:87|403:106,1,205,6|0,1:2|0:0,0:0:0:0:
465,228,115316,5,8,0:2:0:0:
465,228,115406,1,8,0:2:0:0:
465,228,115496,2,0,P|403:231|352:217,1,102.5,10|0,0:2|0:0,0:0:0:0:
205,303,115767,2,0,P|255:295|305:303,1,102.5,10|0,0:2|0:0,0:0:0:0:
480,321,116038,2,0,P|441:325|403:321,1,51.25,10|0,0:2|0:0,0:0:0:0:
47,228,116219,38,0,P|109:231|160:217,1,102.5,10|0,0:2|0:0,0:0:0:0:
306,303,116490,2,0,P|255:295|205:303,1,102.5,10|0,0:2|0:0,0:0:0:0:
32,321,116761,2,0,P|71:325|109:321,1,51.25,10|0,0:2|0:0,0:0:0:0:
327,124,116942,6,0,P|256:149|185:124,1,153.75,10|8,0:2|0:2,0:0:0:0:
432,40,117304,1,8,0:2:0:0:
434,65,117394,1,8,0:2:0:0:
436,91,117484,1,8,0:2:0:0:
438,116,117575,1,8,0:2:0:0:
440,142,117665,37,4,1:2:0:0:
440,142,118208,1,0,1:0:0:0:
438,167,118298,1,0,1:0:0:0:
436,192,118388,2,0,L|432:237,1,41,8|0,0:2|0:2,0:0:0:0:
380,360,118930,6,0,L|376:314,1,41,0|0,1:2|0:0,0:0:0:0:
344,168,119472,2,0,L|342:188,1,20.5,0|0,1:0|0:0,0:0:0:0:
261,384,119834,2,0,L|251:280,1,92.2499971847535,8|0,0:2|0:0,0:0:0:0:
243,200,120556,69,0,1:0:0:0:
243,200,121098,1,0,1:0:0:0:
245,175,121189,1,0,1:0:0:0:
247,150,121279,2,0,L|251:105,1,41,8|0,0:2|0:0,0:0:0:0:
125,27,121822,5,0,1:2:0:0:
125,27,122183,1,0,1:0:0:0:
95,173,122364,1,0,1:0:0:0:
95,173,122725,2,0,L|99:234,1,61.499998123169,8|0,0:2|0:0,0:0:0:0:
250,109,123448,69,2,0:2:0:0:
250,109,123990,1,0,1:0:0:0:
252,134,124080,1,0,1:0:0:0:
254,159,124171,2,0,L|258:204,1,41,8|0,0:2|0:0,0:0:0:0:
373,69,124713,6,0,L|377:24,1,41,0|0,1:0|0:0,0:0:0:0:
444,162,125256,2,0,L|445:182,1,20.5,0|0,1:0|0:0,0:0:0:0:
301,369,125617,2,0,L|311:248,1,92.2499971847535,8|0,0:2|0:0,0:0:0:0:
320,172,126340,69,0,1:0:0:0:
128,256,126882,1,0,1:0:0:0:
130,281,126972,1,0,1:0:0:0:
132,306,127062,2,0,L|136:351,1,41,8|0,0:2|0:0,0:0:0:0:
352,275,127605,5,0,1:0:0:0:
352,275,127966,1,0,1:0:0:0:
288,138,128147,1,0,1:0:0:0:
288,138,128508,2,0,L|293:67,1,61.5,8|0,0:2|0:0,0:0:0:0:
128,256,129231,69,0,1:2:0:0:
352,274,129773,1,0,1:0:0:0:
377,272,129864,1,0,1:0:0:0:
402,270,129954,2,0,L|447:266,1,41,8|0,0:2|0:0,0:0:0:0:
288,138,130496,6,0,L|243:134,1,41,0|0,1:0|0:0,0:0:0:0:
384,16,131039,2,0,L|420:12,1,20.5,0|0,1:0|0:0,0:0:0:0:
219,264,131400,2,0,L|108:254,1,92.2499971847535,8|0,0:2|0:0,0:0:0:0:
35,246,132122,69,0,1:0:0:0:
247,134,132665,1,0,1:0:0:0:
272,132,132755,1,0,1:0:0:0:
297,130,132846,2,0,L|358:124,1,41,8|0,0:2|0:0,0:0:0:0:
465,113,133388,5,0,1:0:0:0:
401,280,133749,1,0,1:0:0:0:
465,113,133930,1,0,1:0:0:0:
219,264,134291,2,0,L|150:257,1,61.5,8|0,0:2|0:0,0:0:0:0:
52,59,135014,69,0,1:2:0:0:
52,59,135557,1,0,1:0:0:0:
77,57,135647,1,0,1:0:0:0:
102,55,135737,2,0,L|147:51,1,41,8|0,0:2|0:0,0:0:0:0:
288,138,136280,6,0,L|243:134,1,41,0|0,1:0|0:0,0:0:0:0:
137,259,136821,2,0,L|162:256,1,20.5,0|0,1:0|0:0,0:0:0:0:
379,146,137183,2,0,L|277:136,1,92.2499971847535,8|0,0:2|0:0,0:0:0:0:
148,123,137906,69,0,1:0:0:0:
46,267,138448,1,0,1:0:0:0:
71,265,138538,1,0,1:0:0:0:
96,263,138629,2,0,L|157:257,1,41,8|0,0:2|0:0,0:0:0:0:
365,365,139171,5,0,1:0:0:0:
237,353,139533,1,0,1:0:0:0:
365,365,139713,1,0,1:0:0:0:
440,139,140075,2,0,L|378:145,1,41,8|0,0:2|0:0,0:0:0:0:
475,267,140797,70,0,B|443:266|413:248|413:248|381:257|355:277|355:277|321:256|281:259|281:259|216:338|64:230|195:98|273:164|273:164|299:186|298:231,1,573.999982482911,6|0,0:2|0:0,0:0:0:0:
67,169,144954,5,2,0:2:0:0:
81,133,145044,1,2,0:2:0:0:
104,103,145135,2,0,P|139:73|180:54,1,76.8750029325486,2|2,0:2|0:2,0:0:0:0:
68,275,145677,69,0,0:0:0:0:
194,384,146039,2,0,P|150:368|113:342,1,76.8750029325486,2|0,0:2|0:0,0:0:0:0:
183,236,146580,6,0,B|214:241|232:289|232:289|198:290|179:271|179:271|97:189|233:33|369:189|288:271,1,491.999984985352,6|0,0:2|0:0,0:0:0:0:
288,270,150918,1,2,0:0:0:0:
339,346,152363,70,0,B|387:306|386:262|376:206|313:184|313:184|365:123|298:47|237:69|214:111,1,410,6|0,0:2|0:0,0:0:0:0:
450,359,156520,5,2,0:2:0:0:
467,324,156610,1,2,0:2:0:0:
474,287,156701,2,0,P|472:240|459:197,1,76.8750029325486,2|2,0:2|0:2,0:0:0:0:
352,6,157243,2,0,P|399:48|422:104,1,102.5,2|2,0:2|0:2,0:0:0:0:
330,165,158147,70,0,B|337:106|296:51|206:71|206:71|226:133|172:219|65:194|22:122|63:51,1,491.999984985352,6|0,0:2|0:0,0:0:0:0:
56,64,163207,5,2,0:2:0:0:
127,108,163388,1,2,0:2:0:0:
172,187,163569,1,2,0:2:0:0:
179,283,163749,1,2,0:2:0:0:
131,366,163930,70,0,P|210:374|253:347,2,122.999996246338,6|2|2,0:2|0:2|0:2,0:0:0:0:
388,221,166821,6,0,P|307:226|266:202,2,122.999996246338,2|2|2,0:2|0:2|0:2,0:0:0:0:
80,70,168990,70,0,P|140:80|195:59,1,61.499998123169,2|2,0:2|0:2,0:0:0:0:
237,37,169713,1,2,0:2:0:0:
143,183,174774,6,0,L|140:214,1,30.7499990615845,2|0,0:2|0:0,0:0:0:0:
131,310,175134,2,0,L|128:341,1,30.7499990615845,2|0,0:2|0:0,0:0:0:0:
223,120,175496,70,0,P|191:92|110:90,1,122.999996246338,6|2,0:2|0:2,0:0:0:0:
314,156,176942,2,0,P|322:114|283:43,1,122.999996246338,2|2,0:2|0:2,0:0:0:0:
325,251,178388,6,0,P|379:226|407:175,1,61.499998123169,2|2,0:2|0:2,0:0:0:0:
388,234,178930,1,2,0:2:0:0:
388,234,179110,2,0,L|398:364,1,123,2|2,0:2|0:2,0:0:0:0:
309,135,179834,2,0,L|228:97,1,82,2|2,0:2|0:2,0:0:0:0:
434,116,180556,2,0,L|506:65,1,82,2|2,0:2|0:2,0:0:0:0:
500,68,181279,70,0,L|503:117,1,41,2|0,0:0|0:0,0:0:0:0:
512,204,181641,1,10,0:0:0:0:
465,290,181821,2,0,L|468:316,1,25.625,0|0,0:0|0:0,0:0:0:0:
397,218,182002,6,0,L|402:167,1,51.25,2|0,0:0|0:0,0:0:0:0:
410,76,182363,2,0,L|412:50,1,25.625,10|0,0:0|0:0,0:0:0:0:
322,32,182544,2,0,L|324:6,1,25.625,0|0,0:0|0:0,0:0:0:0:
236,60,182725,70,0,L|240:114,1,51.25,2|0,0:0|0:0,0:0:0:0:
305,188,183086,1,10,0:0:0:0:
194,306,183267,2,0,L|196:273,1,30.7499990615845
134,197,183448,6,0,L|140:135,1,61.499998123169,2|0,0:0|0:0,0:0:0:0:
223,50,183809,2,0,L|228:-9,1,30.7499990615845,10|0,0:0|0:0,0:0:0:0:
132,40,183990,2,0,L|137:-18,1,30.7499990615845,0|0,0:0|0:0,0:0:0:0:
41,114,184171,70,0,L|36:53,1,61.499998123169,2|0,0:0|0:0,0:0:0:0:
49,206,184533,1,10,0:0:0:0:
212,149,184713,5,0,0:0:0:0:
212,149,184803,1,0,0:0:0:0:
212,149,184894,2,0,L|205:237,1,71.7499978103638,2|0,0:0|0:0,0:0:0:0:
320,348,185255,70,0,L|324:402,1,35.8749989051819,10|0,0:0|0:0,0:0:0:0:
308,205,185436,2,0,L|312:259,1,35.8749989051819,0|0,0:0|0:0,0:0:0:0:
440,149,185616,5,2,0:0:0:0:
440,149,185706,1,0,0:0:0:0:
440,149,185797,2,0,L|438:186,1,35.8749989051819
312,241,185978,2,0,L|306:178,1,35.8749989051819,10|0,0:0|0:0,0:0:0:0:
416,300,186159,69,0,0:0:0:0:
425,307,186248,1,0,0:0:0:0:
425,307,186339,2,2,L|422:347,1,35.8749989051819,8|2,0:2|0:2,0:2:0:0:
324,383,186521,2,2,L|318:320,1,35.8749989051819,10|2,0:2|0:2,0:2:0:0:
170,318,186701,21,2,0:2:0:0:
164,258,186791,1,2,0:2:0:0:
158,201,186881,1,2,0:2:0:0:
153,144,186972,1,2,0:2:0:0:
148,88,187062,70,0,L|139:2,2,51.25,6|0|0,0:0|0:0|0:0,0:0:0:0:
53,160,187424,1,10,0:0:0:0:
258,179,187604,69,0,0:0:0:0:
256,155,187695,2,0,L|247:69,1,51.25,0|2,0:0|0:0,0:0:0:0:
148,88,187875,5,0,0:0:0:0:
146,64,187966,1,0,0:0:0:0:
251,105,188147,69,10,0:0:0:0:
360,129,188327,1,0,0:0:0:0:
362,105,188418,1,0,0:0:0:0:
364,81,188508,6,0,L|371:9,2,51.25,2|0|0,0:0|0:0|0:0,0:0:0:0:
459,160,188869,1,10,0:0:0:0:
254,179,189047,69,0,0:0:0:0:
256,156,189137,2,0,L|260:104,1,51.25,0|2,0:0|0:0,0:0:0:0:
364,88,189318,5,0,0:0:0:0:
366,64,189407,1,0,0:0:0:0:
356,180,189586,70,0,L|352:232,1,51.25,10|0,0:0|0:0,0:0:0:0:
173,279,189766,2,0,L|177:227,1,51.25,2|0,0:0|0:0,0:0:0:0:
259,104,189946,6,0,L|266:32,2,51.25,2|0|0,0:0|0:0|0:0,0:0:0:0:
352,231,190304,1,10,0:0:0:0:
173,279,190482,69,0,0:0:0:0:
171,255,190572,2,0,L|166:203,1,51.25,0|2,0:0|0:0,0:0:0:0:
272,323,190750,5,0,0:0:0:0:
270,347,190840,1,0,0:0:0:0:
352,231,191018,1,10,0:0:0:0:
469,229,191197,69,0,0:0:0:0:
467,205,191287,1,0,0:0:0:0:
465,181,191375,6,0,L|459:109,2,51.25,2|0|0,0:0|0:0|0:0,0:0:0:0:
450,24,191732,1,10,0:0:0:0:
262,0,191911,69,0,0:0:0:0:
260,24,192000,2,0,L|255:75,1,51.25,0|2,0:0|0:0,0:0:0:0:
369,132,192179,5,0,0:0:0:0:
367,108,192268,1,0,0:0:0:0:
365,84,192357,2,0,L|360:32,1,51.25,8|10,0:0|0:0,0:0:0:0:
156,81,192536,69,8,0:0:0:0:
153,105,192626,1,8,0:0:0:0:
151,129,192714,1,8,0:0:0:0:
149,153,192807,6,0,L|143:210,1,51.25,2|0,0:0|0:0,0:0:0:0:
256,192,192984,1,0,0:0:0:0:
36,113,193161,1,10,0:0:0:0:
65,346,193338,69,0,0:0:0:0:
61,309,193426,2,0,L|56:257,1,51.25,0|2,0:0|0:0,0:0:0:0:
268,255,193603,5,0,0:0:0:0:
264,292,193691,1,0,0:0:0:0:
153,105,193869,69,10,0:0:0:0:
359,105,194046,1,0,0:0:0:0:
361,129,194134,1,0,0:0:0:0:
363,153,194223,6,0,L|369:210,1,51.25,2|0,0:0|0:0,0:0:0:0:
256,192,194399,1,0,0:0:0:0:
476,113,194576,1,10,0:0:0:0:
447,346,194752,69,0,0:0:0:0:
451,309,194840,2,0,L|455:257,1,51.25,0|2,0:0|0:0,0:0:0:0:
244,255,195017,5,0,0:0:0:0:
248,292,195105,1,0,0:0:0:0:
276,95,195282,70,0,L|272:44,1,51.25,10|0,0:0|0:0,0:0:0:0:
146,100,195458,1,2,0:0:0:0:
143,138,195547,1,0,0:0:0:0:
140,176,195635,6,0,L|133:248,1,51.25,2|0,0:0|0:0,0:0:0:0:
256,192,195811,1,0,0:0:0:0:
356,384,195988,1,10,0:0:0:0:
480,164,196165,69,0,0:0:0:0:
476,212,196253,2,0,L|471:263,1,51.25,0|2,0:0|0:0,0:0:0:0:
256,56,196429,5,0,0:0:0:0:
260,104,196518,1,0,0:0:0:0:
39,202,196694,69,10,0:0:0:0:
149,384,196871,1,0,0:0:0:0:
145,336,196959,1,0,0:0:0:0:
141,288,197047,6,0,L|134:216,1,51.25,2|0,0:0|0:0,0:0:0:0:
127,146,197222,1,0,0:0:0:0:
256,16,197397,1,10,0:0:0:0:
376,188,197573,1,0,0:0:0:0:
372,236,197661,1,0,0:0:0:0:
368,284,197748,70,0,L|361:356,1,51.25,10|0,0:0|0:0,0:0:0:0:
144,288,197924,2,0,L|151:360,1,51.25,10|0,0:0|0:0,0:0:0:0:
380,136,198099,6,0,L|373:208,1,51.25,8|0,0:0|0:0,0:0:0:0:
131,137,198275,2,0,L|138:209,1,51.25,10|0,0:0|0:0,0:0:0:0:
256,16,198450,5,6,0:3:0:0:
256,16,198624,1,0,0:0:0:0:
395,31,198798,5,8,0:0:0:0:
395,31,198972,1,0,0:0:0:0:
473,111,199147,5,0,0:3:0:0:
473,111,199321,1,0,0:0:0:0:
480,200,199496,5,8,0:0:0:0:
480,200,199670,1,0,0:0:0:0:
439,258,199845,37,0,0:3:0:0:
439,258,200019,1,0,0:0:0:0:
385,272,200194,5,8,0:0:0:0:
385,272,200368,1,0,0:0:0:0:
345,252,200543,5,0,0:3:0:0:
345,252,200717,1,0,0:0:0:0:
332,218,200892,5,8,0:0:0:0:
332,218,201066,1,0,0:0:0:0:
342,190,201241,37,0,0:3:0:0:
363,177,201414,1,0,0:0:0:0:
383,179,201587,1,8,0:3:0:0:
395,190,201761,1,2,0:3:0:0:
256,136,201934,5,0,0:3:0:0:
240,108,202107,1,0,0:0:0:0:
242,82,202281,1,8,0:0:0:0:
256,67,202454,1,0,0:0:0:0:
184,224,202630,37,0,0:3:0:0:
141,248,202803,1,0,0:0:0:0:
100,245,202974,1,8,0:3:0:0:
78,224,203147,1,0,0:0:0:0:
332,218,203319,5,0,0:3:0:0:
366,277,203492,1,0,0:0:0:0:
362,335,203664,1,8,0:3:0:0:
332,366,203836,1,0,0:0:0:0:
441,154,204007,38,0,P|441:130|433:98,1,51.25,8|0,0:0|0:0,0:0:0:0:
337,82,204179,2,0,P|321:63|294:44,1,51.25,8|0,0:0|0:0,0:0:0:0:
223,91,204351,2,0,P|201:87|172:89,1,46.1249985923767,8|0,0:0|0:0,0:0:0:0:
149,163,204524,2,0,P|132:172|112:191,1,46.1249985923767,8|0,0:0|0:0,0:0:0:0:
139,254,204696,2,0,P|133:270|130:294,1,41,8|0,0:0|0:0,0:0:0:0:
184,322,204869,2,0,P|189:336|201:354,1,35.8749989051819,8|0,0:0|0:0,0:0:0:0:
254,342,205041,2,0,P|266:349|284:354,1,30.7499990615845,8|0,0:0|0:0,0:0:0:0:
313,315,205213,2,0,P|325:312|341:305,1,25.625,8|0,0:0|0:0,0:0:0:0:
336,261,205386,70,0,P|343:252|350:238,1,25.625,8|0,0:0|0:0,0:0:0:0:
320,209,205559,2,0,P|319:198|316:184,1,23.0624992961884,8|0,0:0|0:0,0:0:0:0:
278,182,205731,2,0,P|272:174|261:167,1,23.0624992961884,8|0,0:0|0:0,0:0:0:0:
233,188,205903,2,0,P|224:186|213:187,1,20.5,8|0,0:0|0:0,0:0:0:0:
202,221,206075,2,0,P|194:225|186:233,1,20.5,8|0,0:0|0:0,0:0:0:0:
199,261,206248,2,0,P|196:268|195:278,1,17.937499452591,8|0,0:0|0:0,0:0:0:0:
220,290,206420,2,0,P|222:296|227:304,1,15.3749995307922,8|0,0:0|0:0,0:0:0:0:
251,297,206593,2,0,P|256:300|264:302,1,15.3749995307922,8|0,0:0|0:0,0:0:0:0:
294,292,206765,5,8,0:0:0:0:
310,279,206851,1,8,0:0:0:0:
323,258,206937,1,8,0:0:0:0:
332,232,207023,1,8,0:0:0:0:
329,201,207109,1,8,0:0:0:0:
313,169,207196,1,8,0:0:0:0:
284,140,207282,1,8,0:0:0:0:
241,120,207368,1,8,0:0:0:0:
189,114,207455,1,8,0:0:0:0:
133,128,207540,1,8,0:0:0:0:
77,163,207627,1,8,0:0:0:0:
31,218,207713,1,8,0:0:0:0:
4,292,207800,2,0,P|0:342|0:373,1,51.25,8|0,0:0|0:0,0:0:0:0:
44,23,207972,37,8,0:0:0:0:
44,23,208058,1,8,0:0:0:0:
44,23,208144,2,0,B|95:54|151:32|151:32|208:10|259:41,1,225.500006881714,4|4,1:2|0:3,0:0:0:0:
44,23,209007,5,8,0:3:0:0:
77,37,209093,1,8,0:3:0:0:
113,41,209179,5,4,0:3:0:0:
149,33,209265,1,4,0:3:0:0:
184,24,209351,1,4,0:3:0:0:
221,25,209438,1,4,0:3:0:0:
254,38,209524,6,0,P|304:39|340:15,1,76.8750029325486,6|0,1:2|0:0,0:0:0:0:
106,143,209696,2,0,P|68:140|32:151,1,76.8750029325486
332,132,209868,2,0,B|275:151|204:128|204:128|220:156|240:172,1,153.750005865097,8|0,0:2|0:0,0:0:0:0:
502,265,210127,6,0,B|443:251|374:280|374:280|388:250|406:233,1,153.750005865097,0|0,1:0|0:0,0:0:0:0:
415,77,210386,2,0,P|434:116|432:157,1,76.8750029325486,0|0,1:0|0:0,0:0:0:0:
281,243,210558,1,8,0:2:0:0:
231,33,210730,37,0,0:0:0:0:
231,33,210817,2,0,P|300:62|331:131,1,153.750005865097
115,218,211075,2,0,P|106:143|148:85,1,76.8750029325486,0|0,1:2|0:0,0:0:0:0:
281,243,211248,1,8,0:2:0:0:
47,294,211420,5,0,0:0:0:0:
47,294,211506,2,0,B|79:328|134:330|167:298|167:298|149:303|118:293,1,153.750005865097,0|0,0:0|0:0,0:0:0:0:
331,131,211765,2,0,P|256:122|198:164,1,76.8750029325486,0|0,1:0|0:0,0:0:0:0:
281,243,211937,5,8,0:2:0:0:
303,240,212023,1,0,0:0:0:0:
326,238,212109,1,0,0:0:0:0:
349,236,212195,1,0,0:0:0:0:
371,233,212282,6,0,P|396:294|368:355,1,76.8750029325486,4|0,1:2|2:0,0:0:0:0:
256,122,212455,2,0,P|281:61|253:0,1,76.8750029325486,0|0,0:0|0:0,0:0:0:0:
278,340,212627,2,0,B|237:290|267:220|267:220|293:258|285:274,1,153.750005865097,8|0,0:2|1:0,0:0:0:0:
32,160,212886,38,0,P|97:196|171:180,1,153.750005865097,0|0,1:0|0:0,0:0:0:0:
280,51,213144,2,0,P|214:14|145:29,1,76.8750029325486,0|0,1:0|0:0,0:0:0:0:
376,128,213317,5,8,0:2:0:0:
377,105,213403,1,0,0:0:0:0:
379,83,213489,1,0,0:0:0:0:
381,61,213575,1,0,1:0:0:0:
214,274,213748,5,2,0:1:0:0:
214,274,213834,2,0,P|278:242|326:266,1,76.8750029325486,0|0,1:0|0:0,0:0:0:0:
376,128,214006,1,8,0:2:0:0:
377,332,214179,5,0,0:0:0:0:
377,332,214265,2,0,B|363:269|409:229|409:229|400:264|422:298,1,153.750005865097,0|0,1:0|0:2,0:0:0:0:
308,29,214524,2,0,P|368:0|422:12,1,76.8750029325486,0|0,1:0|0:0,0:0:0:0:
376,128,214696,70,0,L|378:96,1,30.75,8|0,0:2|0:0,0:0:0:0:
211,4,215041,54,0,P|219:78|277:123,1,76.8750029325486,4|0,1:2|0:0,0:0:0:0:
279,242,215213,2,0,P|285:167|237:112,1,76.8750029325486,0|0,0:0|0:0,0:0:0:0:
71,143,215386,2,0,B|88:172|137:190|184:172|184:172|162:166|137:137,1,153.750005865097,8|0,0:2|0:0,0:0:0:0:
429,40,215644,6,0,B|391:28|347:36|315:75|315:75|315:49|323:23,1,153.750005865097,0|0,1:0|0:0,0:0:0:0:
459,173,215903,2,0,P|413:136|368:135,1,76.8750029325486,0|0,1:0|0:0,0:0:0:0:
279,242,216075,1,8,0:2:0:0:
205,28,216248,5,0,0:0:0:0:
205,28,216334,2,0,P|198:125|93:167,1,153.750005865097,0|0,0:0|0:0,0:0:0:0:
36,57,216592,2,0,P|74:54|110:65,1,76.8750029325486,0|0,1:0|0:0,0:0:0:0:
279,242,216765,1,8,0:2:0:0:
140,374,216937,5,0,0:0:0:0:
140,374,217024,2,0,B|164:366|192:319|183:275|183:275|195:309|225:328,1,153.750005865097,0|0,0:0|0:0,0:0:0:0:
473,179,217282,2,0,P|427:142|382:141,1,76.8750029325486,0|0,1:0|0:0,0:0:0:0:
279,242,217455,37,8,0:2:0:0:
276,216,217541,1,0,0:0:0:0:
274,189,217627,1,0,0:0:0:0:
271,162,217713,1,0,0:0:0:0:
268,133,217799,6,0,P|227:140|190:159,1,76.8750029325486,4|0,1:2|0:0,0:0:0:0:
30,187,217972,2,0,P|64:203|102:208,1,76.8750029325486,0|0,0:0|0:0,0:0:0:0:
321,42,218144,2,0,P|212:46|138:76,1,153.750005865097,8|0,0:2|1:0,0:0:0:0:
414,123,218403,2,0,B|445:92|443:39|414:11|414:11|427:36|420:58,1,153.750005865097,0|0,1:0|0:0,0:0:0:0:
436,230,218661,2,0,P|465:274|512:289,1,76.8750029325486,0|0,1:0|0:0,0:0:0:0:
328,193,218834,5,8,0:2:0:0:
302,196,218920,1,0,0:0:0:0:
275,198,219006,1,0,0:0:0:0:
248,201,219092,1,0,1:0:0:0:
219,203,219178,6,0,P|179:188|155:155,1,76.8750029325486,0|0,0:0|0:0,0:0:0:0:
285,299,219351,2,0,P|292:341|275:378,1,76.8750029325486,0|0,1:0|0:0,0:0:0:0:
328,193,219524,1,8,0:2:0:0:
256,32,219696,37,0,0:0:0:0:
256,32,219782,2,0,P|240:83|249:130,1,76.8750029325486,0|0,1:0|0:0,0:0:0:0:
440,336,219955,5,0,0:0:0:0:
440,336,220041,2,0,P|439:297|426:261,1,76.8750029325486,0|0,1:0|0:0,0:0:0:0:
328,193,220213,22,0,L|296:195,1,30.75,8|0,0:2|0:0,0:0:0:0:
143,312,220558,70,0,P|114:315|66:304,1,76.8750029325486,4|0,1:2|0:0,0:0:0:0:
249,106,220730,2,0,P|276:97|325:99,1,76.8750029325486,0|0,0:0|0:0,0:0:0:0:
116,214,220903,2,0,B|155:198|170:144|151:106|151:106|144:133|112:145,1,153.750005865097,8|0,0:2|0:0,0:0:0:0:
297,194,221161,6,0,B|336:210|351:264|332:302|332:302|325:275|293:263,1,153.750005865097,0|0,1:0|0:0,0:0:0:0:
249,106,221420,2,0,P|253:67|268:33,1,76.8750029325486,0|0,1:0|0:0,0:0:0:0:
223,256,221592,1,8,0:2:0:0:
430,337,221765,37,0,0:0:0:0:
430,337,221851,2,0,P|442:246|411:164,1,153.750005865097,0|0,0:0|0:0,0:0:0:0:
143,312,222110,2,0,P|155:348|178:378,1,76.8750029325486,0|0,1:0|0:0,0:0:0:0:
223,256,222282,1,8,0:2:0:0:
10,236,222455,5,0,0:0:0:0:
10,236,222541,2,0,B|73:253|111:203|111:203|93:214|72:216,1,153.750005865097,0|0,0:0|0:0,0:0:0:0:
94,55,222799,2,0,P|68:83|53:119,1,76.8750029325486,0|0,1:0|0:0,0:0:0:0:
223,256,222972,5,8,0:2:0:0:
220,230,223058,1,0,0:0:0:0:
218,205,223144,1,0,0:0:0:0:
216,179,223230,1,0,0:0:0:0:
214,154,223317,6,0,P|251:161|289:156,1,76.8750029325486,4|0,1:2|0:0,0:0:0:0:
169,57,223489,2,0,P|131:49|93:54,1,76.8750029325486,0|0,0:0|0:0,0:0:0:0:
397,14,223661,2,0,B|360:1|311:15|286:55|286:55|308:35|351:36,1,153.750005865097,8|0,0:2|1:0,0:0:0:0:
334,241,223920,2,0,P|381:183|371:108,1,153.750005865097,0|0,1:0|0:0,0:0:0:0:
214,154,224179,2,0,P|251:148|289:155,1,76.8750029325486,0|0,1:0|0:0,0:0:0:0:
414,233,224351,37,8,0:2:0:0:
388,236,224437,1,0,0:0:0:0:
361,238,224523,1,0,0:0:0:0:
334,241,224610,1,0,1:0:0:0:
206,315,224782,5,2,0:1:0:0:
206,315,224868,2,0,P|230:285|245:250,1,76.8750029325486,0|0,1:0|0:0,0:0:0:0:
414,233,225041,1,8,0:2:0:0:
182,171,225213,5,0,0:0:0:0:
182,171,225299,2,0,B|232:131|296:160|296:160|268:134|277:64,1,153.750005865097,0|0,1:0|0:0,0:0:0:0:
460,350,225558,2,0,P|399:359|346:330,1,76.8750029325486,0|0,1:0|0:0,0:0:0:0:
414,233,225730,6,0,L|416:264,1,30.75,8|0,0:2|0:0,0:0:0:0:
269,37,226075,38,0,P|324:46|365:93,1,76.8750029325486,4|0,1:2|0:0,0:0:0:0:
479,112,226248,2,0,P|445:130|407:132,1,76.8750029325486,0|0,0:0|0:0,0:0:0:0:
261,251,226420,2,0,B|236:221|239:161|268:134|268:134|261:156|262:160,1,153.750005865097,8|0,0:2|0:0,0:0:0:0:
53,49,226679,6,0,P|110:95|183:80,1,153.750005865097,0|0,1:0|0:0,0:0:0:0:
340,57,226937,2,0,P|307:39|269:37,1,76.8750029325486,0|0,1:0|0:0,0:0:0:0:
152,192,227110,1,8,0:2:0:0:
396,262,227282,5,0,0:0:0:0:
396,262,227368,2,0,P|333:226|242:276,1,153.750005865097,0|0,0:0|0:0,0:0:0:0:
59,250,227627,2,0,P|103:290|170:296,1,76.8750029325486,0|0,1:0|0:0,0:0:0:0:
152,192,227799,1,8,0:2:0:0:
260,31,227972,69,0,0:0:0:0:
260,31,228058,2,0,B|296:65|283:127|240:140|240:140|253:67,1,153.750005865097,0|0,0:0|0:0,0:0:0:0:
91,50,228317,2,0,P|128:54|162:72,1,76.8750029325486,0|0,1:0|0:0,0:0:0:0:
152,192,228489,22,0,L|149:160,1,30.75,8|0,0:2|0:0,0:0:0:0:
36,331,228834,5,8,0:2:0:0:
91,50,229007,1,8,0:2:0:0:
130,296,229179,5,8,0:2:0:0:
200,59,229351,1,8,0:2:0:0:
225,261,229524,69,8,0:2:0:0:
309,68,229696,1,8,0:2:0:0:
320,226,229868,5,8,0:2:0:0:
418,77,230041,1,8,0:2:0:0:
418,77,230213,6,2,P|449:67|487:65,1,51.25,10|2,0:2|0:2,0:2:0:0:
320,226,230385,2,2,P|344:232|369:234,1,51.25,10|2,0:2|0:2,0:2:0:0:
309,68,230558,6,2,P|332:46|366:27,1,51.25,10|2,0:2|0:2,0:2:0:0:
225,261,230730,2,2,P|244:277|266:290,1,51.25,10|2,0:2|0:2,0:2:0:0:
200,59,230903,70,2,P|211:29|235:-1,1,51.25,10|2,0:2|0:2,0:2:0:0:
130,296,231075,2,2,P|140:319|155:339,1,51.25,10|2,0:2|0:2,0:2:0:0:
91,50,231248,6,2,P|89:18|97:-19,1,51.25,10|2,0:2|0:2,0:2:0:0:
36,331,231420,2,2,P|36:356|40:380,1,51.25,10|2,0:2|0:2,0:2:0:0:
335,122,231592,6,0,P|379:118|421:131,1,89.6875008553266,6|0,1:2|0:0,0:0:0:0:
236,269,231765,2,0,P|192:278|149:267,1,89.6875008553266,0|0,0:0|0:0,0:0:0:0:
365,214,231937,2,0,B|379:262|357:324|311:332|311:332|334:304|330:276,1,179.375001710653,8|0,0:2|0:0,0:0:0:0:
200,59,232196,6,0,B|186:107|208:169|254:177|254:177|231:149|235:121,1,179.375001710653,0|0,1:0|0:0,0:0:0:0:
340,35,232455,2,0,P|347:78|334:121,1,89.6875008553266,0|0,1:0|0:0,0:0:0:0:
236,269,232627,1,8,0:2:0:0:
0,285,232799,37,0,0:0:0:0:
0,285,232886,2,0,P|63:225|151:225,1,179.375001710653,0|0,0:0|0:0,0:0:0:0:
412,328,233144,2,0,P|333:339|303:325,1,89.6875008553266,0|0,1:0|0:0,0:0:0:0:
236,269,233317,1,8,0:2:0:0:
180,59,233489,5,0,0:0:0:0:
180,59,233575,2,0,B|231:65|255:134|237:178|237:178|230:151|208:129,1,179.375001710653
105,296,233834,2,0,P|126:242|181:218,1,89.6875008553266,0|0,1:0|0:0,0:0:0:0:
236,269,234006,5,8,0:2:0:0:
237,291,234092,1,0,0:0:0:0:
239,314,234178,1,0,0:0:0:0:
241,336,234264,1,0,0:0:0:0:
243,359,234351,6,0,P|286:366|328:351,1,89.6875008553266,4|0,1:2|0:0,0:0:0:0:
150,224,234524,2,0,P|108:208|64:216,1,89.6875008553266,0|0,0:0|0:0,0:0:0:0:
331,248,234696,2,0,B|376:269|437:262|466:229|466:229|415:238,1,179.375001710653,8|0,0:2|1:0,0:0:0:0:
198,76,234955,38,0,P|134:152|150:224,1,179.375001710653,0|0,1:0|0:0,0:0:0:0:
243,359,235213,2,0,P|251:301|223:257,1,89.6875008553266,0|0,1:0|0:0,0:0:0:0:
40,304,235386,5,8,0:2:0:0:
42,330,235472,1,0,0:0:0:0:
44,357,235558,1,0,0:0:0:0:
47,384,235644,1,0,1:0:0:0:
235,235,235817,5,2,0:1:0:0:
235,235,235903,2,0,P|192:218|102:269,1,89.6875008553266,0|0,1:0|0:0,0:0:0:0:
40,304,236075,1,8,0:2:0:0:
36,60,236248,5,0,0:0:0:0:
36,60,236335,2,0,B|61:102|51:158|22:193|22:193|64:173|78:131,1,179.375001710653,0|0,1:0|0:0,0:0:0:0:
268,314,236592,2,0,P|261:268|172:216,1,89.6875008553266,0|0,1:0|0:0,0:0:0:0:
40,304,236765,38,0,L|42:335,1,30.75,8|0,0:2|0:0,0:0:0:0:
235,133,237110,6,0,P|185:144|148:179,1,89.6875008553266,4|0,1:2|0:0,0:0:0:0:
321,86,237282,2,0,P|335:37|324:-12,1,89.6875008553266,0|0,0:0|0:0,0:0:0:0:
320,184,237455,2,0,B|330:235|392:254|435:231|435:231|397:231|368:209,1,179.375001710653,8|0,0:2|0:0,0:0:0:0:
133,323,237713,6,0,B|143:271|205:252|248:275|248:275|210:275|181:297,1,179.375001710653,0|0,1:0|0:0,0:0:0:0:
93,109,237972,2,0,P|137:161|202:165,1,89.6875008553266,0|0,1:0|0:0,0:0:0:0:
321,86,238144,1,8,0:2:0:0:
341,344,238317,5,0,0:0:0:0:
341,344,238403,2,0,P|362:259|319:183,1,179.375001710653,0|0,0:0|0:0,0:0:0:0:
209,0,238661,2,0,P|203:67|246:116,1,89.6875008553266,0|0,1:0|0:0,0:0:0:0:
321,86,238834,1,8,0:2:0:0:
212,190,239006,37,0,0:0:0:0:
212,190,239092,2,0,B|159:207|107:191|67:162|67:162|88:209,1,179.375001710653,0|0,0:0|0:0,0:0:0:0:
414,126,239351,2,0,P|465:124|501:110,1,89.6875008553266,0|0,1:0|0:0,0:0:0:0:
321,86,239524,5,8,0:2:0:0:
318,112,239610,1,0,0:0:0:0:
316,139,239696,1,0,0:0:0:0:
313,166,239782,1,0,0:0:0:0:
311,193,239868,6,0,P|359:233|440:232,1,89.6875008553266,4|0,1:2|0:0,0:0:0:0:
144,121,240041,2,0,P|85:142|45:213,1,89.6875008553266,0|0,0:0|0:0,0:0:0:0:
184,319,240213,2,0,B|209:303|235:240|205:196|205:196|212:236|192:276,1,179.375001710653,8|0,0:2|1:0,0:0:0:0:
55,38,240472,6,0,B|26:72|32:134|66:160|66:160|38:159|15:140,1,179.375001710653,0|0,1:0|0:0,0:0:0:0:
244,68,240730,2,0,P|212:12|167:-8,1,89.6875008553266,0|0,1:0|0:0,0:0:0:0:
207,198,240903,37,8,0:2:0:0:
234,196,240989,1,0,0:0:0:0:
261,194,241075,1,0,0:0:0:0:
288,191,241161,1,0,1:0:0:0:
315,189,241248,6,0,P|318:249|265:324,1,89.6875008553266
244,68,241420,2,0,P|212:12|167:-8,1,89.6875008553266,0|0,1:0|1:0,0:0:0:0:
207,198,241592,1,8,0:2:0:0:
400,201,241765,5,0,0:0:0:0:
400,201,241851,2,0,P|341:201|301:177,1,89.6875008553266,0|0,1:0|0:0,0:0:0:0:
54,75,242024,5,0,0:0:0:0:
54,75,242110,2,0,P|112:74|152:98,1,89.6875008553266,0|0,1:0|0:0,0:0:0:0:
207,198,242282,38,0,L|204:166,1,30.75,8|0,0:2|0:0,0:0:0:0:
400,201,242627,6,0,P|342:210|307:241,1,89.6875008553266,4|0,1:2|0:0,0:0:0:0:
152,279,242799,2,0,P|193:296|238:293,1,89.6875008553266,0|0,0:0|0:0,0:0:0:0:
489,369,242972,2,0,B|483:322|440:290|390:298|390:298|430:320,1,179.375001710653,8|0,0:2|0:0,0:0:0:0:
330,107,243230,6,0,B|292:135|286:188|318:228|318:228|317:182,1,179.375001710653,0|0,1:0|0:0,0:0:0:0:
417,56,243489,2,0,P|387:24|343:8,1,89.6875008553266,0|0,1:0|0:0,0:0:0:0:
214,105,243661,1,8,0:2:0:0:
420,154,243834,5,0,0:0:0:0:
420,154,243920,2,0,B|464:160|488:218|472:261|472:261|466:192|396:197,1,179.375001710653,0|0,0:0|0:0,0:0:0:0:
239,267,244179,2,0,P|281:255|316:228,1,89.6875008553266,0|0,1:0|0:0,0:0:0:0:
214,105,244351,1,8,0:2:0:0:
154,320,244524,37,0,0:0:0:0:
154,320,244610,2,0,B|128:283|134:227|170:195|170:195|137:193|111:216,1,179.375001710653,0|0,0:0|0:0,0:0:0:0:
43,155,244868,2,0,P|31:231|72:283,1,89.6875008553266,0|0,1:0|0:0,0:0:0:0:
210,101,245041,5,8,0:2:0:0:
208,77,245127,1,0,0:0:0:0:
206,53,245213,1,0,0:0:0:0:
203,29,245299,1,0,0:0:0:0:
202,5,245386,6,0,P|266:7|314:39,1,89.6875008553266,4|0,1:2|0:0,0:0:0:0:
499,16,245558,2,0,P|433:45|399:40,1,89.6875008553266,0|0,0:0|0:0,0:0:0:0:
320,225,245730,2,0,B|288:193|297:124|338:101|338:101|324:128|327:170,1,179.375001710653,8|0,0:2|1:0,0:0:0:0:
229,285,245989,6,0,B|236:329|298:360|340:341|340:341|310:336|278:310,1,179.375001710653,0|0,1:0|0:0,0:0:0:0:
441,359,246248,2,0,P|434:297|396:259,1,89.6875008553266,0|0,1:0|0:0,0:0:0:0:
229,285,246420,37,8,0:2:0:0:
227,311,246506,1,0,0:0:0:0:
225,337,246592,1,0,0:0:0:0:
222,363,246678,1,0,1:0:0:0:
176,128,246850,5,2,0:1:0:0:
176,128,246937,2,0,P|148:176|158:238,1,89.6875008553266,0|0,1:0|0:0,0:0:0:0:
229,285,247110,1,8,0:2:0:0:
183,29,247282,5,0,0:0:0:0:
183,29,247368,2,0,P|248:58|268:163,1,179.375001710653,0|0,1:0|0:0,0:0:0:0:
91,384,247627,2,0,P|101:340|131:308,1,89.6875008553266,0|0,1:0|0:0,0:0:0:0:
229,285,247799,6,0,L|231:308,1,20.5,8|0,0:2|0:0,0:0:0:0:
230,305,248058,1,0,0:0:0:0:
238,313,248144,38,0,B|289:364|382:354|413:313|413:313|372:313|329:288,1,269.06250256598,12|0,0:2|0:0,0:0:0:0:
314,185,248489,2,0,B|262:133|169:143|138:185|138:185|179:185|223:210,1,269.06250256598,8|0,0:2|0:0,0:0:0:0:
238,321,248834,6,0,B|289:372|382:362|413:321|413:321|341:341,1,193.724998743696,8|0,0:2|0:0,0:0:0:0:
315,175,249092,2,0,B|263:123|170:133|139:175|139:175|211:154,1,193.724998743696,8|0,0:2|0:0,0:0:0:0:
238,329,249351,6,0,B|287:378|369:366|386:352,1,102.5,8|0,0:2|0:0,0:0:0:0:
140,174,249524,6,0,B|97:215|85:284|108:351|148:374|148:374|134:346|139:307,1,269.06250256598,8|0,0:2|0:0,0:0:0:0:
412,321,249868,2,0,B|454:279|467:211|444:144|404:121|404:121|418:149|413:188,1,269.06250256598,8|0,0:2|0:0,0:0:0:0:
132,174,250213,38,0,B|89:215|77:284|100:351|140:374|140:374|131:307,1,179.375001710653,8|0,0:2|0:0,0:0:0:0:
420,321,250472,2,0,B|462:279|475:211|452:144|412:121|412:121|421:188,1,193.724998743696,8|0,0:2|0:0,0:0:0:0:
124,174,250730,6,0,B|81:215|76:286|92:351,1,96.8624993718481,8|0,0:2|0:0,0:0:0:0:
318,120,250989,5,8,0:2:0:0:
124,174,251161,5,8,0:2:0:0:
158,215,251247,1,8,0:2:0:0:
199,241,251334,1,8,0:2:0:0:
241,251,251420,1,8,0:2:0:0:
280,247,251506,1,8,0:2:0:0:
311,232,251592,1,8,0:2:0:0:
333,211,251678,1,8,0:2:0:0:
345,187,251765,1,8,0:2:0:0:
347,164,251851,1,8,0:2:0:0:
341,144,251937,1,8,0:2:0:0:
331,129,252024,2,0,L|251:122,1,51.25,8|0,0:2|0:0,0:0:0:0:
484,142,252196,5,8,0:2:0:0:
484,142,252972,21,8,0:2:0:0:
388,140,253230,21,8,0:2:0:0:
290,137,253489,53,8,0:2:0:0:
483,141,253661,2,0,B|441:165|393:141|393:141|384:132|384:132|337:109|291:137,1,205,0|0,1:0|2:0,0:0:0:0:
112,152,254179,1,0,1:0:0:0:
112,152,254265,1,0,1:0:0:0:
112,152,254351,6,2,P|186:109|200:32,1,153.750005865097,14|2,0:2|0:0,0:0:0:0:
9,231,254610,2,2,P|89:260|116:333,1,153.750005865097,2|2,0:2|0:0,0:0:0:0:
327,250,254868,6,2,P|215:274|327:348,1,307.500011730195,2|2,1:2|0:0,0:0:0:0:
315,356,255299,1,0,1:0:0:0:
315,356,255386,1,0,1:0:0:0:
154,188,255558,1,0,0:0:0:0:
438,187,255730,5,8,0:2:0:0:
448,231,255816,1,0,0:0:0:0:
438,275,255902,1,0,0:0:0:0:
408,311,255988,1,0,0:0:0:0:
414,333,256075,37,2,0:2:0:0:
452,287,256161,1,2,0:2:0:0:
465,229,256247,1,2,0:2:0:0:
451,171,256333,1,2,0:2:0:0:
480,85,256420,6,0,P|393:99|371:212,1,153.750005865097,6|0,1:2|0:0,0:0:0:0:
361,150,256765,2,0,L|355:86,1,51.25,2|0,0:2|0:0,0:0:0:0:
159,27,256937,1,0,1:0:0:0:
159,27,257024,1,0,1:0:0:0:
159,27,257110,6,2,P|209:25|252:51,1,102.5,10|2,0:2|0:0,0:0:0:0:
292,219,257368,2,2,P|336:194|360:149,1,102.5,2|2,0:2|0:0,0:0:0:0:
194,127,257627,2,2,B|217:174|176:218|176:218|121:257|133:325|182:355,1,230.625008797646,2|2,1:2|0:0,0:0:0:0:
158,333,257972,1,2,1:2:0:0:
490,330,258144,2,2,B|378:321|378:321|369:328|369:328|263:319,1,230.625008797646,2|0,1:2|0:0,0:2:0:0:
298,142,258489,6,0,L|290:229,1,76.8750029325486,8|0,0:2|0:0,0:0:0:0:
488,88,258661,2,0,L|480:175,1,76.8750029325486,0|0,0:0|0:0,0:0:0:0:
402,0,258834,1,0,0:0:0:0:
402,0,258920,1,0,0:0:0:0:
402,0,259006,2,0,L|394:87,1,76.8750029325486,2|0,0:2|0:0,0:0:0:0:
180,70,259179,38,0,P|266:88|298:169,1,153.75,2|0,0:2|0:0,0:0:0:0:
297,141,259524,2,0,L|301:89,1,51.25,2|0,1:2|0:0,0:0:0:0:
377,253,259696,1,0,1:0:0:0:
377,253,259782,1,0,1:0:0:0:
377,253,259868,6,2,P|449:231|480:164,1,153.750005865097,14|2,0:2|0:0,0:0:0:0:
230,287,260127,2,2,P|299:315|324:384,1,153.750005865097,2|2,0:2|0:0,0:0:0:0:
112,203,260386,2,2,B|129:209|189:204|225:173|199:134|227:99|341:78|384:158,1,307.500011730195,2|2,1:2|0:0,0:0:0:0:
300,207,260817,5,0,1:0:0:0:
300,207,260903,1,0,1:0:0:0:
126,106,261075,1,0,0:0:0:0:
362,281,261248,2,2,B|383:266|410:230|412:149|337:118|337:118|277:88|290:30,1,307.5,10|2,0:2|0:0,0:2:0:0:
296,351,261937,54,0,B|269:330|257:284|263:246|305:205|305:205|247:201|193:246|198:333,1,307.500011730195,6|2,1:2|0:2,0:0:0:0:
244,118,262455,1,0,1:0:0:0:
244,118,262541,1,0,1:0:0:0:
244,118,262627,6,2,P|170:92|117:121,1,102.5,10|2,0:2|0:0,0:0:0:0:
384,9,262886,2,2,P|310:35|257:6,1,102.5,2|2,0:2|0:0,0:0:0:0:
512,167,263144,6,2,B|480:114|397:104|358:134|358:134|406:131|457:174,1,230.625008797646,2|2,1:2|0:0,0:0:0:0:
441,241,263489,1,2,1:2:0:0:
314,332,263661,6,0,B|348:311|354:257|335:232|335:232|305:250|261:257,1,153.75,2|0,1:2|0:0,0:0:0:0:
40,144,264006,2,2,B|96:120|146:144|146:144|153:151|153:151|208:176|260:151,1,230.625008797646,10|0,0:2|0:0,0:2:0:0:
260,151,264696,38,0,L|253:79,1,51.25,0|0,1:0|0:0,0:0:0:0:
94,231,264868,1,8,0:2:0:0:
92,245,264954,1,8,0:2:0:0:
91,260,265040,1,8,0:3:0:0:
90,275,265127,1,8,0:3:0:0:
88,290,265212,1,4,0:3:0:0:
87,305,265299,1,4,0:3:0:0:
86,319,265386,6,2,P|147:287|226:314,1,153.750005865097,10|2,0:2|0:0,0:0:0:0:
399,270,265644,2,2,P|338:302|316:383,1,153.750005865097,2|2,0:2|0:0,0:0:0:0:
225,186,265903,6,2,P|324:156|251:111,1,205,2|2,1:2|0:0,0:0:0:0:
288,109,266334,1,0,1:0:0:0:
288,109,266420,1,0,1:0:0:0:
413,258,266592,1,0,0:0:0:0:
77,200,266765,5,8,0:2:0:0:
74,231,266851,1,0,0:0:0:0:
71,262,266937,1,0,0:0:0:0:
69,292,267024,1,0,0:0:0:0:
86,319,267110,37,0,0:0:0:0:
90,273,267196,1,0,0:0:0:0:
94,227,267282,1,0,0:0:0:0:
99,181,267368,1,0,0:0:0:0:
39,110,267455,6,0,P|101:87|185:145,1,153.75,6|0,1:2|0:0,0:0:0:0:
174,125,267799,2,0,L|169:69,1,51.25,2|0,0:2|0:0,0:0:0:0:
256,248,267972,1,0,1:0:0:0:
256,248,268058,1,0,1:0:0:0:
256,248,268144,6,2,L|264:350,1,102.5,10|2,0:2|0:0,0:0:0:0:
272,40,268403,2,2,L|280:142,1,102.5,2|2,0:2|0:0,0:0:0:0:
432,337,268661,6,2,P|357:236|425:155,1,230.625008797646,2|2,1:2|0:0,0:0:0:0:
450,245,269006,1,2,1:2:0:0:
160,368,269179,2,0,B|150:264|150:264|142:257|142:257|135:171,1,153.75,0|2,1:2|0:0,0:2:0:0:
73,145,269524,38,0,P|117:121|168:126,1,102.5,10|0,0:2|0:0,0:0:0:0:
234,200,269782,2,0,P|284:205|329:181,1,102.5,10|0,0:2|0:0,0:0:0:0:
262,109,270041,1,10,0:2:0:0:
375,272,270213,6,8,P|434:258|480:272,1,102.5,8|0,0:2|0:2,0:2:0:0:
262,109,270558,1,8,0:2:0:0:
310,384,270730,1,0,1:0:0:0:
310,370,270816,1,0,1:0:0:0:
312,357,270903,5,10,0:2:0:0:
328,181,271075,1,0,0:0:0:0:
183,301,271248,5,8,0:2:0:0:
167,125,271421,1,0,0:2:0:0:
428,175,271592,38,0,P|412:127|376:92,1,102.5,10|0,0:2|0:0,0:0:0:0:
312,357,271937,1,8,0:2:0:0:
296,179,272110,1,0,0:0:0:0:
312,180,272196,1,0,0:0:0:0:
328,181,272282,5,12,0:2:0:0:
144,317,272455,2,2,P|151:237|221:306,1,205,2|2,0:2|0:0,0:2:0:0:
45,357,272972,6,0,P|24:284|30:240,1,102.5,10|0,0:2|0:0,0:0:0:0:
0,167,273230,2,0,P|52:112|93:95,1,102.5,10|0,0:2|0:0,0:0:0:0:
140,0,273489,2,0,P|213:18|248:45,1,102.5,10|0,0:2|0:0,0:0:0:0:
365,0,273748,2,0,P|385:73|379:116,1,102.5,10|0,0:2|0:0,0:0:0:0:
494,227,274006,6,0,P|461:267|424:293,1,51.25,10|0,0:2|0:0,0:0:0:0:
309,384,274179,2,0,P|258:376|217:355,1,51.25,10|0,0:2|0:0,0:0:0:0:
22,251,274351,38,0,P|26:274|39:304,1,38.4375014662743,4|0,1:2|0:0,0:0:0:0:
137,304,274524,2,0,P|156:319|185:333,1,38.4375014662743,2|0,0:2|0:0,0:0:0:0:
247,275,274696,2,0,P|269:275|297:268,1,38.4375014662743,2|0,0:2|0:0,0:0:0:0:
307,192,274868,2,0,P|322:180|338:158,1,38.4375014662743,0|2,0:0|0:2,0:0:0:0:
301,101,275040,2,0,P|304:84|302:60,1,38.4375014662743,0|0,0:0|0:0,0:0:0:0:
245,42,275213,2,0,P|237:29|222:13,1,35.8749989051819,0|0,0:2|0:0,0:0:0:0:
173,34,275386,70,0,L|110:28,1,61.5,2|0,0:2|0:0,0:0:0:0:
0,43,275730,70,0,B|20:56|41:94|32:149|32:149|-16:228|55:316|180:262|149:170|149:170|134:133|100:125|78:127,1,492,6|0,1:2|0:0,0:0:0:0:
282,249,281248,6,0,B|313:156|244:102|244:102|246:189|387:189|387:100|387:12|276:19|254:62,1,492,4|0,0:2|0:0,0:0:0:0:
92,364,286765,70,0,B|-51:340|-16:102|217:164|180:306|180:306|172:359|221:390,1,492,4|0,0:2|0:0,0:0:0:0:
448,288,292282,6,0,B|474:380|327:447|264:316|329:252|329:252|382:204|348:126|248:132|253:207|253:207,1,492,4|0,0:2|0:0,0:0:0:0:
256,189,297799,69,0,0:0:0:0:
191,121,298144,2,0,P|178:136|170:152,1,20.5,2|0,0:0|0:0,0:0:0:0:
172,229,298489,2,0,P|182:246|194:259,1,20.5,2|0,0:0|0:0,0:0:0:0:
267,281,298834,6,0,P|287:276|334:239,1,82,2|2,0:0|0:0,0:0:0:0:
262,384,299696,1,0,0:0:0:0:
262,384,299868,2,0,P|281:379|297:372,1,20.5,2|0,0:0|0:0,0:0:0:0:
353,313,300213,70,0,P|354:292|333:236,1,82,2|2,0:0|0:0,0:0:0:0:
452,350,301075,1,0,0:0:0:0:
452,350,301248,2,0,P|453:330|451:312,1,20.5,2|0,0:0|0:0,0:0:0:0:
412,241,301593,6,0,P|392:233|333:235,1,82,2|2,0:0|0:0,0:0:0:0:
479,157,302454,1,0,0:0:0:0:
479,157,302627,2,0,P|460:149|443:145,1,20.5,2|0,0:0|0:0,0:0:0:0:
362,161,302972,70,0,P|348:176|332:234,1,82,2|2,0:0|0:0,0:0:0:0:
332,234,304006,6,0,P|333:245|332:258,1,20.5,2|0,0:0|0:0,0:0:0:0:
270,325,304351,2,0,P|259:329|247:332,1,20.5,2|0,0:0|0:0,0:0:0:0:
164,294,304696,2,0,P|156:285|143:252,1,41,2|2,0:0|0:0,0:0:0:0:
144,258,305386,70,0,P|134:253|125:247,1,20.5,2|0,0:0|0:0,0:0:0:0:
41,205,305730,2,0,P|42:195|45:183,1,20.5,2|0,0:0|0:0,0:0:0:0:
59,90,306075,2,0,P|68:88|103:84,1,41,2|2,0:0|0:0,0:0:0:0:
99,84,306765,6,0,P|107:78|117:73,1,20.5,2|0,0:0|0:0,0:0:0:0:
176,0,307109,2,0,P|183:5|192:14,1,20.5,2|0,0:0|0:0,0:0:0:0:
285,37,307455,2,0,P|281:46|268:78,1,41,2|2,0:0|0:0,0:0:0:0:
269,74,308144,70,0,P|276:79|285:88,1,20.5,2|0,0:0|0:0,0:0:0:0:
381,33,308488,2,0,P|377:42|372:52,1,20.5,2|0,0:0|0:0,0:0:0:0:
449,138,308834,2,0,P|439:137|404:134,1,41,2|2,0:0|0:0,0:0:0:0:
407,134,309351,6,0,P|410:144|411:155,2,20.5,0|2|0,0:0|0:0|0:0,0:0:0:0:
315,101,309868,2,0,P|315:63|331:23,1,82,2|2,0:0|0:0,0:0:0:0:
331,22,310730,70,0,P|341:22|351:25,2,20.5,0|2|0,0:0|0:0|0:0,0:0:0:0:
219,61,311248,2,0,P|182:49|149:21,1,82,2|2,0:0|0:0,0:0:0:0:
149,21,312110,6,0,P|152:11|158:2,2,20.5,0|2|0,0:0|0:0|0:0,0:0:0:0:
122,133,312627,2,0,P|99:163|63:186,1,82,2|2,0:0|0:0,0:0:0:0:
62,186,313489,70,0,P|54:179|47:171,2,20.5,0|2|0,0:0|0:0|0:0,0:0:0:0:
127,262,314006,2,0,P|149:292|159:334,1,82,2|2,0:0|0:0,0:0:0:0:
159,334,315041,6,0,P|175:333|188:335,1,20.5,2|0,0:0|0:0,0:0:0:0:
251,242,315386,2,0,P|245:256|236:266,1,20.5,2|0,0:0|0:0,0:0:0:0:
292,384,315730,2,0,P|282:371|271:340,1,41,2|2,0:0|0:0,0:0:0:0:
251,242,316420,70,0,P|254:227|260:215,1,20.5,2|0,0:0|0:0,0:0:0:0:
160,163,316765,2,0,P|171:173|177:184,1,20.5,2|0,0:0|0:0,0:0:0:0:
295,119,317110,2,0,P|280:123|246:123,1,41,2|2,0:0|0:0,0:0:0:0:
160,163,317799,6,0,P|144:162|132:158,1,20.5,2|0,0:0|0:0,0:0:0:0:
138,280,318144,2,0,P|146:267|156:258,1,20.5,2|0,0:0|0:0,0:0:0:0:
44,189,318489,2,0,P|50:202|57:235,1,41,2|2,0:0|0:0,0:0:0:0:
56,227,319179,6,0,P|47:238|35:270,2,41,2|2|2,0:0|0:0|0:0,0:0:0:0:
