osu file format v14

[General]
AudioFilename: wanderer dreamless.mp3
AudioLeadIn: 0
PreviewTime: 208141
Countdown: 0
SampleSet: Soft
StackLeniency: 0.7
Mode: 2
LetterboxInBreaks: 0
WidescreenStoryboard: 1

[Editor]
Bookmarks: 71401,94534,117666,140799,187064,209521,220555,231590,242624,253659,275728,297797
DistanceSpacing: 2
BeatDivisor: 4
GridSize: 32
TimelineZoom: 2.200002

[Metadata]
Title:flying in the flow of deep-sea
TitleUnicode:flying in the flow of deep-sea
Artist:Camellia
ArtistUnicode:かめりあ
Creator:Sinnoh
Version:Beneath the Horizon
Source:osu!
Tags:featured artist planet shaper planet//shaper kamel cametek anime c88 dubstep anime dance electro kamelcamellia deep sea girl
BeatmapID:1696726
BeatmapSetID:808574

[Difficulty]
HPDrainRate:7
CircleSize:2
OverallDifficulty:9.5
ApproachRate:9.5
SliderMultiplier:2.1
SliderTickRate:2

[Events]
//Background and Video events
0,0,"hecking copyright.jpg",0,0
//Break Periods
2,54252,58587
2,169913,174249
//Storyboard Layer 0 (Background)
//Storyboard Layer 1 (Fail)
//Storyboard Layer 2 (Pass)
//Storyboard Layer 3 (Foreground)
//Storyboard Sound Samples

[TimingPoints]
2004,361.44578313253,4,2,1,10,1,0
2726,-125,4,2,1,10,0,0
5618,-125,4,2,1,10,0,0
8510,-125,4,2,1,15,0,0
11401,-125,4,2,1,30,0,0
13570,-125,4,2,1,10,0,0
14293,-125,4,2,1,15,0,0
17184,-125,4,2,1,20,0,0
23690,-125,4,2,1,45,0,0
24413,-125,4,2,1,50,0,0
25136,-125,4,2,1,60,0,0
35257,-125,4,2,10,60,0,0
36702,-125,4,2,1,60,0,0
53570,-125,4,2,1,5,0,0
53690,-125,4,2,1,60,0,0
53931,-125,4,2,1,5,0,0
54052,-125,4,2,1,60,0,0
58389,-125,4,2,10,60,0,0
59112,-125,4,2,1,60,0,0
62726,-125,4,2,1,20,0,0
63449,-125,4,2,1,30,0,0
64172,-125,4,2,1,40,0,0
64895,-125,4,2,1,50,0,0
65618,-125,4,2,1,60,0,0
66341,-100,4,2,1,60,0,0
67064,-76.9230769230769,4,2,1,65,0,0
67787,-62.5,4,2,1,70,0,0
68510,-62.5,4,2,10,80,0,0
68690,-62.5,4,2,1,80,0,0
71401,-76.9230769230769,4,2,10,90,0,0
71672,-76.9230769230769,4,2,1,90,0,0
73570,-50,4,2,1,90,0,0
74654,-76.9230769230769,4,2,1,90,0,0
76461,-50,4,2,1,90,0,0
79353,-25,4,2,1,90,0,0
80618,-71.4285714285714,4,2,1,90,0,0
82154,-25,4,2,1,90,0,0
82425,-71.4285714285714,4,2,1,90,0,0
83690,-71.4285714285714,4,2,1,90,0,0
85136,-50,4,2,1,90,0,0
86401,-76.9230769230769,4,2,1,90,0,0
90919,-40,4,2,1,90,0,0
92365,-76.9230769230769,4,2,1,90,0,0
93088,-31.25,4,2,1,90,0,0
93178,-31.25,4,2,1,5,0,0
93269,-31.25,4,2,1,90,0,0
93359,-31.25,4,2,1,5,0,0
93449,-31.25,4,2,1,90,0,0
93540,-31.25,4,2,1,5,0,0
93630,-31.25,4,2,1,90,0,0
93720,-31.25,4,2,1,5,0,0
93811,-31.25,4,2,1,90,0,0
93901,-31.25,4,2,1,5,0,0
93991,-31.25,4,2,1,90,0,0
94082,-31.25,4,2,1,5,0,0
94172,-76.9230769230769,4,2,1,90,0,0
95799,-25,4,2,1,90,0,0
96341,-71.4285714285714,4,2,1,90,0,0
96702,-25,4,2,1,90,0,0
98961,-76.9230769230769,4,2,1,90,0,0
100046,-25,4,2,1,90,0,0
101763,-76.9230769230769,4,2,1,90,0,0
101943,-25,4,2,1,90,0,0
102124,-76.9230769230769,4,2,1,90,0,0
102666,-25,4,2,1,90,0,0
104654,-76.9230769230769,4,2,1,90,0,0
105196,-25,4,2,1,90,0,0
105919,-76.9230769230769,4,2,1,90,0,0
108269,-25,4,2,1,90,0,0
108991,-76.9230769230769,4,2,1,90,0,0
109488,-40,4,2,1,90,0,0
109714,-25,4,2,1,90,0,0
110528,-76.9230769230769,4,2,1,90,0,0
111612,-25,4,2,1,90,0,0
111883,-76.9230769230769,4,2,1,90,0,0
112605,-50,4,2,1,90,0,0
113510,-25,4,2,1,90,0,0
113690,-71.4285714285714,4,2,1,90,0,0
114233,-25,4,2,1,90,0,0
114775,-33.3333333333333,4,2,1,90,0,0
114955,-33.3333333333333,4,2,1,5,0,0
115046,-33.3333333333333,4,2,1,90,0,0
115226,-33.3333333333333,4,2,1,5,0,0
115317,-33.3333333333333,4,2,1,90,0,0
115407,-33.3333333333333,4,2,1,5,0,0
115497,-33.3333333333333,4,2,1,90,0,0
115678,-33.3333333333333,4,2,1,5,0,0
115769,-33.3333333333333,4,2,1,90,0,0
115949,-33.3333333333333,4,2,1,5,0,0
116040,-33.3333333333333,4,2,1,90,0,0
116130,-33.3333333333333,4,2,1,5,0,0
116220,-50,4,2,1,90,0,0
116401,-50,4,2,1,5,0,0
116491,-62.5,4,2,1,90,0,0
116672,-62.5,4,2,1,5,0,0
116763,-33.3333333333333,4,2,1,90,0,0
116853,-33.3333333333333,4,2,1,5,0,0
116943,-71.4285714285714,4,2,1,90,0,0
117124,-71.4285714285714,4,2,1,5,0,0
117214,-71.4285714285714,4,2,1,90,0,0
117787,-71.4285714285714,4,2,1,70,0,0
133389,-71.4285714285714,4,2,1,65,0,0
135016,-71.4285714285714,4,2,1,60,0,0
137907,-71.4285714285714,4,2,1,50,0,0
140799,-125,4,2,1,60,0,0
150919,-125,4,2,10,60,0,0
152365,-125,4,2,1,60,0,0
162485,-125,4,2,10,60,0,0
163208,-125,4,2,1,60,0,0
169232,-125,4,2,1,5,0,0
169353,-125,4,2,1,60,0,0
169594,-125,4,2,1,5,0,0
169714,-125,4,2,1,60,0,0
174052,-125,4,2,10,60,0,0
174775,-125,4,2,1,60,0,0
181281,-125,4,2,1,70,0,0
185618,-100,4,2,1,70,0,0
186341,-76.9230769230769,4,2,1,70,0,0
186973,-100,4,2,1,70,0,0
188510,359.281437125748,4,2,1,70,1,0
189947,357.142857142857,4,2,1,70,1,0
192804,354.086751254057,4,2,1,70,1,0
194220,353.107344632768,4,2,1,70,1,0
197044,350.877192982456,4,2,1,70,1,0
198447,348.938644954929,4,2,1,70,1,0
198708,-83.3333333333333,4,2,1,80,0,0
201238,346.820809248555,4,2,1,80,1,0
201931,-83.3333333333333,4,2,1,80,0,0
202625,344.827586206897,4,2,1,80,1,0
202625,-83.3333333333333,4,2,1,80,0,0
204004,-83.3333333333333,4,2,1,80,0,0
208144,-100,4,2,10,80,0,0
208231,-100,4,2,1,80,0,0
209521,-66.6666666666667,4,2,1,80,0,1
209524,344.827586206897,4,2,1,70,1,0
209524,-66.6666666666667,4,2,1,90,0,1
212883,-25,4,2,1,90,0,1
213141,-66.6666666666667,4,2,1,90,0,1
217368,-66.6666666666667,4,2,1,5,0,1
217452,-25,4,2,1,90,0,1
217797,-66.6666666666667,4,2,1,90,0,1
228314,-25,4,2,1,90,0,1
228400,-25,4,2,1,90,0,1
228486,-33.3333333333333,4,2,1,90,0,1
228745,-33.3333333333333,4,2,1,5,0,1
228834,-33.3333333333333,4,2,1,70,0,0
228920,-33.3333333333333,4,2,1,5,0,0
229006,-33.3333333333333,4,2,1,70,0,0
229092,-33.3333333333333,4,2,1,5,0,0
229179,-33.3333333333333,4,2,1,70,0,0
229265,-33.3333333333333,4,2,1,5,0,0
229351,-33.3333333333333,4,2,1,70,0,0
229437,-33.3333333333333,4,2,1,5,0,0
229524,-33.3333333333333,4,2,1,70,0,0
229610,-33.3333333333333,4,2,1,5,0,0
229696,-33.3333333333333,4,2,1,70,0,0
229782,-33.3333333333333,4,2,1,5,0,0
229868,-33.3333333333333,4,2,1,70,0,0
229955,-33.3333333333333,4,2,1,5,0,0
230041,-33.3333333333333,4,2,1,70,0,0
230127,-33.3333333333333,4,2,1,5,0,0
230213,-33.3333333333333,4,2,1,80,0,0
230299,-33.3333333333333,4,2,1,5,0,0
230386,-33.3333333333333,4,2,1,80,0,0
230472,-33.3333333333333,4,2,1,5,0,0
230558,-33.3333333333333,4,2,1,80,0,0
230644,-33.3333333333333,4,2,1,5,0,0
230730,-33.3333333333333,4,2,1,80,0,0
230788,-33.3333333333333,4,2,1,5,0,0
230900,-25,4,2,1,80,0,0
231018,-25,4,2,1,5,0,0
231072,-20,4,2,1,80,0,0
231133,-20,4,2,1,5,0,0
231245,-33.3333333333333,4,2,1,80,0,0
231592,-66.6666666666667,4,2,1,90,0,1
234952,-25,4,2,1,90,0,1
235210,-66.6666666666667,4,2,1,90,0,1
239521,-25,4,2,1,90,0,1
239866,-66.6666666666667,4,2,1,90,0,1
245986,-31.25,4,2,1,90,0,1
246159,-66.6666666666667,4,2,1,90,0,1
250213,-25,4,2,1,90,0,1
250730,-66.6666666666667,4,2,1,90,0,1
250903,-66.6666666666667,4,2,1,70,0,1
252282,-66.6666666666667,4,2,1,90,0,0
254348,-76.9230769230769,4,2,1,90,0,0
256762,-25,4,2,1,90,0,0
256935,-76.9230769230769,4,2,1,90,0,0
260383,-58.8235294117647,4,2,1,90,0,0
261245,-25,4,2,1,90,0,0
261676,-76.9230769230769,4,2,1,90,0,0
261935,-25,4,2,1,90,0,0
262452,-76.9230769230769,4,2,1,90,0,0
264004,-50,4,2,1,90,0,0
264348,-76.9230769230769,4,2,1,90,0,0
265210,-50,4,2,1,90,0,0
265383,-76.9230769230769,4,2,1,90,0,0
267797,-25,4,2,1,90,0,0
267969,-76.9230769230769,4,2,1,90,0,0
270213,-76.9230769230769,4,2,1,100,0,0
272279,-33.3333333333333,4,2,1,100,0,0
272541,-33.3333333333333,4,2,1,5,0,0
272627,-33.3333333333333,4,2,1,100,0,0
272886,-33.3333333333333,4,2,1,5,0,0
272969,-66.6666666666667,4,2,1,100,0,0
273144,-66.6666666666667,4,2,1,5,0,0
273230,-66.6666666666667,4,2,1,100,0,0
273403,-66.6666666666667,4,2,1,5,0,0
273489,-66.6666666666667,4,2,1,100,0,0
273661,-66.6666666666667,4,2,1,5,0,0
273745,-28.5714285714286,4,2,1,100,0,0
273920,-28.5714285714286,4,2,1,5,0,0
274004,-40,4,2,1,100,0,0
274092,-40,4,2,1,5,0,0
274179,-40,4,2,1,100,0,0
274265,-40,4,2,1,5,0,0
274348,-71.4285714285714,4,2,1,100,0,0
274524,-71.4285714285714,4,2,1,90,0,0
275644,-71.4285714285714,4,2,1,41,0,0
275728,-125,4,2,1,90,0,0
275817,-125,4,2,1,40,0,0
279868,-125,4,2,10,40,0,0
281248,-125,4,2,1,40,0,0
285386,-125,4,2,10,40,0,0
286765,-125,4,2,1,40,0,0
290903,-125,4,2,10,40,0,0
292282,-125,4,2,1,40,0,0
296420,-125,4,2,10,40,0,0
297797,-125,4,2,10,40,0,0
298144,-125,4,2,1,20,0,0
317455,-125,4,2,1,25,0,0
317799,-125,4,2,1,20,0,0
317972,-125,4,2,1,20,0,0
319868,-125,4,2,1,15,0,0
321248,-125,4,2,1,10,0,0
322627,-125,4,2,1,5,0,0
324004,-125,4,2,69,5,0,0

[Colours]
Combo1 : 0,192,192
Combo2 : 0,82,164
Combo3 : 0,149,149
Combo4 : 0,98,151

[HitObjects]
337,251,2726,6,0,L|341:158,1,84,2|0,0:0|0:0,0:0:0:0:
244,160,3088,2,0,L|155:152,1,84,2|0,0:0|0:0,0:0:0:0:
267,295,3449,6,0,L|451:307,1,168,0|0,0:0|0:0,0:0:0:0:
345,104,3991,1,0,0:0:0:0:
314,188,4172,1,2,0:0:0:0:
350,271,4353,1,0,0:0:0:0:
434,305,4534,6,0,L|253:293,2,168,2|0|0,0:0|0:0|0:0,0:0:0:0:
334,261,5437,1,0,0:0:0:0:
259,228,5617,1,2,0:0:0:0:
230,151,5798,1,0,0:0:0:0:
265,77,5979,2,0,L|350:49,1,84,2|0,0:0|0:0,0:0:0:0:
256,138,6341,6,0,L|67:137,1,168,0|0,0:0|0:0,0:0:0:0:
178,262,6883,1,0,0:0:0:0:
274,253,7064,2,0,L|275:152,1,84,2|0,0:0|0:0,0:0:0:0:
169,177,7425,6,0,P|104:152|89:37,2,168,2|0|0,0:0|0:0|0:0,0:0:0:0:
375,319,8510,1,2,0:0:0:0:
446,278,8690,1,0,0:0:0:0:
471,199,8871,1,2,0:0:0:0:
438,124,9052,1,0,0:0:0:0:
363,91,9232,6,0,L|182:88,1,168,0|0,0:0|0:0,0:0:0:0:
337,291,9955,2,0,L|338:204,1,84,2|0,0:0|0:0,0:0:0:0:
226,333,10317,2,0,L|41:321,2,168,2|0|0,0:0|0:0|0:0,0:0:0:0:
297,293,11220,1,0,0:0:0:0:
325,215,11401,1,2,0:0:0:0:
294,139,11582,1,0,0:0:0:0:
220,103,11763,2,0,L|122:89,1,84,2|0,0:0|0:0,0:0:0:0:
225,197,12124,6,0,L|411:185,1,168,0|0,0:0|0:0,0:0:0:0:
301,266,12666,2,0,L|204:268,2,84,0|2|0,0:0|0:0|0:0,0:0:0:0:
405,262,13208,2,0,P|405:198|289:169,1,168,2|0,0:0|0:0,0:0:0:0:
128,288,13931,5,2,0:0:0:0:
116,206,14111,1,0,0:0:0:0:
158,135,14292,1,2,0:0:0:0:
235,105,14473,1,0,0:0:0:0:
340,193,14654,2,0,L|514:183,2,168
245,192,15557,1,0,0:0:0:0:
322,111,15738,2,0,L|408:106,1,84,2|0,0:0|0:0,0:0:0:0:
298,80,16100,2,0,L|210:77,1,84,2|0,0:0|0:0,0:0:0:0:
331,151,16461,6,0,P|364:114|291:40,1,168
223,64,17003,1,0,0:0:0:0:
190,139,17184,1,2,0:0:0:0:
223,213,17365,1,0,0:0:0:0:
301,239,17546,6,0,L|482:229,2,168,2|0|0,0:0|0:0|0:0,0:0:0:0:
212,245,18449,1,0,0:0:0:0:
126,248,18630,2,0,L|121:157,1,84,2|0,0:0|0:0,0:0:0:0:
224,146,18991,2,0,L|336:135,1,84,2|0,0:0|0:0,0:0:0:0:
213,268,19353,6,0,L|38:260,1,168
243,346,20076,1,2,0:0:0:0:
317,311,20256,1,0,0:0:0:0:
344,234,20437,1,2,0:0:0:0:
309,161,20618,1,0,0:0:0:0:
233,358,20799,6,0,L|423:333,1,168,0|0,0:0|0:0,0:0:0:0:
227,341,21522,1,2,0:0:0:0:
153,306,21702,1,0,0:0:0:0:
126,229,21883,1,2,0:0:0:0:
161,156,22064,1,0,0:0:0:0:
237,353,22245,6,0,L|47:328,1,168
263,313,22967,2,0,L|265:208,1,84,2|0,0:0|0:0,0:0:0:0:
159,211,23329,2,0,L|163:117,1,84,2|0,0:0|0:0,0:0:0:0:
297,180,23690,6,0,P|363:153|367:81,2,126,2|0|0,0:0|0:0|0:0,0:0:0:0:
148,181,24413,2,0,L|9:174,2,126,2|0|0,0:0|0:0|0:0,0:0:0:0:
411,214,25136,6,0,B|545:183|445:8|344:56|344:56|254:96|183:67|140:39|140:39|380:61|397:387|136:421|-29:362|-51:81|119:34|199:75|245:96,1,1344,14|8,0:0|0:0,0:0:0:0:
289,182,29232,6,0,L|234:188,1,56,2|2,0:0|0:0,0:0:0:0:
304,128,29473,2,0,L|387:122,1,84,2|2,0:0|0:0,0:0:0:0:
191,326,30016,2,0,L|188:142,1,168,2|2,0:0|0:0,0:0:0:0:
437,350,30919,6,0,B|228:360|202:44|450:69|450:69|233:216|222:6|87:96|87:96|1:187|68:371|305:273|263:127,1,1344,12|8,0:0|0:0,0:0:0:0:
100,238,35257,2,0,L|99:127,1,84,8|0,0:0|0:0,0:0:0:0:
337,428,36702,6,0,B|275:429|229:384|220:326|220:326|212:268|241:212|294:186|294:186|345:160|406:171|448:212|448:212|373:253|278:237|219:174|219:174|161:111|151:14|196:-59|196:-59|244:-130|331:-162|413:-137|413:-137|462:-120|482:-103|491:-96|491:-96|502:-81,1,1344,4|8,0:0|0:0,0:0:0:0:
114,153,40799,2,0,L|113:93,1,56,2|2,0:0|0:0,0:0:0:0:
212,81,41040,2,0,L|308:79,1,84,2|2,0:0|0:0,0:0:0:0:
115,301,41582,2,0,L|112:109,1,168,2|2,0:0|0:0,0:0:0:0:
428,384,42485,6,0,B|479:160|207:96|121:280|121:280|288:404|463:155|239:28|239:28|142:184|246:280|323:310,1,1344,4|8,0:0|0:0,0:0:0:0:
165,322,46100,2,0,L|153:121,1,168,0|0,0:0|0:0,0:0:0:0:
339,290,46823,2,0,L|348:94,1,168,0|0,0:0|0:0,0:0:0:0:
120,316,47546,1,2,0:0:0:0:
52,273,47726,1,2,0:0:0:0:
53,192,47907,1,2,0:0:0:0:
123,152,48088,1,2,0:0:0:0:
299,326,48269,6,0,P|370:263|268:140,1,280,6|0,0:0|0:0,0:0:0:0:
161,302,48991,2,0,P|104:237|209:96,1,280,2|0,0:0|0:0,0:0:0:0:
323,362,49714,6,0,P|396:309|133:81,1,616,2|0,0:0|0:0,0:0:0:0:
238,268,51160,2,0,P|328:246|326:72,1,280,2|0,0:0|0:0,0:0:0:0:
237,229,51883,2,0,P|160:200|273:104,1,280,2|0,0:0|0:0,0:0:0:0:
162,289,52606,6,0,P|110:268|201:121,1,280,2|0,0:0|0:0,0:0:0:0:
264,125,53329,2,0,L|441:107,1,168,2|2,0:0|0:0,0:0:0:0:
180,243,54052,5,6,0:0:0:0:
359,275,59112,6,0,L|362:159,1,84,2|2,0:0|0:0,0:0:0:0:
249,179,59473,2,0,L|252:88,1,84,2|2,0:0|0:0,0:0:0:0:
92,259,59835,6,0,P|81:202|254:112,1,280,6|0,0:0|0:0,0:0:0:0:
165,306,60558,2,0,P|83:261|206:179,1,280,2|0,0:0|0:0,0:0:0:0:
287,313,61281,6,0,P|383:289|357:125,1,280,2|2,0:0|0:0,0:0:0:0:
294,261,62003,2,0,P|233:233|324:101,1,280,2|2,0:0|0:0,0:0:0:0:
400,252,62726,6,0,L|401:79,1,168,8|10,0:0|0:0,0:0:0:0:
299,206,63269,1,10,0:0:0:0:
188,250,63449,2,0,L|180:136,1,84,10|8,0:0|0:0,0:0:0:0:
303,166,63811,2,0,L|311:52,1,84,10|10,0:0|0:0,0:0:0:0:
167,267,64172,6,0,L|135:158,1,84,10|8,0:0|0:0,0:0:0:0:
317,158,64534,2,0,L|342:49,1,84,10|8,0:0|0:0,0:0:0:0:
152,131,64895,2,0,L|69:71,1,84,10|8,0:0|0:0,0:0:0:0:
339,140,65257,2,0,L|422:80,1,84,10|8,0:0|0:0,0:0:0:0:
137,158,65618,6,0,L|34:130,1,84,10|8,0:0|0:0,0:0:0:0:
375,158,65979,2,0,L|478:130,1,84,8|8,0:0|0:0,0:0:0:0:
128,213,66341,2,0,L|-6:215,1,105,8|8,0:0|0:0,0:0:0:0:
384,213,66702,2,0,L|518:215,1,105,8|8,0:0|0:0,0:0:0:0:
148,212,67064,6,0,L|-6:215,1,136.499993751526,8|8,0:0|0:0,0:0:0:0:
363,212,67425,2,0,L|518:215,1,136.499993751526,8|8,0:0|0:0,0:0:0:0:
177,206,67787,2,0,L|1:206,1,168,8|8,0:0|0:0,0:0:0:0:
323,206,68148,2,0,L|504:203,1,168,8|8,0:0|0:0,0:0:0:0:
272,137,68510,5,4,3:0:0:0:
256,192,69232,12,0,70678,0:0:0:0:
395,224,71401,5,4,3:0:0:0:
365,253,71424,1,0,0:0:0:0:
330,274,71446,1,0,0:0:0:0:
392,182,71469,1,0,0:0:0:0:
363,211,71491,1,0,0:0:0:0:
325,233,71514,1,0,0:0:0:0:
378,164,71536,1,0,0:0:0:0:
316,214,71559,1,0,0:0:0:0:
358,148,71581,1,0,0:0:0:0:
300,195,71604,1,0,0:0:0:0:
331,134,71626,1,0,0:0:0:0:
281,177,71649,1,0,0:0:0:0:
290,126,71672,1,0,0:0:0:0:
261,163,71695,1,0,0:0:0:0:
250,122,71717,1,0,0:0:0:0:
228,151,71740,1,0,0:0:0:0:
210,118,71763,5,2,0:3:0:0:
231,50,71793,1,0,0:0:0:0:
268,49,71823,1,0,0:0:0:0:
302,47,71853,1,0,0:0:0:0:
130,200,71943,2,2,L|32:197,1,68.2499968757631,0|0,3:0|3:0,0:0:0:0:
338,280,72124,2,0,P|397:230|293:149,1,204.749990627289,12|2,0:3|0:0,0:0:0:0:
165,281,72666,5,0,3:0:0:0:
148,260,72689,1,0,0:0:0:0:
163,255,72711,1,0,0:0:0:0:
128,236,72734,1,0,0:0:0:0:
162,231,72756,1,0,0:0:0:0:
114,210,72779,1,0,0:0:0:0:
165,208,72801,1,0,0:0:0:0:
112,187,72824,1,0,0:0:0:0:
172,185,72846,1,0,0:0:0:0:
120,165,72869,1,0,0:0:0:0:
181,165,72891,1,0,0:0:0:0:
143,141,72914,1,0,0:0:0:0:
211,136,72937,1,0,0:0:0:0:
174,129,72960,1,0,0:0:0:0:
231,117,72982,1,0,0:0:0:0:
212,128,73005,1,0,0:0:0:0:
264,148,73028,6,0,L|345:146,1,68.2499968757631,0|8,0:0|0:0,0:0:0:0:
170,88,73208,2,0,L|-21:86,1,136.499993751526,0|2,3:0|0:3,0:0:0:0:
365,335,73570,6,0,L|405:335,1,26.25,8|0,3:0|0:0,0:0:0:0:
293,289,73660,2,0,L|333:289,1,26.25,2|0,0:0|0:0,0:0:0:0:
239,220,73750,2,0,L|279:220,1,26.25,2|0,0:0|0:0,0:0:0:0:
218,136,73841,2,0,L|258:136,1,26.25,2|0,0:0|0:0,0:0:0:0:
245,136,73931,2,0,L|218:136,1,26.25,2|0,0:0|0:0,0:0:0:0:
266,220,74021,2,0,L|239:220,1,26.25,2|0,0:0|0:0,0:0:0:0:
320,289,74112,2,0,L|293:289,1,26.25,2|0,0:0|0:0,0:0:0:0:
392,335,74202,2,0,L|365:335,1,26.25,2|0,0:0|0:0,0:0:0:0:
151,251,74293,6,0,L|91:227,6,52.5,0|0|0|0|0|0|0,3:0|0:0|0:0|0:0|0:0|0:0|0:0,0:0:0:0:
292,246,74835,2,2,L|189:257,1,68.2499968757631,0|0,3:0|3:0,0:0:0:0:
468,251,75016,2,0,P|468:171|388:65,1,204.749990627289,8|2,0:3|0:0,0:0:0:0:
202,305,75558,5,0,3:0:0:0:
190,272,75603,1,0,0:0:0:0:
191,238,75648,1,0,0:0:0:0:
202,207,75693,1,0,0:0:0:0:
224,180,75738,1,0,0:0:0:0:
253,163,75783,1,0,0:0:0:0:
286,156,75829,1,2,0:0:0:0:
316,155,75874,1,0,0:0:0:0:
349,126,75919,1,0,3:0:0:0:
379,80,75942,1,0,0:0:0:0:
295,124,75964,1,0,0:0:0:0:
328,78,75987,1,0,0:0:0:0:
240,122,76009,1,0,0:0:0:0:
273,76,76032,1,0,0:0:0:0:
198,116,76054,1,0,0:0:0:0:
230,75,76077,1,0,0:0:0:0:
198,313,76100,1,0,3:0:0:0:
247,308,76145,1,0,0:0:0:0:
284,285,76190,1,0,0:0:0:0:
296,253,76235,1,0,0:0:0:0:
278,221,76280,1,0,0:0:0:0:
237,202,76325,1,0,0:0:0:0:
187,202,76371,1,0,0:0:0:0:
381,291,76461,5,8,3:0:0:0:
469,261,76551,1,0,0:0:0:0:
381,212,76642,1,0,0:0:0:0:
286,189,76732,1,2,0:0:0:0:
382,142,76822,1,0,0:0:0:0:
468,115,76913,1,0,0:0:0:0:
371,67,77003,1,2,0:3:0:0:
324,42,77048,1,0,0:0:0:0:
278,17,77093,1,0,0:0:0:0:
96,296,77184,5,0,3:0:0:0:
64,288,77207,1,0,0:0:0:0:
23,281,77229,1,0,0:0:0:0:
82,234,77252,1,0,0:0:0:0:
57,229,77274,1,0,0:0:0:0:
23,223,77297,1,0,0:0:0:0:
79,190,77319,1,0,0:0:0:0:
40,180,77342,1,0,0:0:0:0:
106,155,77364,1,0,0:0:0:0:
75,143,77387,1,0,0:0:0:0:
134,128,77409,1,0,0:0:0:0:
111,105,77432,1,0,0:0:0:0:
156,98,77455,1,0,0:0:0:0:
149,77,77478,1,0,0:0:0:0:
196,121,77500,1,0,0:0:0:0:
197,70,77523,1,0,0:0:0:0:
245,146,77546,1,2,0:3:0:0:
301,146,77591,1,0,0:0:0:0:
358,146,77636,1,0,0:0:0:0:
144,234,77726,6,0,L|61:140,1,105,0|0,3:0|3:0,0:0:0:0:
336,277,77907,2,0,P|318:146|161:43,1,315,8|2,0:3|0:0,0:0:0:0:
353,338,78449,1,0,3:0:0:0:
383,314,78472,1,0,0:0:0:0:
300,338,78494,1,0,0:0:0:0:
330,314,78517,1,0,0:0:0:0:
249,327,78539,1,0,0:0:0:0:
279,303,78562,1,0,0:0:0:0:
203,303,78584,1,0,0:0:0:0:
233,279,78607,1,0,0:0:0:0:
168,264,78629,1,0,0:0:0:0:
198,240,78652,1,0,0:0:0:0:
149,215,78674,1,0,0:0:0:0:
179,191,78697,1,0,0:0:0:0:
141,163,78720,1,0,0:0:0:0:
171,139,78743,1,0,0:0:0:0:
143,111,78765,1,0,0:0:0:0:
173,87,78788,1,0,0:0:0:0:
150,59,78810,1,0,0:0:0:0:
180,35,78833,1,0,0:0:0:0:
236,162,78901,6,0,L|371:129,1,105,8|0,0:0|3:0,0:0:0:0:
189,191,79172,2,0,L|112:143,2,70,2|2|2,0:3|0:3|0:3,0:0:0:0:
373,378,79353,6,0,B|459:299|436:85|321:-19,1,420,8|0,0:3|0:0,0:0:0:0:
333,326,79579,2,0,P|113:258|73:65,1,420
91,48,79805,2,0,P|314:72|372:267,1,420
131,243,80076,6,0,L|131:100,6,105,0|0|0|0|0|0|0,3:0|0:0|0:0|0:0|0:0|0:0|0:0,0:0:0:0:
272,192,80618,2,0,L|192:168,1,73.4999977569581,0|0,3:0|3:0,0:0:0:0:
432,272,80799,2,0,P|472:192|392:80,1,220.499993270874,8|2,0:3|0:0,0:0:0:0:
336,160,81160,2,0,L|464:144,1,73.4999977569581,0|0,0:0|0:0,0:0:0:0:
296,104,81340,1,0,3:0:0:0:
56,232,81522,5,8,0:3:0:0:
360,272,81702,2,0,L|376:176,1,73.4999977569581,0|0,3:0|3:0,0:0:0:0:
104,176,81973,2,0,L|120:56,1,73.4999977569581,0|0,3:0|3:0,0:0:0:0:
200,96,82154,2,0,L|480:88,1,210,0|8,0:0|0:3,0:0:0:0:
104,280,82425,2,0,L|88:168,1,73.4999977569581,0|0,3:0|3:0,0:0:0:0:
416,224,82696,2,0,L|400:112,1,73.4999977569581,0|0,3:0|3:0,0:0:0:0:
224,375,82967,6,0,P|97:252|234:-14,1,514.499984298707,8|0,0:0|0:0,0:0:0:0:
439,288,83690,6,0,P|456:195|392:149,1,146.999995513916,8|0,0:3|3:0,0:0:0:0:
256,191,83962,2,0,L|105:163,1,146.999995513916,8|0,0:3|0:0,0:0:0:0:
197,290,84232,1,4,3:1:0:0:
219,306,84255,1,0,0:0:0:0:
230,276,84277,1,0,0:0:0:0:
255,289,84300,1,0,0:0:0:0:
258,251,84322,1,0,0:0:0:0:
286,259,84345,1,0,0:0:0:0:
275,219,84367,1,0,0:0:0:0:
304,220,84390,1,0,0:0:0:0:
280,183,84412,1,0,0:0:0:0:
310,177,84435,1,0,0:0:0:0:
272,147,84457,1,0,0:0:0:0:
301,134,84480,1,0,0:0:0:0:
253,116,84503,1,0,0:0:0:0:
280,97,84526,1,0,0:0:0:0:
224,94,84548,1,0,0:0:0:0:
248,70,84571,1,0,0:0:0:0:
189,82,84593,1,0,0:0:0:0:
130,113,84684,6,0,L|247:87,1,73.4999977569581,8|0,0:0|3:0,0:0:0:0:
366,125,84955,1,2,0:3:0:0:
83,284,85136,6,0,L|43:284,1,26.25,8|0,0:3|0:0,0:0:0:0:
155,238,85226,2,0,L|115:238,1,26.25,2|0,0:0|0:0,0:0:0:0:
209,169,85317,2,0,L|169:169,1,26.25,2|0,0:0|0:0,0:0:0:0:
230,85,85407,2,0,L|200:85,1,26.25,2|0,0:0|0:0,0:0:0:0:
203,85,85497,2,0,L|230:85,1,26.25,2|0,0:0|0:0,0:0:0:0:
182,169,85587,2,0,L|209:169,1,26.25,2|0,0:0|0:0,0:0:0:0:
128,238,85678,2,0,L|163:238,1,26.25,2|0,0:0|0:0,0:0:0:0:
56,284,85768,2,0,L|83:284,1,26.25,2|0,0:0|0:0,0:0:0:0:
325,259,85859,6,0,L|385:235,6,52.5,0|0|0|0|0|0|0,3:0|0:0|0:0|0:0|0:0|0:0|0:0,0:0:0:0:
180,157,86401,2,0,L|303:155,1,68.2499968757631,0|0,3:0|3:0,0:0:0:0:
52,289,86582,2,0,P|36:220|121:95,1,204.749990627289,8|2,0:3|0:0,0:0:0:0:
312,338,87124,1,0,3:0:0:0:
339,317,87169,1,0,0:0:0:0:
360,291,87214,1,0,0:0:0:0:
375,260,87259,1,0,0:0:0:0:
382,227,87304,1,0,0:0:0:0:
381,193,87349,1,0,0:0:0:0:
372,160,87395,1,2,0:0:0:0:
315,150,87440,1,0,0:0:0:0:
339,109,87463,1,0,0:0:0:0:
255,152,87486,1,0,3:0:0:0:
284,105,87509,1,0,0:0:0:0:
200,150,87531,1,0,0:0:0:0:
229,104,87554,1,0,0:0:0:0:
146,149,87576,1,0,0:0:0:0:
184,103,87599,1,0,0:0:0:0:
103,148,87622,1,0,0:0:0:0:
134,101,87644,1,0,0:0:0:0:
102,213,87666,5,0,3:0:0:0:
145,218,87711,1,0,0:0:0:0:
189,225,87756,1,0,0:0:0:0:
234,231,87801,1,0,0:0:0:0:
280,239,87846,1,0,0:0:0:0:
324,245,87891,1,0,0:0:0:0:
369,253,87937,1,0,0:0:0:0:
156,280,88028,5,8,0:3:0:0:
134,185,88118,1,0,0:0:0:0:
252,162,88208,1,0,0:0:0:0:
256,68,88299,1,2,0:0:0:0:
365,187,88389,1,0,0:0:0:0:
380,72,88479,1,0,0:0:0:0:
486,156,88570,2,0,L|489:96,2,34.1249984378815,2|0|0,0:3|0:0|0:0,0:0:0:0:
154,305,88750,5,0,3:0:0:0:
91,193,88773,1,0,0:0:0:0:
148,268,88795,1,0,0:0:0:0:
93,158,88818,1,0,0:0:0:0:
158,233,88840,1,0,0:0:0:0:
109,125,88863,1,0,0:0:0:0:
176,208,88885,1,0,0:0:0:0:
137,96,88908,1,0,0:0:0:0:
205,183,88930,1,0,0:0:0:0:
181,72,88953,1,0,0:0:0:0:
236,169,88975,1,0,0:0:0:0:
232,57,88998,1,0,0:0:0:0:
268,160,89021,1,0,0:0:0:0:
287,48,89044,1,0,0:0:0:0:
302,160,89066,1,0,0:0:0:0:
250,165,89112,5,2,0:3:0:0:
209,174,89157,1,0,0:0:0:0:
168,177,89202,1,0,0:0:0:0:
336,122,89293,2,0,L|441:103,1,68.2499968757631,0|0,3:0|3:0,0:0:0:0:
142,292,89473,2,0,P|110:152|154:97,1,204.749990627289,8|2,0:3|0:0,0:0:0:0:
357,349,90016,5,0,3:0:0:0:
414,348,90038,1,0,0:0:0:0:
370,317,90061,1,0,0:0:0:0:
400,316,90083,1,0,0:0:0:0:
378,284,90106,1,0,0:0:0:0:
392,283,90128,1,0,0:0:0:0:
381,250,90151,1,0,0:0:0:0:
389,249,90173,1,0,0:0:0:0:
380,216,90196,1,0,0:0:0:0:
390,215,90218,1,0,0:0:0:0:
373,183,90241,1,0,0:0:0:0:
397,182,90263,1,0,0:0:0:0:
361,150,90287,1,0,0:0:0:0:
409,149,90309,1,0,0:0:0:0:
314,70,90377,6,0,L|201:68,1,68.2499968757631,0|8,0:0|0:0,0:0:0:0:
347,121,90558,1,0,3:0:0:0:
239,113,90738,1,2,0:3:0:0:
293,111,90798,1,2,0:3:0:0:
347,110,90858,1,2,0:3:0:0:
185,288,90919,2,0,L|63:40,1,262.5,8|0,0:3|0:0,0:0:0:0:
107,58,91145,2,0,L|398:56,1,262.5,0|0,0:0|0:0,0:0:0:0:
394,120,91371,2,0,L|83:121,1,262.5,0|2,0:0|0:0,0:0:0:0:
385,240,91642,6,0,L|384:168,6,65.625,0|0|0|0|0|0|0,3:0|0:0|0:0|0:0|0:0|0:0|0:0,0:0:0:0:
263,233,92184,2,0,L|365:95,1,131.25,0|0,3:0|3:0,0:0:0:0:
96,255,92365,2,0,L|95:113,1,136.499993751526,12|0,0:3|0:0,0:0:0:0:
175,110,92636,2,0,L|350:96,1,136.499993751526,2|0,0:0|0:0,0:0:0:0:
397,89,92907,1,0,0:0:0:0:
94,239,93088,6,0,L|421:220,1,294,8|0,0:3|0:0,0:0:0:0:
388,222,93269,2,0,L|69:146,1,294,8|0,0:3|0:0,0:0:0:0:
101,154,93449,2,0,L|401:283,1,294,8|0,0:3|0:0,0:0:0:0:
370,270,93630,2,0,L|96:90,1,294,8|0,0:3|0:0,0:0:0:0:
124,108,93811,6,0,L|319:369,1,294,8|0,0:3|0:0,0:0:0:0:
298,343,93991,2,0,L|150:49,1,294,8|0,0:3|0:0,0:0:0:0:
165,80,94172,2,0,L|154:242,1,136.499993751526,8|2,0:3|0:0,0:0:0:0:
479,265,94534,5,4,3:1:0:0:
483,231,94579,1,0,0:0:0:0:
472,198,94624,1,0,0:0:0:0:
442,169,94669,1,0,0:0:0:0:
399,149,94714,1,0,0:0:0:0:
347,139,94759,1,0,0:0:0:0:
293,141,94805,1,0,0:0:0:0:
242,150,94850,1,0,0:0:0:0:
211,178,94895,1,2,0:0:0:0:
257,188,94940,1,0,0:0:0:0:
305,194,94985,1,0,0:0:0:0:
352,194,95030,1,0,0:0:0:0:
400,190,95075,1,0,0:0:0:0:
446,179,95120,1,0,0:0:0:0:
492,164,95166,1,0,0:0:0:0:
457,237,95799,6,0,L|275:95,1,210,0|0,3:0|3:0,0:0:0:0:
57,170,95979,1,12,0:3:0:0:
150,123,96160,2,0,L|203:122,1,52.5,2|0,0:3|0:0,0:0:0:0:
350,231,96341,2,0,L|125:186,1,220.499993270874,0|0,0:0|0:3,0:0:0:0:
319,106,96702,6,0,L|371:107,1,52.5,2|0,0:3|0:0,0:0:0:0:
286,199,96883,1,0,3:0:0:0:
119,184,96973,2,0,L|67:183,1,52.5,2|0,0:3|0:0,0:0:0:0:
177,88,97154,1,0,3:0:0:0:
341,63,97244,2,0,L|393:64,1,52.5,2|0,0:3|0:0,0:0:0:0:
424,179,97335,2,0,L|372:180,1,52.5,2|0,0:3|0:0,0:0:0:0:
209,259,97425,6,0,L|179:103,6,105,0|0|0|0|0|0|0,3:0|0:0|0:0|0:0|0:0|0:0|0:0,0:0:0:0:
359,155,97967,2,0,L|406:30,3,105,0|0|0|0,1:0|1:0|1:0|0:0,0:0:0:0:
374,278,98148,6,0,P|242:199|83:57,1,367.5,2|0,0:0|0:0,0:0:0:0:
83,57,98329,2,0,P|218:181|374:278,1,367.5,2|0,0:0|0:0,0:0:0:0:
374,278,98510,1,0,3:0:0:0:
258,199,98630,1,0,3:0:0:0:
371,161,98750,1,0,3:0:0:0:
150,200,98871,5,8,0:3:0:0:
249,210,98961,2,0,L|344:206,1,68.2499968757631,0|0,0:0|0:0,0:0:0:0:
245,136,99142,1,0,0:0:0:0:
163,126,99232,1,0,0:0:0:0:
242,66,99323,1,0,0:0:0:0:
420,224,99413,2,0,L|422:117,1,68.2499968757631,0|0,3:0|0:0,0:0:0:0:
322,161,99594,6,0,L|308:121,2,34.1249984378815,2|0|0,0:0|0:0|0:0,0:0:0:0:
69,172,99775,1,0,3:0:0:0:
162,169,99865,2,0,L|176:129,2,34.1249984378815,2|0|0,0:0|0:0|0:0,0:0:0:0:
74,7,100046,2,0,L|412:274,1,420,0|0,3:0|0:0,0:0:0:0:
293,299,100317,5,0,3:0:0:0:
253,316,100340,1,0,0:0:0:0:
290,256,100362,1,0,0:0:0:0:
235,287,100385,1,0,0:0:0:0:
283,236,100407,1,0,0:0:0:0:
233,254,100430,1,0,0:0:0:0:
275,219,100452,1,0,0:0:0:0:
233,208,100475,1,0,0:0:0:0:
273,200,100497,1,0,0:0:0:0:
233,164,100520,1,0,0:0:0:0:
269,164,100542,1,0,0:0:0:0:
241,105,100565,1,0,0:0:0:0:
267,126,100588,1,0,0:0:0:0:
253,39,100611,1,0,0:0:0:0:
268,78,100633,1,0,0:0:0:0:
271,31,100656,1,0,0:0:0:0:
280,27,100678,1,0,0:0:0:0:
472,341,101040,6,0,B|260:300|73:155|73:155|66:317|66:317|38:55|38:55|26:128|26:128|36:61|36:61|155:142,1,1050,4|0,3:1|0:0,0:0:0:0:
260,149,101582,2,0,L|343:400,1,210,0|0,3:0|3:0,0:0:0:0:
111,186,101763,5,8,0:3:0:0:
240,176,101943,2,0,L|292:177,1,52.5,2|0,0:3|0:0,0:0:0:0:
152,224,102124,2,0,L|371:186,1,204.749990627289,0|0,0:0|0:0,0:0:0:0:
192,272,102485,5,2,0:3:0:0:
144,256,102508,1,0,0:0:0:0:
144,208,102531,1,0,0:0:0:0:
192,200,102553,1,0,0:0:0:0:
192,160,102576,1,0,0:0:0:0:
144,144,102599,1,0,0:0:0:0:
144,96,102622,1,0,0:0:0:0:
192,88,102644,1,0,0:0:0:0:
192,40,102666,2,0,L|392:152,1,210,0|2,3:0|0:3,0:0:0:0:
424,256,102780,5,0,0:0:0:0:
424,208,102803,1,0,0:0:0:0:
376,200,102825,1,0,0:0:0:0:
376,160,102848,1,0,0:0:0:0:
424,144,102869,1,0,0:0:0:0:
424,96,102892,1,0,0:0:0:0:
376,88,102915,1,0,0:0:0:0:
376,40,102937,2,0,L|176:152,1,210,0|2,3:0|0:0,0:0:0:0:
336,256,103209,6,0,L|328:72,6,105,0|0|0|0|0|0|0,3:0|0:0|0:0|0:0|0:0|0:0|0:0,0:0:0:0:
160,192,103750,2,0,L|216:32,2,140,0|0|0,1:0|0:0|0:0,0:0:0:0:
104,248,103931,6,0,P|304:216|368:32,1,367.5,2|0,0:0|0:0,0:0:0:0:
371,81,104112,2,0,P|194:96|103:247,1,367.5,0|0,0:0|0:0,0:0:0:0:
128,264,104293,2,0,L|232:0,2,280,0|0|0,3:0|3:0|3:0,0:0:0:0:
400,192,104654,2,0,L|456:176,6,34.1249984378815,8|0|0|0|0|0|0,0:3|0:0|0:0|0:0|0:0|0:0|0:0,0:0:0:0:
192,272,105016,5,2,0:3:0:0:
144,256,105039,1,0,0:0:0:0:
144,208,105062,1,0,0:0:0:0:
192,200,105084,1,0,0:0:0:0:
192,160,105107,1,0,0:0:0:0:
144,144,105128,1,0,0:0:0:0:
144,96,105151,1,0,0:0:0:0:
192,88,105174,1,0,0:0:0:0:
192,56,105196,2,0,L|384:192,1,210,2|0,3:0|0:0,0:0:0:0:
128,208,105377,5,8,0:3:0:0:
216,120,105558,1,0,3:0:0:0:
475,111,105648,1,8,0:3:0:0:
397,45,105828,1,0,3:0:0:0:
144,336,105919,6,0,B|62:271|86:119|195:90|238:86|238:86|251:102,1,614.249971881868,8|0,0:3|0:0,0:0:0:0:
180,309,106823,6,0,P|170:219|194:149,1,136.499993751526,4|0,3:1|3:0,0:0:0:0:
386,165,107094,2,0,L|306:158,1,68.2499968757631,0|0,3:0|0:0,0:0:0:0:
121,182,107275,2,0,L|233:169,1,68.2499968757631,0|0,3:0|0:0,0:0:0:0:
379,113,107455,1,0,3:0:0:0:
129,170,107546,6,0,B|104:107|104:107|136:8,1,136.499993751526,8|2,0:3|0:3,0:0:0:0:
176,40,107749,1,0,0:0:0:0:
304,152,107907,2,0,L|64:136,1,204.749990627289,0|0,0:0|0:0,0:0:0:0:
288,112,108269,2,0,L|360:104,1,52.5,2|0,0:3|0:0,0:0:0:0:
216,64,108449,1,0,3:0:0:0:
384,160,108540,2,0,L|457:161,1,52.5,2|0,0:3|0:0,0:0:0:0:
304,240,108720,1,0,3:0:0:0:
136,240,108811,2,0,L|63:241,1,52.5,2|0,0:3|0:0,0:0:0:0:
160,168,108901,2,0,L|108:168,1,52.5,2|0,0:3|0:0,0:0:0:0:
352,200,108991,6,0,L|352:160,6,34.1249984378815,0|0|0|0|0|0|0,3:0|0:0|0:0|0:0|0:0|0:0|0:0,0:0:0:0:
232,130,109534,2,0,L|178:64,3,65.625,0|0|0|0,1:0|1:0|1:0|0:0,0:0:0:0:
239,44,109714,6,0,P|422:149|481:324,1,367.5,0|0,0:0|0:0,0:0:0:0:
478,287,109895,2,0,P|316:206|238:43,1,367.5,0|0,0:0|0:0,0:0:0:0:
255,55,110076,2,0,L|388:324,2,280,0|0|0,3:0|3:0|3:0,0:0:0:0:
58,165,110437,5,8,0:3:0:0:
150,161,110528,2,0,L|266:154,1,68.2499968757631,0|0,0:0|0:0,0:0:0:0:
129,252,110708,2,0,L|44:245,2,68.2499968757631,0|0|0,0:0|0:0|0:0,0:0:0:0:
322,191,110979,2,0,L|230:187,1,68.2499968757631,0|0,3:0|0:0,0:0:0:0:
152,161,111160,2,0,L|143:107,2,34.1249984378815,2|0|0,0:3|0:0|0:0,0:0:0:0:
426,187,111341,1,0,3:0:0:0:
342,154,111431,2,0,L|333:100,2,34.1249984378815,2|0|0,0:3|0:0|0:0,0:0:0:0:
440,250,111612,1,0,3:0:0:0:
240,268,111702,1,0,0:0:0:0:
39,279,111793,1,0,0:0:0:0:
382,349,111883,5,4,3:2:0:0:
410,331,111928,1,0,0:0:0:0:
433,305,111973,1,0,0:0:0:0:
447,274,112018,1,0,0:0:0:0:
452,241,112063,1,0,0:0:0:0:
447,207,112108,1,0,0:0:0:0:
432,177,112154,1,0,0:0:0:0:
409,152,112199,1,0,0:0:0:0:
362,137,112244,5,0,0:0:0:0:
316,137,112289,1,0,0:0:0:0:
272,137,112334,1,0,0:0:0:0:
228,137,112379,1,0,0:0:0:0:
183,137,112424,1,0,0:0:0:0:
139,138,112469,1,0,0:0:0:0:
95,138,112515,1,0,0:0:0:0:
51,138,112560,1,0,0:0:0:0:
102,362,112606,5,0,0:0:0:0:
158,355,112651,1,0,0:0:0:0:
210,333,112696,1,0,0:0:0:0:
251,296,112741,1,0,0:0:0:0:
278,250,112786,1,0,0:0:0:0:
286,198,112831,1,0,0:0:0:0:
276,147,112877,1,0,0:0:0:0:
249,101,112922,1,0,0:0:0:0:
206,66,112967,1,0,0:0:0:0:
154,44,113012,1,0,0:0:0:0:
97,39,113057,1,0,0:0:0:0:
299,179,113148,2,0,L|361:91,1,105,0|0,3:0|3:0,0:0:0:0:
92,220,113328,5,8,0:3:0:0:
202,210,113510,2,0,L|275:207,1,52.5,2|0,0:3|0:0,0:0:0:0:
153,136,113690,2,0,L|394:123,1,220.499993270874,0|0,0:0|0:0,0:0:0:0:
165,292,114052,5,2,0:3:0:0:
117,276,114075,1,0,0:0:0:0:
117,228,114098,1,0,0:0:0:0:
165,220,114120,1,0,0:0:0:0:
165,180,114143,1,0,0:0:0:0:
117,164,114166,1,0,0:0:0:0:
117,116,114187,1,0,0:0:0:0:
165,108,114211,1,0,0:0:0:0:
165,60,114233,2,0,L|365:172,1,210,0|2,3:0|0:3,0:0:0:0:
397,276,114345,5,0,0:0:0:0:
397,228,114368,1,0,0:0:0:0:
349,220,114391,1,0,0:0:0:0:
349,180,114413,1,0,0:0:0:0:
397,164,114436,1,0,0:0:0:0:
397,116,114458,1,0,0:0:0:0:
349,108,114481,1,0,0:0:0:0:
349,60,114503,1,0,3:0:0:0:
165,370,114775,6,0,L|431:13,1,433.125016522408,4|0,3:1|0:0,0:0:0:0:
423,23,115046,2,0,L|164:369,1,433.125016522408
165,370,115317,2,0,L|452:369,1,275.62501051426
445,399,115497,6,0,L|244:1,1,433.125016522408,2|0,0:0|0:0,0:0:0:0:
249,11,115768,2,0,L|443:397,1,433.125016522408,2|0,0:0|0:0,0:0:0:0:
438,358,116040,2,0,L|251:149,1,275.62501051426,2|0,0:0|0:0,0:0:0:0:
250,324,116220,6,0,P|170:251|247:98,1,288.75,2|0,0:0|0:0,0:0:0:0:
233,104,116491,2,0,L|459:190,1,231,2|0,0:0|0:0,0:0:0:0:
447,127,116763,6,0,L|264:356,1,275.62501051426,2|0,0:0|0:0,0:0:0:0:
274,342,116943,2,0,L|409:178,1,202.124993831635,2|0,0:0|0:0,0:0:0:0:
387,188,117215,1,2,0:0:0:0:
130,254,117305,1,2,0:0:0:0:
75,190,117395,1,2,0:0:0:0:
110,118,117485,1,2,0:0:0:0:
203,112,117576,1,2,0:0:0:0:
449,210,117666,5,4,3:1:0:0:
281,143,118208,2,0,L|414:137,1,73.4999977569581,0|0,3:0|3:0,0:0:0:0:
149,325,118389,2,0,P|77:282|194:136,1,293.999991027832,8|0,0:3|0:0,0:0:0:0:
305,332,118931,6,0,P|322:218|54:33,1,440.999986541749,0|0,3:0|3:0,0:0:0:0:
400,160,119834,1,8,0:3:0:0:
101,166,120558,5,0,3:0:0:0:
408,133,121100,2,0,L|304:129,1,73.4999977569581,0|0,3:0|3:0,0:0:0:0:
124,133,121281,1,8,0:3:0:0:
350,258,121823,2,0,L|48:136,1,293.999991027832,0|0,3:0|3:0,0:0:0:0:
182,77,122365,2,0,L|428:266,2,293.999991027832,0|8|0,3:0|0:3|0:0,0:0:0:0:
440,234,123449,5,4,3:2:0:0:
234,191,123991,2,0,L|343:187,1,73.4999977569581,0|0,3:0|3:0,0:0:0:0:
126,287,124172,2,0,P|90:214|257:110,1,293.999991027832,8|0,0:3|0:0,0:0:0:0:
359,307,124714,2,0,L|25:-24,1,440.999986541749,0|0,3:0|3:0,0:0:0:0:
366,157,125618,1,8,0:3:0:0:
105,169,126340,5,0,3:0:0:0:
399,191,126883,2,0,L|290:189,1,73.4999977569581,0|0,3:0|3:0,0:0:0:0:
143,179,127064,1,8,0:3:0:0:
400,330,127606,2,0,P|390:219|226:146,1,293.999991027832,0|0,3:0|3:0,0:0:0:0:
101,266,128148,2,0,P|109:160|284:103,2,293.999991027832,0|8|0,3:0|0:3|0:0,0:0:0:0:
423,251,129232,5,4,3:2:0:0:
276,167,129775,2,0,L|373:162,1,73.4999977569581,0|0,3:0|3:0,0:0:0:0:
150,317,129955,2,0,P|94:239|214:97,1,293.999991027832,8|0,0:3|0:0,0:0:0:0:
337,362,130497,2,0,P|425:295|275:33,1,440.999986541749,0|0,3:0|3:0,0:0:0:0:
83,203,131401,1,8,0:3:0:0:
381,248,132124,5,0,3:0:0:0:
123,181,132666,2,0,L|216:180,1,73.4999977569581,0|0,3:0|3:0,0:0:0:0:
370,180,132847,1,8,0:3:0:0:
153,292,133389,1,0,3:0:0:0:
382,271,133750,1,0,3:0:0:0:
368,169,133931,1,0,3:0:0:0:
93,189,134293,1,8,0:3:0:0:
450,326,135016,5,4,3:2:0:0:
121,310,135558,2,0,L|122:202,1,73.4999977569581,0|0,3:0|3:0,0:0:0:0:
289,190,135738,1,8,0:3:0:0:
465,380,136281,2,0,L|411:-72,1,440.999986541749,0|0,3:0|3:0,0:0:0:0:
151,141,137184,6,0,L|369:366,2,293.999991027832,8|0|0,0:3|0:0|3:0,0:0:0:0:
411,233,138449,2,0,L|402:144,1,73.4999977569581,0|0,3:3|3:3,3:3:0:0:
212,139,138630,1,8,0:3:0:0:
133,257,139173,1,0,3:0:0:0:
337,224,139534,1,0,3:0:0:0:
184,206,139714,1,0,3:0:0:0:
413,317,140076,2,0,L|401:3,1,293.999991027832,8|0,0:3|0:0,0:0:0:0:
75,311,140799,6,0,B|25:191|98:-14|374:46|374:46|288:13|59:90|178:532|530:387|614:150|401:35,1,1344,4|8,0:0|0:0,0:0:0:0:
148,159,144895,2,0,L|257:159,1,56,2|2,0:0|0:0,0:0:0:0:
307,156,145136,2,0,L|427:155,1,84,2|2,0:0|0:0,0:0:0:0:
150,245,145678,2,0,L|146:77,1,168,2|2,0:0|0:0,0:0:0:0:
424,282,146582,6,0,B|353:344|218:319|156:200|240:37|394:89|394:89|240:36|158:200|218:319|353:344|424:281|424:281|500:206|470:97|385:65|330:63|275:100,1,1344,4|8,0:0|0:0,0:0:0:0:
77,286,150919,2,0,L|74:185,1,84,8|0,0:0|0:0,0:0:0:0:
446,352,152365,6,0,B|424:60|182:302|143:22|143:22|283:12|470:46|372:372|203:388|63:303|-34:132|143:21,1,1344,4|8,0:0|0:0,0:0:0:0:
398,144,156461,2,0,L|317:143,1,56,2|2,0:0|0:0,0:0:0:0:
230,144,156702,2,0,L|123:145,1,84,2|2,0:0|0:0,0:0:0:0:
414,333,157244,2,0,L|415:159,1,168,2|2,0:0|0:0,0:0:0:0:
110,97,158148,6,0,B|379:98|379:98|462:164|462:164|465:307|465:307|109:308|109:308|110:223|110:223|110:275|110:275|109:209|109:209|378:208,1,1344
419,234,162485,2,0,L|420:134,1,84,8|0,0:0|0:0,0:0:0:0:
161,104,163209,2,0,L|252:103,1,84,2|2,0:0|0:0,0:0:0:0:
402,98,163570,2,0,L|319:99,1,84,2|2,0:0|0:0,0:0:0:0:
167,309,163931,6,0,P|119:222|250:118,1,280,6|0,0:0|0:0,0:0:0:0:
322,315,164654,2,0,P|385:269|289:140,1,280,2|0,0:0|0:0,0:0:0:0:
384,335,165377,6,0,P|296:116|153:340,1,616,2|0,0:0|0:0,0:0:0:0:
275,352,166823,6,0,P|385:305|380:163,1,280,2|0,0:0|0:0,0:0:0:0:
269,282,167546,2,0,P|197:269|187:91,1,280,2|0,0:0|0:0,0:0:0:0:
278,83,168269,6,0,P|340:74|490:227,1,280,2|0,0:0|0:0,0:0:0:0:
392,241,168991,2,0,L|193:223,2,168,2|2|6,0:0|0:0|0:0,0:0:0:0:
111,256,174774,6,0,L|105:152,1,84,2|2,0:0|0:0,0:0:0:0:
235,220,175136,2,0,L|229:116,1,84,2|2,0:0|0:0,0:0:0:0:
392,312,175497,6,0,P|424:271|295:147,1,280,6|0,0:0|0:0,0:0:0:0:
377,274,176220,2,0,P|440:251|405:71,1,280,2|0,0:0|0:0,0:0:0:0:
323,341,176943,6,0,P|251:323|161:147,1,280,2|0,0:0|0:0,0:0:0:0:
257,318,177666,2,0,P|322:287|232:140,1,280,2|0,0:0|0:0,0:0:0:0:
136,263,178389,6,0,L|136:76,1,168,10|10,0:0|0:0,0:0:0:0:
277,178,178931,1,2,0:0:0:0:
398,128,179112,2,0,L|218:101,1,168,10|10,0:0|0:0,0:0:0:0:
117,119,179654,1,2,0:0:0:0:
231,103,179835,2,0,L|398:128,1,168,10|10,0:0|0:0,0:0:0:0:
173,332,180558,2,0,L|166:132,1,168,10|10,0:0|0:0,0:0:0:0:
399,187,181281,6,0,L|409:120,2,42,14|0|0,0:0|0:0|0:0,0:0:0:0:
240,187,181642,1,8,0:0:0:0:
387,126,181823,2,0,L|327:122,1,42,0|0,0:0|0:0,0:0:0:0:
196,112,182094,2,0,L|237:114,1,42,0|0,0:0|0:0,0:0:0:0:
410,209,182365,1,8,0:0:0:0:
235,203,182546,2,0,L|180:203,1,42,0|0,0:0|0:0,0:0:0:0:
264,142,182726,5,8,0:0:0:0:
292,96,182816,1,0,0:0:0:0:
240,58,182906,1,0,0:0:0:0:
96,143,183087,1,8,0:0:0:0:
263,157,183269,2,0,L|336:151,1,42,0|0,0:0|0:0,0:0:0:0:
141,70,183539,2,0,L|214:64,1,42,0|0,0:0|0:0,0:0:0:0:
351,168,183811,1,8,0:0:0:0:
296,166,183901,1,0,0:0:0:0:
241,165,183991,1,0,0:0:0:0:
187,164,184082,1,0,0:0:0:0:
132,162,184172,1,8,0:0:0:0:
314,275,184263,6,0,L|316:226,1,42,0|0,0:0|0:0,0:0:0:0:
182,166,184534,1,8,0:0:0:0:
326,114,184714,2,0,L|388:110,1,42
205,70,184985,2,0,L|259:65,1,42,0|0,0:0|0:0,0:0:0:0:
115,128,185257,1,8,0:0:0:0:
291,168,185437,6,0,L|356:166,2,42,0|0|8,0:0|0:0|0:0,0:0:0:0:
210,166,185708,2,0,L|199:103,1,52.5,0|0,0:0|0:0,0:0:0:0:
366,84,185979,1,8,0:0:0:0:
192,69,186160,2,0,L|128:61,1,52.5,0|0,0:0|0:0,0:0:0:0:
322,223,186341,6,0,L|419:206,3,68.2499968757631,8|0|0|0,0:0|0:0|0:0|0:0,0:0:0:0:
298,145,186702,2,0,L|201:128,3,68.2499968757631,8|0|0|0,0:0|0:0|0:0|0:0,0:0:0:0:
58,127,187064,5,4,3:2:0:0:
110,122,187154,1,0,0:0:0:0:
162,118,187244,1,0,0:0:0:0:
304,128,187425,1,0,3:0:0:0:
191,203,187606,1,0,0:0:0:0:
266,175,187696,1,0,0:0:0:0:
201,154,187787,1,0,3:0:0:0:
135,143,187877,1,0,0:0:0:0:
132,72,187967,1,0,0:0:0:0:
303,258,188148,1,0,3:0:0:0:
160,240,188328,1,0,0:0:0:0:
181,171,188419,1,0,0:0:0:0:
354,128,188510,6,0,L|451:131,2,52.5,0|0|0,3:0|0:0|0:0,0:0:0:0:
189,118,188869,1,0,3:0:0:0:
330,57,189048,2,0,L|259:58,1,52.5,0|0,0:0|0:0,0:0:0:0:
193,67,189229,1,0,3:0:0:0:
106,66,189319,2,0,L|158:65,1,52.5,0|0,0:0|0:0,0:0:0:0:
288,192,189587,1,0,3:0:0:0:
219,165,189677,1,0,0:0:0:0:
156,125,189767,1,0,3:0:0:0:
219,107,189857,1,0,0:0:0:0:
288,98,189947,1,0,3:0:0:0:
126,201,190036,6,0,L|130:149,1,52.5,0|0,0:0|0:0,0:0:0:0:
267,160,190304,1,0,3:0:0:0:
415,102,190482,2,0,L|321:101,1,52.5,0|0,0:0|0:0,0:0:0:0:
271,102,190661,1,0,3:0:0:0:
192,104,190750,2,0,L|133:106,1,52.5,0|0,0:0|0:0,0:0:0:0:
303,219,191018,1,0,3:0:0:0:
144,175,191197,2,0,L|234:175,1,52.5,0|0,0:0|0:0,0:0:0:0:
137,241,191375,5,0,3:0:0:0:
57,184,191464,2,0,L|144:179,1,52.5,0|0,0:0|0:0,0:0:0:0:
292,167,191732,1,0,3:0:0:0:
148,89,191911,1,0,0:0:0:0:
211,83,192000,1,0,0:0:0:0:
300,75,192089,1,0,3:0:0:0:
388,85,192179,1,0,0:0:0:0:
316,79,192268,1,0,0:0:0:0:
241,83,192357,1,0,3:0:0:0:
404,181,192447,2,0,L|327:183,1,52.5,0|0,3:0|3:0,0:0:0:0:
181,179,192625,2,0,L|128:178,1,52.5,0|0,3:0|3:0,0:0:0:0:
293,129,192804,6,0,L|356:127,2,52.5,0|0|0,3:0|0:0|0:0,0:0:0:0:
137,143,193158,1,0,3:0:0:0:
330,218,193335,2,0,L|332:154,1,52.5
249,139,193512,1,0,3:0:0:0:
148,99,193600,2,0,L|214:95,1,52.5,0|0,0:0|0:0,0:0:0:0:
381,101,193866,1,0,3:0:0:0:
221,201,194043,2,0,L|149:200,1,52.5
249,131,194220,5,0,3:0:0:0:
308,80,194308,2,0,L|255:81,1,52.5,0|0,0:0|0:0,0:0:0:0:
97,121,194573,1,0,3:0:0:0:
252,212,194749,2,0,L|329:212,1,52.5,0|0,0:0|0:0,0:0:0:0:
379,149,194926,1,0,3:0:0:0:
309,126,195014,2,0,L|240:120,1,52.5,0|0,0:0|0:0,0:0:0:0:
429,147,195279,2,0,L|422:74,1,52.5,0|0,3:0|0:0,0:0:0:0:
256,121,195455,2,0,L|188:116,1,52.5,0|0,3:0|0:0,0:0:0:0:
42,201,195632,6,0,L|42:128,1,52.5,0|0,3:0|0:0,0:0:0:0:
138,137,195808,1,0,0:0:0:0:
277,145,195985,1,0,3:0:0:0:
139,168,196162,2,0,L|205:159,1,52.5,0|0,0:0|0:0,0:0:0:0:
258,160,196338,1,0,3:0:0:0:
339,138,196426,2,0,L|428:136,1,52.5,0|0,0:0|0:0,0:0:0:0:
242,291,196691,1,0,3:0:0:0:
374,226,196868,2,0,L|304:223,1,52.5,0|0,0:0|0:0,0:0:0:0:
123,219,197044,5,0,3:0:0:0:
214,199,197131,2,0,L|211:130,1,52.5,0|0,0:0|0:0,0:0:0:0:
92,113,197395,1,0,3:0:0:0:
233,107,197570,1,0,0:0:0:0:
412,136,197658,1,0,3:0:0:0:
419,83,197745,1,0,3:0:0:0:
327,80,197833,2,0,L|242:77,1,52.5,0|0,0:0|0:0,0:0:0:0:
447,260,198008,1,0,3:0:0:0:
439,207,198095,1,0,3:0:0:0:
268,196,198184,2,0,L|211:192,2,52.5,0|0|0,3:0|3:0|3:0,3:0:0:0:
50,223,198447,5,4,3:1:0:0:
52,170,198534,1,0,0:0:0:0:
54,118,198621,1,8,0:0:0:0:
232,112,198795,1,0,3:0:0:0:
294,109,198882,1,0,0:0:0:0:
354,108,198970,1,8,0:0:0:0:
206,193,199144,1,0,3:0:0:0:
143,192,199231,1,0,0:0:0:0:
80,190,199318,1,8,0:0:0:0:
288,173,199493,1,0,3:0:0:0:
350,172,199580,1,0,0:0:0:0:
413,171,199667,1,8,0:0:0:0:
252,334,199842,6,0,L|149:335,1,62.9999980773926,0|0,3:0|0:0,0:0:0:0:
261,300,200017,2,0,L|365:298,1,62.9999980773926,8|0,0:0|0:0,0:0:0:0:
157,283,200191,2,0,L|119:177,1,62.9999980773926,0|0,3:0|0:0,0:0:0:0:
228,201,200366,2,0,L|332:199,1,62.9999980773926,8|0,0:0|0:0,0:0:0:0:
85,158,200540,6,0,L|114:77,1,62.9999980773926,0|0,3:0|0:0,0:0:0:0:
205,89,200715,2,0,L|309:87,1,62.9999980773926,8|0,0:0|0:0,0:0:0:0:
34,13,200889,2,0,L|107:15,1,62.9999980773926,0|0,3:0|0:0,0:0:0:0:
188,9,201064,2,0,L|268:11,1,62.9999980773926,8|0,0:0|0:0,0:0:0:0:
466,241,201238,5,0,3:0:0:0:
466,188,201324,1,0,0:0:0:0:
466,136,201411,1,8,0:0:0:0:
194,160,201584,1,0,3:0:0:0:
464,93,201758,2,0,L|385:87,1,52.5,8|0,0:0|0:0,0:0:0:0:
190,100,201931,2,0,L|81:101,2,62.9999980773926,0|0|8,3:0|0:0|0:0,0:0:0:0:
445,209,202278,1,0,3:0:0:0:
327,165,202451,2,0,L|243:163,1,62.9999980773926,8|0,0:0|0:0,0:0:0:0:
77,229,202625,6,0,L|69:103,1,125.999996154785,0|8,3:0|0:0,0:0:0:0:
330,123,202969,2,0,L|477:118,1,125.999996154785,0|8,3:0|0:0,0:0:0:0:
52,129,203314,2,0,L|180:126,1,125.999996154785,0|8,3:0|0:0,0:0:0:0:
474,192,203659,2,0,L|332:189,1,125.999996154785,0|8,3:0|0:0,0:0:0:0:
223,351,204004,6,0,L|221:259,1,62.9999980773926,0|0,3:0|0:0,0:0:0:0:
289,351,204176,2,0,L|291:259,1,62.9999980773926,0|0,3:0|0:0,0:0:0:0:
221,288,204348,2,0,L|203:197,1,62.9999980773926,0|0,3:0|0:0,0:0:0:0:
291,288,204520,2,0,L|308:197,1,62.9999980773926,0|0,3:0|0:0,0:0:0:0:
208,226,204693,6,0,L|174:140,1,62.9999980773926,0|0,3:0|0:0,0:0:0:0:
304,226,204865,2,0,L|359:159,1,62.9999980773926,0|0,3:0|0:0,0:0:0:0:
185,167,205038,2,0,L|137:88,1,62.9999980773926,0|0,3:0|0:0,0:0:0:0:
327,167,205210,2,0,L|374:88,1,62.9999980773926,0|0,3:0|0:0,0:0:0:0:
175,117,205383,6,0,L|114:47,1,62.9999980773926,0|0,3:0|0:0,0:0:0:0:
337,117,205555,2,0,L|397:47,1,62.9999980773926,0|0,3:0|0:0,0:0:0:0:
148,163,205728,2,0,L|76:105,1,62.9999980773926,0|0,3:0|0:0,0:0:0:0:
364,163,205900,2,0,L|435:105,1,62.9999980773926,0|0,3:0|0:0,0:0:0:0:
112,221,206072,6,0,L|35:166,1,62.9999980773926,0|0,3:0|0:0,0:0:0:0:
400,221,206244,2,0,L|472:168,1,62.9999980773926,0|0,3:0|0:0,0:0:0:0:
91,277,206417,2,0,L|13:227,1,62.9999980773926,0|0,3:0|0:0,0:0:0:0:
421,277,206589,2,0,L|498:227,1,62.9999980773926,0|0,3:0|0:0,0:0:0:0:
32,41,206762,6,0,L|135:31,1,62.9999980773926,0|0,3:0|3:0,3:0:0:0:
480,41,206935,2,0,L|377:31,1,62.9999980773926,0|0,3:0|3:0,3:0:0:0:
71,130,207107,2,0,L|164:85,1,62.9999980773926,0|0,3:0|3:0,3:0:0:0:
441,130,207280,2,0,L|347:85,1,62.9999980773926,0|0,3:0|3:0,3:0:0:0:
114,206,207452,6,0,L|186:132,1,62.9999980773926,0|0,3:0|3:0,3:0:0:0:
398,206,207625,2,0,L|325:132,1,62.9999980773926,0|0,3:0|3:0,3:0:0:0:
190,269,207797,2,0,L|286:261,1,62.9999980773926,0|0,3:0|3:0,3:0:0:0:
322,269,207969,2,0,L|238:253,1,62.9999980773926,0|0,3:0|3:0,3:0:0:0:
50,109,208141,5,0,3:0:0:0:
424,199,209004,5,0,1:0:0:0:
348,196,209090,5,0,1:0:0:0:
272,193,209176,5,2,0:3:0:0:
197,190,209262,5,2,0:3:0:0:
121,188,209348,5,8,0:0:0:0:
46,185,209435,5,8,0:0:0:0:
354,126,209524,6,0,L|464:118,2,78.7500030040742,4|0|0,3:1|0:0|0:0,0:0:0:0:
83,181,209869,2,0,L|85:69,1,78.7500030040742,8|0,0:3|0:0,0:0:0:0:
168,89,210041,1,0,0:0:0:0:
352,192,210127,1,0,3:0:0:0:
450,165,210213,2,0,L|356:153,1,78.7500030040742,0|0,3:0|0:0,0:0:0:0:
203,189,210386,2,0,L|312:139,1,78.7500030040742,0|0,3:0|0:0,0:0:0:0:
105,272,210558,2,0,L|98:172,1,78.7500030040742,8|0,0:3|0:0,0:0:0:0:
290,194,210731,1,0,3:0:0:0:
122,283,210817,6,8,P|79:176|195:92,1,236.250009012223,8|0,0:0|3:0,0:0:0:0:
234,88,211161,1,0,0:0:0:0:
447,116,211248,1,8,0:3:0:0:
330,66,211420,1,0,0:0:0:0:
77,279,211507,2,0,P|59:206|85:104,1,157.500006008148,8|0,0:0|0:0,0:0:0:0:
269,117,211765,2,0,L|385:117,1,78.7500030040742,0|0,3:0|0:0,0:0:0:0:
144,164,211938,2,0,L|252:126,1,78.7500030040742,8|0,0:3|0:0,0:0:0:0:
289,110,212110,2,0,L|381:77,1,78.7500030040742
142,198,212282,6,0,L|129:129,6,39.3750015020371,0|0|0|0|0|0|0,3:0|0:0|0:0|0:0|0:0|0:0|0:0,0:0:0:0:
373,333,212627,2,0,P|424:242|393:170,1,157.500006008148,8|0,0:3|0:0,0:0:0:0:
136,324,212886,2,0,L|417:1,1,420,0|0,3:0|0:0,0:0:0:0:
320,208,213144,2,0,L|231:209,1,78.7500030040742,0|8,3:0|0:0,0:0:0:0:
47,229,213317,2,0,L|55:85,1,78.7500030040742,8|0,0:3|0:0,0:0:0:0:
237,121,213489,2,0,L|306:81,1,78.7500030040742,0|0,0:0|3:0,0:0:0:0:
131,103,213662,5,0,0:0:0:0:
321,221,213748,1,0,0:0:0:0:
402,175,213834,2,0,L|300:166,1,78.7500030040742,0|0,3:0|0:0,0:0:0:0:
109,126,214007,2,0,L|303:55,1,157.500006008148,8|0,0:3|0:0,0:0:0:0:
76,267,214265,1,0,3:0:0:0:
119,162,214438,1,8,0:0:0:0:
345,211,214524,2,0,L|346:111,1,78.7500030040742,0|0,3:0|0:0,0:0:0:0:
182,115,214696,2,0,L|82:100,1,78.7500030040742,8|0,0:3|0:0,0:0:0:0:
286,191,214869,2,0,L|288:75,1,78.7500030040742,0|0,0:0|0:0,0:0:0:0:
479,260,215041,6,0,L|472:169,1,78.7500030040742,0|0,3:0|0:0,0:0:0:0:
380,171,215213,1,0,0:0:0:0:
143,172,215386,2,0,L|251:166,1,78.7500030040742,8|0,0:3|0:0,0:0:0:0:
306,165,215558,1,0,0:0:0:0:
126,275,215644,2,0,L|131:179,1,78.7500030040742,0|0,3:0|0:0,0:0:0:0:
228,181,215817,1,0,0:0:0:0:
38,229,215903,2,0,L|30:133,1,78.7500030040742,0|0,3:0|0:0,0:0:0:0:
280,258,216075,2,0,L|368:224,1,78.7500030040742,8|0,0:3|0:0,0:0:0:0:
162,150,216248,1,8,0:0:0:0:
357,297,216334,6,8,P|419:209|325:130,1,236.250009012223,8|0,0:0|3:0,0:0:0:0:
271,123,216679,1,0,0:0:0:0:
104,172,216765,2,0,P|129:64|178:28,1,157.500006008148,8|0,0:3|0:0,0:0:0:0:
369,134,217024,2,0,L|190:120,1,157.500006008148
444,285,217282,2,0,P|447:223|414:142,1,137.81250525713,0|0,3:0|0:0,0:0:0:0:
410,38,217455,2,0,L|82:354,1,420,8|0,0:3|0:0,0:0:0:0:
38,260,217713,1,0,0:0:0:0:
279,267,217800,6,0,L|292:198,4,39.3750015020371,0|0|0|0|0,3:0|0:0|0:0|0:0|0:0,0:0:0:0:
185,259,218058,1,0,0:0:0:0:
397,285,218144,2,0,P|411:178|370:121,1,157.500006008148,8|0,0:3|0:0,0:0:0:0:
212,169,218403,2,0,L|84:169,1,78.7500030040742,0|0,3:0|0:0,0:0:0:0:
309,140,218575,2,0,L|408:138,2,78.7500030040742,0|0|0,0:0|3:0|0:0,0:0:0:0:
127,285,218834,2,0,L|121:197,1,78.7500030040742,8|0,0:3|0:0,0:0:0:0:
231,201,219006,2,0,L|222:91,1,78.7500030040742,0|0,0:0|3:0,0:0:0:0:
487,119,219179,6,0,L|298:109,1,157.500006008148,8|0,0:0|3:0,0:0:0:0:
407,57,219438,1,8,0:0:0:0:
211,264,219524,2,0,L|203:96,1,157.500006008148,8|0,0:3|0:0,0:0:0:0:
400,251,219782,2,0,P|387:158|334:124,1,157.500006008148,0|0,3:0|0:0,0:0:0:0:
120,126,220041,1,0,3:0:0:0:
322,63,220127,1,0,0:0:0:0:
386,218,220213,2,0,L|219:212,1,157.500006008148,8|0,0:3|0:0,0:0:0:0:
152,212,220472,1,0,0:0:0:0:
356,188,220558,6,0,L|477:185,2,78.7500030040742,4|0|0,3:0|0:0|0:0,0:0:0:0:
76,216,220903,2,0,L|82:98,1,78.7500030040742,8|0,0:3|0:0,0:0:0:0:
192,128,221075,1,0,0:0:0:0:
386,99,221162,2,0,L|208:89,1,157.500006008148,0|0,3:0|0:0,0:0:0:0:
438,235,221420,2,0,L|445:136,1,78.7500030040742,0|0,3:0|0:0,0:0:0:0:
273,111,221593,2,0,L|194:117,1,78.7500030040742,8|0,0:3|0:0,0:0:0:0:
35,215,221765,1,0,0:0:0:0:
228,301,221851,6,8,P|253:209|122:140,1,236.250009012223,8|0,0:0|3:0,0:0:0:0:
82,124,222196,1,0,0:0:0:0:
304,160,222282,1,8,0:3:0:0:
268,48,222455,1,0,0:0:0:0:
73,248,222541,2,0,L|48:151,1,78.7500030040742,0|0,0:0|0:0,0:0:0:0:
247,171,222713,1,8,0:0:0:0:
332,114,222800,2,0,L|219:102,1,78.7500030040742,0|0,3:0|0:0,0:0:0:0:
41,99,222972,2,0,L|171:95,1,78.7500030040742,8|0,0:3|0:0,0:0:0:0:
205,93,223144,2,0,L|335:89,1,78.7500030040742,0|0,0:0|0:0,0:0:0:0:
463,230,223317,6,0,L|476:161,6,39.3750015020371,0|0|0|0|0|0|0,3:0|0:0|0:0|0:0|0:0|0:0|0:0,0:0:0:0:
261,157,223662,2,0,L|426:132,1,157.500006008148,8|8,0:3|0:0,0:0:0:0:
175,231,223920,6,0,L|166:133,1,78.7500030040742,0|0,3:0|0:0,0:0:0:0:
255,139,224093,1,0,0:0:0:0:
62,238,224179,2,0,L|56:159,1,78.7500030040742,0|0,3:0|0:0,0:0:0:0:
303,208,224351,2,0,L|300:111,1,78.7500030040742,8|0,0:3|0:0,0:0:0:0:
214,115,224524,2,0,L|124:67,1,78.7500030040742,0|0,0:0|3:0,0:0:0:0:
209,52,224696,5,0,0:0:0:0:
383,230,224782,1,0,0:0:0:0:
185,195,224869,2,0,L|98:191,1,78.7500030040742,0|0,3:0|0:0,0:0:0:0:
301,157,225041,2,0,L|433:24,1,157.500006008148,8|0,0:3|0:0,0:0:0:0:
245,310,225300,2,0,P|204:241|232:145,1,157.500006008148,0|0,3:0|0:0,0:0:0:0:
406,199,225558,2,0,L|406:97,1,78.7500030040742,0|0,3:0|0:0,0:0:0:0:
197,116,225730,2,0,L|316:107,1,78.7500030040742,8|0,0:3|0:0,0:0:0:0:
275,110,225903,2,0,L|197:116,1,78.7500030040742,0|0,0:0|0:0,0:0:0:0:
34,287,226075,6,0,L|35:187,1,78.7500030040742,0|0,3:0|0:0,0:0:0:0:
131,191,226248,1,0,0:0:0:0:
250,155,226420,2,0,L|92:69,1,157.500006008148,8|0,0:3|0:0,0:0:0:0:
276,110,226679,2,0,L|354:83,2,78.7500030040742,0|0|0,3:0|0:0|0:0,0:0:0:0:
468,214,226938,2,0,L|462:111,1,78.7500030040742,0|0,3:0|0:0,0:0:0:0:
260,162,227110,2,0,L|156:143,1,78.7500030040742,8|0,0:3|0:0,0:0:0:0:
398,170,227282,1,0,0:0:0:0:
182,320,227368,6,8,P|92:275|94:128,1,236.250009012223,8|0,0:0|3:0,0:0:0:0:
143,104,227713,1,0,0:0:0:0:
317,180,227800,1,8,0:3:0:0:
216,85,227972,2,0,L|293:96,1,78.7500030040742
157,108,228231,1,0,0:0:0:0:
129,89,228317,2,0,L|445:320,1,367.5,0|0,3:0|0:0,0:0:0:0:
425,343,228489,2,0,B|93:331|93:331|97:38,1,590.625022530557,8|0,0:3|0:0,0:0:0:0:
96,72,228834,6,0,L|402:59,1,275.62501051426,8|0,0:3|0:0,0:0:0:0:
371,60,229007,2,0,L|108:143,1,275.62501051426,8|0,0:3|0:0,0:0:0:0:
108,143,229179,2,0,L|383:131,1,275.62501051426,8|0,0:3|0:0,0:0:0:0:
389,186,229352,2,0,L|156:37,1,275.62501051426,8|0,0:3|0:0,0:0:0:0:
160,47,229524,6,0,L|339:291,1,275.62501051426,8|0,0:3|0:0,0:0:0:0:
338,257,229696,2,0,L|154:45,1,275.62501051426,8|0,0:3|0:0,0:0:0:0:
152,97,229869,2,0,L|266:378,1,275.62501051426,8|0,0:3|0:0,0:0:0:0:
258,349,230042,2,0,L|150:92,1,275.62501051426,8|0,0:3|0:0,0:0:0:0:
147,82,230213,6,0,L|330:324,1,275.62501051426,8|0,0:3|0:0,0:0:0:0:
315,301,230386,2,0,L|146:80,1,275.62501051426,8|0,0:3|0:0,0:0:0:0:
151,94,230558,2,0,L|443:187,1,275.62501051426,8|0,0:3|0:0,0:0:0:0:
413,176,230731,2,8,L|150:93,1,275.62501051426,8|0,0:3|0:0,0:0:0:0:
150,93,230903,6,0,L|511:290,1,367.5,8|0,0:3|0:0,0:0:0:0:
469,111,231075,2,0,L|-6:86,1,459.375,8|0,0:3|0:0,0:0:0:0:
16,115,231248,1,10,0:3:0:0:
174,177,231334,1,0,0:0:0:0:
334,239,231420,1,2,0:3:0:0:
493,300,231506,1,2,0:3:0:0:
197,264,231593,6,0,L|105:204,2,78.7500030040742,4|0|0,3:0|0:0|0:0,0:0:0:0:
464,208,231938,2,0,L|462:106,1,78.7500030040742,8|0,0:3|0:0,0:0:0:0:
351,124,232110,1,0,0:0:0:0:
179,92,232196,2,0,L|376:82,1,157.500006008148,0|0,3:0|0:0,0:0:0:0:
172,214,232455,2,0,L|82:211,1,78.7500030040742,0|0,3:0|0:0,0:0:0:0:
299,211,232627,2,0,L|396:207,1,78.7500030040742,8|0,0:3|0:0,0:0:0:0:
210,189,232800,1,0,0:0:0:0:
378,280,232886,6,8,P|365:137|286:89,1,236.250009012223,8|0,0:0|3:0,0:0:0:0:
229,80,233230,1,0,0:0:0:0:
385,194,233317,2,0,L|455:136,2,78.7500030040742,8|0|0,0:3|0:0|0:0,0:0:0:0:
215,206,233575,2,0,L|23:199,1,157.500006008148,8|0,0:0|0:0,0:0:0:0:
228,158,233834,2,0,L|339:154,1,78.7500030040742,0|0,3:0|0:0,0:0:0:0:
74,216,234007,1,8,0:3:0:0:
103,162,234093,1,0,0:0:0:0:
186,142,234179,1,0,0:0:0:0:
274,144,234265,1,0,0:0:0:0:
428,202,234351,6,0,L|441:133,6,39.3750015020371,0|0|0|0|0|0|0,3:0|0:0|0:0|0:0|0:0|0:0|0:0,0:0:0:0:
170,286,234696,2,0,P|152:185|225:83,1,157.500006008148,8|0,0:3|0:0,0:0:0:0:
394,362,234955,2,0,L|123:-11,1,420,0|0,3:0|0:0,0:0:0:0:
235,77,235213,2,0,L|348:71,1,78.7500030040742,0|0,3:0|0:0,0:0:0:0:
146,175,235386,2,0,L|270:142,1,78.7500030040742,8|0,0:3|0:0,0:0:0:0:
295,132,235558,2,0,L|419:99,1,78.7500030040742,0|0,0:0|3:0,0:0:0:0:
197,248,235731,5,8,0:0:0:0:
385,254,235817,1,0,0:0:0:0:
435,186,235903,2,0,L|344:184,1,78.7500030040742,0|0,3:0|0:0,0:0:0:0:
267,209,236075,1,8,0:3:0:0:
359,159,236161,1,0,0:0:0:0:
349,84,236247,1,0,0:0:0:0:
148,149,236334,6,0,P|138:14|184:1,1,157.500006008148,0|0,3:0|0:0,0:0:0:0:
317,112,236593,2,0,L|446:104,1,78.7500030040742,0|0,3:0|0:0,0:0:0:0:
184,196,236765,2,0,L|299:196,1,78.7500030040742,8|0,0:3|0:0,0:0:0:0:
182,149,236938,2,0,L|103:110,1,78.7500030040742,0|0,0:0|0:0,0:0:0:0:
281,228,237110,6,0,L|370:219,1,78.7500030040742,0|0,3:0|0:0,0:0:0:0:
425,211,237282,1,0,0:0:0:0:
172,148,237455,2,0,L|118:61,2,78.7500030040742,8|0|0,0:3|0:0|0:0,0:0:0:0:
350,106,237713,2,0,L|184:41,1,157.500006008148,0|0,3:0|0:0,0:0:0:0:
372,183,237972,2,0,L|454:152,1,78.7500030040742,0|0,3:0|0:0,0:0:0:0:
253,267,238144,2,0,L|254:166,1,78.7500030040742,8|0,0:3|0:0,0:0:0:0:
419,178,238317,1,0,0:0:0:0:
252,251,238403,6,8,P|228:174|330:58,1,236.250009012223,8|0,0:0|3:0,0:0:0:0:
386,54,238747,1,0,0:0:0:0:
215,177,238834,2,0,L|58:174,1,157.500006008148,8|0,0:3|0:0,0:0:0:0:
232,119,239093,2,0,L|413:123,1,157.500006008148,8|0,0:0|0:0,0:0:0:0:
161,256,239352,2,0,L|161:146,1,78.7500030040742,0|0,3:0|0:0,0:0:0:0:
409,17,239524,2,0,L|155:357,1,420,8|0,0:3|0:0,0:0:0:0:
87,285,239782,1,0,0:0:0:0:
334,292,239869,6,0,L|347:223,6,39.3750015020371,0|0|0|0|0|0|0,3:0|0:0|0:0|0:0|0:0|0:0|0:0,0:0:0:0:
58,292,240213,1,8,0:3:0:0:
52,215,240299,1,0,0:0:0:0:
104,159,240385,1,8,0:0:0:0:
282,171,240472,6,0,L|270:85,1,78.7500030040742,0|0,3:0|0:0,0:0:0:0:
193,100,240644,1,0,0:0:0:0:
368,125,240731,2,0,L|435:41,1,78.7500030040742,0|0,3:0|0:0,0:0:0:0:
246,271,240903,1,8,0:3:0:0:
216,199,240989,1,0,0:0:0:0:
302,183,241075,1,0,0:0:0:0:
387,172,241161,1,0,3:0:0:0:
184,300,241248,6,0,P|139:229|221:188,1,157.500006008148,0|0,3:0|3:0,0:0:0:0:
276,144,241507,1,0,0:0:0:0:
62,287,241593,2,0,L|51:118,1,157.500006008148,8|0,0:3|0:0,0:0:0:0:
231,135,241851,2,0,L|431:111,1,157.500006008148,0|0,3:0|0:0,0:0:0:0:
200,262,242110,1,0,3:0:0:0:
388,255,242196,1,0,0:0:0:0:
434,184,242282,2,0,L|265:134,1,157.500006008148,8|0,0:3|0:0,0:0:0:0:
350,95,242541,1,0,0:0:0:0:
160,135,242627,6,0,L|51:98,1,78.7500030040742,4|0,3:0|0:0,0:0:0:0:
83,177,242800,1,0,0:0:0:0:
373,217,242972,2,0,L|366:121,1,78.7500030040742,8|0,0:3|0:0,0:0:0:0:
262,114,243144,1,0,0:0:0:0:
471,232,243231,2,0,P|465:127|396:88,1,157.500006008148,0|0,3:0|0:0,0:0:0:0:
256,182,243489,2,0,L|161:165,1,78.7500030040742,0|0,3:0|0:0,0:0:0:0:
380,218,243661,2,0,L|372:114,1,78.7500030040742,8|0,0:3|0:0,0:0:0:0:
174,242,243834,1,0,0:0:0:0:
388,313,243920,6,8,P|472:261|451:94,1,236.250009012223,8|0,0:0|3:0,0:0:0:0:
413,112,244265,1,0,0:0:0:0:
239,213,244351,2,0,L|407:180,1,157.500006008148,8|0,0:3|0:0,0:0:0:0:
309,114,244610,2,0,L|227:34,2,78.7500030040742,0|0|0,0:0|0:0|0:0,0:0:0:0:
134,186,244869,2,0,L|93:119,1,78.7500030040742,0|0,3:0|0:0,0:0:0:0:
364,137,245041,2,0,L|265:118,1,78.7500030040742,8|0,0:3|0:0,0:0:0:0:
220,110,245213,2,0,L|133:91,1,78.7500030040742,0|0,0:0|0:0,0:0:0:0:
364,137,245386,6,0,L|370:77,6,39.3750015020371,0|0|0|0|0|0|0,3:0|0:0|0:0|0:0|0:0|0:0|0:0,0:0:0:0:
160,288,245731,2,0,P|156:140|159:103,1,157.500006008148,8|0,0:3|0:0,0:0:0:0:
389,122,245989,2,0,L|132:365,1,336,8|0,0:0|0:0,0:0:0:0:
229,319,246248,2,0,L|346:300,1,78.7500030040742,0|0,3:0|0:0,0:0:0:0:
116,282,246420,2,0,L|197:219,1,78.7500030040742,8|0,0:3|0:0,0:0:0:0:
264,163,246593,2,0,L|175:118,1,78.7500030040742,0|0,0:0|3:0,0:0:0:0:
23,108,246765,5,8,0:0:0:0:
200,268,246851,1,0,0:0:0:0:
269,199,246938,2,0,L|267:121,1,78.7500030040742,0|0,3:0|0:0,0:0:0:0:
57,195,247110,2,0,P|56:109|139:51,1,157.500006008148,8|0,0:3|0:0,0:0:0:0:
304,281,247369,2,0,L|431:121,1,157.500006008148,0|0,3:0|0:0,0:0:0:0:
226,156,247627,2,0,L|152:92,1,78.7500030040742,0|0,3:0|0:0,0:0:0:0:
403,313,247800,1,8,0:3:0:0:
447,251,247886,1,8,0:0:0:0:
424,179,247972,1,8,0:0:0:0:
351,157,248058,1,8,0:0:0:0:
151,218,248144,6,0,L|412:124,1,236.250009012223,8|0,0:3|0:0,0:0:0:0:
160,276,248489,2,0,L|406:194,1,236.250009012223,8|0,0:3|0:0,0:0:0:0:
191,123,248834,2,0,L|46:191,1,157.500006008148,8|0,0:3|0:0,0:0:0:0:
254,290,249093,2,0,L|396:222,1,157.500006008148,8|0,0:3|0:0,0:0:0:0:
193,168,249351,2,0,L|110:125,1,78.7500030040742,8|0,0:3|0:0,0:0:0:0:
379,205,249524,6,0,L|118:111,1,236.250009012223,8|0,0:3|0:0,0:0:0:0:
370,263,249869,2,0,L|124:181,1,236.250009012223,8|0,0:3|0:0,0:0:0:0:
150,68,250213,2,0,L|489:341,1,420,8|0,0:3|0:0,0:0:0:0:
477,331,250472,2,0,L|129:44,1,420,8|0,0:3|0:0,0:0:0:0:
213,59,250731,1,8,0:3:0:0:
383,254,250989,5,8,0:3:0:0:
93,189,251162,2,8,L|106:83,1,78.7500030040742,8|8,0:3|0:3,0:3:0:0:
287,112,251334,2,8,L|365:90,1,78.7500030040742,8|8,0:3|0:3,0:3:0:0:
109,309,251507,2,8,L|114:226,1,78.7500030040742,8|8,0:3|0:3,0:3:0:0:
303,192,251679,2,8,L|386:169,1,78.7500030040742,8|8,0:3|0:3,0:3:0:0:
129,201,251851,2,8,L|138:113,1,78.7500030040742,8|8,0:3|0:3,0:3:0:0:
448,277,252024,1,8,0:3:0:0:
369,177,252196,1,8,0:3:0:0:
120,290,252282,6,0,P|117:208|411:292,1,551.25002102852,0|0,3:0|0:0,0:0:0:0:
215,331,252972,6,0,L|212:140,1,157.500006008148,8|0,0:3|0:0,0:0:0:0:
417,199,253230,2,0,L|409:37,1,157.500006008148,8|0,0:3|0:0,0:0:0:0:
225,118,253489,1,8,0:3:0:0:
359,351,253662,2,0,P|394:208|366:25,1,315.000012016297,0|0,3:0|0:0,0:0:0:0:
224,76,254179,2,0,L|160:144,1,78.7500030040742,0|0,3:0|3:0,3:0:0:0:
375,246,254351,6,0,P|385:149|307:90,1,204.749990627289,8|0,0:3|0:0,0:0:0:0:
126,259,254869,5,0,3:0:0:0:
124,336,254890,1,0,0:0:0:0:
116,226,254912,1,0,0:0:0:0:
126,302,254933,1,0,0:0:0:0:
114,192,254955,1,0,0:0:0:0:
135,269,254976,1,0,0:0:0:0:
119,158,254998,1,0,0:0:0:0:
152,239,255019,1,0,0:0:0:0:
133,127,255041,1,0,0:0:0:0:
175,214,255062,1,0,0:0:0:0:
153,99,255084,1,0,0:0:0:0:
203,195,255105,1,0,0:0:0:0:
178,77,255127,1,0,0:0:0:0:
235,183,255148,1,0,0:0:0:0:
208,61,255170,1,0,0:0:0:0:
242,50,255192,1,0,0:0:0:0:
273,178,255213,6,0,L|340:168,1,68.2499968757631,0|0,0:0|0:0,0:0:0:0:
156,187,255386,2,0,L|-5:163,1,136.499993751526,0|0,3:0|0:0,0:0:0:0:
280,283,255731,6,0,L|306:283,1,17.0624992189408,8|0,0:3|0:0,0:0:0:0:
208,237,255817,2,0,L|234:237,1,17.0624992189408,0|0,0:0|0:0,0:0:0:0:
154,168,255903,2,0,L|180:168,1,17.0624992189408,0|0,0:0|0:0,0:0:0:0:
133,84,255989,2,0,L|159:84,1,17.0624992189408,0|0,0:0|0:0,0:0:0:0:
160,84,256075,2,0,L|133:84,1,17.0624992189408,0|0,0:0|0:0,0:0:0:0:
181,168,256161,2,0,L|154:168,1,17.0624992189408,0|0,0:0|0:0,0:0:0:0:
235,237,256248,2,0,L|208:237,1,17.0624992189408,0|0,0:0|0:0,0:0:0:0:
307,283,256335,2,0,L|280:283,1,17.0624992189408,0|0,0:0|0:0,0:0:0:0:
455,282,256420,6,0,L|474:232,6,34.1249984378815,0|0|0|0|0|0|0,3:0|0:0|0:0|0:0|0:0|0:0|0:0,0:0:0:0:
378,323,256765,2,0,L|43:86,1,367.5,0|0,0:0|0:0,0:0:0:0:
93,109,256938,2,0,L|214:101,1,68.2499968757631,0|0,3:0|3:0,3:0:0:0:
406,250,257110,2,0,P|406:164|308:82,1,204.749990627289,8|0,0:3|0:0,0:0:0:0:
134,275,257627,5,0,3:0:0:0:
176,277,257670,1,0,0:0:0:0:
218,264,257713,1,0,0:0:0:0:
247,239,257756,1,0,0:0:0:0:
258,206,257799,1,0,0:0:0:0:
256,173,257842,1,0,0:0:0:0:
246,144,257885,1,0,0:0:0:0:
232,129,257928,1,0,0:0:0:0:
210,126,257971,5,0,3:0:0:0:
226,103,257994,1,0,0:0:0:0:
243,114,258015,1,0,0:0:0:0:
265,87,258036,1,0,0:0:0:0:
292,110,258058,1,0,0:0:0:0:
314,83,258081,1,0,0:0:0:0:
340,105,258101,1,0,0:0:0:0:
361,77,258124,1,0,0:0:0:0:
366,299,258144,1,0,3:0:0:0:
319,291,258187,1,0,0:0:0:0:
267,271,258230,1,0,0:0:0:0:
232,242,258273,1,0,0:0:0:0:
218,213,258316,1,0,0:0:0:0:
216,169,258359,1,0,0:0:0:0:
230,137,258402,1,0,0:0:0:0:
287,320,258489,5,8,0:3:0:0:
315,258,258575,1,0,0:0:0:0:
320,191,258661,1,0,0:0:0:0:
298,126,258747,1,0,0:0:0:0:
255,74,258833,1,0,0:0:0:0:
195,43,258920,1,0,0:0:0:0:
125,134,259007,2,0,L|120:85,2,34.1249984378815,0|0|0,0:0|0:0|0:0,0:0:0:0:
215,293,259179,5,0,0:0:0:0:
238,268,259222,1,0,0:0:0:0:
250,236,259265,1,0,0:0:0:0:
250,202,259308,1,0,0:0:0:0:
237,171,259351,1,0,0:0:0:0:
214,146,259394,1,0,0:0:0:0:
183,132,259437,1,0,0:0:0:0:
364,159,259524,2,0,L|357:70,1,68.2499968757631,0|0,3:0|0:0,0:0:0:0:
173,60,259696,2,0,L|271:49,1,68.2499968757631,0|0,3:3|3:3,3:3:0:0:
459,331,259869,6,0,P|480:230|435:141,1,204.749990627289,8|0,0:3|0:0,0:0:0:0:
216,283,260386,1,0,3:0:0:0:
201,319,260407,1,0,0:0:0:0:
260,286,260429,1,0,0:0:0:0:
256,322,260450,1,0,0:0:0:0:
303,277,260472,1,0,0:0:0:0:
310,311,260493,1,0,0:0:0:0:
343,257,260515,1,0,0:0:0:0:
360,286,260536,1,0,0:0:0:0:
376,227,260558,1,0,0:0:0:0:
401,249,260579,1,0,0:0:0:0:
399,189,260601,1,0,0:0:0:0:
430,202,260622,1,0,0:0:0:0:
412,146,260644,1,0,0:0:0:0:
446,148,260665,1,0,0:0:0:0:
413,102,260687,1,0,0:0:0:0:
446,93,260708,1,0,0:0:0:0:
401,59,260730,1,0,0:0:0:0:
336,65,260817,6,0,L|209:46,1,89.2500017023087,8|0,0:0|3:0,0:0:0:0:
387,196,261075,2,0,L|403:130,2,59.5000011348725,0|0|0,0:0|0:0|0:0,0:0:0:0:
342,336,261248,2,0,P|123:215|101:-14,1,420,8|0,0:3|0:0,0:0:0:0:
84,63,261463,2,0,P|303:184|325:413,1,420,0|0,0:0|0:0,0:0:0:0:
370,329,261679,2,0,P|378:255|339:187,1,136.499993751526,0|0,0:0|0:0,0:0:0:0:
131,243,261938,6,0,L|123:137,6,105,0|0|0|0|0|0|0,3:0|0:0|0:0|0:0|0:0|0:0|0:0,0:0:0:0:
168,116,262282,2,0,L|447:120,1,210,0|0,0:0|0:0,0:0:0:0:
431,159,262455,2,0,L|321:151,1,68.2499968757631,0|0,3:0|3:0,3:0:0:0:
152,126,262627,6,0,L|382:108,1,204.749990627289,8|0,0:3|0:0,0:0:0:0:
145,361,263144,1,0,3:0:0:0:
129,330,263187,1,0,0:0:0:0:
119,297,263230,1,0,0:0:0:0:
113,263,263273,1,0,0:0:0:0:
112,229,263316,1,0,0:0:0:0:
116,195,263359,1,0,0:0:0:0:
125,162,263402,1,0,0:0:0:0:
137,130,263445,1,0,0:0:0:0:
192,113,263489,5,0,3:0:0:0:
236,117,263532,1,0,0:0:0:0:
282,118,263575,1,0,0:0:0:0:
328,120,263618,1,0,0:0:0:0:
373,113,263662,5,0,3:0:0:0:
333,100,263705,1,0,0:0:0:0:
292,94,263748,1,0,0:0:0:0:
251,86,263791,1,0,0:0:0:0:
211,80,263834,1,0,0:0:0:0:
170,74,263877,1,0,0:0:0:0:
130,67,263920,1,0,0:0:0:0:
326,242,264007,6,0,L|386:239,6,52.5,8|0|0|0|0|0|0,0:3|0:0|0:0|0:0|0:0|0:0|0:0,0:0:0:0:
170,234,264351,6,0,L|144:198,6,34.1249984378815,0|0|0|0|0|0|0,0:0|0:0|0:0|0:0|0:0|0:0|0:0,0:0:0:0:
265,216,264696,1,0,3:0:0:0:
110,153,264869,1,8,0:0:0:0:
203,145,264955,1,8,0:0:0:0:
297,137,265041,1,0,3:0:0:0:
390,129,265127,1,0,3:0:0:0:
307,209,265213,2,0,L|394:122,1,105,0|0,3:0|3:0,3:0:0:0:
100,295,265386,6,0,P|81:194|138:96,1,204.749990627289,12|0,0:3|0:0,0:0:0:0:
314,295,265903,1,0,3:0:0:0:
336,311,265925,1,0,0:0:0:0:
347,281,265946,1,0,0:0:0:0:
372,294,265968,1,0,0:0:0:0:
375,256,265989,1,0,0:0:0:0:
403,264,266010,1,0,0:0:0:0:
392,224,266032,1,0,0:0:0:0:
421,225,266055,1,0,0:0:0:0:
397,188,266075,1,0,0:0:0:0:
427,182,266097,1,0,0:0:0:0:
389,152,266119,1,0,0:0:0:0:
418,139,266140,1,0,0:0:0:0:
370,121,266162,1,0,0:0:0:0:
397,102,266183,1,0,0:0:0:0:
341,99,266205,1,0,0:0:0:0:
365,75,266226,1,0,0:0:0:0:
306,87,266247,1,0,0:0:0:0:
247,118,266334,6,0,L|359:96,1,68.2499968757631,0|8,0:0|0:0,0:0:0:0:
194,308,266593,2,0,L|184:200,1,68.2499968757631,8|0,0:0|0:0,0:0:0:0:
400,266,266765,6,0,L|426:266,1,17.0624992189408,8|0,0:3|0:0,0:0:0:0:
328,220,266851,2,0,L|354:220,1,17.0624992189408,0|0,0:0|0:0,0:0:0:0:
274,151,266937,2,0,L|300:151,1,17.0624992189408,0|0,0:0|0:0,0:0:0:0:
253,67,267023,2,0,L|279:67,1,17.0624992189408,0|0,0:0|0:0,0:0:0:0:
280,67,267110,2,0,L|253:67,1,17.0624992189408,0|0,0:0|0:0,0:0:0:0:
301,151,267196,2,0,L|274:151,1,17.0624992189408,0|0,0:0|0:0,0:0:0:0:
355,220,267282,2,0,L|328:220,1,17.0624992189408,0|0,0:0|0:0,0:0:0:0:
427,266,267369,2,0,L|400:266,1,17.0624992189408,0|0,0:0|0:0,0:0:0:0:
195,280,267455,6,0,L|186:237,6,34.1249984378815,0|0|0|0|0|0|0,3:0|0:0|0:0|0:0|0:0|0:0|0:0,0:0:0:0:
260,196,267800,2,0,L|489:162,1,210
453,86,267972,2,0,L|346:81,1,68.2499968757631,0|0,3:0|3:0,3:0:0:0:
192,294,268144,6,0,P|133:232|170:108,1,204.749990627289,8|0,0:3|0:0,0:0:0:0:
381,193,268662,1,0,3:0:0:0:
351,176,268705,1,0,0:0:0:0:
321,159,268748,1,0,0:0:0:0:
291,143,268791,1,0,0:0:0:0:
261,126,268834,1,0,0:0:0:0:
231,110,268877,1,0,0:0:0:0:
202,93,268920,1,0,0:0:0:0:
172,76,268963,1,0,0:0:0:0:
144,238,269007,5,0,3:0:0:0:
195,236,269050,1,0,0:0:0:0:
246,236,269093,1,0,0:0:0:0:
297,234,269136,1,0,0:0:0:0:
348,138,269179,5,0,3:0:0:0:
313,135,269222,1,0,0:0:0:0:
279,132,269265,1,0,0:0:0:0:
245,129,269308,1,0,0:0:0:0:
211,127,269351,1,0,0:0:0:0:
177,124,269394,1,0,0:0:0:0:
143,121,269437,1,0,0:0:0:0:
381,307,269524,6,0,L|384:123,1,136.499993751526,8|0,0:3|0:0,0:0:0:0:
161,232,269782,2,0,L|154:76,1,136.499993751526,8|0,0:3|0:0,0:0:0:0:
339,85,270041,2,0,L|427:80,1,68.2499968757631,8|0,0:3|0:0,0:0:0:0:
229,275,270213,5,8,0:3:0:0:
195,272,270256,1,0,0:0:0:0:
163,259,270299,1,0,0:0:0:0:
136,238,270342,1,0,0:0:0:0:
117,210,270385,1,0,0:0:0:0:
106,178,270428,1,0,0:0:0:0:
105,144,270471,1,0,0:0:0:0:
289,124,270558,6,0,L|114:78,1,136.499993751526,8|0,0:3|3:0,0:0:0:0:
232,83,270817,1,0,3:0:0:0:
57,329,270903,2,0,L|53:121,1,204.749990627289,8|0,0:3|0:0,0:0:0:0:
273,188,271248,2,0,L|439:174,1,136.499993751526,8|0,0:3|0:0,0:0:0:0:
399,127,271463,1,0,0:0:0:0:
395,93,271506,1,0,0:0:0:0:
152,87,271593,6,0,L|366:67,1,204.749990627289,8|0,0:3|0:0,0:0:0:0:
133,317,271938,2,0,L|126:155,1,136.499993751526,8|0,0:3|0:0,0:0:0:0:
189,157,272167,2,0,L|234:155,1,45.4999979171754,0|0,0:0|0:0,0:0:0:0:
497,364,272282,6,0,L|11:24,1,590.625022530557,8|0,0:3|0:0,0:0:0:0:
12,25,272627,2,0,L|497:364,1,590.625022530557,8|0,0:3|0:0,0:0:0:0:
496,363,272972,6,0,P|491:226|462:151,1,216.562508261204,8|0,0:3|0:0,0:0:0:0:
463,153,273231,2,0,L|265:48,1,216.562508261204,8|0,0:3|0:0,0:0:0:0:
271,51,273489,2,0,L|494:50,1,216.562508261204,8|0,0:3|0:0,0:0:0:0:
487,50,273748,6,0,B|216:235|216:235|7:238,1,505.312504819036,8|0,0:3|0:0,0:0:0:0:
36,177,274007,2,0,L|279:160,1,229.6875,8|0,0:3|0:0,0:0:0:0:
265,160,274179,2,0,L|508:143,1,229.6875,8|0,0:3|0:0,0:0:0:0:
494,240,274351,6,0,L|477:71,1,146.999995513916,0|0,3:0|0:0,0:0:0:0:
332,295,274696,2,0,L|317:130,1,146.999995513916,0|0,0:0|0:0,0:0:0:0:
166,278,275041,2,0,L|160:131,1,146.999995513916,0|0,0:0|0:0,0:0:0:0:
45,278,275386,2,0,P|30:174|102:44,1,244.999992523194
329,334,275731,6,0,P|406:276|238:85,1,420,6|0,0:0|0:0,0:0:0:0:
144,231,276765,2,0,B|138:184|138:184|166:121,1,84,2|0,0:0|0:0,0:0:0:0:
266,324,277110,2,0,P|293:265|65:57,1,420,2|0,0:0|0:0,0:0:0:0:
193,214,278144,2,0,L|290:204,1,84,2|0,0:0|0:0,0:0:0:0:
159,321,278489,6,0,P|103:274|299:118,1,420,2|0,0:0|0:0,0:0:0:0:
177,220,279524,2,0,L|174:115,1,84,2|0,0:0|0:0,0:0:0:0:
319,219,279869,2,0,L|316:119,1,84,2|0,0:0|0:0,0:0:0:0:
187,269,280213,2,0,P|121:194|205:79,1,252,2|0,0:0|0:0,0:0:0:0:
287,142,280903,2,0,L|183:142,1,84,2|0,0:0|0:0,0:0:0:0:
337,354,281248,6,0,P|419:312|299:148,1,336,2|0,0:0|0:0,0:0:0:0:
208,140,282110,2,0,L|121:135,1,84
315,236,282627,2,0,L|320:135,1,84,2|0,0:0|0:0,0:0:0:0:
208,255,282972,2,0,P|168:213|271:82,1,252,2|0,0:0|0:0,0:0:0:0:
370,168,283662,2,0,L|477:135,1,84,2|0,0:0|0:0,0:0:0:0:
337,334,284007,6,0,P|248:247|434:91,1,420,2|0,0:0|0:0,0:0:0:0:
328,220,285041,2,0,L|223:216,1,84,2|0,0:0|0:0,0:0:0:0:
135,237,285386,2,0,L|124:127,1,84,2|0,0:0|0:0,0:0:0:0:
329,201,286248,1,0,0:0:0:0:
221,180,286420,2,0,L|97:165,1,84
241,353,286765,6,0,P|340:319|414:34,1,420,2|0,0:0|0:0,0:0:0:0:
315,176,287800,2,0,L|313:76,1,84
211,88,288144,2,0,L|333:76,1,84,2|0,0:0|0:0,0:0:0:0:
132,355,288662,1,0,0:0:0:0:
203,314,288834,1,2,0:0:0:0:
229,236,289006,1,0,0:0:0:0:
196,161,289179,1,2,0:0:0:0:
121,127,289351,1,0,0:0:0:0:
236,92,289524,6,0,P|342:105|285:352,1,420,2|0,0:0|0:0,0:0:0:0:
194,229,290558,2,0,L|299:217,1,84,2|0,0:0|0:0,0:0:0:0:
399,212,290903,2,0,L|403:98,1,84,2|0,0:0|0:0,0:0:0:0:
217,328,291420,5,0,0:0:0:0:
136,305,291592,1,2,0:0:0:0:
85,240,291764,1,0,0:0:0:0:
84,157,291937,1,2,0:0:0:0:
131,90,292109,1,0,0:0:0:0:
209,63,292282,6,0,P|329:131|151:268,1,420,2|0,0:0|0:0,0:0:0:0:
87,221,293317,2,0,L|207:215,1,84,2|0,0:0|0:0,0:0:0:0:
277,142,293662,2,0,L|171:148,1,84,2|0,0:0|0:0,0:0:0:0:
357,328,294351,1,2,0:0:0:0:
436,286,294523,1,0,0:0:0:0:
459,207,294695,1,2,0:0:0:0:
425,132,294868,1,0,0:0:0:0:
341,100,295041,6,0,P|225:139|288:321,1,336,2|0,0:0|0:0,0:0:0:0:
379,306,295903,1,0,0:0:0:0:
262,254,296075,2,0,L|152:246,1,84,2|0,0:0|0:0,0:0:0:0:
279,179,296420,6,0,L|391:170,1,84,2|0,0:0|0:0,0:0:0:0:
242,119,296765,1,0,0:0:0:0:
93,268,297110,2,0,L|98:156,1,84,2|0,0:0|0:0,0:0:0:0:
214,176,297455,2,0,L|327:163,1,84,2|0,0:0|0:0,0:0:0:0:
388,109,297800,6,0,L|184:105,1,168,2|0,0:0|0:0,0:0:0:0:
320,351,298317,1,0,0:0:0:0:
390,309,298489,1,2,0:0:0:0:
412,230,298661,1,0,0:0:0:0:
374,157,298834,1,2,0:0:0:0:
297,131,299006,1,0,0:0:0:0:
196,101,299179,6,0,L|388:90,1,168
281,235,299696,1,0,0:0:0:0:
163,247,299869,2,0,L|170:153,1,84,2|0,0:0|0:0,0:0:0:0:
277,152,300213,2,0,L|373:142,1,84,2|0,0:0|0:0,0:0:0:0:
267,69,300558,6,0,L|84:61,1,168,0|0,0:0|0:0,0:0:0:0:
197,195,301075,2,0,L|294:203,2,84,0|2|0,0:0|0:0|0:0,0:0:0:0:
73,250,301593,2,0,L|69:154,1,84,2|0,0:0|0:0,0:0:0:0:
182,140,301938,2,0,L|383:140,1,168,0|0,0:0|0:0,0:0:0:0:
251,268,302455,1,0,0:0:0:0:
157,271,302627,2,0,L|155:169,1,84,2|0,0:0|0:0,0:0:0:0:
269,165,302972,6,0,L|446:157,2,168,2|0|0,0:0|0:0|0:0,0:0:0:0:
92,307,304007,1,2,0:0:0:0:
166,273,304179,1,0,0:0:0:0:
195,197,304351,1,2,0:0:0:0:
162,122,304524,1,0,0:0:0:0:
80,225,304696,6,0,P|82:168|201:129,1,168,0|0,0:0|0:0,0:0:0:0:
395,306,305386,1,2,0:0:0:0:
321,272,305558,1,0,0:0:0:0:
292,196,305730,1,2,0:0:0:0:
325,121,305903,1,0,0:0:0:0:
407,224,306075,2,0,P|440:198|382:102,1,168,0|0,0:0|0:0,0:0:0:0:
179,207,306765,2,0,L|173:112,1,84,2|0,0:0|0:0,0:0:0:0:
271,81,307110,6,0,L|466:73,2,168,2|0|0,0:0|0:0|0:0,0:0:0:0:
121,225,308144,2,0,L|240:220,1,84,2|0,0:0|0:0,0:0:0:0:
304,153,308489,2,0,L|118:144,2,168,2|0|0,0:0|0:0|0:0,0:0:0:0:
415,187,309351,1,0,0:0:0:0:
303,279,309524,2,0,L|297:183,1,84,2|0,0:0|0:0,0:0:0:0:
393,128,309869,6,0,L|200:130,2,168,2|0|0,0:0|0:0|0:0,0:0:0:0:
220,293,310903,2,0,L|211:173,1,84,2|0,0:0|0:0,0:0:0:0:
306,193,311248,2,0,L|506:191,2,168,2|0|0,0:0|0:0|0:0,0:0:0:0:
123,319,312282,1,2,0:0:0:0:
197,284,312454,1,0,0:0:0:0:
226,207,312626,1,2,0:0:0:0:
195,132,312799,1,0,0:0:0:0:
120,99,312972,2,0,L|304:89,1,168,0|0,0:0|0:0,0:0:0:0:
159,297,313662,6,0,L|154:198,1,84,2|0,0:0|0:0,0:0:0:0:
272,232,314006,2,0,L|269:132,1,84,2|0,0:0|0:0,0:0:0:0:
162,250,314351,2,0,L|152:75,1,168,0|0,0:0|0:0,0:0:0:0:
388,267,315213,1,0,0:0:0:0:
375,185,315385,1,2,0:0:0:0:
307,133,315557,1,0,0:0:0:0:
210,131,315731,6,0,L|386:119,1,168,2|0,0:0|0:0,0:0:0:0:
158,316,316593,1,0,0:0:0:0:
135,223,316765,1,2,0:0:0:0:
194,148,316938,1,0,0:0:0:0:
295,297,317110,6,0,L|493:290,2,168,2|0|0,0:0|0:0|0:0,0:0:0:0:
256,192,317972,12,0,324007,0:0:0:0:
