osu file format v14

[General]
AudioFilename: audio.mp3
AudioLeadIn: 0
PreviewTime: 70678
Countdown: 0
SampleSet: None
StackLeniency: 0.3
Mode: 0
LetterboxInBreaks: 0
WidescreenStoryboard: 0

[Editor]
Bookmarks: 2365,25136,71401,117666,140799,187064,198450,209524,231592,253661,275730,298144
DistanceSpacing: 0.8
BeatDivisor: 4
GridSize: 32
TimelineZoom: 2.1

[Metadata]
Title:flying in the flow of deep-sea
TitleUnicode:flying in the flow of deep-sea
Artist:Camellia
ArtistUnicode:かめりあ
Creator:Moecho
Version:deluging ascension
Source:
Tags:
BeatmapID:2069622
BeatmapSetID:989353

[Difficulty]
HPDrainRate:5.5
CircleSize:4.5
OverallDifficulty:8.5
ApproachRate:9.5
SliderMultiplier:1.4
SliderTickRate:1

[Events]
//Background and Video events
0,0,"bg.jpg",0,0
//Break Periods
//Storyboard Layer 0 (Background)
//Storyboard Layer 1 (Fail)
//Storyboard Layer 2 (Pass)
//Storyboard Layer 3 (Foreground)
//Storyboard Sound Samples

[TimingPoints]
2004,361.44578313253,4,2,1,10,1,0
2004,-200,4,2,1,10,0,0
3269,-100,4,2,1,10,0,0
3811,-200,4,2,1,10,0,0
4714,-100,4,2,1,10,0,0
5257,-200,4,2,1,10,0,0
6160,-100,4,2,1,10,0,0
6702,-200,4,2,1,10,0,0
7606,-100,4,2,1,10,0,0
8148,-160,4,2,1,10,0,0
8510,-160,4,2,1,13,0,0
9955,-160,4,2,1,17,0,0
11401,-160,4,2,1,20,0,0
12124,-400,4,2,1,20,0,0
12395,-400,4,2,1,5,0,0
12485,-160,4,2,1,20,0,0
13931,-133.333333333333,4,2,1,20,0,0
14112,-133.333333333333,4,2,1,23,0,0
14835,-66.6666666666667,4,2,1,23,0,0
15377,-133.333333333333,4,2,1,23,0,0
16100,-133.333333333333,4,2,1,27,0,0
16281,-66.6666666666667,4,2,1,27,0,0
16823,-133.333333333333,4,2,1,27,0,0
17726,-66.6666666666667,4,2,1,27,0,0
18269,-133.333333333333,4,2,1,27,0,0
19172,-66.6666666666667,4,2,1,27,0,0
19714,-133.333333333333,4,2,1,27,0,0
22967,-133.333333333333,4,2,1,30,0,0
23329,-200,4,2,1,30,0,0
24413,-166.666666666667,4,2,1,35,0,0
25136,-200,4,2,1,55,0,0
26582,-133.333333333333,4,2,1,55,0,0
29473,-133.333333333333,4,2,1,35,0,0
30558,-100,4,2,1,35,0,0
30919,-200,4,2,1,55,0,0
32365,-114.285714285714,4,2,1,55,0,0
34895,-133.333333333333,4,2,1,55,0,0
35257,-133.333333333333,4,2,1,35,0,0
36702,-200,4,2,1,55,0,0
38148,-100,4,2,1,55,0,0
41040,-100,4,2,1,35,0,0
42124,-80,4,2,1,35,0,0
42485,-200,4,2,1,55,0,0
43931,-100,4,2,1,55,0,0
44654,-100,4,2,1,40,0,0
46100,-100,4,2,1,50,0,0
47546,-100,4,2,2,60,0,0
47930,-100,4,2,2,5,0,0
48269,-133.333333333333,4,2,1,50,0,0
48991,-160,4,2,1,50,0,0
49714,-200,4,2,1,50,0,0
51160,-133.333333333333,4,2,1,50,0,0
51883,-160,4,2,1,50,0,0
52606,-200,4,2,1,50,0,0
53690,-160,4,2,1,50,0,0
54052,-92.378752886836,4,2,1,50,0,0
56582,-133.333333333333,4,2,1,50,0,0
60558,-160,4,2,1,50,0,0
61281,-200,4,2,1,50,0,0
62003,-200,4,2,1,50,0,0
62726,-133.333333333333,4,2,1,50,0,0
64172,-100,4,2,1,30,0,0
65618,-100,4,2,1,40,0,0
67064,-100,4,2,1,50,0,0
67787,-100,4,2,1,60,0,0
68510,-400,4,2,1,70,0,0
71401,-66.6666666666667,4,1,1,60,0,1
71582,-50,4,1,1,60,0,1
72124,-100,4,1,1,60,0,1
72485,-133.333333333333,4,1,1,60,0,1
72666,-100,4,1,1,60,0,1
73389,-66.6666666666667,4,1,1,60,0,1
73570,-100,4,1,1,60,0,0
74293,-66.6666666666667,4,1,1,60,0,1
74654,-133.333333333333,4,1,1,60,0,1
74835,-50,4,1,1,60,0,1
75016,-100,4,1,1,60,0,1
75558,-100,4,1,1,60,0,1
76100,-50,4,1,1,60,0,1
76461,-50,4,1,1,60,0,0
76642,-100,4,1,1,60,0,0
76823,-200,4,1,1,60,0,0
77003,-66.6666666666667,4,1,1,60,0,0
77184,-66.6666666666667,4,1,1,60,0,1
77365,-50,4,1,1,60,0,1
77907,-100,4,1,1,60,0,1
78269,-133.333333333333,4,1,1,60,0,1
78449,-100,4,1,1,60,0,1
79172,-66.6666666666667,4,1,1,60,0,1
79353,-66.6666666666667,4,1,1,60,0,0
79534,-50,4,1,1,60,0,0
80076,-100,4,1,1,60,0,1
80618,-50,4,1,1,60,0,1
80799,-100,4,1,1,60,0,1
81160,-133.333333333333,4,1,1,60,0,1
81341,-100,4,1,1,60,0,1
81522,-100,4,1,1,60,0,1
82967,-100,4,2,1,50,0,0
83690,-66.6666666666667,4,1,1,60,0,1
84232,-100,4,1,1,60,0,1
84955,-66.6666666666667,4,1,1,60,0,1
85136,-100,4,1,1,60,0,0
85859,-66.6666666666667,4,1,1,60,0,1
86220,-133.333333333333,4,1,1,60,0,1
86401,-50,4,1,1,60,0,1
86582,-100,4,1,1,60,0,1
87124,-100,4,1,1,60,0,1
87485,-133.333333333333,4,1,1,60,0,1
87666,-50,4,1,1,60,0,1
88028,-50,4,1,1,60,0,0
88208,-100,4,1,1,60,0,0
88389,-200,4,1,1,60,0,0
88570,-66.6666666666667,4,1,1,60,0,0
88750,-66.6666666666667,4,1,1,60,0,1
88931,-50,4,1,1,60,0,1
89473,-100,4,1,1,60,0,1
89835,-133.333333333333,4,1,1,60,0,1
90016,-100,4,1,1,60,0,1
90738,-66.6666666666667,4,1,1,60,0,1
90919,-66.6666666666667,4,1,1,60,0,0
91100,-50,4,1,1,60,0,0
91642,-100,4,1,1,60,0,1
92365,-100,4,1,1,60,0,1
92726,-133.333333333333,4,1,1,60,0,1
92907,-100,4,1,1,60,0,1
93088,-50,4,1,1,40,0,0
93449,-66.6666666666667,4,1,1,50,0,0
93811,-100,4,1,1,60,0,0
94172,-200,4,1,1,65,0,0
94534,-50,4,1,1,70,0,1
95257,-100,4,1,1,70,0,0
95799,-50,4,1,1,70,0,0
95979,-66.6666666666667,4,1,1,70,0,0
96160,-133.333333333333,4,1,1,70,0,0
97425,-100,4,1,1,70,0,0
97787,-133.333333333333,4,1,1,70,0,0
97967,-50,4,1,1,70,0,0
98148,-66.6666666666667,4,1,1,70,0,0
98510,-50,4,1,1,70,0,0
98871,-66.6666666666667,4,1,1,70,0,0
100136,-50,4,1,1,70,0,0
100317,-66.6666666666667,4,1,1,70,0,0
100859,-133.333333333333,4,1,1,70,0,0
101040,-100,4,1,1,60,0,0
101582,-50,4,1,1,60,0,0
101763,-66.6666666666667,4,1,1,60,0,0
101943,-133.333333333333,4,1,1,60,0,0
102124,-100,4,1,1,60,0,0
103028,-66.6666666666667,4,1,1,60,0,0
103208,-100,4,1,1,60,0,0
104654,-66.6666666666667,4,1,1,60,0,0
104925,-66.6666666666667,4,1,1,60,0,0
105016,-100,4,1,1,60,0,0
105377,-66.6666666666667,4,1,1,60,0,0
105919,-266.666666666667,4,1,1,60,0,0
106823,-66.6666666666667,4,1,1,60,0,0
107003,-100,4,1,1,60,0,0
107275,-66.6666666666667,4,1,1,60,0,0
107726,-57.1428571428571,4,1,1,60,0,0
107907,-66.6666666666667,4,1,1,60,0,0
108269,-133.333333333333,4,1,1,60,0,0
108991,-100,4,1,1,60,0,0
109353,-133.333333333333,4,1,1,60,0,0
109534,-50,4,1,1,60,0,0
109714,-100,4,1,1,60,0,0
110437,-66.6666666666667,4,1,1,60,0,0
111883,-400,4,1,1,60,0,0
112244,-100,4,2,0,60,0,0
112606,-100,4,1,1,60,0,0
113329,-66.6666666666667,4,1,1,60,0,0
113510,-133.333333333333,4,1,1,60,0,0
113690,-100,4,1,1,60,0,0
114594,-66.6666666666667,4,1,1,60,0,0
115136,-100,4,1,1,60,0,0
116220,-66.6666666666667,4,1,1,60,0,0
116943,-50,4,1,1,60,0,0
116966,-50,4,1,1,5,0,0
117666,-100,4,2,1,50,0,0
135016,-133.333333333333,4,2,1,50,0,0
140799,-200,4,2,1,55,0,0
145136,-100,4,2,1,35,0,0
146582,-200,4,2,1,55,0,0
150196,-400,4,2,1,55,0,0
150919,-100,4,2,1,55,0,0
151642,-266.666666666667,4,2,1,55,0,0
152365,-200,4,2,1,55,0,0
156702,-100,4,2,1,35,0,0
158148,-200,4,2,1,55,0,0
161040,-100,4,2,1,55,0,0
162485,-100,4,2,1,35,0,0
163208,-200,4,2,1,35,0,0
163931,-200,4,2,1,40,0,0
179835,-100,4,2,1,50,0,0
181281,-100,4,1,1,30,0,0
184172,-100,4,1,1,40,0,0
186341,-100,4,1,1,60,0,0
187064,-100,4,2,1,40,0,0
188509,359.281437125748,4,2,1,40,1,0
188509,-100,4,2,1,40,0,0
189586,-200,4,2,1,40,0,0
189766,-100,4,2,1,40,0,0
189947,357.142857142857,4,2,1,45,1,0
189947,-200,4,2,1,45,0,0
190125,-100,4,2,1,45,0,0
192357,-133.333333333333,4,2,1,45,0,0
192625,-100,4,2,1,45,0,0
192714,-133.333333333333,4,2,1,45,0,0
192807,354.097199681313,4,2,1,50,1,0
192807,-100,4,2,1,50,0,0
194223,353.097199681312,4,2,1,50,1,0
195282,-200,4,2,1,50,0,0
195458,-100,4,2,1,50,0,0
195635,-200,4,2,1,50,0,0
195811,-100,4,2,1,50,0,0
197047,350.877192982456,4,2,1,55,1,0
198450,348.938644954929,4,2,1,60,1,0
198450,-50,4,2,1,60,0,0
201241,346.820809248555,4,2,1,65,1,0
201241,-50,4,2,1,65,0,0
202630,344.827586206897,4,2,1,65,1,0
202630,-50,4,2,1,65,0,0
204007,344.827586206897,4,2,1,70,1,0
204007,-50,4,2,1,70,0,0
205386,-50,4,2,1,75,0,0
206765,-100,4,2,1,45,0,0
209007,-100,4,2,1,35,0,0
209524,344.827586206897,4,2,1,50,1,1
209524,-66.6666666666667,4,1,1,70,0,1
216937,-200,4,1,1,70,0,1
217024,-50,4,1,1,70,0,1
217196,-66.6666666666667,4,1,1,70,0,1
217455,-400,4,1,1,70,0,1
217799,-66.6666666666667,4,1,1,70,0,1
218834,-133.333333333333,4,1,1,70,0,1
219092,-66.6666666666667,4,1,1,70,0,1
220213,-50,4,1,1,70,0,1
220235,-50,4,1,1,5,0,1
220558,-66.6666666666667,4,1,1,70,0,1
222972,-200,4,1,1,70,0,1
223317,-66.6666666666667,4,1,1,70,0,1
227799,-100,4,1,1,70,0,1
228834,-133.333333333333,4,1,1,35,0,0
229179,-100,4,1,1,40,0,0
229524,-80,4,1,1,45,0,0
229868,-66.6666666666667,4,1,1,50,0,0
230213,-57.1428571428571,4,1,1,55,0,0
230558,-50,4,1,1,60,0,0
230903,-100,4,1,1,65,0,0
231248,-100,4,1,1,70,0,0
231592,-50,4,1,1,75,0,1
232455,-66.6666666666667,4,1,1,75,0,1
232627,-50,4,1,1,75,0,1
233144,-66.6666666666667,4,1,1,75,0,1
233317,-50,4,1,1,75,0,1
233597,-50,4,1,1,5,0,1
233834,-66.6666666666667,4,1,1,75,0,1
234006,-50,4,1,1,75,0,1
235903,-66.6666666666667,4,1,1,75,0,1
236075,-50,4,1,1,75,0,1
236592,-66.6666666666667,4,1,1,75,0,1
236765,-50,4,1,1,75,0,1
236937,-100,4,1,1,75,0,1
237110,-50,4,1,1,75,0,1
237972,-66.6666666666667,4,1,1,75,0,1
238144,-50,4,1,1,75,0,1
238661,-66.6666666666667,4,1,1,75,0,1
238834,-50,4,1,1,75,0,1
239114,-50,4,1,1,5,0,1
239351,-66.6666666666667,4,1,1,75,0,1
239524,-50,4,1,1,75,0,1
239696,-66.6666666666667,4,1,1,75,0,1
239868,-50,4,1,1,75,0,1
240730,-66.6666666666667,4,1,1,75,0,1
240903,-50,4,1,1,75,0,1
241420,-66.6666666666667,4,1,1,75,0,1
241592,-50,4,1,1,75,0,1
242455,-100,4,1,1,75,0,1
242627,-50,4,1,1,75,0,1
243489,-66.6666666666667,4,1,1,75,0,1
243661,-50,4,1,1,75,0,1
244179,-66.6666666666667,4,1,1,75,0,1
244351,-50,4,1,1,75,0,1
244631,-50,4,1,1,5,0,1
244868,-66.6666666666667,4,1,1,75,0,1
245041,-50,4,1,1,75,0,1
246937,-66.6666666666667,4,1,1,75,0,1
247110,-50,4,1,1,75,0,1
247627,-66.6666666666667,4,1,1,75,0,1
247799,-80,4,1,1,75,0,1
247972,-100,4,1,1,75,0,1
248144,-50,4,1,1,85,0,1
252282,-200,4,1,1,85,0,1
252972,-50,4,1,1,65,0,0
253661,-200,4,1,1,65,0,0
254006,-100,4,1,1,65,0,0
254351,-100,4,1,1,65,0,0
254868,-100,4,1,1,65,0,0
257110,-100,4,1,1,65,0,0
257627,-100,4,1,1,65,0,0
259868,-100,4,1,1,65,0,0
260386,-100,4,1,1,65,0,0
261248,-100,4,1,1,65,0,0
261937,-100,4,1,1,65,0,0
262627,-100,4,1,1,65,0,0
263144,-100,4,1,1,65,0,0
264006,-100,4,1,1,65,0,0
265903,-100,4,1,1,65,0,0
268144,-100,4,1,1,65,0,0
268661,-100,4,1,1,65,0,0
270213,-100,4,1,1,75,0,1
274351,-100,4,2,1,60,0,0
274696,-100,4,2,1,50,0,0
275041,-100,4,2,1,40,0,0
275386,-100,4,2,1,35,0,0
275730,-100,4,2,1,50,0,0
275817,-100,4,2,1,25,0,0
297799,-100,4,2,1,15,0,0
319179,-100,4,2,1,10,0,0

[HitObjects]
197,90,2365,6,0,P|179:93|162:91,1,35
64,71,2726,2,0,P|80:66|98:65,1,35
184,7,3088,1,0,0:0:0:0:
73,62,3269,6,0,B|149:37|129:103|228:76,1,140
309,144,3811,6,0,P|300:127|296:111,1,35
285,12,4172,2,0,P|294:26|300:42,1,35
383,105,4534,1,0,0:0:0:0:
297,17,4714,6,0,B|344:81|275:82|331:168,1,140
292,267,5257,6,0,P|304:253|319:245,1,35
410,203,5618,2,0,P|399:216|385:227,1,35
352,325,5979,1,0,0:0:0:0:
409,216,6160,6,0,B|362:280|339:215|275:295,1,140
169,288,6702,6,0,P|185:296|197:307,1,35
267,381,7064,2,0,P|250:374|236:365,1,35
133,363,7425,1,0,0:0:0:0:
254,384,7606,6,0,B|177:359|232:317|136:281,1,140
113,188,8058,1,0,0:0:0:0:
113,188,8148,6,0,P|112:209|105:230,1,43.75
41,278,8510,2,0,P|22:287|0:292,1,43.75
113,188,8871,6,0,P|95:176|80:160,1,43.75
71,80,9232,2,0,P|72:58|78:38,1,43.75
113,188,9594,6,0,P|131:178|153:173,1,43.75
227,205,9955,2,0,P|244:216|259:232,1,43.75
372,129,10317,6,0,P|371:150|364:171,1,43.75
300,219,10678,2,0,P|281:228|259:233,1,43.75
292,383,11040,6,0,P|274:371|259:355,1,43.75
250,275,11401,2,0,P|251:254|258:233,1,43.75
322,184,11763,2,0,P|340:174|362:169,1,43.75
436,200,12034,1,0,0:0:0:0:
436,200,12124,6,0,L|431:231,1,26.25
428,306,12485,6,0,P|406:303|386:293,1,43.75
331,225,12847,2,0,P|322:204|321:183,1,43.75
352,100,13208,2,0,P|365:82|383:70,1,43.75
470,55,13570,2,0,P|491:57|511:67,1,43.75
487,208,13841,1,0,0:0:0:0:
487,208,13931,6,0,L|435:199,1,52.5000020027161
312,279,14293,2,0,L|364:288,1,52.5000020027161
472,133,14654,1,0,0:0:0:0:
296,256,14835,6,0,B|416:290|376:193|498:225,1,210.000008010865
255,370,15377,6,0,L|247:317,1,52.5000020027161
133,225,15738,2,0,L|141:278,1,52.5000020027161
321,332,16100,1,0,0:0:0:0:
150,203,16281,6,0,B|154:327|234:259|241:385,1,210.000008010865
29,199,16823,6,0,L|76:175,1,52.5000020027161
129,38,17184,2,0,L|82:62,1,52.5000020027161
85,250,17546,1,0,0:0:0:0:
155,47,17726,6,0,B|38:89|127:144|10:189,1,210.000008010865
239,41,18269,6,0,L|276:79,1,52.5000020027161
423,86,18630,2,0,L|386:48,1,52.5000020027161
207,110,18991,1,0,0:0:0:0:
422,113,19172,6,0,B|345:15|321:117|241:19,1,210.000008010865
130,171,19624,1,0,0:0:0:0:
130,171,19714,6,0,L|122:120,1,52.5000020027161
1,79,20076,2,0,P|25:68|51:66,1,52.5000020027161
129,170,20437,6,0,L|89:204,1,52.5000020027161
114,328,20799,2,0,P|92:312|78:291,1,52.5000020027161
129,170,21160,6,0,L|178:190,1,52.5000020027161
272,107,21522,2,0,P|269:132|258:156,1,52.5000020027161
235,32,21883,6,0,L|275:0,1,52.5000020027161
259,157,22244,2,0,P|237:141|223:120,1,52.5000020027161
344,162,22606,6,0,L|351:214,1,52.5000020027161
223,120,22967,2,0,P|246:109|272:107,1,52.5000020027161
344,162,23329,6,0,P|359:169|376:173,1,35
495,100,23690,5,0,0:0:0:0:
452,81,23961,5,0,0:0:0:0:
384,99,24142,5,0,0:0:0:0:
298,170,24413,5,0,0:0:0:0:
159,190,24684,5,0,0:0:0:0:
37,82,24865,5,0,0:0:0:0:
29,272,25136,6,0,B|124:231|105:307|212:268,1,175
282,294,26130,1,0,0:0:0:0:
281,294,26220,2,0,P|313:273|341:269,1,52.5
420,368,26582,6,0,B|484:372|520:322|520:322|481:241|413:207|321:246|321:246|296:220|249:200|249:200|283:264|223:305|223:305|268:299|298:314|298:314|319:344|350:349,1,682.50002603531
341,336,29022,1,0,0:0:0:0:
352,330,29112,1,0,0:0:0:0:
420,368,29232,5,0,0:0:0:0:
433,335,29353,5,0,0:0:0:0:
425,300,29473,5,0,0:0:0:0:
321,246,29654,6,0,L|307:128,2,105.000004005432
309,240,30467,1,0,0:0:0:0:
297,234,30558,2,0,P|337:200|389:197,1,105
512,86,30919,6,0,B|417:45|436:121|329:82,1,175
254,108,31913,1,0,0:0:0:0:
254,108,32003,2,0,P|233:89|210:80,1,52.5
104,140,32365,6,0,B|4:148|-31:65|-31:65|40:-15|214:22|276:75|276:75|362:64|362:64|311:89|306:135|306:135|252:109|193:150,1,796.250007593632
186,135,34805,1,0,0:0:0:0:
178,121,34895,2,0,P|170:145|171:171,1,52.5000020027161
46,264,35257,6,0,P|70:255|96:256,1,52.5000020027161
226,227,35618,1,0,0:0:0:0:
21,230,35799,2,0,P|72:226|117:252,1,105.000004005432
122,264,36250,1,0,0:0:0:0:
123,277,36341,2,0,L|120:317,1,26.2500010013581
418,305,36702,6,0,B|323:264|342:340|235:301,1,175
161,335,37696,1,0,0:0:0:0:
161,335,37787,2,0,P|144:315|121:303,1,52.5
12,223,38148,6,0,B|-69:99|13:-110|177:29|188:174|188:174|139:149|75:188|75:188|93:218|76:259|76:259|129:229|150:232|150:232|144:257|155:290|155:290|121:304|121:304|139:319|140:340|140:340|153:335|177:337,1,910
161,354,40588,1,0,0:0:0:0:
160,371,40678,1,0,0:0:0:0:
318,384,40799,5,0,0:0:0:0:
313,350,40919,5,0,0:0:0:0:
307,314,41040,5,0,0:0:0:0:
391,244,41220,6,0,P|336:202|267:206,2,140
373,250,42034,1,0,0:0:0:0:
354,257,42124,2,0,L|337:125,1,131.25
466,38,42485,6,0,B|371:79|390:3|283:42,1,175
213,11,43479,1,0,0:0:0:0:
213,11,43570,2,0,P|191:25|165:31,1,52.5
0,61,43931,6,0,B|38:20|112:42|118:102|118:102|187:88|279:143|279:143|311:107|350:90|350:90|315:128|323:177|323:177|268:155|194:162|175:243|74:242|70:192|-8:173|-8:173|31:138,1,910
40,127,46371,1,0,0:0:0:0:
46,110,46461,2,0,P|26:80|-1:60,1,70
153,9,46823,5,0,0:0:0:0:
163,30,47003,1,0,0:0:0:0:
272,5,47184,5,0,0:0:0:0:
269,62,47365,1,0,0:0:0:0:
464,0,47546,5,0,0:0:0:0:
425,113,47726,1,0,0:0:0:0:
441,119,47817,1,0,0:0:0:0:
458,122,47907,2,0,L|469:120,12,8.75
502,192,48269,6,0,P|439:133|353:127,1,175.00000667572
353,209,48991,2,0,P|303:261|232:274,1,145.833333333333
229,191,49714,2,0,P|179:138|136:132,1,116.666666666667
133,214,50437,6,0,L|99:220,1,35
91,218,50708,1,0,0:0:0:0:
82,214,50799,1,0,0:0:0:0:
0,192,50979,2,0,L|4:216,1,17.5
0,313,51160,6,0,B|91:276|89:352|175:312,1,175.00000667572
220,382,51883,2,0,B|301:373|267:324|343:311,1,145.833333333333
389,241,52606,2,0,B|452:244|430:292|493:299,1,116.666666666667
357,355,53329,6,0,P|346:334|341:311,1,46.6666666666667
389,240,53690,2,0,P|401:214|403:185,1,58.3333333333333
270,139,54052,6,0,B|172:177|83:103|83:103|20:102|-25:97|-25:97|19:103|83:92|83:92|194:-29|337:27|346:62|366:68|397:89|441:75|441:75|467:65|467:65|442:98|453:134|453:134|421:106|379:118,1,985.074991732922
362,124,56491,1,0,0:0:0:0:
349,138,56582,2,0,P|349:158|343:173,1,26.2500010013581
61,180,57847,5,0,0:0:0:0:
78,187,57937,1,0,0:0:0:0:
91,201,58028,1,0,0:0:0:0:
491,381,58389,6,0,P|428:335|351:334,1,157.500006008148
298,382,59022,1,0,0:0:0:0:
298,382,59112,5,0,0:0:0:0:
207,293,59293,2,0,L|205:266,1,26.2500010013581
199,191,59473,1,0,0:0:0:0:
132,279,59654,1,0,0:0:0:0:
10,192,59835,6,0,P|73:133|159:127,1,175.00000667572
159,209,60558,2,0,P|209:261|280:274,1,145.833333333333
283,191,61281,2,0,P|333:138|376:132,1,116.666666666667
379,214,62003,6,0,L|413:220,1,35
421,218,62275,1,0,0:0:0:0:
430,214,62365,1,0,0:0:0:0:
512,192,62546,2,0,L|508:216,1,17.5
508,319,62726,6,0,P|469:315|436:293,1,78.7500030040742
366,192,63088,2,0,P|374:209|373:229,1,26.2500010013581
322,322,63269,2,0,P|333:306|350:297,1,26.2500010013581
508,65,63449,6,0,P|469:69|436:91,1,78.7500030040742
366,192,63811,2,0,P|374:175|373:155,1,26.2500010013581
322,62,63991,2,0,P|333:78|350:87,1,26.2500010013581
499,188,64172,5,0,0:0:0:0:
495,214,64353,1,0,0:0:0:0:
370,237,64534,5,0,0:0:0:0:
381,149,64714,1,0,0:0:0:0:
246,127,64895,5,0,0:0:0:0:
276,264,65076,2,0,L|225:270,1,35
120,282,65257,5,0,0:0:0:0:
157,87,65437,1,0,0:0:0:0:
28,142,65618,5,0,0:0:0:0:
45,238,65799,1,0,0:0:0:0:
151,158,65979,5,0,0:0:0:0:
58,245,66160,1,0,0:0:0:0:
205,256,66341,5,0,0:0:0:0:
64,258,66522,1,0,0:0:0:0:
223,384,66702,5,0,0:0:0:0:
64,274,66883,1,0,0:0:0:0:
260,322,67064,5,0,0:0:0:0:
214,132,67244,1,0,0:0:0:0:
329,288,67425,5,0,0:0:0:0:
328,157,67606,1,0,0:0:0:0:
405,297,67787,5,0,0:0:0:0:
430,203,67967,1,0,0:0:0:0:
468,341,68148,5,0,0:0:0:0:
502,274,68329,1,0,0:0:0:0:
0,283,68510,6,0,L|4:317,1,35
498,156,69232,6,0,P|480:138|455:129,1,52.5
235,189,69955,6,0,L|198:193,2,35
293,145,70859,1,0,0:0:0:0:
351,101,71040,2,0,L|371:103,1,17.5
7,239,71401,6,0,L|58:228,1,52.5000020027161
109,65,71582,2,0,B|72:17|13:20|13:20|-15:76|9:116,1,210
120,189,71943,5,0,0:0:0:0:
180,153,72034,1,0,0:0:0:0:
234,245,72124,6,0,L|129:233,1,105
58,228,72485,2,0,L|63:253,1,26.2500010013581
3,384,72666,6,0,P|50:334|118:326,1,140
231,381,73118,1,0,0:0:0:0:
231,381,73208,2,0,L|265:375,1,35
340,367,73389,6,0,L|339:379,4,13.125000500679
483,280,73570,6,0,L|474:303,1,17.5
419,254,73660,2,0,L|417:271,1,17.5
349,263,73750,2,0,L|355:284,1,17.5
293,304,73841,2,0,L|288:287,1,17.5
236,306,73931,2,0,L|242:283,1,17.5
193,287,74022,2,0,L|209:264,1,17.5
175,261,74112,2,0,L|205:255,1,17.5
172,236,74202,2,0,L|204:244,1,17.5
491,253,74293,6,0,P|419:225|343:239,1,157.500006008148
259,222,74654,2,0,L|253:189,1,26.2500010013581
414,78,74835,5,0,0:0:0:0:
426,146,74925,1,0,0:0:0:0:
321,133,75016,6,0,L|217:114,1,105
162,68,75377,2,0,P|151:88|147:103,1,35
0,185,75558,6,0,P|48:168|98:180,1,105
186,276,75919,2,0,L|177:323,1,35
0,185,76100,6,0,B|51:152|101:181|101:181|145:211|202:185,1,210
302,353,76461,6,0,P|329:330|363:322,1,70
433,349,76642,2,0,L|467:344,1,35
466,185,76823,6,0,L|466:194,1,8.75
465,206,76913,2,0,L|465:215,1,8.75
402,253,77003,6,0,L|346:246,1,52.5000020027161
195,133,77184,6,0,L|202:189,1,52.5000020027161
126,356,77365,2,0,B|45:339|55:255|55:255|83:289|127:286,1,210
129,102,77726,5,0,0:0:0:0:
62,78,77817,1,0,0:0:0:0:
19,156,77907,6,0,L|127:142,1,105
195,133,78269,2,0,L|191:159,1,26.2500010013581
318,68,78449,6,0,P|262:29|195:44,1,140
57,43,78901,1,0,0:0:0:0:
57,43,78991,2,0,L|61:77,1,35
34,145,79172,6,0,L|68:149,2,35.0000013351441
183,227,79353,6,0,L|234:216,1,52.5000020027161
64,384,79534,2,0,P|-30:273|112:246,1,350
293,363,80076,6,0,L|397:353,1,105
486,318,80437,5,0,0:0:0:0:
464,290,80528,1,0,0:0:0:0:
425,282,80618,5,0,0:0:0:0:
457,220,80708,1,0,0:0:0:0:
379,173,80799,6,0,L|388:277,1,105
423,356,81160,2,0,L|386:352,1,26.2500010013581
223,344,81341,5,0,0:0:0:0:
460,129,81522,5,0,0:0:0:0:
212,275,81702,5,0,0:0:0:0:
223,344,81793,1,0,0:0:0:0:
298,150,81973,5,0,0:0:0:0:
287,219,82064,1,0,0:0:0:0:
50,4,82244,5,0,0:0:0:0:
298,150,82425,5,0,0:0:0:0:
287,219,82516,1,0,0:0:0:0:
212,25,82696,5,0,0:0:0:0:
223,94,82787,1,0,0:0:0:0:
115,189,82967,6,0,L|98:188,6,17.5
19,172,83329,2,0,L|29:217,2,46.6666666666667
308,57,83690,5,0,0:0:0:0:
157,69,83871,5,0,0:0:0:0:
308,57,83961,2,0,B|275:33|275:33|289:95,1,105.000004005432
365,230,84232,6,0,P|318:180|250:172,1,140
131,204,84684,1,0,0:0:0:0:
131,204,84775,2,0,L|97:198,1,35
22,190,84955,6,0,L|23:202,4,13.125000500679
148,298,85136,6,0,L|157:321,1,17.5
212,272,85226,2,0,L|214:289,1,17.5
282,281,85317,2,0,L|276:302,1,17.5
338,322,85407,2,0,L|343:305,1,17.5
395,324,85497,2,0,L|389:301,1,17.5
438,305,85588,2,0,L|422:282,1,17.5
456,279,85678,2,0,L|426:273,1,17.5
459,254,85769,2,0,L|427:262,1,17.5
140,271,85859,6,0,P|212:243|288:257,1,157.500006008148
372,240,86220,2,0,L|378:207,1,26.2500010013581
218,82,86401,5,0,0:0:0:0:
206,150,86491,1,0,0:0:0:0:
311,137,86582,6,0,L|415:118,1,105
483,99,86943,2,0,P|486:117|484:134,1,35
372,240,87124,6,0,P|325:218|274:226,1,105
187,314,87485,2,0,L|191:339,1,26.2500010013581
372,240,87666,6,0,B|324:202|271:227|271:227|225:253|170:222,1,210
21,323,88028,6,0,P|48:300|82:292,1,70
152,319,88208,2,0,L|186:314,1,35
312,299,88389,6,0,L|310:307,1,8.75
309,319,88479,2,0,L|307:327,1,8.75
357,384,88570,6,0,L|413:377,1,52.5000020027161
244,257,88750,6,0,L|250:204,1,52.5000020027161
433,167,88931,2,0,B|440:115|440:115|377:39|285:99,1,210
176,230,89293,5,0,0:0:0:0:
115,265,89383,1,0,0:0:0:0:
69,182,89473,6,0,L|173:195,1,105
246,177,89835,2,0,L|249:204,1,26.2500010013581
186,331,90016,6,0,P|238:286|306:284,1,140
439,341,90467,1,0,0:0:0:0:
439,341,90558,2,0,L|473:337,1,35
359,369,90738,6,0,L|362:334,2,35.0000013351441
248,203,90919,6,0,L|242:150,1,52.5000020027161
426,32,91100,2,0,P|520:142|377:169,1,350
199,51,91642,6,0,L|95:40,1,105
0,59,92003,5,0,0:0:0:0:
15,91,92094,1,0,0:0:0:0:
53,106,92184,5,0,0:0:0:0:
10,160,92275,1,0,0:0:0:0:
77,219,92365,6,0,L|88:115,1,105
67,37,92726,2,0,L|94:39,1,26.2500010013581
158,160,92907,2,0,L|192:157,1,35
327,60,93088,6,0,L|319:129,1,70
185,87,93269,2,0,L|192:156,1,70
319,129,93449,6,0,L|311:198,1,52.5000020027161
192,156,93630,2,0,L|199:225,1,52.5000020027161
313,181,93811,6,0,L|309:215,1,35
197,208,93991,2,0,L|200:242,1,35
309,215,94172,6,0,L|305:245,1,17.5
200,242,94353,2,0,L|203:272,1,17.5
418,384,94534,6,0,B|371:290|262:304|262:304|214:409|60:375|60:375|81:303,1,490
29,259,95257,6,0,P|43:248|59:242,3,35
151,310,95799,5,0,0:0:0:0:
132,244,95889,1,0,0:0:0:0:
207,205,95979,6,0,L|200:257,1,52.5000020027161
81,337,96160,2,0,L|77:310,1,26.2500010013581
179,384,96341,5,0,0:0:0:0:
187,373,96431,1,0,0:0:0:0:
198,366,96522,1,0,0:0:0:0:
210,361,96612,1,0,0:0:0:0:
278,355,96702,6,0,L|304:358,1,26.2500010013581
382,296,96883,1,0,0:0:0:0:
273,259,96973,6,0,L|283:283,1,26.2500010013581
382,296,97154,1,0,0:0:0:0:
353,206,97244,6,0,L|345:216,1,13.125000500679
400,202,97335,2,0,L|386:200,1,13.125000500679
478,233,97425,6,0,P|443:194|392:182,1,105
298,160,97787,2,0,L|294:133,1,26.2500010013581
402,91,97967,6,0,L|399:108,4,17.5
293,50,98148,6,0,P|272:65|246:72,1,52.5000020027161
180,178,98329,2,0,P|159:162|133:155,1,52.5000020027161
25,41,98510,5,0,0:0:0:0:
56,103,98630,5,0,0:0:0:0:
47,172,98750,5,0,0:0:0:0:
119,283,98871,5,0,0:0:0:0:
119,283,98961,2,0,L|125:230,1,52.5000020027161
38,355,99142,5,0,0:0:0:0:
38,355,99232,2,0,P|63:350|89:354,1,52.5000020027161
233,370,99413,6,0,B|304:366|304:366|320:376|320:376|395:372,1,157.500006008148
505,303,99775,2,0,B|458:300|458:300|450:307|450:307|402:304,1,105.000004005432
290,212,100046,5,0,0:0:0:0:
227,252,100136,2,0,B|193:235|193:235|214:210,1,70
413,25,100317,6,0,B|408:124|408:124|418:140|418:140|413:232,1,210.000008010865
294,297,100859,2,0,L|291:284,2,13.125000500679
505,384,101040,6,0,P|456:325|355:330,1,175
225,347,101582,5,0,0:0:0:0:
155,339,101672,1,0,0:0:0:0:
61,384,101763,6,0,L|53:332,1,52.5000020027161
169,243,101943,6,0,L|172:217,1,26.2500010013581
139,144,102124,5,0,0:0:0:0:
129,138,102214,1,0,0:0:0:0:
119,134,102305,1,0,0:0:0:0:
108,132,102395,1,0,0:0:0:0:
37,134,102485,6,0,B|23:121|23:121|38:115,1,35
158,71,102666,1,0,0:0:0:0:
98,205,102757,6,0,B|80:213|80:213|80:197,1,35
158,71,102937,1,0,0:0:0:0:
197,210,103028,6,0,L|171:216,2,26.2500010013581
307,256,103208,6,0,P|350:227|402:225,1,105
512,239,103570,5,0,0:0:0:0:
499,271,103660,1,0,0:0:0:0:
507,304,103750,5,0,0:0:0:0:
454,306,103841,1,0,0:0:0:0:
415,341,103931,6,0,L|392:339,4,17.5
307,256,104202,2,0,L|309:279,1,17.5
233,206,104293,5,0,0:0:0:0:
289,164,104413,5,0,0:0:0:0:
357,180,104534,5,0,0:0:0:0:
227,281,104654,6,0,P|180:263|155:217,1,105.000004005432
228,281,104925,2,0,P|215:284|203:289,1,26.2500010013581
115,304,105016,6,0,L|80:298,1,35
233,206,105196,2,0,L|227:171,1,35
113,70,105377,6,0,P|136:55|163:53,1,52.5000020027161
227,92,105558,1,0,0:0:0:0:
306,5,105648,6,0,P|305:31|293:56,1,52.5000020027161
227,92,105829,1,0,0:0:0:0:
264,205,105919,6,0,P|240:190|225:167,1,52.5000020027161
299,135,106371,1,0,0:0:0:0:
299,135,106461,2,0,L|297:141,3,6.56250025033952
402,189,106642,2,0,L|414:186,1,13.125000500679
501,160,106823,6,0,L|495:212,1,52.5000020027161
390,269,107003,1,0,0:0:0:0:
381,347,107094,2,0,L|376:381,1,35
277,239,107275,6,0,P|299:224|324:219,1,52.5000020027161
390,269,107455,1,0,0:0:0:0:
509,326,107546,2,0,L|456:319,1,52.5000020027161
301,351,107726,6,0,L|240:358,1,61.2500005841255
175,307,107907,1,0,0:0:0:0:
165,302,107997,1,0,0:0:0:0:
155,297,108088,1,0,0:0:0:0:
144,295,108178,1,0,0:0:0:0:
76,311,108269,6,0,L|50:307,1,26.2500010013581
76,230,108449,1,0,0:0:0:0:
6,190,108540,6,0,L|22:169,1,26.2500010013581
76,230,108720,1,0,0:0:0:0:
146,190,108811,6,0,L|150:202,1,13.125000500679
167,158,108901,2,0,L|165:170,1,13.125000500679
250,126,108991,6,0,P|203:146|178:191,1,105
144,295,109353,2,0,L|117:297,1,26.2500010013581
6,190,109534,6,0,L|23:191,4,17.5
114,28,109714,6,0,L|102:132,1,105
23,191,110076,5,0,0:0:0:0:
83,225,110196,5,0,0:0:0:0:
152,213,110317,5,0,0:0:0:0:
223,293,110437,5,0,0:0:0:0:
222,292,110528,2,0,P|241:274|266:266,1,52.5000020027161
380,271,110708,5,0,0:0:0:0:
380,271,110799,2,0,L|371:219,1,52.5000020027161
468,84,110979,6,0,P|448:66|423:58,1,52.5000020027161
347,81,111160,1,0,0:0:0:0:
449,208,111341,5,0,0:0:0:0:
449,208,111431,2,0,P|454:182|449:156,1,52.5000020027161
304,256,111612,6,0,P|262:224|211:216,1,105.000004005432
156,295,111883,6,0,P|109:315|82:359,1,105
0,221,113148,5,0,0:0:0:0:
70,249,113238,1,0,0:0:0:0:
15,141,113329,6,0,L|22:192,1,52.5000020027161
115,79,113510,2,0,L|118:53,1,26.2500010013581
170,155,113690,5,0,0:0:0:0:
179,150,113781,1,0,0:0:0:0:
189,148,113871,1,0,0:0:0:0:
199,148,113961,1,0,0:0:0:0:
273,166,114052,6,0,B|291:161|291:161|287:176,1,35
237,229,114232,1,0,0:0:0:0:
274,292,114323,6,0,B|268:310|268:310|257:298,1,35
237,229,114503,1,0,0:0:0:0:
163,230,114594,6,0,P|163:243|168:255,2,26.2500010013581
27,352,114775,6,0,P|70:324|122:326,1,105.000004005432
190,328,115046,1,0,0:0:0:0:
190,328,115136,6,0,P|155:334|122:326,1,70
278,296,115407,1,0,0:0:0:0:
278,296,115497,2,0,P|273:330|254:360,1,70
274,202,115769,2,0,P|305:217|327:243,1,70
204,143,116040,2,0,P|215:130|231:122,1,35
317,70,116220,6,0,P|281:107|231:122,1,105.000004005432
184,232,116491,2,0,P|137:209|108:166,1,105.000004005432
0,116,116763,2,0,P|12:92|30:74,1,52.5000020027161
175,37,116943,6,0,L|172:55,28,17.5
77,25,117666,5,0,0:0:0:0:
250,72,118028,1,0,0:0:0:0:
92,97,118208,5,0,0:0:0:0:
108,166,118299,1,0,0:0:0:0:
190,123,118389,2,0,L|134:118,1,35
251,163,118570,5,0,0:0:0:0:
268,164,118660,1,0,0:0:0:0:
285,160,118750,1,0,0:0:0:0:
301,153,118841,1,0,0:0:0:0:
331,122,118931,2,0,L|328:156,1,35
482,185,119112,5,0,0:0:0:0:
465,178,119202,1,0,0:0:0:0:
447,177,119293,1,0,0:0:0:0:
430,182,119383,1,0,0:0:0:0:
392,203,119473,2,0,L|395:237,1,35
328,300,119654,5,0,0:0:0:0:
331,317,119744,1,0,0:0:0:0:
385,380,119835,2,0,L|419:383,1,35
260,384,120016,5,0,0:0:0:0:
263,367,120106,1,0,0:0:0:0:
266,350,120196,1,0,0:0:0:0:
322,229,120377,1,0,0:0:0:0:
442,297,120558,5,0,0:0:0:0:
250,254,120919,1,0,0:0:0:0:
248,236,121010,1,0,0:0:0:0:
248,218,121100,5,0,0:0:0:0:
292,164,121190,1,0,0:0:0:0:
356,232,121281,2,0,L|322:229,1,35
419,191,121461,5,0,0:0:0:0:
432,179,121552,1,0,0:0:0:0:
448,172,121642,1,0,0:0:0:0:
465,168,121732,1,0,0:0:0:0:
509,172,121823,2,0,L|512:138,1,35
400,75,122003,5,0,0:0:0:0:
382,73,122094,1,0,0:0:0:0:
339,67,122184,2,0,L|342:101,1,35
223,152,122365,6,0,L|220:118,1,35
164,198,122546,5,0,0:0:0:0:
167,215,122636,1,0,0:0:0:0:
221,278,122726,2,0,L|255:281,1,35
349,325,122907,5,0,0:0:0:0:
346,342,122997,1,0,0:0:0:0:
343,359,123088,1,0,0:0:0:0:
242,345,123269,1,0,0:0:0:0:
424,351,123449,5,0,0:0:0:0:
242,345,123811,1,0,0:0:0:0:
390,210,123991,5,0,0:0:0:0:
406,279,124082,1,0,0:0:0:0:
488,236,124172,2,0,L|453:232,1,35
336,260,124353,5,0,0:0:0:0:
323,247,124443,1,0,0:0:0:0:
306,240,124534,1,0,0:0:0:0:
289,235,124624,1,0,0:0:0:0:
246,238,124714,2,0,L|242:203,1,35
229,113,124895,5,0,0:0:0:0:
216,126,124985,1,0,0:0:0:0:
199,133,125076,1,0,0:0:0:0:
182,138,125166,1,0,0:0:0:0:
139,135,125257,2,0,L|135:170,1,35
174,229,125437,5,0,0:0:0:0:
171,246,125528,1,0,0:0:0:0:
117,309,125618,2,0,L|83:312,1,35
6,215,125799,5,0,0:0:0:0:
3,198,125889,1,0,0:0:0:0:
0,181,125979,1,0,0:0:0:0:
103,240,126160,1,0,0:0:0:0:
0,328,126341,5,0,0:0:0:0:
222,328,126702,1,0,0:0:0:0:
224,310,126793,1,0,0:0:0:0:
224,292,126883,5,0,0:0:0:0:
171,246,126973,1,0,0:0:0:0:
117,309,127064,2,0,L|151:312,1,35
298,265,127244,5,0,0:0:0:0:
294,247,127335,1,0,0:0:0:0:
288,230,127425,1,0,0:0:0:0:
282,213,127516,1,0,0:0:0:0:
267,172,127606,2,0,L|270:138,1,35
343,106,127787,5,0,0:0:0:0:
349,89,127877,1,0,0:0:0:0:
364,48,127967,2,0,L|361:14,1,35
194,101,128148,6,0,L|197:135,1,35
135,179,128329,5,0,0:0:0:0:
138,196,128419,1,0,0:0:0:0:
192,259,128510,2,0,L|226:262,1,35
370,278,128690,5,0,0:0:0:0:
367,295,128781,1,0,0:0:0:0:
364,312,128871,1,0,0:0:0:0:
282,213,129052,1,0,0:0:0:0:
446,319,129232,5,0,0:0:0:0:
271,365,129594,2,0,L|268:331,1,35
219,279,129775,5,0,0:0:0:0:
222,261,129865,1,0,0:0:0:0:
282,213,129955,2,0,L|316:216,5,35
178,196,130497,6,0,L|175:162,5,35
289,136,131040,6,0,L|292:102,3,35
160,18,131401,6,0,L|126:15,4,35
244,31,131943,1,0,0:0:0:0:
56,66,132124,5,0,0:0:0:0:
174,161,132485,2,0,L|177:195,1,35
120,240,132666,5,0,0:0:0:0:
117,258,132757,1,0,0:0:0:0:
57,306,132847,2,0,L|23:303,5,35
200,330,133389,6,0,L|203:296,3,35
37,196,133750,6,0,L|40:230,1,35
222,134,133931,6,0,L|219:168,3,35
6,48,134293,6,0,L|40:45,4,35
109,3,134835,1,0,0:0:0:0:
33,121,135016,5,0,0:0:0:0:
219,169,135377,6,0,L|221:142,1,26.2500010013581
183,87,135558,5,0,0:0:0:0:
181,74,135648,1,0,0:0:0:0:
218,29,135738,2,0,L|244:31,5,26.2500010013581
109,3,136281,6,0,L|111:30,5,26.2500010013581
33,121,136823,6,0,L|35:94,3,26.2500010013581
192,171,137184,6,0,L|218:168,4,26.2500010013581
117,181,137726,1,0,0:0:0:0:
290,163,137907,5,0,0:0:0:0:
181,74,138269,2,0,L|179:101,1,26.2500010013581
218,168,138449,5,0,0:0:0:0:
220,181,138540,1,0,0:0:0:0:
183,226,138630,2,0,L|156:223,5,26.2500010013581
301,262,139172,6,0,L|299:235,3,26.2500010013581
221,284,139534,6,0,L|219:311,1,26.2500010013581
334,338,139714,6,0,L|332:365,3,26.2500010013581
208,382,140076,6,0,L|235:380,4,26.2500010013581
133,383,140618,1,0,0:0:0:0:
1,182,140799,6,0,B|81:160|74:207|138:188,1,140
114,122,141702,6,0,L|111:102,1,17.5
203,152,141883,2,0,B|282:174|275:127|339:146,2,140
36,339,143690,6,0,P|37:263|109:286,1,175
124,356,144684,2,0,L|107:359,1,17.5
210,241,145136,6,0,P|317:163|276:289,1,350
209,316,146130,2,0,L|167:307,1,35
512,130,146582,6,0,B|432:152|439:105|375:124,1,140
399,190,147485,6,0,L|402:210,1,17.5
310,160,147666,2,0,B|230:137|237:184|173:165,2,140
458,268,149473,6,0,P|469:244|453:265,2,70
402,330,150377,6,0,P|405:324|402:330,2,8.75
239,271,150919,6,0,P|221:223|257:259,2,140
295,329,151823,6,0,P|292:322|295:329,2,13.125000500679
1,202,152365,6,0,B|81:224|74:177|138:196,1,140
114,262,153269,6,0,L|111:282,1,17.5
203,232,153449,2,0,B|282:210|275:257|339:238,2,140
71,86,155257,6,0,B|17:49|64:2|64:2|95:32|134:31,1,175
191,59,156250,2,0,P|194:50|195:41,1,17.5
510,63,156702,6,0,B|464:39|400:51|354:128|354:128|344:39|289:8|234:13,1,350
191,8,157696,2,0,P|190:25|195:42,1,35
511,202,158148,6,0,B|431:224|438:177|374:196,1,140
398,262,159052,6,0,L|401:282,1,17.5
309,232,159232,2,0,B|230:210|237:257|173:238,2,140
473,146,161040,6,0,B|508:110|493:64|452:52|452:52|435:16|392:11|357:32|353:67|353:67|323:49|281:64|271:98|271:98|244:103|244:103|253:132|283:152|330:141|330:141|354:172|402:163,1,560
473,146,163208,5,0,0:0:0:0:
354,224,163389,2,0,L|360:294,1,70
413,339,163931,5,0,0:0:0:0:
361,295,164654,5,0,0:0:0:0:
348,364,165377,1,0,0:0:0:0:
477,364,165738,5,0,0:0:0:0:
464,295,166461,1,0,0:0:0:0:
333,231,166823,5,0,0:0:0:0:
293,279,167546,1,0,0:0:0:0:
230,281,168269,5,0,0:0:0:0:
254,206,168630,1,0,0:0:0:0:
109,302,169353,5,0,0:0:0:0:
50,249,169714,1,0,0:0:0:0:
147,159,170076,6,0,L|157:228,1,70
132,85,170618,5,0,0:0:0:0:
415,347,171160,5,0,0:0:0:0:
318,257,171522,6,0,L|307:326,1,70
333,183,172064,5,0,0:0:0:0:
243,384,172425,1,0,0:0:0:0:
175,348,172606,6,0,P|197:321|229:308,1,70
263,217,173148,2,0,P|285:243|317:256,1,70
392,236,173690,1,0,0:0:0:0:
110,46,174052,6,0,P|132:72|164:85,1,70
198,176,174594,2,0,P|220:149|252:136,1,70
333,183,175136,2,0,L|371:178,1,35
450,168,175497,5,0,0:0:0:0:
333,110,175859,5,0,0:0:0:0:
339,82,176582,1,0,0:0:0:0:
441,54,176943,5,0,0:0:0:0:
246,108,177305,5,0,0:0:0:0:
252,136,178028,1,0,0:0:0:0:
20,84,178389,5,0,0:0:0:0:
120,29,178750,2,0,L|118:64,1,35
46,152,179112,5,0,0:0:0:0:
200,122,179473,2,0,L|196:161,1,35
47,224,179835,5,0,0:0:0:0:
226,264,180196,1,0,0:0:0:0:
2,282,180558,5,0,0:0:0:0:
211,384,180919,1,0,0:0:0:0:
4,359,181281,6,0,B|79:330|75:382|149:356,1,140
247,277,181823,5,0,0:0:0:0:
247,277,181913,2,0,P|213:269|179:277,1,70
111,278,182184,2,0,P|144:285|178:277,1,70
394,300,182546,5,0,0:0:0:0:
422,279,182636,1,0,0:0:0:0:
458,278,182726,2,0,B|383:249|387:301|313:275,1,140
215,196,183269,5,0,0:0:0:0:
215,196,183359,2,0,P|248:188|282:196,1,70
351,197,183630,2,0,P|317:204|283:196,1,70
103,181,183901,1,0,0:0:0:0:
80,207,183991,1,0,0:0:0:0:
45,211,184082,1,0,0:0:0:0:
3,203,184172,6,0,B|78:174|74:226|148:200,1,140
246,121,184714,5,0,0:0:0:0:
246,121,184805,2,0,P|212:113|178:121,1,70
110,122,185076,2,0,P|143:129|177:121,1,70
373,170,185437,5,0,0:0:0:0:
407,130,185528,1,0,0:0:0:0:
459,128,185618,2,0,B|384:99|388:151|314:125,1,140
216,46,186160,5,0,0:0:0:0:
216,46,186250,2,0,P|249:38|283:46,1,70
352,47,186522,2,0,P|318:54|284:46,1,70
246,121,186793,1,0,0:0:0:0:
249,137,186883,1,0,0:0:0:0:
252,154,186973,1,0,0:0:0:0:
196,205,187064,5,0,0:0:0:0:
330,186,187244,2,0,L|324:220,1,35,2|0,0:0|0:0,0:0:0:0:
340,113,187425,1,0,0:0:0:0:
412,278,187606,2,0,L|377:283,1,35,2|0,0:0|0:0,0:0:0:0:
196,205,187787,2,0,L|161:210,1,35,2|0,0:0|0:0,0:0:0:0:
76,225,187967,1,0,0:0:0:0:
79,207,188058,1,0,0:0:0:0:
82,191,188148,1,0,0:0:0:0:
175,95,188329,2,0,L|169:129,1,35,2|0,0:0|0:0,0:0:0:0:
0,204,188510,5,0,0:0:0:0:
79,299,188688,2,0,L|113:293,1,35,2|0,0:0|0:0,0:0:0:0:
6,310,188868,1,0,0:0:0:0:
223,363,189047,2,0,L|228:328,1,35,2|0,0:0|0:0,0:0:0:0:
190,239,189227,2,0,L|195:204,1,35,2|0,0:0|0:0,0:0:0:0:
252,154,189407,1,0,0:0:0:0:
270,151,189497,1,0,0:0:0:0:
286,148,189586,2,0,L|284:156,1,8.75
340,274,189766,2,0,L|305:269,1,35,2|0,0:0|0:0,0:0:0:0:
194,204,189946,6,0,L|185:202,1,8.75
281,113,190125,2,0,L|286:148,1,35,2|0,0:0|0:0,0:0:0:0:
271,41,190304,1,0,0:0:0:0:
391,204,190482,2,0,L|356:199,1,35,2|0,0:0|0:0,0:0:0:0:
228,208,190661,2,0,L|193:203,1,35,2|0,0:0|0:0,0:0:0:0:
119,160,190839,1,0,0:0:0:0:
116,144,190929,1,0,0:0:0:0:
113,126,191018,1,0,0:0:0:0:
11,72,191197,2,0,L|46:67,1,35,2|0,0:0|0:0,0:0:0:0:
195,124,191375,5,0,0:0:0:0:
31,209,191554,2,0,L|26:244,1,35,2|0,0:0|0:0,0:0:0:0:
42,141,191732,1,0,0:0:0:0:
16,315,191911,2,0,L|51:310,1,35,2|0,0:0|0:0,0:0:0:0:
161,370,192089,2,0,L|196:365,2,35,2|0|0,0:0|0:0|0:0,0:0:0:0:
128,337,192357,2,0,L|145:345,1,13.125000500679
140,292,192447,2,0,L|149:300,1,13.125000500679
178,267,192536,2,0,L|182:279,1,13.125000500679
222,258,192625,2,0,L|222:275,1,17.5,2|0,0:0|0:0,0:0:0:0:
265,270,192714,2,0,L|259:282,1,13.125000500679
320,312,192804,5,0,0:0:0:0:
436,286,192984,2,0,L|401:281,1,35,2|0,0:0|0:0,0:0:0:0:
512,301,193161,1,0,0:0:0:0:
389,384,193338,2,0,L|384:349,1,35,2|0,0:0|0:0,0:0:0:0:
488,232,193515,2,0,L|483:197,1,35,2|0,0:0|0:0,0:0:0:0:
433,146,193692,1,0,0:0:0:0:
430,129,193780,1,0,0:0:0:0:
427,112,193869,1,0,0:0:0:0:
512,32,194046,2,0,L|477:27,1,35,2|0,0:0|0:0,0:0:0:0:
354,139,194223,5,0,0:0:0:0:
254,83,194399,2,0,L|259:118,1,35,2|0,0:0|0:0,0:0:0:0:
244,10,194576,1,0,0:0:0:0:
346,40,194752,2,0,L|311:35,1,35,2|0,0:0|0:0,0:0:0:0:
187,128,194929,2,0,L|152:123,1,35,2|0,0:0|0:0,0:0:0:0:
293,182,195105,1,0,0:0:0:0:
296,200,195194,1,0,0:0:0:0:
299,216,195282,2,0,L|290:214,1,8.75
162,248,195458,2,0,L|157:213,1,35,2|0,0:0|0:0,0:0:0:0:
308,294,195635,6,0,L|306:303,1,8.75
179,355,195811,2,0,L|144:350,1,35,2|0,0:0|0:0,0:0:0:0:
249,367,195988,1,0,0:0:0:0:
90,260,196165,2,0,L|95:295,1,35,2|0,0:0|0:0,0:0:0:0:
224,187,196341,2,0,L|229:222,1,35,2|0,0:0|0:0,0:0:0:0:
201,287,196518,1,0,0:0:0:0:
184,284,196606,1,0,0:0:0:0:
167,281,196694,2,0,L|172:316,1,35,2|0,0:0|0:0,0:0:0:0:
38,337,196871,2,0,L|3:332,1,35,2|0,0:0|0:0,0:0:0:0:
157,213,197047,5,0,0:0:0:0:
77,153,197222,2,0,L|82:188,1,35,2|0,0:0|0:0,0:0:0:0:
65,82,197397,1,0,0:0:0:0:
25,238,197573,5,2,0:0:0:0:
54,258,197661,1,0,0:0:0:0:
90,260,197748,1,2,0:0:0:0:
296,269,197924,5,0,0:0:0:0:
283,237,198011,1,0,0:0:0:0:
256,217,198099,1,0,0:0:0:0:
224,205,198187,1,0,0:0:0:0:
189,202,198275,1,2,0:0:0:0:
157,213,198362,1,0,0:0:0:0:
89,259,198450,6,0,P|115:283|149:292,1,70
216,310,198624,2,0,P|182:318|148:311,1,70
309,355,198798,6,0,P|334:331|368:322,1,70
435,304,198973,2,0,P|401:295|367:302,1,70
91,355,199147,6,0,P|124:362|158:353,1,70
225,336,199322,2,0,P|200:360|167:371,1,70
321,266,199496,6,0,P|354:258|388:267,1,70
455,285,199671,2,0,P|430:260|397:249,1,70
128,183,199845,6,0,P|138:215|163:240,1,70
211,289,200020,2,0,P|177:279|151:256,1,70
294,384,200194,6,0,P|319:360|353:351,1,70
419,333,200369,2,0,P|385:324|351:331,1,70
24,261,200543,6,0,P|49:284|83:293,1,70
148,311,200718,2,0,P|114:319|80:312,1,70
303,286,200892,6,0,P|336:278|370:287,1,70
435,304,201067,2,0,P|410:279|377:268,1,70
196,356,201241,6,0,P|186:322|163:296,1,70
90,275,201414,2,0,P|122:285|147:310,1,70
270,345,201587,6,0,P|279:311|302:285,1,70
376,264,201761,2,0,P|343:274|318:299,1,70
147,310,201934,6,0,P|146:275|131:244,1,70
65,204,202108,2,0,P|94:222|111:252,1,70
318,299,202281,6,0,P|318:264|333:233,1,70
399,193,202454,2,0,P|369:211|352:241,1,70
111,252,202628,6,0,P|119:218|112:184,1,70
59,128,202802,2,0,P|82:153|91:187,1,70
352,241,202974,6,0,P|343:207|350:173,1,70
402,117,203147,2,0,P|378:142|369:176,1,70
91,187,203319,6,0,P|108:156|110:122,1,70
72,53,203492,2,0,P|87:83|87:118,1,70
369,176,203664,6,0,P|351:145|349:111,1,70
385,43,203836,2,0,P|369:73|369:108,1,70
504,327,204009,5,0,0:0:0:0:
477,304,204093,1,0,0:0:0:0:
444,291,204179,1,0,0:0:0:0:
407,292,204265,1,0,0:0:0:0:
374,303,204351,5,0,0:0:0:0:
337,325,204438,1,0,0:0:0:0:
296,334,204524,1,0,0:0:0:0:
254,330,204610,1,0,0:0:0:0:
220,305,204696,5,0,0:0:0:0:
178,279,204782,1,0,0:0:0:0:
131,263,204869,1,0,0:0:0:0:
82,261,204955,1,0,0:0:0:0:
35,274,205041,5,0,0:0:0:0:
67,228,205127,1,0,0:0:0:0:
121,214,205213,1,0,0:0:0:0:
177,216,205300,1,0,0:0:0:0:
246,239,205386,6,0,P|249:204|235:172,1,70
340,298,205558,2,0,P|372:285|406:291,1,70
285,168,205731,6,0,P|256:147|222:144,1,70
397,242,205903,2,0,P|423:263|436:296,1,70
243,98,206075,6,0,P|211:112|190:140,1,70
473,263,206248,2,0,P|467:297|445:324,1,70
161,99,206420,6,0,P|157:133|171:165,1,70
492,339,206593,2,0,P|459:351|425:345,1,70
219,384,206765,5,0,0:0:0:0:
197,335,206851,1,0,0:0:0:0:
200,282,206938,1,0,0:0:0:0:
227,239,207024,1,0,0:0:0:0:
275,294,207110,5,0,0:0:0:0:
329,280,207196,1,0,0:0:0:0:
368,239,207282,1,0,0:0:0:0:
374,183,207369,1,0,0:0:0:0:
303,174,207455,5,0,0:0:0:0:
278,119,207541,1,0,0:0:0:0:
285,60,207627,1,0,0:0:0:0:
328,20,207713,1,0,0:0:0:0:
376,98,207800,5,0,0:0:0:0:
438,101,207886,1,0,0:0:0:0:
491,68,207972,1,0,0:0:0:0:
510,8,208058,1,0,0:0:0:0:
417,14,208144,5,0,0:0:0:0:
87,17,209007,5,0,0:0:0:0:
96,50,209093,1,0,0:0:0:0:
167,71,209179,5,0,0:0:0:0:
165,95,209265,1,0,0:0:0:0:
116,133,209351,5,0,0:0:0:0:
119,150,209438,1,0,0:0:0:0:
174,212,209524,5,0,0:0:0:0:
130,233,209610,1,0,0:0:0:0:
81,222,209696,2,0,P|97:243|120:255,1,52.5000020027161
321,313,209868,5,0,0:0:0:0:
273,300,209955,1,0,0:0:0:0:
227,317,210041,1,0,0:0:0:0:
193,352,210127,2,0,L|200:300,1,52.5000020027161
328,190,210299,5,0,0:0:0:0:
252,171,210386,2,0,L|259:222,1,52.5000020027161
237,79,210558,5,0,0:0:0:0:
404,163,210730,6,0,P|391:140|370:124,1,52.5000020027161
311,89,210903,2,0,P|337:88|360:99,1,52.5000020027161
411,240,211075,5,0,0:0:0:0:
459,219,211161,1,0,0:0:0:0:
477,169,211248,1,0,0:0:0:0:
325,49,211420,5,0,0:0:0:0:
303,37,211506,2,0,L|310:88,1,52.5000020027161
442,138,211679,5,0,0:0:0:0:
484,117,211765,2,0,L|476:168,1,52.5000020027161
511,348,211937,5,0,0:0:0:0:
469,315,212024,1,0,0:0:0:0:
422,310,212110,1,0,0:0:0:0:
381,321,212196,1,0,0:0:0:0:
349,349,212282,2,0,L|297:341,1,52.5000020027161
123,356,212455,5,0,0:0:0:0:
138,322,212541,1,0,0:0:0:0:
171,307,212627,1,0,0:0:0:0:
343,245,212799,5,0,0:0:0:0:
318,270,212886,2,0,L|310:218,1,52.5000020027161
161,148,213058,5,0,0:0:0:0:
202,186,213144,2,0,L|209:134,1,52.5000020027161
409,94,213317,5,0,0:0:0:0:
374,107,213403,1,0,0:0:0:0:
342,107,213489,1,0,0:0:0:0:
317,100,213575,2,0,P|271:64|222:61,1,105.000004005432
109,9,213834,2,0,P|132:20|158:21,1,52.5000020027161
309,0,214006,5,0,0:0:0:0:
180,166,214179,5,0,0:0:0:0:
202,186,214265,2,0,L|209:134,1,52.5000020027161
359,230,214437,5,0,0:0:0:0:
318,270,214524,2,0,L|310:218,1,52.5000020027161
191,332,214696,6,0,P|155:295|105:282,1,105.000004005432
81,294,214955,1,0,0:0:0:0:
68,306,215041,5,0,0:0:0:0:
80,273,215127,1,0,0:0:0:0:
70,239,215213,1,0,0:0:0:0:
235,262,215386,5,0,0:0:0:0:
43,147,215558,5,0,0:0:0:0:
27,168,215644,2,0,L|79:161,1,52.5000020027161
262,192,215817,5,0,0:0:0:0:
295,165,215903,2,0,L|243:158,1,52.5000020027161
86,83,216075,6,0,P|99:60|120:44,1,52.5000020027161
179,9,216248,2,0,P|153:8|130:19,1,52.5000020027161
79,160,216420,5,0,0:0:0:0:
31,139,216506,1,0,0:0:0:0:
13,89,216592,1,0,0:0:0:0:
246,37,216765,5,0,0:0:0:0:
160,121,216937,6,0,L|158:116,2,4.375
225,151,217024,2,0,L|230:117,2,35
365,17,217196,5,0,0:0:0:0:
322,53,217282,2,0,L|314:1,1,52.5000020027161
512,103,217455,6,0,P|502:97|488:93,1,26.25
367,136,217799,5,0,0:0:0:0:
329,136,217886,1,0,0:0:0:0:
297,117,217972,1,0,0:0:0:0:
460,0,218144,5,0,0:0:0:0:
452,35,218230,1,0,0:0:0:0:
413,87,218317,5,0,0:0:0:0:
442,148,218403,2,0,L|435:212,1,52.5000020027161
285,281,218575,5,0,0:0:0:0:
312,256,218661,2,0,L|306:203,1,52.5000020027161
507,267,218834,6,0,P|486:283|461:290,1,52.5000020027161
359,317,219092,6,0,L|255:306,1,105.000004005432
195,367,219351,2,0,L|142:372,1,52.5000020027161
42,212,219524,6,0,L|146:223,1,105.000004005432
73,337,219782,6,0,P|61:313|60:287,1,52.5000020027161
206,185,219955,5,0,0:0:0:0:
238,169,220041,2,0,P|237:195|225:218,1,52.5000020027161
9,86,220213,6,0,L|6:68,12,17.5
108,5,220558,6,0,P|112:56|83:99,1,105.000004005432
35,159,220817,2,0,L|41:211,1,52.5000020027161
205,336,221075,5,0,0:0:0:0:
133,368,221161,2,0,P|128:316|157:273,1,105.000004005432
234,264,221420,2,0,L|286:270,1,52.5000020027161
498,286,221592,5,0,0:0:0:0:
438,320,221679,1,0,0:0:0:0:
385,320,221765,1,0,0:0:0:0:
350,307,221851,2,0,L|356:254,1,52.5000020027161
183,170,222024,5,0,0:0:0:0:
217,192,222110,2,0,L|210:139,1,52.5000020027161
399,195,222282,5,0,0:0:0:0:
451,7,222455,6,0,L|449:20,4,13.125000500679
512,82,222627,5,0,0:0:0:0:
479,99,222713,1,0,0:0:0:0:
442,103,222799,1,0,0:0:0:0:
406,93,222886,1,0,0:0:0:0:
378,68,222972,6,0,L|387:120,1,52.5
341,245,223317,5,0,0:0:0:0:
319,214,223403,1,0,0:0:0:0:
322,177,223489,1,0,0:0:0:0:
480,193,223661,5,0,0:0:0:0:
385,320,223834,5,0,0:0:0:0:
367,352,223920,2,0,L|419:347,1,52.5000020027161
240,230,224092,5,0,0:0:0:0:
258,262,224179,2,0,L|205:257,1,52.5000020027161
115,373,224351,5,0,0:0:0:0:
108,336,224437,1,0,0:0:0:0:
118,305,224524,1,0,0:0:0:0:
138,288,224610,2,0,L|133:235,1,52.5000020027161
257,156,224782,5,0,0:0:0:0:
274,136,224868,2,0,P|251:123|225:120,1,52.5000020027161
0,147,225041,5,0,0:0:0:0:
151,77,225213,5,0,0:0:0:0:
123,107,225299,2,0,L|127:54,1,52.5000020027161
14,32,225472,5,0,0:0:0:0:
0,23,225558,2,0,P|22:10|48:7,1,52.5000020027161
82,186,225730,6,0,B|157:179|157:179|174:184|174:184|242:178,1,157.500006008148
321,210,226075,5,0,0:0:0:0:
332,175,226161,1,0,0:0:0:0:
321,139,226248,1,0,0:0:0:0:
147,252,226420,5,0,0:0:0:0:
292,352,226592,5,0,0:0:0:0:
258,368,226679,2,0,L|263:315,1,52.5000020027161
147,252,226851,5,0,0:0:0:0:
181,268,226937,2,0,L|175:215,1,52.5000020027161
321,139,227110,6,0,P|301:121|276:114,1,52.5000020027161
207,99,227282,2,0,P|231:89|256:91,1,52.5000020027161
351,207,227455,5,0,0:0:0:0:
390,171,227541,1,0,0:0:0:0:
390,119,227627,1,0,0:0:0:0:
238,178,227799,5,0,0:0:0:0:
297,329,227972,5,0,0:0:0:0:
314,311,228058,2,0,L|279:314,1,35
147,252,228230,5,0,0:0:0:0:
113,238,228317,2,0,B|207:267|190:203|288:234,1,175
238,178,228489,5,0,0:0:0:0:
496,184,228834,6,0,L|469:183,1,26.2500010013581
489,199,229006,2,0,L|462:199,1,26.2500010013581
399,178,229179,6,0,L|359:176,1,35
393,204,229351,2,0,L|353:205,1,35
296,172,229524,6,0,L|236:170,1,43.75
287,206,229696,2,0,L|227:207,1,43.75
0,172,229868,6,0,P|26:175|52:172,1,52.5000020027161
17,208,230041,2,0,P|43:205|69:208,1,52.5000020027161
116,149,230213,6,0,P|143:136|167:118,1,61.2500005841255
132,238,230386,2,0,P|159:251|183:269,1,61.2500005841255
216,67,230558,6,0,P|235:37|246:4,1,70
229,322,230730,2,0,P|248:351|259:384,1,70
489,162,230903,5,0,0:0:0:0:
462,140,230989,1,0,0:0:0:0:
427,141,231075,2,0,L|434:175,1,35
289,275,231248,6,0,L|303:206,1,70
260,139,231506,1,0,0:0:0:0:
76,204,231592,6,0,B|95:265|174:277|221:243|221:243|230:206,1,210
296,71,231937,2,0,P|262:61|228:67,1,70
89,126,232110,5,0,0:0:0:0:
36,134,232196,2,0,B|3:101|3:101|62:95|100:137,1,140
159,38,232455,2,0,P|153:63|159:89,1,52.5000020027161
303,206,232627,2,0,L|372:198,1,70
499,65,232799,6,0,B|387:26|400:107|294:70,1,210
219,194,233144,2,0,P|224:168|218:142,1,52.5000020027161
90,36,233317,2,0,L|20:28,1,70
103,172,233489,5,0,0:0:0:0:
131,168,233575,2,0,L|148:166,8,17.5
12,145,233834,6,0,P|6:170|12:196,1,52.5000020027161
109,347,234006,5,0,0:0:0:0:
144,314,234092,1,0,0:0:0:0:
185,304,234179,1,0,0:0:0:0:
219,311,234265,1,0,0:0:0:0:
303,382,234351,6,0,P|244:298|143:288,1,210
9,269,234696,2,0,L|16:338,1,70
80,181,234868,5,0,0:0:0:0:
0,172,234955,2,0,P|39:115|116:109,1,140
207,183,235213,2,0,P|239:197|274:197,1,70
481,167,235386,6,0,B|499:124|499:124|406:136,1,140
317,10,235644,2,0,B|360:-8|360:-8|347:84,1,140
277,248,235903,6,0,P|270:223|273:197,1,52.5000020027161
484,278,236075,2,0,P|417:261|354:288,1,140
170,352,236334,6,0,B|213:370|213:370|200:277,1,140
55,217,236592,2,0,P|80:210|106:213,1,52.5000020027161
286,327,236765,5,0,0:0:0:0:
95,358,236937,2,0,L|98:323,1,35
217,102,237110,6,0,B|209:68|152:47|152:47|112:117|184:173,1,210
276,247,237455,2,0,L|345:251,1,70
452,142,237627,5,0,0:0:0:0:
512,189,237713,2,0,B|443:210|446:156|377:174,1,140
208,272,237972,2,0,P|201:246|207:221,1,52.5000020027161
387,96,238144,2,0,L|391:26,1,70
223,2,238317,6,0,B|160:0|139:64|139:64|166:157,1,210
277,297,238661,2,0,P|282:272|276:247,1,52.5000020027161
85,148,238834,2,0,L|15:144,1,70
162,278,239006,5,0,0:0:0:0:
190,274,239092,2,0,L|207:272,8,17.5
99,376,239351,6,0,P|92:350|97:325,1,52.5000020027161
189,195,239524,6,0,L|193:125,1,70
326,247,239696,2,0,P|300:240|275:245,1,52.5000020027161
56,259,239868,6,0,B|39:244|3:230|3:230|87:210|146:265,1,210
271,352,240213,5,0,0:0:0:0:
305,344,240299,1,0,0:0:0:0:
374,357,240386,5,0,0:0:0:0:
435,322,240472,2,0,P|367:338|303:314,1,140
172,382,240730,2,0,P|163:357|166:331,1,52.5000020027161
295,244,240903,2,0,L|291:174,1,70
142,261,241075,5,0,0:0:0:0:
89,269,241161,2,0,B|56:236|56:236|115:230|153:272,1,140
218,142,241420,2,0,P|209:166|212:192,1,52.5000020027161
365,261,241592,6,0,B|434:242|434:242|416:176,1,140
247,0,241851,2,0,B|229:65|229:65|298:84,1,140
460,63,242110,2,0,B|459:28|459:28|423:28,1,70
291,170,242282,5,0,0:0:0:0:
375,83,242455,2,0,L|372:121,1,35
332,292,242627,6,0,B|433:331|461:231|461:231|415:239,1,210
218,141,242972,2,0,P|211:176|223:208,1,70
138,337,243144,5,0,0:0:0:0:
78,301,243230,2,0,P|147:297|207:331,1,140
343,215,243489,2,0,P|316:215|292:225,1,52.5000020027161
117,113,243661,2,0,L|122:182,1,70
4,337,243834,6,0,B|116:376|103:295|209:332,1,210
335,292,244179,2,0,P|335:318|325:342,1,52.5000020027161
207,208,244351,2,0,L|202:139,1,70
300,69,244524,5,0,0:0:0:0:
272,65,244610,2,0,L|255:63,8,17.5
368,31,244868,6,0,P|378:55|378:82,1,52.5000020027161
207,208,245041,5,0,0:0:0:0:
172,175,245127,1,0,0:0:0:0:
131,165,245214,1,0,0:0:0:0:
97,172,245300,1,0,0:0:0:0:
13,243,245386,6,0,P|72:159|173:149,1,210
330,142,245730,2,0,L|323:211,1,70
445,42,245903,5,0,0:0:0:0:
501,98,245989,2,0,P|434:116|371:71,1,140
272,65,246248,2,0,P|237:65|205:79,1,70
0,171,246420,6,0,B|-18:128|-18:128|75:140,1,140
156,6,246679,2,0,B|113:-12|113:-12|125:81,1,140
265,115,246937,6,0,P|273:91|271:65,1,52.5000020027161
102,218,247110,2,0,P|169:201|232:228,1,140
383,282,247368,6,0,B|340:300|340:300|352:207,1,140
488,145,247627,2,0,P|463:136|437:138,1,52.5000020027161
225,183,247799,6,0,L|231:227,1,43.75
340,300,247972,2,0,L|335:334,1,35
146,308,248144,6,0,B|239:321|239:321|238:331|238:331|239:321|239:321|335:334,1,210
420,200,248489,2,0,B|326:213|326:213|327:223|327:223|326:213|326:213|230:226,1,210
75,93,248834,6,0,B|129:100|129:100|128:110|128:110|129:100|129:100|194:109,1,140
224,0,249092,2,0,B|244:51|244:51|235:54|235:54|244:51|244:51|269:112,1,140
361,103,249351,2,0,B|342:126|342:126|337:122|337:122|342:126|342:126|325:148,1,70
99,362,249524,6,0,B|85:268|85:268|75:269|75:269|85:268|85:268|72:172,1,210
224,0,249868,2,0,B|210:93|210:93|200:92|200:92|210:93|210:93|197:189,1,210
332,375,250213,6,0,B|324:320|324:320|314:321|314:321|324:320|324:320|315:255,1,140
462,196,250471,2,0,B|410:175|410:175|407:184|407:184|410:175|410:175|349:150,1,140
341,24,250730,2,0,B|317:42|317:42|321:47|321:47|317:42|317:42|295:59,1,70
196,74,250903,2,0,L|200:92,2,17.5
103,126,250989,6,0,P|128:149|162:157,1,70
291,191,251161,5,0,0:0:0:0:
248,188,251248,1,0,0:0:0:0:
211,208,251334,1,0,0:0:0:0:
188,243,251420,1,0,0:0:0:0:
183,284,251506,5,0,0:0:0:0:
141,257,251593,1,0,0:0:0:0:
94,242,251679,1,0,0:0:0:0:
45,250,251765,1,0,0:0:0:0:
0,270,251851,5,0,0:0:0:0:
24,219,251938,1,0,0:0:0:0:
48,169,252024,2,0,L|39:99,1,70
1,40,252196,5,0,0:0:0:0:
0,40,252282,2,0,P|50:7|110:14,1,122.5
165,148,252972,6,0,B|219:141|219:141|218:131|218:131|219:141|219:141|284:132,1,140
314,241,253230,2,0,B|334:190|334:190|325:187|325:187|334:190|334:190|359:129,1,140
451,138,253489,2,0,B|432:115|432:115|427:119|427:119|432:115|432:115|415:93,1,70
253,16,253661,6,0,P|245:41|250:66,1,52.5
211,219,254006,6,0,L|245:212,1,35
