osu file format v14

[General]
AudioFilename: dreamless wanderer.mp3
AudioLeadIn: 0
PreviewTime: 208144
Countdown: 0
SampleSet: Normal
StackLeniency: 0.3
Mode: 2
LetterboxInBreaks: 0
EpilepsyWarning: 1
WidescreenStoryboard: 1

[Editor]
Bookmarks: 111160,132666
DistanceSpacing: 2
BeatDivisor: 4
GridSize: 8
TimelineZoom: 2.599999

[Metadata]
Title:flying in the flow of deep-sea
TitleUnicode:flying in the flow of deep-sea
Artist:Camellia
ArtistUnicode:かめりあ
Creator:Benny-
Version:water
Source:
Tags:planet shaper planet//shaper kamel cametek c88 dubstep electro kamelcamellia
BeatmapID:1193693
BeatmapSetID:564670

[Difficulty]
HPDrainRate:0
CircleSize:0
OverallDifficulty:9.7
ApproachRate:9.7
SliderMultiplier:1.65
SliderTickRate:1

[Events]
//Background and Video events
0,0,"ethereal.jpg",0,0
//Break Periods
//Storyboard Layer 0 (Background)
//Storyboard Layer 1 (Fail)
//Storyboard Layer 2 (Pass)
//Storyboard Layer 3 (Foreground)
//Storyboard Sound Samples

[TimingPoints]
2004,361.44578313253,4,2,1,10,1,0
2004,-200,4,2,1,10,0,0
4534,-200,4,2,1,10,0,0
5979,-200,4,2,1,10,0,0
8510,-200,4,2,1,13,0,0
9955,-200,4,2,1,17,0,0
10678,-200,4,2,1,17,0,0
11401,-200,4,2,1,20,0,0
14112,-200,4,2,1,23,0,0
16100,-200,4,2,1,27,0,0
22606,-200,4,2,1,27,0,0
22967,-200,4,2,1,30,0,0
24413,-200,4,2,1,35,0,0
25136,-133.333333333333,4,2,1,55,0,0
29473,-133.333333333333,4,2,1,35,0,0
30919,-133.333333333333,4,2,1,55,0,0
35257,-133.333333333333,4,2,1,35,0,0
36702,-133.333333333333,4,2,1,55,0,0
41040,-133.333333333333,4,2,1,35,0,0
42485,-133.333333333333,4,2,1,55,0,0
44654,-133.333333333333,4,2,1,40,0,0
46100,-133.333333333333,4,2,1,50,0,0
47546,-133.333333333333,4,2,2,60,0,0
48269,-50,4,2,1,50,0,0
59112,-133.333333333333,4,2,1,50,0,0
59835,-50,4,2,1,50,0,0
63088,-100,4,2,1,50,0,0
64172,-100,4,2,1,30,0,0
65618,-100,4,2,1,40,0,0
67064,-111.111111111111,4,2,1,50,0,0
67787,-111.111111111111,4,2,1,60,0,0
68510,-111.111111111111,4,2,1,70,0,0
71401,-100,4,1,1,60,0,0
81522,-66.6666666666667,4,1,1,60,0,0
82967,-142.857142857143,4,2,1,50,0,0
83690,-100,4,1,1,60,0,0
88750,-133.333333333333,4,1,1,60,0,0
89473,-100,4,1,1,60,0,0
90016,-133.333333333333,4,1,1,60,0,0
90919,-100,4,1,1,60,0,0
93088,-100,4,1,1,40,0,0
93449,-100,4,1,1,50,0,0
93811,-100,4,1,1,60,0,0
94172,-200,4,1,1,65,0,0
94534,-58.8235294117647,4,1,1,70,0,0
96702,-100,4,1,1,70,0,0
101040,-100,4,1,1,60,0,0
112244,-100,4,2,0,60,0,0
112606,-100,4,1,1,60,0,0
117666,-125,4,2,1,50,0,0
132124,-125,4,2,1,50,0,0
135016,-125,4,2,1,50,0,0
137907,-125,4,2,1,50,0,0
140799,-250,4,2,1,55,0,0
145136,-250,4,2,1,35,0,0
146582,-250,4,2,1,55,0,0
150919,-250,4,2,1,35,0,0
152365,-250,4,2,1,55,0,0
156702,-250,4,2,1,35,0,0
158148,-250,4,2,1,55,0,0
162485,-250,4,2,1,35,0,0
163931,-50,4,2,1,40,0,0
174775,-100,4,2,1,40,0,0
175497,-50,4,2,1,40,0,0
179835,-142.857142857143,4,2,1,50,0,0
181281,-142.857142857143,4,1,1,30,0,0
184172,-142.857142857143,4,1,1,40,0,0
186341,-142.857142857143,4,1,1,60,0,0
187064,-100,4,2,1,40,0,0
188509,359.281437125748,4,2,1,40,1,0
189947,357.142857142857,4,2,1,45,1,0
192807,354.097199681313,4,2,1,50,1,0
194223,353.097199681312,4,2,1,50,1,0
197047,350.877192982456,4,2,1,55,1,0
197924,-83.3333333333333,4,2,1,55,0,0
198450,348.938644954929,4,2,1,60,1,0
201241,346.820809248555,4,2,1,65,1,0
202630,344.827586206897,4,2,1,65,1,0
204007,344.827586206897,4,2,1,70,1,0
204007,-66.6666666666667,4,2,1,70,0,0
205386,-66.6666666666667,4,2,1,75,0,0
206765,-66.6666666666667,4,2,1,45,0,0
209007,-100,4,2,1,35,0,0
209524,344.827586206897,4,2,1,50,1,1
209524,-55.5555555555556,4,2,1,50,0,1
228489,-100,4,2,1,40,0,1
228834,-166.666666666667,4,1,1,35,0,0
229179,-166.666666666667,4,1,1,40,0,0
229524,-166.666666666667,4,1,1,45,0,0
229868,-166.666666666667,4,1,1,50,0,0
230213,-166.666666666667,4,1,1,55,0,0
230558,-166.666666666667,4,1,1,60,0,0
230903,-166.666666666667,4,1,1,65,0,0
231248,-166.666666666667,4,1,1,70,0,0
231592,-55.5555555555556,4,1,1,75,0,1
248144,-55.5555555555556,4,1,1,85,0,1
252972,-100,4,1,1,65,0,0
270213,-58.8235294117647,4,1,1,75,0,1
274351,-58.8235294117647,4,2,1,60,0,0
274696,-58.8235294117647,4,2,1,50,0,0
275041,-58.8235294117647,4,2,1,40,0,0
275386,-58.8235294117647,4,2,1,35,0,0
275730,-200,4,2,1,50,0,0
276075,-200,4,2,1,30,0,0
280903,-200,4,2,1,20,0,0
319179,-58.8235294117647,4,2,1,19,0,0
319524,-58.8235294117647,4,2,1,18,0,0
319868,-58.8235294117647,4,2,1,16,0,0
320213,-58.8235294117647,4,2,1,17,0,0
320558,-58.8235294117647,4,2,1,15,0,0
320903,-58.8235294117647,4,2,1,14,0,0
321248,-58.8235294117647,4,2,1,13,0,0
321592,-58.8235294117647,4,2,1,12,0,0
321937,-58.8235294117647,4,2,1,11,0,0
322282,-58.8235294117647,4,2,1,10,0,0
322627,-58.8235294117647,4,2,1,9,0,0
322972,-58.8235294117647,4,2,1,8,0,0
323317,-58.8235294117647,4,2,1,7,0,0
323661,-58.8235294117647,4,2,1,6,0,0
324006,-58.8235294117647,4,2,1,5,0,0

[Colours]
Combo1 : 255,220,0
Combo2 : 154,152,152
Combo3 : 85,225,255
Combo4 : 0,232,185

[HitObjects]
272,96,2365,6,0,L|224:96,1,41.25,0|0,0:0|0:0,0:0:0:0:
96,96,2726,2,0,L|144:96,1,41.25,2|0,0:0|0:0,0:0:0:0:
320,96,3088,2,0,P|368:160|320:224,1,165,2|2,0:0|0:0,0:0:0:0:
272,208,3991,1,0,0:0:0:0:
128,208,4172,2,0,L|174:208,1,41.25,2|0,0:0|0:0,0:0:0:0:
336,208,4534,6,0,P|432:144|432:96,1,165,2|2,0:0|0:0,0:0:0:0:
400,112,5437,1,0,0:0:0:0:
256,96,5618,2,0,L|297:96,1,41.25,2|0,0:0|0:0,0:0:0:0:
144,96,5979,6,0,P|96:160|144:224,1,165,2|2,0:0|0:0,0:0:0:0:
160,224,6883,1,0,0:0:0:0:
304,224,7064,2,0,L|256:224,1,41.25,2|0,0:0|0:0,0:0:0:0:
96,192,7425,6,0,P|112:112|192:96,1,165,2|2,0:0|0:0,0:0:0:0:
432,176,8510,2,0,L|463:127,1,41.25,2|0,0:0|0:0,0:0:0:0:
320,144,8872,2,0,L|327:100,1,41.25,2|0,0:0|0:0,0:0:0:0:
160,144,9232,2,0,P|128:112|160:80,1,82.5,2|2,0:0|0:0,0:0:0:0:
272,80,9955,6,0,L|240:48,1,41.25,2|0,0:0|0:0,0:0:0:0:
368,48,10317,2,0,L|336:16,1,41.25,2|0,0:0|0:0,0:0:0:0:
176,32,10678,2,0,P|152:56|192:88,1,82.5,2|2,0:0|0:0,0:0:0:0:
414,192,11401,6,0,L|368:192,1,41.25,2|0,0:0|0:0,0:0:0:0:
272,192,11763,2,0,L|320:192,1,41.25,2|0,0:0|0:0,0:0:0:0:
160,192,12124,2,0,P|128:160|144:128,1,82.5,2|2,0:0|0:0,0:0:0:0:
416,80,12847,6,0,L|368:80,1,41.25,2|0,0:0|0:0,0:0:0:0:
240,80,13209,2,0,L|287:79,1,41.25,2|0,0:0|0:0,0:0:0:0:
144,80,13570,2,0,L|96:80,1,41.25,2|0,0:0|0:0,0:0:0:0:
288,112,13931,2,0,L|336:112,1,41.25,2|0,0:0|0:0,0:0:0:0:
480,160,14293,2,0,L|424:160,1,41.25,2|0,0:0|0:0,0:0:0:0:
235,206,14654,6,0,P|195:160|243:78,1,165,2|2,0:0|0:0,0:0:0:0:
304,32,15558,1,0,0:0:0:0:
400,32,15738,1,2,0:0:0:0:
480,64,15919,1,0,0:0:0:0:
288,256,16100,6,0,P|248:210|296:120,1,165,2|2,0:0|0:0,0:0:0:0:
336,112,17003,1,0,0:0:0:0:
224,80,17184,2,0,L|168:80,1,41.25,2|0,0:0|0:0,0:0:0:0:
368,64,17546,6,0,P|408:110|372:204,1,165,2|2,0:0|0:0,0:0:0:0:
288,240,18449,1,0,0:0:0:0:
192,224,18630,1,2,0:0:0:0:
96,160,18811,1,0,0:0:0:0:
288,208,18991,6,0,P|328:162|292:68,1,165,2|2,0:0|0:0,0:0:0:0:
112,144,20076,2,0,L|112:92,1,41.25,2|0,0:0|0:0,0:0:0:0:
224,128,20437,2,0,L|212:76,1,41.25,2|0,0:0|0:0,0:0:0:0:
384,64,20799,2,0,P|336:56|288:72,1,82.5,2|2,0:0|0:0,0:0:0:0:
160,144,21522,6,0,L|156:100,1,41.25,2|0,0:0|0:0,0:0:0:0:
48,144,21883,2,0,L|60:92,1,41.25,2|0,0:0|0:0,0:0:0:0:
256,96,22245,2,0,P|303:88|348:100,1,82.5,2|2,0:0|0:0,0:0:0:0:
204,196,22967,38,0,L|208:144,1,41.25,2|0,0:0|0:0,0:0:0:0:
108,196,23329,2,0,L|96:144,1,41.25,2|0,0:0|0:0,0:0:0:0:
304,160,23690,2,0,L|384:160,2,61.875,2|0|0,0:0|0:0|0:0,0:0:0:0:
98,155,24413,2,0,L|30:155,2,61.875,2|0|0,0:0|0:0|0:0,0:0:0:0:
432,160,25136,6,0,B|488:184|496:260|488:304|472:348|400:384|344:380|276:332|276:332,1,371.250014162064,6|0,0:0|0:0,0:0:0:0:
148,292,26582,1,0,0:0:0:0:
56,196,28028,5,0,0:0:0:0:
224,160,29232,1,0,0:0:0:0:
304,160,29353,1,0,0:0:0:0:
352,160,29473,2,0,L|432:112,1,82.5000031471254,10|0,0:0|0:0,0:0:0:0:
144,32,30016,2,0,L|16:32,1,123.750004720688,2|0,0:0|0:0,0:0:0:0:
336,48,30919,6,0,B|368:64|400:96|400:144|368:192|320:208|272:240|272:288|416:336,1,371.250014162064,6|0,0:0|0:0,0:0:0:0:
192,320,32365,1,0,0:0:0:0:
416,240,33811,5,0,0:0:0:0:
176,240,35257,1,10,0:0:0:0:
448,288,36702,6,0,B|480:224|416:240|320:288|336:192|496:176|256:96|144:160,1,371.250014162064,6|0,0:0|0:0,0:0:0:0:
320,112,38148,1,0,0:0:0:0:
176,192,39594,5,0,0:0:0:0:
368,192,40799,1,0,0:0:0:0:
432,192,40919,1,0,0:0:0:0:
464,192,41040,1,10,0:0:0:0:
304,144,41281,1,0,0:0:0:0:
464,128,41582,2,0,P|485:169|432:224,1,123.750004720688,2|0,0:0|0:0,0:0:0:0:
224,112,42485,6,0,B|192:192|128:176|160:80|96:48|32:144|64:224|160:256|224:256,1,371.250014162064,6|0,0:0|0:0,0:0:0:0:
400,256,43931,1,8,0:0:0:0:
208,224,45377,5,0,0:0:0:0:
384,152,46823,1,8,0:0:0:0:
96,192,47546,6,0,L|32:160,1,61.875002360344,2|0,0:0|0:0,0:0:0:0:
160,112,47907,2,0,L|128:48,1,61.875002360344,2|0,0:0|0:0,0:0:0:0:
320,48,48269,22,0,B|432:48|448:80|448:80|448:128|432:144|432:144|400:176|304:160|304:192|304:192|304:224|496:320,1,550,4|0,0:0|0:0,0:0:0:0:
384,320,48991,2,0,P|252:307|400:80,1,550,2|0,0:0|0:0,0:0:0:0:
112,288,49714,2,0,B|96:320|48:304|-16:288|16:224|48:192|128:192|128:192|352:176|368:112|304:64|304:64|16:48|16:96|16:96|14:127|288:368|288:368,1,1210,10|0,0:0|0:0,0:0:0:0:
368,352,51160,6,0,P|448:320|240:160,1,550,6|0,0:0|0:0,0:0:0:0:
192,304,51883,2,0,P|112:272|320:112,1,550,2|0,0:0|0:0,0:0:0:0:
94,173,52606,2,0,B|54:157|30:109|30:109|78:45|142:45|142:45|254:93|254:93|302:157|302:157|270:221|270:221|190:253,1,550,10|0,0:0|0:0,0:0:0:0:
160,240,53329,2,0,P|55:139|208:73,1,330,0|0,0:0|0:0,0:0:0:0:
352,144,54052,5,6,0:0:0:0:
80,192,55497,1,0,0:0:0:0:
304,208,58389,5,0,0:0:0:0:
48,192,59112,2,0,L|32:128,1,61.875002360344,2|0,0:0|0:0,0:0:0:0:
144,144,59473,2,0,L|176:80,1,61.875002360344,2|0,0:0|0:0,0:0:0:0:
320,48,59835,22,0,B|432:48|448:80|448:80|448:128|432:144|432:144|400:176|304:160|304:192|304:192|304:224|496:320,1,550,6|0,0:0|0:0,0:0:0:0:
384,320,60557,2,0,P|252:307|400:80,1,550,2|0,0:0|0:0,0:0:0:0:
112,288,61281,2,0,P|64:176|384:128,1,550,10|0,0:0|0:0,0:0:0:0:
304,112,62003,2,0,P|208:112|352:336,1,550,2|0,0:0|0:0,0:0:0:0:
400,320,62726,1,6,0:0:0:0:
160,288,63088,38,0,L|64:288,2,82.5,0|0|2,0:0|0:0|0:0,0:0:0:0:
368,272,64172,2,0,L|464:272,1,82.5,8|0,3:2|3:0,0:0:0:0:
272,224,64534,2,0,L|176:224,1,82.5,0|0,3:0|3:0,0:0:0:0:
48,192,64895,2,0,L|144:192,1,82.5,0|0,3:0|3:0,0:0:0:0:
416,192,65257,2,0,L|512:192,1,82.5,0|0,3:0|3:0,0:0:0:0:
128,144,65618,6,0,L|32:144,3,82.5,0|0|0|0,3:0|3:0|3:0|3:0,0:0:0:0:
368,144,66341,2,0,L|464:144,3,82.5,0|0|0|0,3:0|3:0|3:0|3:0,0:0:0:0:
128,320,67064,6,0,L|48:320,1,74.2499977340699,4|0,3:1|3:0,0:0:0:0:
352,320,67425,2,0,L|432:320,1,74.2499977340699,0|0,3:0|3:0,0:0:0:0:
64,256,67787,2,0,L|144:256,1,74.2499977340699,0|0,3:0|3:0,0:0:0:0:
464,240,68148,2,0,L|384:240,1,74.2499977340699,0|0,3:0|3:0,0:0:0:0:
64,192,68510,5,4,3:0:0:0:
256,192,69232,12,0,70678,1:0:0:0:
288,272,71401,6,0,P|224:240|304:208,1,165,4|0,3:1|0:0,0:0:0:0:
432,192,71943,1,0,3:0:0:0:
496,192,72034,1,0,3:0:0:0:
224,192,72124,38,0,L|320:192,1,82.5,8|0,3:0|2:0,0:0:0:0:
432,176,72395,2,0,L|336:176,1,82.5,0|0,0:0|2:0,0:0:0:0:
48,160,72666,2,0,P|48:112|160:96,1,165,0|0,3:0|2:0,0:0:0:0:
384,64,73118,1,0,3:0:0:0:
448,64,73208,2,0,P|480:96|448:128,1,82.5,0|0,3:0|0:0,0:0:0:0:
64,272,73570,37,8,3:0:0:0:
32,224,73660,1,0,0:0:0:0:
48,176,73750,1,0,0:0:0:0:
96,144,73841,1,0,0:0:0:0:
144,128,73931,1,0,0:0:0:0:
176,96,74022,1,0,0:0:0:0:
160,48,74112,1,0,0:0:0:0:
96,32,74202,1,0,0:0:0:0:
368,176,74293,6,0,L|496:176,1,123.75,0|0,3:0|2:0,0:0:0:0:
448,160,74654,1,0,0:0:0:0:
384,160,74744,1,0,2:0:0:0:
128,160,74835,1,0,3:0:0:0:
48,160,74925,1,0,3:0:0:0:
288,80,75016,38,0,L|384:80,1,82.5,8|0,3:0|2:0,0:0:0:0:
480,80,75287,2,0,L|384:80,1,82.5,0|0,0:0|2:0,0:0:0:0:
144,96,75558,6,0,L|16:96,1,123.75,0|0,3:0|0:0,0:0:0:0:
320,96,75919,2,0,L|368:96,1,41.25,0|0,3:0|2:0,0:0:0:0:
80,176,76100,2,0,B|32:224|32:272|96:288,1,123.75,0|0,3:0|0:0,0:0:0:0:
368,304,76461,37,8,3:0:0:0:
448,272,76551,1,0,2:0:0:0:
480,240,76641,1,0,2:0:0:0:
496,192,76732,1,0,2:0:0:0:
480,144,76823,1,0,2:0:0:0:
448,112,76912,1,0,2:0:0:0:
368,64,77003,1,0,2:0:0:0:
288,48,77093,1,0,2:0:0:0:
32,208,77184,6,0,P|16:160|128:96,1,206.25,4|0,3:1|0:0,0:0:0:0:
336,96,77726,2,0,L|384:96,1,41.25,0|0,3:0|3:0,0:0:0:0:
160,96,77907,2,0,L|64:96,1,82.5,8|0,3:0|2:0,0:0:0:0:
224,64,78178,2,0,L|320:64,1,82.5,0|0,0:0|2:0,0:0:0:0:
16,272,78449,6,0,P|0:224|96:160,1,165,0|0,3:0|2:0,0:0:0:0:
144,160,78901,1,0,3:0:0:0:
400,160,78991,2,0,L|512:160,1,82.5,0|0,3:0|0:0,0:0:0:0:
64,192,79353,2,0,P|48:144|224:128,1,288.75,8|0,3:0|0:0,0:0:0:0:
448,96,80076,6,0,P|480:128|400:192,1,165,0|0,3:0|0:0,0:0:0:0:
224,192,80618,2,0,L|160:192,1,41.25,0|0,3:0|3:0,0:0:0:0:
416,304,80799,2,0,L|512:304,1,82.5,8|0,3:0|2:0,0:0:0:0:
368,256,81070,2,0,L|272:256,1,82.5,0|0,0:0|2:0,0:0:0:0:
16,256,81341,1,0,3:0:0:0:
320,192,81522,6,0,P|416:144|432:96,1,123.750004720688,8|0,3:0|3:0,0:0:0:0:
192,192,81793,2,0,P|96:144|80:96,1,123.750004720688,0|0,3:0|3:0,0:0:0:0:
336,64,82064,1,0,3:0:0:0:
32,128,82244,2,0,P|64:64|144:64,1,123.750004720688,8|0,3:0|3:0,0:0:0:0:
352,128,82516,2,0,P|320:64|240:64,1,123.750004720688,0|0,3:0|0:0,0:0:0:0:
16,64,82786,1,0,3:0:0:0:
336,64,82967,6,0,P|400:80|336:160,1,202.124993831635,0|0,3:0|0:0,0:0:0:0:
80,160,83690,2,0,L|176:160,1,82.5,8|0,3:0|2:0,0:0:0:0:
448,160,83961,1,8,3:0:0:0:
48,288,84232,6,0,B|16:240|16:192|128:160,1,165,0|0,3:0|2:0,0:0:0:0:
176,160,84684,1,0,3:0:0:0:
496,80,84775,2,0,L|384:80,1,82.5,0|0,3:0|0:0,0:0:0:0:
16,160,85136,5,0,0:0:0:0:
96,160,85226,1,0,0:0:0:0:
162,160,85316,1,0,0:0:0:0:
208,160,85407,1,0,0:0:0:0:
128,96,85497,1,0,0:0:0:0:
208,96,85587,1,0,0:0:0:0:
274,96,85677,1,0,0:0:0:0:
320,96,85768,1,0,0:0:0:0:
48,288,85859,6,0,P|32:256|128:240,1,165,0|0,3:0|0:0,0:0:0:0:
256,224,86401,1,0,3:0:0:0:
320,224,86491,1,0,3:0:0:0:
32,240,86582,2,0,L|128:240,1,82.5,8|0,3:0|2:0,0:0:0:0:
240,240,86853,2,0,L|336:240,1,82.5,0|0,0:0|2:0,0:0:0:0:
16,176,87124,6,0,P|52:120|128:112,1,123.75,0|0,3:0|0:0,0:0:0:0:
304,112,87485,2,0,L|368:112,1,41.25,0|0,3:0|2:0,0:0:0:0:
112,112,87666,2,0,P|80:144|128:208,1,123.75,0|0,3:0|0:0,0:0:0:0:
448,192,88028,37,8,3:0:0:0:
416,192,88118,1,0,2:0:0:0:
336,192,88208,1,0,2:0:0:0:
240,192,88299,1,0,2:0:0:0:
336,128,88389,1,0,2:0:0:0:
304,128,88479,1,0,2:0:0:0:
224,128,88569,1,0,2:0:0:0:
128,128,88660,1,0,2:0:0:0:
448,192,88750,6,0,P|480:128|400:96,1,154.68750590086,4|0,3:1|0:0,0:0:0:0:
160,80,89293,2,0,L|112:80,1,30.937501180172,0|0,3:0|3:0,0:0:0:0:
432,192,89473,2,0,L|512:128,1,82.5,8|0,3:0|2:0,0:0:0:0:
368,112,89744,2,0,L|303:163,1,82.5,0|0,0:0|2:0,0:0:0:0:
96,176,90016,6,0,P|48:208|80:256,1,123.750004720688,0|0,3:0|2:0,0:0:0:0:
160,256,90467,1,0,3:0:0:0:
384,256,90558,2,0,L|464:256,1,61.875002360344,0|0,3:0|0:0,0:0:0:0:
112,272,90919,2,0,P|25:226|121:162,1,247.5,8|0,3:0|2:0,0:0:0:0:
400,272,91642,6,0,P|487:226|391:162,1,247.5,0|0,3:0|3:0,0:0:0:0:
320,160,92275,1,0,3:0:0:0:
96,176,92365,2,0,L|-5:228,1,82.5,0|0,3:0|2:0,0:0:0:0:
144,224,92636,2,0,L|43:276,1,82.5,0|0,0:0|2:0,0:0:0:0:
192,272,92907,1,0,0:0:0:0:
496,304,93089,37,0,0:0:0:0:
320,304,93269,1,0,0:0:0:0:
464,256,93449,1,0,0:0:0:0:
288,256,93629,1,0,0:0:0:0:
496,208,93811,1,0,0:0:0:0:
320,208,93991,1,0,0:0:0:0:
480,160,94172,1,0,0:0:0:0:
304,160,94353,1,0,0:0:0:0:
32,160,94534,6,0,P|64:48|160:48,1,210.375004012585,4|0,3:1|0:0,0:0:0:0:
384,32,94895,2,0,P|448:64|384:160,1,210.375004012585,0|0,0:0|0:0,0:0:0:0:
96,80,95257,1,0,0:0:0:0:
48,112,95347,1,0,0:0:0:0:
32,160,95437,1,0,0:0:0:0:
48,208,95528,1,0,0:0:0:0:
96,240,95618,5,0,0:0:0:0:
384,240,95799,2,0,L|464:240,1,70.1250013375282,0|0,3:0|3:0,0:0:0:0:
160,240,95979,1,8,3:0:0:0:
288,208,96160,1,0,0:0:0:0:
384,176,96250,1,0,2:0:0:0:
432,144,96341,2,0,P|400:64|288:64,1,210.375004012585,0|0,0:0|2:0,0:0:0:0:
416,64,96702,6,0,L|528:64,1,82.5,0|0,0:0|3:0,0:0:0:0:
320,64,96973,2,0,L|240:64,1,41.25,0|0,0:0|0:0,0:0:0:0:
96,32,97154,1,0,3:0:0:0:
32,64,97244,1,0,0:0:0:0:
80,128,97335,1,0,0:0:0:0:
416,272,97425,6,0,P|480:224|416:176,1,165,0|0,3:0|3:0,0:0:0:0:
304,160,97967,1,0,0:0:0:0:
256,160,98013,1,0,0:0:0:0:
224,160,98058,1,0,0:0:0:0:
14,160,98148,2,0,L|96:160,1,82.5,0|0,0:0|0:0,0:0:0:0:
432,144,98510,5,0,3:0:0:0:
320,80,98630,1,0,3:0:0:0:
432,48,98750,1,0,3:0:0:0:
176,32,98871,2,0,P|112:80|176:192,1,206.25,8|0,3:0|0:0,0:0:0:0:
416,208,99413,1,0,3:0:0:0:
272,208,99594,6,0,B|256:128,1,82.5,0|0,0:0|3:0,0:0:0:0:
32,144,99865,2,0,B|48:240,1,82.5,0|0,0:0|3:0,0:0:0:0:
272,208,100136,2,0,L|352:208,1,41.25,0|0,0:0|0:0,0:0:0:0:
32,208,100317,2,0,B|16:160|32:112|64:64|128:48|176:64,1,247.5,0|0,3:0|0:0,0:0:0:0:
240,96,100949,1,0,0:0:0:0:
480,160,101040,2,0,B|480:80|448:32|368:16|288:16,1,247.5,4|0,3:1|3:0,0:0:0:0:
240,32,101673,1,0,3:0:0:0:
480,256,101763,37,8,3:0:0:0:
336,256,101943,2,0,L|284:257,1,41.25,0|0,0:0|2:0,0:0:0:0:
240,256,102124,2,0,P|176:240|128:208,1,123.75,0|0,0:0|2:0,0:0:0:0:
240,176,102485,6,0,L|336:176,1,82.5,0|0,0:0|3:0,0:0:0:0:
96,144,102757,2,0,L|48:144,1,41.25,0|0,0:0|0:0,0:0:0:0:
288,144,102937,1,0,3:0:0:0:
384,144,103028,1,0,0:0:0:0:
448,144,103118,1,0,0:0:0:0:
176,144,103208,6,0,B|128:160|128:208|144:272|176:288,1,165,0|0,3:0|0:0,0:0:0:0:
336,288,103750,1,0,0:0:0:0:
352,272,103796,1,0,0:0:0:0:
320,272,103841,1,0,0:0:0:0:
336,256,103886,1,0,0:0:0:0:
352,240,103931,2,0,L|448:240,1,82.5,0|0,0:0|2:0,0:0:0:0:
112,272,104293,37,0,3:0:0:0:
224,224,104413,1,0,3:0:0:0:
128,176,104533,1,0,3:0:0:0:
448,128,104654,2,0,P|416:96|288:80,1,165,8|0,3:0|0:0,0:0:0:0:
80,96,105196,1,0,0:0:0:0:
373,109,105377,2,0,P|416:96|448:64,1,82.5,8|0,3:0|3:0,0:0:0:0:
192,96,105648,2,0,P|149:83|117:51,1,82.5,8|0,3:0|3:0,0:0:0:0:
448,192,105919,1,8,3:0:0:0:
112,192,106823,5,4,3:1:0:0:
496,192,107003,1,0,3:0:0:0:
128,144,107094,2,0,P|96:128|48:128,2,82.5,0|0|0,3:0|3:0|3:0,0:0:0:0:
432,112,107546,37,8,3:0:0:0:
272,64,107726,1,0,0:0:0:0:
144,80,107907,2,0,B|187:93|187:93|194:116|194:116|293:121|293:121,1,165,0|0,0:0|0:0,0:0:0:0:
440,83,108449,2,0,L|480:96,2,41.25,0|0|0,3:0|0:0|0:0,0:0:0:0:
128,80,108720,2,0,L|175:65,1,41.25,0|0,3:0|0:0,0:0:0:0:
240,64,108901,1,0,0:0:0:0:
448,64,108991,6,0,P|480:128|416:192,1,165,0|0,3:0|0:0,0:0:0:0:
479,196,109534,2,0,L|512:208,3,20.625,0|0|0|0,0:0|0:0|0:0|0:0,0:0:0:0:
456,155,109714,2,0,B|420:129|369:129|325:161,1,123.75,0|0,0:0|0:0,0:0:0:0:
80,176,110076,5,0,3:0:0:0:
192,112,110196,1,0,3:0:0:0:
96,80,110317,1,0,3:0:0:0:
400,64,110437,6,0,B|447:55|489:87|489:87|505:145|448:192|448:192,1,206.25,8|0,3:0|0:0,0:0:0:0:
224,272,110979,1,0,3:0:0:0:
409,297,111160,6,0,B|496:272,1,82.5,0|0,0:0|3:0,0:0:0:0:
224,240,111431,2,0,B|176:208|224:176,1,82.5,0|0,0:0|3:0,0:0:0:0:
352,104,111702,1,0,3:0:0:0:
320,160,111792,1,0,3:0:0:0:
96,96,111883,6,0,P|64:128|224:176,1,330,4|0,3:1|2:0,0:0:0:0:
96,96,112787,1,0,0:0:0:0:
288,96,112967,2,0,L|384:96,1,82.5,0|0,0:0|3:0,0:0:0:0:
304,64,113238,1,0,3:0:0:0:
16,192,113329,2,0,L|128:192,1,82.5,8|0,3:0|0:0,0:0:0:0:
256,192,113690,2,0,L|352:224,1,82.5,0|0,0:0|0:0,0:0:0:0:
192,224,114052,6,0,L|96:224,1,82.5,0|0,0:0|3:0,0:0:0:0:
16,160,114323,2,0,L|112:160,1,82.5,0|0,0:0|3:0,0:0:0:0:
192,160,114594,1,0,0:0:0:0:
256,160,114684,1,0,0:0:0:0:
480,208,114775,38,0,L|384:208,1,82.5,4|0,3:1|0:0,0:0:0:0:
224,208,115136,1,0,0:0:0:0:
384,192,115317,1,0,0:0:0:0:
464,176,115407,1,0,0:0:0:0:
496,128,115497,6,0,L|416:96,1,82.5,0|0,0:0|2:0,0:0:0:0:
480,64,115769,2,0,L|400:32,1,82.5,0|0,0:0|2:0,0:0:0:0:
304,112,116040,2,0,L|400:112,1,82.5,2|2,0:3|0:3,0:0:0:0:
244,78,116311,2,0,L|148:78,2,82.5,0|2|0,0:0|0:3|2:0,0:0:0:0:
336,80,116763,1,2,0:3:0:0:
144,96,116943,6,0,P|64:128|48:192,1,123.75,2|0,0:3|2:0,0:0:0:0:
272,224,117305,2,0,L|320:208,1,41.25,2|2,0:3|0:3,0:0:0:0:
80,160,117485,2,0,L|144:144,1,41.25,2|2,0:3|0:3,0:0:0:0:
384,144,117666,37,4,3:0:0:0:
208,96,118208,2,0,L|272:96,1,33,0|0,3:0|3:0,0:0:0:0:
464,96,118389,2,0,P|480:160|432:192,1,132,8|0,3:0|0:0,0:0:0:0:
160,208,118931,2,0,P|128:176|144:80,1,132,0|0,3:0|0:0,0:0:0:0:
400,112,119473,1,0,3:0:0:0:
160,192,119835,2,0,P|128:160|192:128,1,132,8|0,3:0|0:0,0:0:0:0:
416,128,120558,6,0,P|416:192|320:304,1,198,0|0,3:0|3:0,0:0:0:0:
272,304,121190,1,0,3:0:0:0:
80,128,121281,2,0,P|48:176|80:240,1,132,8|0,3:0|0:0,0:0:0:0:
352,232,121823,1,0,3:0:0:0:
128,192,122184,2,0,L|32:192,1,66,0|0,3:0|3:0,0:0:0:0:
384,192,122726,2,0,P|416:160|416:64,1,132,8|0,3:0|0:0,0:0:0:0:
128,64,123450,37,4,3:2:0:0:
320,64,123991,2,0,L|368:64,1,33,0|0,3:0|3:0,0:0:0:0:
80,64,124172,2,0,P|32:96|80:160,1,132,8|0,3:0|0:0,0:0:0:0:
344,160,124714,2,0,P|392:192|408:288,1,132,0|0,3:0|0:0,0:0:0:0:
96,256,125257,1,0,3:0:0:0:
368,176,125618,2,0,L|236:179,1,132,8|0,3:0|0:0,0:0:0:0:
48,256,126341,6,0,P|48:160|144:128,1,198,0|0,3:0|3:0,0:0:0:0:
192,128,126973,1,0,3:0:0:0:
416,128,127064,2,0,P|463:194|476:250,1,132,0|0,3:0|0:0,0:0:0:0:
320,176,127606,1,0,3:0:0:0:
112,192,127967,2,0,L|32:192,1,66,0|0,3:0|3:0,0:0:0:0:
320,224,128510,2,0,L|451:221,1,132,8|0,3:0|0:0,0:0:0:0:
112,128,129232,37,4,3:2:0:0:
240,128,129775,2,0,L|288:128,1,33,0|0,3:0|0:0,0:0:0:0:
480,128,129955,2,0,L|336:80,1,132,8|0,3:0|0:0,0:0:0:0:
80,96,130497,2,0,L|96:240,1,132,0|0,3:0|0:0,0:0:0:0:
368,224,131040,2,0,L|352:80,1,132,0|8,3:0|3:0,0:0:0:0:
80,224,132124,5,0,3:0:0:0:
304,208,132666,2,0,L|352:192,1,33,0|0,3:0|3:0,0:0:0:0:
128,160,132847,2,0,P|96:176|48:272,1,132,8|0,3:0|0:0,0:0:0:0:
256,320,133389,1,0,3:0:0:0:
368,224,133570,5,0,0:0:0:0:
64,224,133750,1,0,0:0:0:0:
248,216,133931,2,0,L|320:216,1,66
24,96,134293,2,0,L|88:136,1,66,8|0,3:0|0:0,0:0:0:0:
336,256,135016,6,0,P|384:224|336:96,1,198,4|0,3:2|3:0,0:0:0:0:
288,80,135648,1,0,3:0:0:0:
80,80,135738,2,0,P|32:128|48:192,1,132,8|0,3:0|0:0,0:0:0:0:
336,160,136281,6,0,P|368:192|336:272,1,132,0|0,3:0|0:0,0:0:0:0:
64,272,136823,2,0,P|32:208|64:128,1,132,0|8,3:0|3:0,0:0:0:0:
352,224,137907,6,0,B|368:176|272:80|208:80,1,198,0|0,3:0|3:0,0:0:0:0:
160,80,138540,1,0,3:0:0:0:
304,80,138630,2,0,P|352:96|400:160,1,132,8|0,3:0|0:0,0:0:0:0:
224,224,139172,6,0,P|208:192|256:96,1,132,0|0,3:0|3:0,0:0:0:0:
432,112,139714,2,0,P|464:160|448:240,1,132,0|8,3:0|3:0,0:0:0:0:
448,288,140799,6,0,P|416:240|288:160,1,198,6|0,0:0|0:0,0:0:0:0:
472,120,142245,5,0,0:0:0:0:
176,192,143691,5,0,0:0:0:0:
368,192,144896,5,0,0:0:0:0:
432,192,145016,1,0,0:0:0:0:
464,192,145136,1,10,0:0:0:0:
296,144,145317,1,0,0:0:0:0:
464,128,145679,2,0,L|384:128,1,66,2|0,0:0|0:0,0:0:0:0:
168,120,146582,6,0,P|104:136|120:248,1,198,6|0,0:0|0:0,0:0:0:0:
328,272,148028,5,0,0:0:0:0:
64,256,149474,5,0,0:0:0:0:
224,184,150920,5,10,0:0:0:0:
464,64,152366,22,0,P|464:128|384:240,1,198,6|0,0:0|0:0,0:0:0:0:
192,304,153811,5,0,0:0:0:0:
424,288,155257,5,0,0:0:0:0:
232,160,156461,5,0,0:0:0:0:
168,144,156582,1,0,0:0:0:0:
280,96,156703,2,0,L|328:112,1,49.5,10|0,0:0|0:0,0:0:0:0:
160,208,157244,2,0,L|80:208,1,66,2|0,0:0|0:0,0:0:0:0:
416,176,158148,6,0,P|432:144|320:80,1,198,6|0,0:0|0:0,0:0:0:0:
80,192,159594,5,0,0:0:0:0:
432,176,161040,5,0,0:0:0:0:
304,208,162486,5,10,0:0:0:0:
464,192,163209,54,0,L|480:160,1,33,2|0,0:0|0:0,0:0:0:0:
368,144,163570,2,0,L|352:112,1,33,2|0,0:0|0:0,0:0:0:0:
192,48,163931,22,0,B|80:48|64:80|64:80|64:128|80:144|80:144|112:176|208:160|208:192|208:192|208:224|16:320,1,550,6|0,0:0|0:0,0:0:0:0:
384,304,164653,2,0,P|464:192|192:128,1,550,2|0,0:0|0:0,0:0:0:0:
112,256,165377,6,0,B|96:288|48:272|-16:256|16:192|48:160|128:160|128:160|352:144|368:80|304:32|304:32|160:64,1,660,10|0,0:0|0:0,0:0:0:0:
272,352,166702,5,0,0:0:0:0:
176,352,166822,2,0,B|16:240|16:208|16:208|192:160|192:160|32:112,1,550,6|0,0:0|0:0,0:0:0:0:
368,304,167545,2,0,P|448:272|240:112,1,550,2|0,0:0|0:0,0:0:0:0:
320,160,168268,6,0,B|360:144|384:96|384:96|336:32|272:32|272:32|160:80|160:80|112:144|112:144|144:208|144:208|224:240,1,550,10|0,0:0|0:0,0:0:0:0:
464,240,168991,2,0,P|432:144|240:208,1,330,2|0,0:0|0:0,0:0:0:0:
464,240,169714,5,6,0:0:0:0:
192,240,170437,1,0,0:0:0:0:
304,208,171883,5,0,0:0:0:0:
64,144,173329,5,0,0:0:0:0:
400,240,174775,6,0,L|469:189,1,82.5,2|0,0:0|0:0,0:0:0:0:
304,144,175136,2,0,L|384:80,1,82.5,2|0,0:0|0:0,0:0:0:0:
48,96,175497,2,0,B|16:144|32:176|32:176|208:192|208:192|240:240|240:240|224:304|224:304|32:336,1,550,6|0,0:0|0:0,0:0:0:0:
336,320,176220,2,0,B|384:288|352:224|112:256|16:176|48:96|128:32|288:48,1,550,2|0,0:0|0:0,0:0:0:0:
160,64,176943,6,0,P|64:112|288:272,1,550,10|0,0:0|0:0,0:0:0:0:
32,240,177666,2,0,P|64:160|400:272,1,550,2|0,0:0|0:0,0:0:0:0:
304,272,178389,6,0,L|64:32,1,330,6|2,0:0|0:0,0:0:0:0:
208,64,178931,1,0,0:0:0:0:
480,80,179112,2,0,P|480:160|272:240,1,330,2|0,0:0|0:0,0:0:0:0:
80,208,179654,1,0,0:0:0:0:
400,192,179835,6,0,L|512:144,1,115.49999647522,6|0,0:0|0:0,0:0:0:0:
208,128,180558,2,0,L|96:176,1,115.49999647522,2|0,0:0|0:0,0:0:0:0:
352,208,181281,2,0,L|432:96,1,115.49999647522,2|8,3:0|3:0,0:0:0:0:
240,96,182003,2,0,L|112:64,1,115.49999647522,0|8,3:0|3:0,0:0:0:0:
368,240,182726,6,0,L|480:160,1,115.49999647522,0|8,3:0|3:0,0:0:0:0:
224,112,183449,2,0,L|160:224,1,115.49999647522,0|8,3:0|3:0,0:0:0:0:
32,96,184172,2,0,L|128:176,1,115.49999647522,0|8,3:0|3:0,0:0:0:0:
320,176,184895,2,0,L|240:80,1,115.49999647522,0|8,3:0|3:0,0:0:0:0:
448,96,185618,6,0,L|336:144,1,115.49999647522,0|8,3:0|3:0,0:0:0:0:
160,304,186341,2,0,L|128:288,1,19.2499994125366,0|0,0:0|0:0,0:0:0:0:
176,272,186461,2,0,L|160:240,1,19.2499994125366,0|0,0:0|3:0,0:0:0:0:
208,240,186582,2,0,L|176:192,1,38.4999988250733,0|0,0:0|3:0,0:0:0:0:
240,176,186823,2,0,L|224:128,1,38.4999988250733,0|0,0:0|0:0,0:0:0:0:
480,128,187064,6,0,L|368:128,1,82.5,4|0,3:1|0:0,0:0:0:0:
336,128,187335,1,0,0:0:0:0:
32,128,187425,2,0,L|144:128,1,82.5,8|0,3:0|0:0,0:0:0:0:
176,128,187696,1,0,0:0:0:0:
400,128,187787,2,0,L|448:208,1,82.5,0|0,3:0|0:0,0:0:0:0:
368,224,188058,1,0,0:0:0:0:
112,208,188148,2,0,L|64:288,1,82.5,8|0,3:0|0:0,0:0:0:0:
144,304,188419,1,0,0:0:0:0:
384,304,188509,6,0,L|496:272,1,82.5,4|0,3:2|0:0,0:0:0:0:
384,256,188778,1,0,0:0:0:0:
128,192,188868,2,0,L|16:160,1,82.5,8|0,3:0|0:0,0:0:0:0:
128,144,189137,1,0,0:0:0:0:
336,144,189227,2,0,L|448:144,1,82.5,0|0,3:0|0:0,0:0:0:0:
480,144,189497,1,0,0:0:0:0:
256,128,189586,2,0,L|176:128,1,41.25,8|0,3:0|0:0,0:0:0:0:
432,96,189766,2,0,L|496:96,1,41.25,0|0,3:0|0:0,0:0:0:0:
48,192,189947,6,0,L|144:144,1,82.5,4|0,3:2|0:0,0:0:0:0:
192,128,190214,1,0,0:0:0:0:
464,192,190304,2,0,L|390:155,1,82.5,8|0,3:0|0:0,0:0:0:0:
320,128,190571,1,0,0:0:0:0:
80,144,190661,2,0,L|192:112,1,82.5,0|0,3:0|0:0,0:0:0:0:
96,96,190929,1,0,0:0:0:0:
320,112,191018,2,0,L|208:80,1,82.5,8|0,3:0|0:0,0:0:0:0:
304,64,191286,1,0,0:0:0:0:
48,208,191375,6,0,L|160:208,1,82.5,4|0,3:2|0:0,0:0:0:0:
208,208,191643,1,0,0:0:0:0:
464,208,191732,2,0,L|381:208,1,82.5,8|0,3:0|0:0,0:0:0:0:
304,208,192000,1,0,0:0:0:0:
128,192,192089,2,0,L|48:192,1,41.25,0|0,3:0|0:0,0:0:0:0:
384,128,192268,2,0,L|320:128,1,41.25,0|0,0:0|0:0,0:0:0:0:
160,128,192447,2,0,L|112:128,1,41.25,8|0,3:0|3:0,0:0:0:0:
448,64,192625,2,0,L|384:64,1,41.25,0|0,3:0|3:0,0:0:0:0:
160,48,192807,6,0,L|64:48,1,82.5,4|0,3:2|0:0,0:0:0:0:
32,48,193072,1,0,0:0:0:0:
336,144,193161,2,0,L|432:144,1,82.5,8|0,3:0|0:0,0:0:0:0:
464,144,193426,1,0,0:0:0:0:
144,192,193515,2,0,L|80:112,1,82.5,0|0,3:0|0:0,0:0:0:0:
192,96,193780,1,0,0:0:0:0:
432,160,193869,2,0,L|483:95,1,82.5,8|0,3:0|0:0,0:0:0:0:
384,64,194134,1,0,0:0:0:0:
70,155,194223,6,0,L|144:192,1,82.5,0|0,3:0|0:0,0:0:0:0:
96,112,194487,1,0,0:0:0:0:
441,155,194576,2,0,L|368:192,1,82.5,8|0,3:0|0:0,0:0:0:0:
416,112,194840,1,0,0:0:0:0:
144,192,194929,2,0,L|64:128,1,82.5,0|0,3:0|0:0,0:0:0:0:
144,112,195194,1,0,0:0:0:0:
336,160,195282,2,0,L|400:160,1,41.25,8|0,3:0|0:0,0:0:0:0:
128,96,195458,2,0,L|208:96,1,41.25,8|0,3:0|0:0,0:0:0:0:
448,128,195635,6,0,L|352:112,1,82.5,0|0,3:0|0:0,0:0:0:0:
416,64,195900,1,0,0:0:0:0:
64,192,195988,2,0,L|160:176,1,82.5,8|0,3:0|0:0,0:0:0:0:
96,128,196253,1,0,0:0:0:0:
368,160,196341,2,0,L|272:144,1,82.5,0|0,3:0|0:0,0:0:0:0:
336,96,196606,1,0,0:0:0:0:
64,128,196694,2,0,L|160:112,1,82.5,8|0,3:0|0:0,0:0:0:0:
96,64,196959,1,0,0:0:0:0:
352,96,197047,6,0,L|464:96,1,82.5,0|0,3:0|0:0,0:0:0:0:
368,176,197310,1,0,0:0:0:0:
96,256,197397,2,0,L|0:272,1,82.5,8|0,3:0|0:0,0:0:0:0:
288,288,197661,2,0,L|352:288,2,41.25,8|8|0,3:0|3:0|0:0,0:0:0:0:
64,208,197924,2,0,L|144:208,1,49.4999984893799,0|0,0:0|0:0,0:0:0:0:
320,176,198099,2,0,L|270:176,1,49.4999984893799,8|0,3:0|3:0,0:0:0:0:
32,144,198275,2,0,L|112:144,1,49.4999984893799,0|0,3:0|3:0,0:0:0:0:
272,128,198450,5,4,3:1:0:0:
432,128,198624,1,0,0:0:0:0:
240,192,198798,1,8,3:0:0:0:
416,192,198973,1,0,0:0:0:0:
304,240,199147,1,0,3:0:0:0:
464,240,199322,1,0,0:0:0:0:
256,304,199496,1,8,3:0:0:0:
416,304,199671,1,0,0:0:0:0:
48,112,199845,5,0,3:0:0:0:
240,112,200019,1,0,0:0:0:0:
32,176,200193,1,8,3:0:0:0:
224,176,200368,1,0,0:0:0:0:
64,224,200542,1,0,3:0:0:0:
256,224,200717,1,0,0:0:0:0:
32,288,200891,1,8,3:0:0:0:
224,288,201066,1,0,0:0:0:0:
480,240,201241,5,0,3:0:0:0:
192,224,201414,1,0,0:0:0:0:
464,176,201587,1,8,3:0:0:0:
176,160,201761,1,0,0:0:0:0:
448,112,201934,1,0,3:0:0:0:
160,112,202108,1,0,0:0:0:0:
432,64,202281,1,8,3:0:0:0:
144,64,202454,1,0,0:0:0:0:
448,112,202630,5,0,3:0:0:0:
128,112,202802,1,0,0:0:0:0:
464,176,202974,1,8,3:0:0:0:
96,176,203147,1,0,0:0:0:0:
480,240,203319,1,0,3:0:0:0:
64,256,203492,1,0,0:0:0:0:
496,304,203664,1,8,3:0:0:0:
48,320,203836,1,0,0:0:0:0:
368,336,204007,6,0,L|464:336,1,61.875002360344,8|0,3:0|0:0,0:0:0:0:
240,304,204179,2,0,L|160:304,1,61.875002360344,0|0,3:0|0:0,0:0:0:0:
240,256,204351,2,0,L|304:256,1,61.875002360344,8|0,3:0|0:0,0:0:0:0:
80,240,204524,2,0,L|0:240,1,61.875002360344,0|0,3:0|0:0,0:0:0:0:
256,192,204696,6,0,L|320:192,1,61.875002360344,8|0,3:0|0:0,0:0:0:0:
256,160,204869,2,0,L|192:160,1,61.875002360344,0|0,3:0|0:0,0:0:0:0:
416,176,205042,2,0,L|496:176,1,61.875002360344,8|0,3:0|0:0,0:0:0:0:
112,112,205213,2,0,L|32:112,1,61.875002360344,0|0,3:0|0:0,0:0:0:0:
240,80,205386,6,0,L|304:80,1,61.875002360344,8|0,3:0|0:0,0:0:0:0:
32,64,205558,2,0,L|112:64,1,61.875002360344,0|0,3:0|0:0,0:0:0:0:
336,64,205731,2,0,L|416:64,1,61.875002360344,8|0,3:0|0:0,0:0:0:0:
144,224,205903,2,0,L|80:224,1,61.875002360344,0|0,3:0|0:0,0:0:0:0:
384,208,206075,6,0,L|320:208,1,61.875002360344,8|0,3:0|0:0,0:0:0:0:
64,176,206248,2,0,L|144:176,1,61.875002360344,0|0,3:0|0:0,0:0:0:0:
400,144,206420,2,0,L|480:144,1,61.875002360344,8|0,3:0|0:0,0:0:0:0:
208,112,206593,2,0,L|112:112,1,61.875002360344,0|0,3:0|0:0,0:0:0:0:
480,272,206765,6,0,L|480:192,1,61.875002360344,8|0,3:0|3:0,0:0:0:0:
256,304,206938,2,0,L|256:224,1,61.875002360344,8|0,3:0|3:0,0:0:0:0:
32,288,207110,2,0,L|32:208,1,61.875002360344,8|0,3:0|3:0,0:0:0:0:
256,208,207282,2,0,L|256:128,1,61.875002360344,8|0,3:0|3:0,0:0:0:0:
480,192,207455,6,0,L|480:112,1,61.875002360344,8|0,3:0|3:0,0:0:0:0:
256,144,207627,2,0,L|256:64,1,61.875002360344,8|0,3:0|3:0,0:0:0:0:
32,144,207800,2,0,L|32:80,1,61.875002360344,8|0,3:0|3:0,0:0:0:0:
256,304,207972,2,0,L|248:232,1,61.875002360344,8|0,3:0|3:0,0:0:0:0:
496,64,208144,1,4,3:0:0:0:
352,304,209006,5,4,3:0:0:0:
416,256,209093,1,4,3:0:0:0:
432,176,209179,1,4,3:0:0:0:
384,112,209265,1,0,3:0:0:0:
304,80,209351,1,0,3:0:0:0:
224,80,209438,1,0,3:0:0:0:
48,80,209524,5,4,3:1:0:0:
80,160,209610,1,0,0:0:0:0:
144,208,209696,1,0,0:0:0:0:
224,224,209782,1,0,2:0:0:0:
464,224,209868,2,0,L|304:224,1,148.49999546814,8|2,3:0|0:2,0:0:0:0:
96,224,210127,6,0,L|256:224,1,148.49999546814,0|0,3:0|2:0,0:0:0:0:
432,224,210386,2,0,L|352:224,1,74.2499977340699,0|0,3:0|2:0,0:0:0:0:
96,224,210558,2,0,L|16:224,1,74.2499977340699,8|0,3:0|0:0,0:0:0:0:
96,160,210730,2,0,L|176:160,1,74.2499977340699,2|0,0:2|2:0,0:0:0:0:
448,160,210903,6,0,L|256:160,1,148.49999546814,0|2,0:0|3:2,0:0:0:0:
368,112,211161,1,0,3:0:0:0:
144,112,211248,2,0,L|32:224,1,148.49999546814,8|2,3:0|2:2,0:0:0:0:
144,256,211506,6,0,L|256:144,1,148.49999546814,0|0,0:0|2:0,0:0:0:0:
480,144,211765,2,0,B|400:128|400:128,1,74.2499977340699,0|0,0:0|2:0,0:0:0:0:
192,112,211937,1,8,3:0:0:0:
112,144,212024,1,0,0:0:0:0:
64,224,212110,1,2,0:2:0:0:
64,320,212196,1,0,0:0:0:0:
288,320,212282,6,0,L|368:288,3,74.2499977340699,0|0|2|0,3:0|0:0|0:2|0:0,0:0:0:0:
64,224,212627,2,0,L|176:80,1,148.49999546814,8|2,3:0|0:2,0:0:0:0:
384,112,212886,2,0,L|480:96,1,74.2499977340699,0|0,3:0|0:0,0:0:0:0:
80,144,213144,2,0,L|176:112,1,74.2499977340699,0|0,3:0|2:0,0:0:0:0:
400,112,213317,2,0,L|448:176,2,74.2499977340699,8|0|0,3:0|0:0|0:0,0:0:0:0:
160,80,213575,6,0,L|48:192,1,148.49999546814,0|0,3:0|0:0,0:0:0:0:
352,208,213834,2,0,L|448:96,1,148.49999546814,2|8,0:2|3:0,0:0:0:0:
176,160,214179,2,0,L|96:128,1,74.2499977340699,2|0,0:2|3:0,0:0:0:0:
352,128,214351,2,0,L|432:144,1,74.2499977340699,0|0,0:0|0:0,0:0:0:0:
160,80,214524,2,0,L|272:64,1,74.2499977340699,0|0,3:0|0:0,0:0:0:0:
464,64,214696,2,0,L|288:64,1,148.49999546814,8|0,3:0|0:0,0:0:0:0:
48,64,215041,5,0,3:0:0:0:
80,144,215127,1,0,0:0:0:0:
160,160,215213,1,0,0:0:0:0:
464,160,215386,2,0,L|304:160,1,148.49999546814,8|2,3:0|0:2,0:0:0:0:
80,144,215644,2,0,L|80:304,1,148.49999546814,0|0,3:0|2:0,0:0:0:0:
336,288,215903,2,0,L|224:288,1,74.2499977340699,0|0,3:0|2:0,0:0:0:0:
32,288,216075,1,8,3:0:0:0:
16,208,216161,1,0,0:0:0:0:
48,144,216248,1,2,0:2:0:0:
128,96,216334,1,0,0:0:0:0:
336,96,216420,6,0,L|480:96,1,74.2499977340699,0|0,3:0|0:0,0:0:0:0:
144,192,216592,2,0,L|224:192,1,74.2499977340699,2|0,3:2|3:0,0:0:0:0:
448,192,216765,1,8,3:0:0:0:
64,176,216937,2,0,L|16:96,2,74.2499977340699,2|0|0,2:2|0:0|0:0,0:0:0:0:
128,176,217196,1,0,2:0:0:0:
352,176,217282,2,0,L|256:176,1,74.2499977340699,0|0,3:0|2:0,0:0:0:0:
25,112,217455,2,0,L|201:112,1,148.49999546814,8|2,3:0|0:2,0:0:0:0:
233,112,217713,1,0,0:0:0:0:
456,112,217799,6,0,L|488:32,2,74.2499977340699,0|0|2,3:0|0:0|0:2,0:0:0:0:
368,136,218058,1,0,0:0:0:0:
128,136,218144,2,0,L|276:136,1,148.49999546814,8|2,3:0|0:2,0:0:0:0:
480,136,218403,1,0,3:0:0:0:
432,136,218489,1,0,0:0:0:0:
352,136,218575,1,0,2:0:0:0:
64,136,218661,2,0,L|168:136,1,74.2499977340699,0|0,3:0|2:0,0:0:0:0:
344,136,218834,2,0,L|432:144,2,74.2499977340699,8|0|2,3:0|0:0|0:2,0:0:0:0:
80,224,219092,6,0,P|32:168|120:88,1,148.49999546814,0|0,3:0|0:0,0:0:0:0:
304,104,219351,2,0,L|392:104,1,74.2499977340699,2|0,0:2|0:0,0:0:0:0:
152,104,219524,2,0,L|80:56,2,74.2499977340699,8|0|2,3:0|0:0|0:2,0:0:0:0:
368,104,219782,2,0,L|464:96,1,74.2499977340699,0|0,3:0|0:0,0:0:0:0:
160,80,219955,2,0,L|72:32,2,74.2499977340699,0|0|0,0:0|3:0|0:0,0:0:0:0:
416,256,220213,2,0,P|472:200|440:104,1,148.49999546814,8|0,3:0|0:0,0:0:0:0:
400,96,220472,1,0,2:0:0:0:
120,96,220558,5,4,3:1:0:0:
72,160,220644,1,0,0:0:0:0:
112,232,220730,1,0,0:0:0:0:
176,272,220816,1,0,2:0:0:0:
392,272,220902,2,0,L|232:272,1,148.49999546814,8|2,3:0|0:2,0:0:0:0:
40,272,221161,6,0,L|200:272,1,148.49999546814,0|0,3:0|2:0,0:0:0:0:
416,272,221420,2,0,L|496:272,1,74.2499977340699,0|0,3:0|2:0,0:0:0:0:
200,208,221592,2,0,L|240:136,1,74.2499977340699,8|0,3:0|0:0,0:0:0:0:
208,120,221764,2,0,L|136:80,1,74.2499977340699,2|0,0:2|2:0,0:0:0:0:
344,168,221937,6,0,L|536:168,1,148.49999546814,0|2,0:0|0:2,0:0:0:0:
408,112,222195,1,0,3:0:0:0:
144,112,222282,2,0,P|96:184|136:232,1,148.49999546814,8|2,3:0|2:2,0:0:0:0:
224,224,222540,6,0,L|376:224,1,148.49999546814,0|0,0:0|2:0,0:0:0:0:
80,160,222799,2,0,B|160:144|160:144,1,74.2499977340699,0|0,3:0|2:0,0:0:0:0:
376,120,222971,1,8,3:0:0:0:
446,174,223058,1,0,0:0:0:0:
464,248,223144,1,2,0:2:0:0:
416,320,223230,1,0,0:0:0:0:
168,320,223316,6,0,L|88:288,3,74.2499977340699,0|0|0|0,3:0|0:0|0:0|2:0,0:0:0:0:
416,320,223661,2,0,L|448:160,1,148.49999546814,8|2,3:0|0:2,0:0:0:0:
56,192,223920,2,0,L|152:176,1,74.2499977340699,0|0,3:0|0:0,0:0:0:0:
446,174,224178,2,0,L|350:142,1,74.2499977340699,0|0,3:0|2:0,0:0:0:0:
152,152,224351,2,0,L|104:216,2,74.2499977340699,8|0|2,3:0|0:0|0:2,0:0:0:0:
352,80,224609,6,0,L|296:232,1,148.49999546814,0|0,3:0|0:0,0:0:0:0:
56,208,224868,2,0,L|176:208,1,74.2499977340699,0|0,3:0|0:0,0:0:0:0:
400,216,225041,1,8,3:0:0:0:
120,152,225213,2,0,L|40:120,1,74.2499977340699,2|0,0:2|3:0,0:0:0:0:
352,128,225385,2,0,L|432:144,1,74.2499977340699,0|0,0:0|0:0,0:0:0:0:
160,80,225558,2,0,L|272:64,1,74.2499977340699,0|0,3:0|0:0,0:0:0:0:
464,64,225730,2,0,L|288:64,1,148.49999546814,8|0,3:0|0:0,0:0:0:0:
48,64,226075,5,0,3:0:0:0:
80,144,226161,1,0,0:0:0:0:
160,160,226247,1,0,0:0:0:0:
464,160,226420,2,0,L|304:160,1,148.49999546814,8|2,3:0|0:2,0:0:0:0:
80,144,226678,2,0,L|80:304,1,148.49999546814,0|0,3:0|2:0,0:0:0:0:
336,288,226937,2,0,L|224:288,1,74.2499977340699,0|2,3:0|2:0,0:0:0:0:
32,288,227109,1,8,3:0:0:0:
16,208,227195,1,0,0:0:0:0:
48,144,227282,1,2,0:2:0:0:
128,96,227368,1,0,2:0:0:0:
336,96,227454,6,0,L|480:96,1,74.2499977340699,0|0,0:0|0:0,0:0:0:0:
144,192,227626,2,0,L|224:192,1,74.2499977340699,0|0,0:0|3:0,0:0:0:0:
448,192,227799,1,8,3:0:0:0:
64,176,227971,2,0,L|16:96,2,74.2499977340699,2|0|0,2:2|0:0|0:0,0:0:0:0:
128,176,228230,5,0,2:0:0:0:
352,176,228316,2,0,L|256:176,1,74.2499977340699,0|0,3:0|2:0,0:0:0:0:
64,176,228489,2,0,L|32:96,1,82.5,8|0,3:0|0:0,0:0:0:0:
312,248,228834,2,0,L|360:248,1,24.74999924469,4|0,3:1|0:0,0:0:0:0:
48,176,229006,2,0,L|80:176,1,24.74999924469,0|0,3:0|0:0,0:0:0:0:
376,184,229179,2,0,L|336:176,1,24.74999924469,0|0,3:0|0:0,0:0:0:0:
48,72,229351,2,0,L|72:96,1,24.74999924469,0|0,3:0|0:0,0:0:0:0:
376,104,229524,6,0,L|344:104,1,24.74999924469,0|0,3:0|0:0,0:0:0:0:
64,232,229696,2,0,L|88:256,1,24.74999924469,0|0,3:0|0:0,0:0:0:0:
384,280,229868,2,0,L|424:264,1,24.74999924469,0|0,3:0|0:0,0:0:0:0:
216,208,230041,2,0,L|224:184,1,24.74999924469,0|0,3:0|0:0,0:0:0:0:
472,136,230213,6,0,L|432:136,1,24.74999924469,2|0,3:2|2:0,0:0:0:0:
176,80,230386,2,0,L|216:96,1,24.74999924469,2|0,3:2|2:0,0:0:0:0:
432,80,230558,2,0,L|408:104,1,24.74999924469,2|0,3:2|2:0,0:0:0:0:
88,248,230730,2,0,L|128:248,1,24.74999924469,2|0,3:2|2:0,0:0:0:0:
432,256,230903,6,0,L|400:256,1,24.74999924469,2|0,3:2|2:0,0:0:0:0:
40,184,231075,2,0,L|80:184,1,24.74999924469,2|0,3:2|2:0,0:0:0:0:
424,176,231248,1,2,3:2:0:0:
456,128,231334,1,0,2:0:0:0:
408,72,231420,1,2,3:2:0:0:
344,40,231506,1,0,2:0:0:0:
48,80,231592,5,4,3:1:0:0:
80,160,231678,1,0,0:0:0:0:
144,208,231764,1,0,0:0:0:0:
224,224,231850,1,0,2:0:0:0:
464,224,231936,2,0,L|432:368,1,148.49999546814,8|2,3:0|0:2,0:0:0:0:
96,224,232195,6,0,L|128:48,1,148.49999546814,0|0,3:0|2:0,0:0:0:0:
400,80,232454,2,0,L|480:80,1,74.2499977340699,0|0,3:0|2:0,0:0:0:0:
96,224,232626,2,0,L|16:224,1,74.2499977340699,8|0,3:0|0:0,0:0:0:0:
96,160,232798,2,0,L|176:160,1,74.2499977340699,2|0,0:2|2:0,0:0:0:0:
448,160,232971,6,0,L|256:160,1,148.49999546814,2|2,0:1|0:2,0:0:0:0:
368,112,233229,1,0,3:0:0:0:
144,112,233316,2,0,L|32:224,1,148.49999546814,8|2,3:0|2:2,0:0:0:0:
144,256,233574,6,0,L|256:144,1,148.49999546814,0|0,0:0|2:0,0:0:0:0:
480,144,233833,2,0,B|400:128|400:128,1,74.2499977340699,0|0,3:0|2:0,0:0:0:0:
136,64,234005,1,8,3:0:0:0:
208,96,234092,1,0,0:0:0:0:
224,160,234178,1,2,0:2:0:0:
168,224,234264,1,0,0:0:0:0:
416,224,234350,6,0,L|496:192,2,74.2499977340699,0|0|0,3:0|0:0|0:0,0:0:0:0:
64,224,234695,2,0,L|176:80,1,148.49999546814,8|2,3:0|0:2,0:0:0:0:
384,112,234954,2,0,L|480:96,1,74.2499977340699,0|0,3:0|0:0,0:0:0:0:
80,144,235212,2,0,L|176:112,1,74.2499977340699,0|0,3:0|2:0,0:0:0:0:
400,112,235385,2,0,L|448:176,2,74.2499977340699,8|0|2,3:0|0:0|0:2,0:0:0:0:
160,80,235643,6,0,L|48:192,1,148.49999546814,0|0,3:0|0:0,0:0:0:0:
352,208,235902,2,0,L|448:96,1,148.49999546814,2|8,3:2|3:0,0:0:0:0:
176,160,236247,2,0,L|96:128,1,74.2499977340699,2|0,2:2|3:0,0:0:0:0:
352,128,236419,2,0,L|432:144,1,74.2499977340699,0|0,0:0|2:0,0:0:0:0:
160,80,236592,2,0,L|272:64,1,74.2499977340699,0|0,3:0|2:0,0:0:0:0:
464,64,236764,2,0,L|288:64,1,148.49999546814,8|2,3:0|0:2,0:0:0:0:
48,64,237109,5,0,3:0:0:0:
80,144,237195,1,0,0:0:0:0:
160,160,237281,1,0,0:0:0:0:
464,160,237454,2,0,L|304:160,1,148.49999546814,8|2,3:0|0:2,0:0:0:0:
80,144,237712,2,0,L|80:304,1,148.49999546814,0|0,3:0|2:0,0:0:0:0:
336,288,237971,2,0,L|224:288,1,74.2499977340699,0|0,3:0|2:0,0:0:0:0:
32,288,238143,1,8,3:0:0:0:
16,208,238229,1,0,0:0:0:0:
48,144,238316,1,2,2:0:0:0:
128,96,238402,1,0,0:0:0:0:
336,96,238488,6,0,L|480:96,1,74.2499977340699,2|0,0:1|2:0,0:0:0:0:
144,192,238660,2,0,L|224:192,1,74.2499977340699,2|0,0:2|3:0,0:0:0:0:
448,192,238833,1,8,3:0:0:0:
64,176,239005,2,0,L|16:96,2,74.2499977340699,0|0|0,0:0|0:0|0:0,0:0:0:0:
128,176,239264,1,0,2:0:0:0:
352,176,239350,2,0,L|256:176,1,74.2499977340699,0|0,3:0|2:0,0:0:0:0:
25,112,239523,2,0,L|201:112,1,148.49999546814,8|2,3:0|0:2,0:0:0:0:
233,112,239781,1,0,0:0:0:0:
456,112,239867,6,0,L|488:32,2,74.2499977340699,0|0|0,3:0|0:0|0:0,0:0:0:0:
128,136,240212,2,0,L|276:136,1,148.49999546814,8|2,3:0|0:2,0:0:0:0:
480,136,240471,1,0,3:0:0:0:
432,136,240557,1,0,0:0:0:0:
352,136,240643,1,0,0:0:0:0:
64,136,240729,2,0,L|168:136,1,74.2499977340699,0|0,3:0|2:0,0:0:0:0:
344,136,240902,2,0,L|432:144,2,74.2499977340699,8|0|2,3:0|0:0|0:2,0:0:0:0:
80,224,241160,6,0,P|32:168|120:88,1,148.49999546814,0|0,3:0|0:0,0:0:0:0:
304,104,241419,2,0,L|392:104,1,74.2499977340699,0|0,0:0|0:0,0:0:0:0:
152,104,241592,2,0,L|80:56,2,74.2499977340699,8|0|2,3:0|0:0|2:2,0:0:0:0:
368,104,241850,2,0,L|464:96,1,74.2499977340699,0|0,3:0|0:0,0:0:0:0:
160,80,242023,2,0,L|72:32,2,74.2499977340699,0|0|0,2:0|3:0|2:0,0:0:0:0:
416,256,242281,2,0,P|472:200|440:104,1,148.49999546814,8|0,3:0|0:0,0:0:0:0:
400,96,242540,1,0,2:0:0:0:
120,96,242626,5,4,3:1:0:0:
72,160,242712,1,0,0:0:0:0:
112,232,242798,1,0,0:0:0:0:
176,272,242884,1,0,0:0:0:0:
392,272,242970,2,0,L|232:272,1,148.49999546814,0|0,0:0|0:0,0:0:0:0:
40,272,243229,6,0,L|200:272,1,148.49999546814,0|0,3:0|2:0,0:0:0:0:
416,272,243488,2,0,L|496:272,1,74.2499977340699,0|0,3:0|2:0,0:0:0:0:
200,208,243660,2,0,L|136:160,1,74.2499977340699,8|0,3:0|0:0,0:0:0:0:
200,96,243832,2,0,L|120:96,1,74.2499977340699,0|0,0:0|0:0,0:0:0:0:
344,168,244005,6,0,L|536:168,1,148.49999546814,2|2,0:0|0:2,0:0:0:0:
408,112,244263,1,0,0:0:0:0:
144,112,244350,2,0,P|96:184|136:232,1,148.49999546814,8|2,3:0|2:2,0:0:0:0:
224,224,244608,6,0,L|376:224,1,148.49999546814,0|0,0:0|0:0,0:0:0:0:
80,160,244867,2,0,B|160:144|160:144,1,74.2499977340699,0|0,3:0|2:0,0:0:0:0:
376,120,245039,1,0,0:0:0:0:
446,174,245126,1,0,0:0:0:0:
464,248,245212,1,2,0:2:0:0:
416,320,245298,1,0,0:0:0:0:
88,288,245384,6,0,L|8:256,2,74.2499977340699
416,320,245729,2,0,L|448:160,1,148.49999546814,8|2,3:0|3:2,0:0:0:0:
56,192,245988,2,0,L|152:176,1,74.2499977340699,0|0,3:0|0:0,0:0:0:0:
446,174,246246,2,0,L|350:142,1,74.2499977340699,0|0,0:0|0:0,0:0:0:0:
152,152,246419,2,0,L|104:216,2,74.2499977340699,8|0|2,3:0|0:0|0:2,0:0:0:0:
352,80,246677,6,0,L|296:232,1,148.49999546814,0|0,0:0|0:0,0:0:0:0:
56,208,246936,2,0,L|176:208,1,74.2499977340699,0|0,0:0|0:0,0:0:0:0:
400,216,247109,1,8,3:0:0:0:
120,152,247281,2,0,L|40:120,1,74.2499977340699,0|0,0:0|3:0,0:0:0:0:
352,128,247453,2,0,L|432:144,1,74.2499977340699,0|0,0:0|2:0,0:0:0:0:
160,80,247626,2,0,L|272:64,1,74.2499977340699,0|0,3:0|2:0,0:0:0:0:
464,64,247798,2,0,L|288:64,1,148.49999546814,8|2,3:0|3:2,0:0:0:0:
40,120,248144,6,0,L|40:272,1,148.49999546814,8|0,3:0|0:0,0:0:0:0:
456,296,248489,2,0,L|464:112,1,148.49999546814,8|0,3:0|0:0,0:0:0:0:
72,120,248834,2,0,L|224:112,1,148.49999546814,8|0,3:0|2:0,0:0:0:0:
464,104,249092,2,0,L|272:96,1,148.49999546814,8|0,3:0|2:0,0:0:0:0:
72,112,249351,2,0,L|176:104,1,74.2499977340699,8|0,3:0|2:0,0:0:0:0:
408,128,249524,6,0,L|440:288,1,148.49999546814,8|0,3:0|0:0,0:0:0:0:
48,304,249868,2,0,L|80:128,1,148.49999546814,8|0,3:0|0:0,0:0:0:0:
408,152,250213,2,0,L|232:152,1,148.49999546814,8|0,3:0|2:0,0:0:0:0:
40,152,250472,2,0,L|224:152,1,148.49999546814,8|0,3:0|2:0,0:0:0:0:
432,160,250730,2,0,L|384:344,1,148.49999546814,8|0,3:0|2:0,0:0:0:0:
128,304,250989,6,0,L|32:304,2,74.2499977340699,8|0|8,3:0|0:0|3:0,0:0:0:0:
400,224,251248,2,0,L|320:208,1,74.2499977340699,8|8,3:0|3:0,0:0:0:0:
72,200,251420,2,0,L|160:160,1,74.2499977340699,8|8,3:0|3:0,0:0:0:0:
384,144,251593,2,0,L|288:128,1,74.2499977340699,8|0,3:0|0:0,0:0:0:0:
48,112,251765,2,0,L|136:112,1,74.2499977340699,8|8,3:0|3:0,0:0:0:0:
352,80,251938,2,0,L|248:80,1,74.2499977340699,8|8,3:0|3:0,0:0:0:0:
48,64,252110,2,0,L|144:64,1,74.2499977340699,0|8,0:0|3:0,0:0:0:0:
464,160,252282,1,0,0:0:0:0:
144,240,252972,6,0,L|32:240,1,82.5,8|0,3:0|0:0,0:0:0:0:
328,184,253230,2,0,L|416:184,1,82.5,8|0,3:0|0:0,0:0:0:0:
48,152,253489,1,8,3:0:0:0:
432,168,253661,6,0,L|264:136,1,165,0|0,0:0|0:0,0:0:0:0:
80,192,254179,1,0,3:0:0:0:
16,192,254265,1,0,3:0:0:0:
288,192,254351,38,0,L|192:192,1,82.5,8|0,3:0|2:0,0:0:0:0:
80,176,254610,2,0,L|176:176,1,82.5,0|0,0:0|2:0,0:0:0:0:
464,160,254868,2,0,P|488:88|416:72,1,165,0|0,3:0|2:0,0:0:0:0:
344,72,255299,1,0,0:0:0:0:
128,64,255386,1,0,3:0:0:0:
64,64,255472,2,0,P|32:96|64:128,1,82.5,0|0,0:0|0:0,0:0:0:0:
448,272,255730,37,8,3:0:0:0:
480,224,255817,1,0,0:0:0:0:
464,176,255903,1,0,0:0:0:0:
416,144,255989,1,0,0:0:0:0:
368,128,256075,1,0,0:0:0:0:
336,96,256161,1,0,0:0:0:0:
352,48,256248,1,0,0:0:0:0:
416,32,256334,1,0,0:0:0:0:
144,176,256420,6,0,L|16:176,1,123.75,0|0,3:0|2:0,0:0:0:0:
64,160,256765,1,0,0:0:0:0:
128,160,256851,1,0,2:0:0:0:
384,160,256937,1,0,3:0:0:0:
464,160,257024,1,0,3:0:0:0:
224,80,257110,38,0,L|128:80,1,82.5,8|0,3:0|2:0,0:0:0:0:
32,80,257368,2,0,L|128:80,1,82.5,0|0,0:0|2:0,0:0:0:0:
368,96,257627,6,0,L|496:96,1,123.75,0|0,3:0|2:0,0:0:0:0:
192,96,257972,2,0,L|144:96,1,41.25,0|0,3:0|2:0,0:0:0:0:
432,176,258144,2,0,B|480:224|480:272|416:288,1,123.75,0|0,3:0|0:0,0:0:0:0:
144,304,258489,37,8,3:0:0:0:
64,272,258575,1,0,0:0:0:0:
32,240,258661,1,0,0:0:0:0:
16,192,258748,1,0,0:0:0:0:
32,144,258834,1,0,0:0:0:0:
64,112,258920,1,0,0:0:0:0:
144,64,259006,1,0,3:0:0:0:
224,48,259092,1,0,2:0:0:0:
480,208,259179,6,0,P|496:160|384:96,1,206.25,0|0,3:0|2:0,0:0:0:0:
176,96,259696,2,0,L|128:96,1,41.25,0|0,3:0|3:0,0:0:0:0:
352,96,259868,2,0,L|448:96,1,82.5,8|0,3:0|2:0,0:0:0:0:
288,64,260127,2,0,L|192:64,1,82.5,0|0,0:0|2:0,0:0:0:0:
496,272,260386,6,0,P|512:224|416:160,1,165,0|0,3:0|2:0,0:0:0:0:
368,160,260817,1,0,3:0:0:0:
112,160,260903,2,0,L|0:160,1,82.5,0|0,3:0|0:0,0:0:0:0:
112,160,261161,1,0,0:0:0:0:
448,192,261248,2,0,P|464:144|288:128,1,288.75,8|0,3:0|0:0,0:0:0:0:
64,96,261937,6,0,P|32:128|112:192,1,165,0|8,3:0|3:0,0:0:0:0:
288,192,262455,2,0,L|352:192,1,41.25,0|0,3:0|3:0,0:0:0:0:
96,304,262627,2,0,L|0:304,1,82.5,8|0,3:0|2:0,0:0:0:0:
144,256,262886,2,0,L|240:256,1,82.5,0|0,0:0|2:0,0:0:0:0:
448,256,263144,6,0,L|352:256,2,82.5,0|0|0,3:0|0:0|3:0,0:0:0:0:
112,256,263661,2,0,P|72:208|88:128,1,123.75,0|0,3:0|2:0,0:0:0:0:
328,80,264006,2,0,P|400:136|280:256,1,288.75,8|0,3:0|0:0,0:0:0:0:
80,264,264696,5,0,3:0:0:0:
224,176,264868,1,4,3:0:0:0:
144,160,264955,1,4,3:0:0:0:
368,112,265041,1,4,3:0:0:0:
432,88,265127,1,0,3:0:0:0:
112,72,265214,1,0,3:0:0:0:
48,72,265300,1,0,3:0:0:0:
272,192,265386,6,0,L|368:192,1,82.5,8|0,3:0|2:0,0:0:0:0:
480,176,265645,2,0,L|384:176,1,82.5,0|0,0:0|2:0,0:0:0:0:
96,160,265903,2,0,P|56:128|136:72,1,165,0|0,3:0|2:0,0:0:0:0:
192,64,266334,1,0,0:0:0:0:
384,64,266421,1,0,3:0:0:0:
448,64,266507,2,0,P|480:96|448:128,1,82.5,0|0,0:0|0:0,0:0:0:0:
64,272,266765,37,8,3:0:0:0:
32,224,266852,1,0,0:0:0:0:
48,176,266938,1,0,0:0:0:0:
96,144,267024,1,0,0:0:0:0:
144,128,267110,1,0,0:0:0:0:
176,96,267196,1,0,0:0:0:0:
160,48,267283,1,0,0:0:0:0:
96,32,267369,1,0,0:0:0:0:
368,176,267455,6,0,L|496:176,1,123.75,0|0,3:0|2:0,0:0:0:0:
448,160,267800,1,0,0:0:0:0:
384,160,267886,1,0,2:0:0:0:
128,160,267972,1,0,3:0:0:0:
48,160,268059,1,0,3:0:0:0:
288,80,268145,38,0,L|384:80,1,82.5,8|0,3:0|2:0,0:0:0:0:
480,80,268403,2,0,L|384:80,1,82.5,0|0,0:0|2:0,0:0:0:0:
144,96,268662,6,0,L|16:96,1,123.75,0|0,3:0|2:0,0:0:0:0:
320,96,269007,2,0,L|368:96,1,41.25,0|0,3:0|2:0,0:0:0:0:
80,176,269179,2,0,B|32:224|32:272|96:288,1,123.75,0|0,3:0|2:0,0:0:0:0:
368,304,269524,37,8,3:0:0:0:
448,272,269610,1,0,0:0:0:0:
480,240,269696,1,0,0:0:0:0:
192,224,269783,1,8,3:0:0:0:
224,176,269869,1,0,0:0:0:0:
296,152,269955,1,0,0:0:0:0:
488,160,270041,1,8,3:0:0:0:
408,152,270127,1,0,0:0:0:0:
176,144,270213,6,0,L|16:144,1,140.250002675056,8|0,3:0|0:0,0:0:0:0:
336,112,270558,2,0,L|488:112,1,140.250002675056,8|0,3:0|2:0,0:0:0:0:
400,72,270817,1,0,3:0:0:0:
48,72,270903,2,0,L|200:72,1,140.250002675056,8|0,3:0|2:0,0:0:0:0:
496,192,271248,2,0,L|320:192,1,140.250002675056,8|0,3:0|2:0,0:0:0:0:
71,210,271592,6,0,L|47:66,1,140.250002675056,8|0,3:0|2:0,0:0:0:0:
441,210,271937,2,0,L|465:66,1,140.250002675056,8|0,3:0|0:0,0:0:0:0:
104,72,272282,2,0,L|64:240,1,140.250002675056,8|0,3:0|0:0,0:0:0:0:
408,72,272627,2,0,L|448:240,1,140.250002675056,0|0,0:0|0:0,0:0:0:0:
112,272,272972,6,0,L|0:168,1,140.250002675056,8|0,3:0|0:0,0:0:0:0:
320,240,273230,2,0,L|432:136,1,140.250002675056,8|0,3:0|0:0,0:0:0:0:
176,144,273489,6,0,L|24:144,1,140.250002675056,8|0,3:0|0:0,0:0:0:0:
272,112,273748,2,0,L|424:112,1,140.250002675056,8|0,3:0|0:0,0:0:0:0:
128,104,274006,6,0,L|40:96,1,70.1250013375282,8|0,3:0|0:0,0:0:0:0:
344,136,274179,2,0,L|432:136,1,70.1250013375282,8|0,3:0|0:0,0:0:0:0:
96,288,274351,5,2,0:0:0:0:
256,192,274524,12,4,275730,3:1:0:0:
272,96,276075,6,0,L|224:96,1,41.25,0|0,0:0|0:0,0:0:0:0:
96,96,276420,2,0,L|144:96,1,41.25,0|0,0:0|0:0,0:0:0:0:
320,96,276765,2,0,P|368:160|320:224,1,165,0|0,0:0|0:0,0:0:0:0:
272,208,277627,1,0,0:0:0:0:
128,208,277799,2,0,L|174:208,1,41.25,0|0,0:0|0:0,0:0:0:0:
336,208,278144,6,0,P|432:144|432:96,1,165,0|0,0:0|0:0,0:0:0:0:
400,112,279006,1,0,0:0:0:0:
256,96,279179,2,0,L|297:96,1,41.25,0|0,0:0|0:0,0:0:0:0:
144,96,279524,6,0,P|96:160|144:224,1,165,0|0,0:0|0:0,0:0:0:0:
160,224,280386,1,0,0:0:0:0:
304,224,280558,2,0,L|256:224,1,41.25,0|0,0:0|0:0,0:0:0:0:
96,192,280903,6,0,P|112:112|192:96,1,165,0|0,0:0|0:0,0:0:0:0:
432,176,281937,2,0,L|463:127,1,41.25,0|0,0:0|0:0,0:0:0:0:
320,144,282282,2,0,L|327:100,1,41.25,0|0,0:0|0:0,0:0:0:0:
160,144,282627,2,0,P|128:112|160:80,1,82.5,0|0,0:0|0:0,0:0:0:0:
272,80,283317,6,0,L|240:48,1,41.25,0|0,0:0|0:0,0:0:0:0:
368,48,283662,2,0,L|336:16,1,41.25,0|0,0:0|0:0,0:0:0:0:
176,32,284006,2,0,P|152:56|192:88,1,82.5,0|0,0:0|0:0,0:0:0:0:
414,192,284696,6,0,L|368:192,1,41.25,0|0,0:0|0:0,0:0:0:0:
272,192,285041,2,0,L|320:192,1,41.25,0|0,0:0|0:0,0:0:0:0:
160,192,285386,2,0,P|128:160|144:128,1,82.5,8|0,0:0|0:0,0:0:0:0:
416,80,286075,6,0,L|368:80,1,41.25,0|0,0:0|0:0,0:0:0:0:
240,80,286420,2,0,L|287:79,1,41.25,0|0,0:0|0:0,0:0:0:0:
144,80,286765,2,0,L|96:80,1,41.25,2|0,0:0|0:0,0:0:0:0:
288,112,287110,2,0,L|336:112,1,41.25,0|0,0:0|0:0,0:0:0:0:
480,160,287455,2,0,L|424:160,1,41.25,0|0,0:0|0:0,0:0:0:0:
235,206,287799,6,0,P|195:160|243:78,1,165,0|0,0:0|0:0,0:0:0:0:
304,32,288661,1,0,0:0:0:0:
400,32,288834,1,0,0:0:0:0:
480,64,289006,1,0,0:0:0:0:
288,256,289179,6,0,P|248:210|296:120,1,165,0|0,0:0|0:0,0:0:0:0:
336,112,290041,1,0,0:0:0:0:
224,80,290213,2,0,L|168:80,1,41.25,0|0,0:0|0:0,0:0:0:0:
368,64,290558,6,0,P|408:110|372:204,1,165,0|0,0:0|0:0,0:0:0:0:
288,240,291420,1,0,0:0:0:0:
192,224,291592,1,0,0:0:0:0:
96,160,291765,1,0,0:0:0:0:
288,208,291937,6,0,P|328:162|292:68,1,165,0|0,0:0|0:0,0:0:0:0:
112,144,292972,2,0,L|112:92,1,41.25,0|0,0:0|0:0,0:0:0:0:
224,128,293317,2,0,L|212:76,1,41.25,0|0,0:0|0:0,0:0:0:0:
384,64,293661,2,0,P|336:56|288:72,1,82.5,0|0,0:0|0:0,0:0:0:0:
160,144,294351,6,0,L|156:100,1,41.25,0|0,0:0|0:0,0:0:0:0:
48,144,294696,2,0,L|60:92,1,41.25,0|0,0:0|0:0,0:0:0:0:
256,96,295041,2,0,P|303:88|348:100,1,82.5,0|0,0:0|0:0,0:0:0:0:
200,192,295730,38,0,L|204:140,1,41.25,0|0,0:0|0:0,0:0:0:0:
108,196,296075,2,0,L|96:144,1,41.25,0|0,0:0|0:0,0:0:0:0:
280,144,296420,2,0,P|336:128|360:104,1,82.5,8|0,0:0|0:0,0:0:0:0:
200,192,297110,38,0,L|204:140,1,41.25,0|0,0:0|0:0,0:0:0:0:
108,196,297455,2,0,L|96:144,2,41.25,0|0|0,0:0|0:0|0:0,0:0:0:0:
272,96,298144,6,0,L|224:96,1,41.25,0|0,0:0|0:0,0:0:0:0:
96,96,298489,2,0,L|144:96,1,41.25,2|0,0:0|0:0,0:0:0:0:
320,96,298834,2,0,P|368:160|320:224,1,165,2|2,0:0|0:0,0:0:0:0:
272,208,299696,1,0,0:0:0:0:
128,208,299868,2,0,L|174:208,1,41.25,2|0,0:0|0:0,0:0:0:0:
336,208,300213,6,0,P|432:144|432:96,1,165,2|2,0:0|0:0,0:0:0:0:
400,112,301075,1,0,0:0:0:0:
256,96,301248,2,0,L|297:96,1,41.25,2|0,0:0|0:0,0:0:0:0:
144,96,301593,6,0,P|96:160|144:224,1,165,2|2,0:0|0:0,0:0:0:0:
160,224,302455,1,0,0:0:0:0:
304,224,302627,2,0,L|256:224,1,41.25,2|0,0:0|0:0,0:0:0:0:
96,192,302972,6,0,P|112:112|192:96,1,165,2|2,0:0|0:0,0:0:0:0:
432,176,304006,2,0,L|463:127,1,41.25,2|0,0:0|0:0,0:0:0:0:
320,144,304351,2,0,L|327:100,1,41.25,2|0,0:0|0:0,0:0:0:0:
160,144,304696,2,0,P|128:112|160:80,1,82.5,2|2,0:0|0:0,0:0:0:0:
272,80,305386,6,0,L|240:48,1,41.25,2|0,0:0|0:0,0:0:0:0:
368,48,305731,2,0,L|336:16,1,41.25,2|0,0:0|0:0,0:0:0:0:
176,32,306075,2,0,P|152:56|192:88,1,82.5,2|2,0:0|0:0,0:0:0:0:
414,192,306765,6,0,L|368:192,1,41.25,2|0,0:0|0:0,0:0:0:0:
272,192,307110,2,0,L|320:192,1,41.25,2|0,0:0|0:0,0:0:0:0:
160,192,307455,2,0,P|128:160|144:128,1,82.5,2|2,0:0|0:0,0:0:0:0:
416,80,308144,6,0,L|368:80,1,41.25,2|0,0:0|0:0,0:0:0:0:
240,80,308489,2,0,L|287:79,1,41.25,2|0,0:0|0:0,0:0:0:0:
144,80,308834,2,0,L|96:80,1,41.25,2|0,0:0|0:0,0:0:0:0:
288,112,309179,2,0,L|336:112,1,41.25,2|0,0:0|0:0,0:0:0:0:
480,160,309524,2,0,L|424:160,1,41.25,2|0,0:0|0:0,0:0:0:0:
235,206,309868,6,0,P|195:160|243:78,1,165,2|2,0:0|0:0,0:0:0:0:
304,32,310730,1,0,0:0:0:0:
400,32,310903,1,2,0:0:0:0:
480,64,311075,1,0,0:0:0:0:
288,256,311248,6,0,P|248:210|296:120,1,165,2|2,0:0|0:0,0:0:0:0:
336,112,312110,1,0,0:0:0:0:
224,80,312282,2,0,L|168:80,1,41.25,2|0,0:0|0:0,0:0:0:0:
368,64,312627,6,0,P|408:110|372:204,1,165,2|2,0:0|0:0,0:0:0:0:
288,240,313489,1,0,0:0:0:0:
192,224,313661,1,2,0:0:0:0:
96,160,313834,1,0,0:0:0:0:
288,208,314006,6,0,P|328:162|292:68,1,165,2|2,0:0|0:0,0:0:0:0:
112,144,315041,2,0,L|112:92,1,41.25,2|0,0:0|0:0,0:0:0:0:
224,128,315386,2,0,L|212:76,1,41.25,2|0,0:0|0:0,0:0:0:0:
384,64,315730,2,0,P|336:56|288:72,1,82.5,2|2,0:0|0:0,0:0:0:0:
160,144,316420,6,0,L|156:100,1,41.25,2|0,0:0|0:0,0:0:0:0:
48,144,316765,2,0,L|60:92,1,41.25,2|0,0:0|0:0,0:0:0:0:
256,96,317110,2,0,P|303:88|348:100,1,82.5,2|2,0:0|0:0,0:0:0:0:
200,192,317799,38,0,L|204:140,1,41.25,2|0,0:0|0:0,0:0:0:0:
108,196,318144,2,0,L|96:144,1,41.25,2|0,0:0|0:0,0:0:0:0:
280,144,318489,1,2,0:0:0:0:
256,192,319179,12,0,324006,0:0:0:0:
