osu file format v14

[General]
AudioFilename: audio.mp3
AudioLeadIn: 0
PreviewTime: 208144
Countdown: 0
SampleSet: Soft
StackLeniency: 0.3
Mode: 0
LetterboxInBreaks: 0
WidescreenStoryboard: 1

[Editor]
Bookmarks: 187057
DistanceSpacing: 0.5
BeatDivisor: 4
GridSize: 16
TimelineZoom: 2.899999

[Metadata]
Title:flying in the flow of deep-sea
TitleUnicode:flying in the flow of deep-sea
Artist:Camellia
ArtistUnicode:Camellia
Creator:Ahntaea
Version:wet
Source:
Tags:planet shaper planet//shaper alternative kamel cametek c88 dubstep electronic electro
BeatmapID:1076338
BeatmapSetID:506001

[Difficulty]
HPDrainRate:5.6
CircleSize:3.7
OverallDifficulty:9
ApproachRate:9.3
SliderMultiplier:1.95
SliderTickRate:2

[Events]
//Background and Video events
0,0,"rsz_hdk2ze.png",0,0
//Break Periods
2,54251,57835
2,169914,174221
//Storyboard Layer 0 (Background)
//Storyboard Layer 1 (Fail)
//Storyboard Layer 2 (Pass)
//Storyboard Layer 3 (Foreground)
//Storyboard Sound Samples

[TimingPoints]
2004,361.44578313253,4,2,2,20,1,0
2275,-200,4,2,2,10,0,0
9594,-200,4,2,2,15,0,0
17365,-150.15015015015,4,2,2,20,0,0
22154,-150.15015015015,4,2,1,20,0,0
25136,-333,4,2,1,20,0,0
26582,-333,4,2,3,50,0,0
26672,-333,4,2,1,20,0,0
29473,-333,4,2,1,50,0,0
30919,-333,4,2,1,20,0,0
32365,-333,4,2,3,50,0,0
32455,-333,4,2,1,20,0,0
35257,-333,4,2,1,50,0,0
36702,-333,4,2,1,20,0,0
38148,-333,4,2,3,50,0,0
38238,-333,4,2,1,20,0,0
41040,-333,4,2,1,50,0,0
41220,-333,4,2,1,20,0,0
42485,-333,4,2,1,20,0,0
43931,-333,4,2,3,50,0,0
44022,-333,4,2,1,20,0,0
46823,-333,4,2,1,100,0,0
46913,-333,4,2,1,20,0,0
62726,-100,4,2,1,20,0,0
64172,-100,4,2,1,30,0,0
65618,-100,4,2,1,40,0,0
66702,-100,4,2,1,45,0,0
68510,-200,4,2,1,100,0,0
68555,-200,4,2,1,20,0,0
69232,-200,4,2,1,15,0,0
69413,-200,4,2,1,5,0,0
69594,-200,4,2,1,15,0,0
69775,-200,4,2,1,20,0,0
69955,-200,4,2,1,28,0,0
70136,-200,4,2,1,35,0,0
70317,-200,4,2,1,45,0,0
70497,-200,4,2,1,52,0,0
70678,-100,4,2,1,60,0,0
70859,-100,4,2,1,52,0,0
71401,-100,4,1,1,52,0,0
71943,-66.6666666666667,4,1,1,52,0,0
74293,-153.846153846153,4,1,1,52,0,0
74654,-66.6666666666667,4,1,1,52,0,0
78449,-100,4,1,1,52,0,0
78811,-66.6666666666667,4,1,1,52,0,0
79353,-181.818181818181,4,1,1,52,0,0
80076,-100,4,1,1,52,0,0
80799,-66.6666666666667,4,1,1,52,0,0
81341,-50,4,1,1,52,0,0
84232,-66.6666666666667,4,1,1,52,0,0
85859,-58.8235294117647,4,1,1,52,0,0
97425,-153.846153846153,4,1,1,52,0,0
97967,-62.5,4,1,1,52,0,0
103208,-133.333333333333,4,1,1,52,0,0
103931,-66.6666666666667,4,1,1,52,0,0
106100,-66.6666666666667,4,1,1,5,0,0
106823,-66.6666666666667,4,1,1,52,0,0
108991,-85.7191839533688,4,1,1,52,0,0
115317,-66.6666666666667,4,1,1,52,0,0
118208,-66.6666666666667,4,2,1,23,0,0
118389,-133.333333333333,4,2,1,23,0,0
118931,-66.6666666666667,4,2,1,23,0,0
121823,-133.333333333333,4,2,1,23,0,0
123449,-100,4,2,1,42,0,0
123901,-100,4,2,1,5,0,0
123991,-66.6666666666667,4,2,1,42,0,0
127606,-181.818181818181,4,2,1,42,0,0
129232,-66.6666666666667,4,2,1,42,0,0
129684,-66.6666666666667,4,2,1,5,0,0
129775,-66.6666666666667,4,2,1,42,0,0
130317,-166.666666666667,4,2,1,47,0,0
133208,-100,4,2,1,42,0,0
135016,-166.666666666667,4,2,1,42,0,0
138630,-200,4,2,1,42,0,0
139172,-166.666666666667,4,2,1,42,0,0
161898,-166.666666666667,4,2,1,12,0,0
163208,-166.666666666667,4,2,1,42,0,0
165377,-333.333333333333,4,2,1,42,0,0
175497,-133.333333333333,4,2,1,42,0,0
185979,-83.3333333333333,4,2,1,42,0,0
188509,359.281437125748,4,2,1,40,1,0
189947,357.142857142857,4,2,1,45,1,0
192807,354.097199681313,4,2,1,50,1,0
194223,353.097199681312,4,2,1,50,1,0
197047,350.877192982456,4,2,1,55,1,0
198450,348.938644954929,4,2,1,60,1,0
201241,346.820809248555,4,2,1,65,1,0
202630,344.827586206897,4,2,1,65,1,0
204007,344.827586206897,4,2,1,70,1,0
208144,-125,4,2,1,90,0,0
208188,-125,4,2,1,64,0,0
209524,344.827586206897,4,1,1,64,1,1
214006,-66.6666666666667,4,1,1,64,0,1
228489,-71.4285714285714,4,2,1,34,0,0
231592,-52.6315789473684,4,1,1,64,0,1
248489,-66.6666666666667,4,1,1,64,0,1
249092,-52.6315789473684,4,1,1,64,0,1
253661,-83.3333333333333,4,2,1,50,0,0
261937,-76.9230769230769,4,2,1,50,0,0
263144,-133.333333333333,4,2,1,50,0,0
263661,-66.6666666666667,4,2,1,50,0,0
275730,-200,4,2,1,50,0,0
281248,-250,4,2,1,50,0,0
297282,-250,4,2,1,10,0,0
298144,-100,4,2,1,8,0,0
306420,-116.279069767442,4,2,1,8,0,0
318144,-100,4,2,1,5,0,0

[Colours]
Combo1 : 255,220,0
Combo2 : 185,183,183
Combo3 : 128,255,217
Combo4 : 83,165,255

[HitObjects]
198,128,2364,6,0,L|190:241,1,97.5
260,294,2907,2,0,L|264:237,2,48.75
377,336,3811,6,0,P|404:268|428:251,1,97.5
489,190,4353,2,0,L|518:243,2,48.75
381,115,5257,6,0,B|349:147|349:147|285:147,1,97.5
211,102,5799,2,0,L|176:145,2,48.75
67,164,6702,6,0,P|87:223|65:262,1,97.5
152,310,7244,2,0,L|128:361,2,48.75
247,286,7787,5,0,0:0:0:0:
436,242,8148,1,0,0:0:0:0:
400,107,8510,5,0,0:0:0:0:
300,119,8690,2,0,P|345:126|364:137,1,48.75
236,134,9052,2,0,P|281:127|300:116,1,48.75
104,75,9594,5,0,0:0:0:0:
43,169,9955,2,0,P|64:197|71:232,1,48.75
60,258,10317,1,0,0:0:0:0:
52,305,10497,2,0,P|61:327|77:345,1,48.75
228,284,11040,5,0,0:0:0:0:
352,356,11401,2,0,P|365:325|359:293,1,48.75
240,345,11763,2,0,P|269:329|285:301,1,48.75
455,289,12124,1,0,0:0:0:0:
279,318,12485,5,0,0:0:0:0:
262,140,12847,2,0,L|244:205,3,48.75
103,108,13750,5,0,0:0:0:0:
141,197,13931,2,0,L|93:87,1,97.5
195,118,14473,2,0,L|251:125,1,48.75
295,207,14835,2,0,L|239:200,1,48.75
92,304,15377,6,0,P|129:291|206:296,1,97.5
50,318,15919,1,0,0:0:0:0:
136,362,16100,1,0,0:0:0:0:
215,305,16281,1,0,0:0:0:0:
301,349,16462,1,0,0:0:0:0:
400,256,16823,6,0,B|419:222|419:222|437:217|437:217|457:183|457:183,1,97.5
388,155,17365,2,0,P|353:154|324:171,1,64.9350015853272
262,281,17726,2,0,P|296:281|326:265,1,64.9350015853272
486,81,18269,6,0,B|440:92|402:69|357:80,1,129.870003170654
269,137,18811,1,0,0:0:0:0:
165,131,18991,1,0,0:0:0:0:
76,76,19172,1,0,0:0:0:0:
69,179,19353,1,0,0:0:0:0:
76,318,19714,6,0,B|75:335|42:357|42:357|69:355|96:367|96:367|134:367,1,129.870003170654
112,313,20257,1,0,0:0:0:0:
162,290,20437,1,0,0:0:0:0:
199,331,20618,1,0,0:0:0:0:
171,379,20799,1,0,0:0:0:0:
485,246,21160,6,0,L|346:283,1,129.870003170654
240,160,21702,2,0,B|281:167|281:167|321:188|321:188|363:196,1,129.870003170654
320,16,22244,2,0,B|304:80|304:80|368:96,3,129.870003170654
119,219,23690,5,0,0:0:0:0:
413,266,23931,1,0,0:0:0:0:
256,254,24172,1,0,0:0:0:0:
135,55,24413,5,0,0:0:0:0:
256,254,24654,1,0,0:0:0:0:
376,54,24895,1,0,0:0:0:0:
12,95,25136,6,0,B|80:65|99:138|178:114|178:114|135:148|139:187|139:187|82:187|82:187|112:263|74:335|74:335|137:271|219:257|298:282,1,702.702702702703,0|8,0:0|0:0,0:0:0:0:
415,307,29654,2,0,P|453:312|473:310,2,58.5585585585586
415,307,30919,6,0,B|420:211|364:151|263:133|183:200|183:200|183:283|183:283|150:323|103:329|65:313|43:285|43:248|43:248|43:148,1,702.702702702703,0|8,0:0|0:0,0:0:0:0:
23,125,36702,6,0,B|72:141|91:177|91:177|104:156|111:114|102:91|102:91|119:80|179:94|260:103|334:55|334:55|413:0|495:64|506:142|437:200,1,702.702702702703,0|8,0:0|0:0,0:0:0:0:
400,215,41220,1,0,0:0:0:0:
137,234,41582,5,0,0:0:0:0:
285,204,41943,1,0,0:0:0:0:
397,322,42305,1,0,0:0:0:0:
462,366,42485,6,0,B|395:366|355:330|341:285|341:285|415:224|474:256|474:256|433:184|433:184|366:109|429:35|486:56|490:167|318:194,1,702.702702702703,0|8,0:0|0:0,0:0:0:0:
152,128,47546,6,0,L|148:151,1,14.6396396396396
154,214,47726,2,0,L|158:191,1,14.6396396396396
255,281,47907,2,0,L|259:258,1,14.6396396396396
253,195,48087,2,0,L|249:218,1,14.6396396396396
296,221,48269,6,0,P|233:211|205:223,1,87.8378378378378
208,358,48991,2,0,P|248:308|251:278,1,87.8378378378378
64,96,49714,2,0,B|139:121|189:70|266:97,1,204.954954954955
350,306,51160,6,0,L|441:293,1,87.8378378378378
245,246,51883,2,0,L|336:233,1,87.8378378378378
131,347,52606,2,0,L|222:334,1,87.8378378378378
279,202,53329,2,0,L|208:212,2,58.5585585585586
480,160,58389,5,8,0:0:0:0:
105,135,59112,6,0,L|106:153,1,14.6396396396396
215,287,59293,2,0,L|216:305,1,14.6396396396396
142,186,59473,2,0,L|143:204,1,14.6396396396396
178,236,59654,2,0,L|179:254,1,14.6396396396396
228,279,59835,6,0,P|301:312|331:300,3,117.117117117117
228,279,62726,5,0,3:0:0:0:
193,248,62907,1,0,3:0:0:0:
172,202,63088,1,0,3:0:0:0:
170,146,63269,1,0,3:0:0:0:
188,87,63449,1,0,3:0:0:0:
236,40,63630,1,0,3:0:0:0:
309,45,63811,1,0,3:0:0:0:
369,95,63991,1,0,3:0:0:0:
389,177,64172,5,0,3:0:0:0:
338,252,64353,1,0,3:0:0:0:
238,275,64534,1,0,3:0:0:0:
132,225,64714,1,0,3:0:0:0:
115,94,64895,1,0,3:0:0:0:
247,30,65076,1,0,3:0:0:0:
356,156,65257,1,0,3:0:0:0:
195,85,65437,1,0,3:0:0:0:
305,249,65618,5,0,3:0:0:0:
113,284,65799,1,0,3:0:0:0:
206,113,65979,1,0,3:0:0:0:
26,211,66160,1,0,3:0:0:0:
220,302,66341,1,0,3:0:0:0:
117,102,66522,1,0,3:0:0:0:
333,188,66702,1,0,3:0:0:0:
125,317,66883,1,0,3:0:0:0:
194,72,67064,5,0,3:0:0:0:
281,319,67244,1,0,3:0:0:0:
59,158,67425,1,0,3:0:0:0:
331,234,67606,1,0,3:0:0:0:
46,305,67787,5,0,3:0:0:0:
309,160,67967,1,0,3:0:0:0:
14,92,68148,5,0,3:0:0:0:
159,368,68329,1,0,3:0:0:0:
131,171,68510,6,0,B|113:157|104:129|104:129|75:182|30:185,1,146.25,4|0,3:0|0:0,0:0:0:0:
237,145,69232,2,0,P|241:156|240:200,8,48.75
224,254,70859,1,0,0:0:0:0:
137,268,71040,1,0,0:0:0:0:
51,221,71220,1,0,0:0:0:0:
94,54,71401,6,0,B|157:42|157:42|216:129,1,146.250005578995,2|0,3:0|0:0,0:0:0:0:
194,202,71763,2,0,L|150:136,1,48.75
140,117,71943,1,0,3:0:0:0:
135,65,72034,1,0,3:0:0:0:
91,92,72124,2,0,B|63:166|63:166|136:272,1,146.250005578995,8|0,3:0|0:0,0:0:0:0:
135,65,72395,2,0,B|178:111|178:111|330:106,1,146.250005578995
478,277,72666,2,2,L|199:217,1,255.937509763241,0|0,3:0|0:0,2:0:0:0:
227,223,73028,1,0,0:0:0:0:
104,104,73208,1,0,0:0:0:0:
79,279,73389,6,2,L|67:321,1,36.5625013947487,0|2,3:0|2:0,2:0:0:0:
112,312,73479,2,0,L|100:354,1,36.5625013947487,0|0,3:0|3:0,3:0:0:0:
158,322,73570,1,8,3:0:0:0:
205,332,73660,5,0,0:0:0:0:
257,371,73750,1,0,0:0:0:0:
322,383,73841,1,0,0:0:0:0:
384,363,73931,1,0,0:0:0:0:
429,314,74022,1,0,0:0:0:0:
449,251,74112,1,0,0:0:0:0:
437,185,74202,1,0,0:0:0:0:
375,150,74293,6,2,P|297:116|287:87,1,95.0624956483843,0|0,3:0|0:0,2:0:0:0:
152,78,74654,2,0,L|298:113,1,146.250005578995
327,128,74925,1,0,3:0:0:0:
350,164,75016,2,0,B|361:217|361:217|257:193,1,146.250005578995,8|0,3:0|0:0,0:0:0:0:
149,274,75287,2,0,L|297:308,1,146.250005578995
128,96,75558,6,0,B|176:104|176:104|177:201|177:201|255:220,1,219.375008368492,4|0,3:0|0:0,0:0:0:0:
128,96,75919,2,0,L|128:14,1,73.1250027894975,4|0,3:0|0:0,0:0:0:0:
96,256,76100,2,0,B|96:162|96:162|236:193,1,219.375008368492,0|0,3:0|0:0,0:0:0:0:
413,171,76461,6,0,L|332:192,1,73.1250027894975,8|0,3:0|0:0,0:0:0:0:
109,149,76642,2,0,L|190:128,1,73.1250027894975
223,129,76823,1,0,0:0:0:0:
260,151,76913,1,0,0:0:0:0:
286,185,77003,1,0,0:0:0:0:
290,228,77094,1,0,0:0:0:0:
273,268,77184,6,0,P|200:281|223:140,1,219.375008368492,0|0,3:0|0:0,0:0:0:0:
93,169,77546,2,0,P|138:104|228:82,1,146.250005578995,0|0,0:0|3:0,0:0:0:0:
267,106,77817,1,0,3:0:0:0:
338,93,77907,2,0,B|412:120|412:120|303:226,1,219.375008368492,8|0,3:0|0:0,0:0:0:0:
311,218,78269,1,0,0:0:0:0:
110,241,78449,2,2,B|75:168|75:168|88:97,1,146.250005578995,0|0,3:0|0:0,2:0:0:0:
169,88,78811,6,0,L|147:201,1,73.1250027894975
52,347,78991,2,0,L|74:234,1,73.1250027894975
156,17,79172,1,0,0:0:0:0:
162,52,79232,1,0,0:0:0:0:
169,88,79292,1,0,0:0:0:0:
65,275,79353,2,0,L|31:106,1,160.875004909516,8|0,3:0|0:0,3:0:0:0:
99,131,80076,6,2,B|103:88|77:55|35:52|35:52|63:14,1,146.25,0|0,2:0|0:0,2:0:0:0:
164,80,80437,2,0,P|168:108|168:145,1,48.75
160,176,80618,1,0,0:0:0:0:
134,217,80708,1,0,0:0:0:0:
174,303,80799,2,0,P|229:233|256:116,1,146.250005578995,8|0,0:3|0:0,0:0:0:0:
198,56,81070,2,0,B|222:74|227:113|227:113|273:101|305:136,1,146.250005578995
317,202,81341,2,0,P|372:122|344:73,1,146.250005578995,0|0,3:0|0:0,0:0:0:0:
250,32,81522,6,0,P|298:66|345:66,1,97.5,8|0,0:3|0:0,0:0:0:0:
398,43,81702,1,0,3:2:0:0:
466,35,81793,2,0,B|462:72|462:109|462:109|408:147|337:152,1,195,0|0,3:2|0:0,0:0:0:0:
174,167,82064,2,0,L|311:157,1,97.5,8|0,3:0|0:0,0:0:0:0:
97,175,82244,2,0,P|28:191|78:308,1,195,8|0,0:3|0:0,0:0:0:0:
171,250,82516,2,0,P|82:243|53:222,2,97.5,0|0|0,3:0|0:0|3:0,0:0:0:0:
205,230,82787,1,0,0:0:0:0:
331,121,82967,6,0,B|306:86|306:86|329:90,1,65
364,145,83088,2,0,B|405:140|405:140|391:158,1,65
327,163,83208,2,0,B|309:201|309:201|301:180,1,65
340,143,83329,5,0,0:0:0:0:
372,280,83449,1,0,0:0:0:0:
233,225,83570,1,0,0:0:0:0:
300,310,83690,6,0,P|207:357|128:314,1,195,8|0,0:3|0:0,0:3:0:0:
65,322,83961,2,0,P|134:252|199:309,1,195,8|0,0:3|0:0,0:0:0:0:
22,226,84232,2,2,B|65:181|118:175|118:175|88:69,1,219.375008368492,0|0,3:0|0:0,0:2:0:0:
183,5,84594,2,0,L|211:106,1,73.1250027894975
250,151,84775,1,4,0:3:0:0:
136,184,84955,2,0,L|164:285,1,73.1250027894975
292,279,85136,2,0,L|248:374,1,73.1250027894975,8|0,0:3|0:0,0:0:0:0:
188,358,85317,1,0,0:0:0:0:
115,362,85407,1,0,0:0:0:0:
44,342,85497,1,0,0:0:0:0:
42,261,85588,6,0,L|57:226,1,36.5625013947487
121,271,85678,2,0,L|119:235,1,36.5625013947487
189,228,85769,2,0,L|192:189,1,36.5625013947487
223,152,85859,6,0,B|231:128|231:128|263:201|263:201|342:244|342:244|348:285|393:345,1,248.625004742146,4|0,0:3|0:0,3:0:0:0:
312,337,86220,6,0,B|318:346|318:346|368:362|368:362|415:352|445:309|415:257,1,165.75000316143,0|0,0:0|3:0,0:0:0:0:
428,207,86491,1,0,3:0:0:0:
358,161,86582,2,0,B|305:91|263:75|263:75|214:69,1,165.75000316143,8|0,3:3|0:0,0:0:0:0:
83,150,86853,2,0,B|168:129|168:129|248:141,1,165.75000316143,8|0,3:0|0:0,0:0:0:0:
281,265,87124,2,0,B|254:210|254:210|171:197|171:197|154:174,1,165.75000316143,0|0,3:0|0:0,0:0:0:0:
118,108,87395,1,0,0:0:0:0:
106,26,87485,2,0,P|129:17|183:45,1,82.8750015807152,0|0,3:0|0:0,0:0:0:0:
445,199,87666,2,0,B|286:189|286:189|212:83,1,248.625004742146,0|0,3:0|0:0,0:0:0:0:
212,61,88028,5,8,0:3:0:0:
205,76,88118,1,0,0:0:0:0:
204,92,88208,1,0,0:0:0:0:
208,108,88299,1,0,0:0:0:0:
202,198,88389,5,0,0:0:0:0:
291,183,88479,1,0,0:0:0:0:
378,210,88570,1,0,3:0:0:0:
441,274,88660,1,0,3:0:0:0:
457,362,88750,6,0,B|334:354|283:336|283:336|212:228,1,290.062505532503,0|0,3:0|0:0,0:0:0:0:
221,240,89112,2,0,P|234:210|152:125,1,165.75000316143,0|0,0:0|3:0,0:0:0:0:
171,198,89383,1,0,3:0:0:0:
171,198,89473,6,0,L|269:182,1,82.8750015807152,8|0,3:3|0:0,0:0:0:0:
50,256,89654,1,0,0:0:0:0:
50,256,89744,2,0,L|148:265,1,82.8750015807152
449,296,89925,1,0,0:0:0:0:
461,286,90016,6,2,L|268:262,1,165.75000316143,0|0,3:0|0:0,2:0:0:0:
272,258,90287,1,0,0:0:0:0:
248,249,90377,1,0,0:0:0:0:
70,138,90558,5,0,0:0:0:0:
106,182,90648,1,0,0:0:0:0:
154,213,90738,2,0,L|137:252,1,41.4375007903576
206,228,90829,2,0,L|206:251,2,20.7187503951788
283,180,90919,2,0,P|375:157|399:249,1,207.187503951788,8|0,0:3|0:0,3:0:0:0:
400,246,91190,2,0,L|41:246,1,331.500006322861
195,298,91642,6,2,P|99:298|67:234,1,165.75000316143,0|0,3:0|2:0,2:0:0:0:
93,224,91913,1,0,0:0:0:0:
107,194,92003,1,0,0:0:0:0:
110,160,92094,1,0,0:0:0:0:
103,127,92184,1,0,3:0:0:0:
104,93,92275,1,0,3:0:0:0:
117,63,92365,6,0,P|175:48|231:128,1,165.75000316143,8|0,0:3|0:0,0:0:0:0:
344,255,92636,2,0,B|301:208|301:208|313:72,1,165.75000316143
162,116,92907,2,0,P|191:184|228:130,1,165.75000316143,0|0,0:0|3:0,0:0:0:0:
287,18,93269,5,0,3:0:0:0:
60,193,93449,1,0,3:0:0:0:
356,113,93630,1,0,3:0:0:0:
94,58,93811,1,0,3:0:0:0:
250,337,93991,1,0,3:0:0:0:
223,8,94172,1,0,3:0:0:0:
66,253,94353,1,0,3:0:0:0:
413,190,94534,6,0,B|328:225|269:167|269:167|246:221|191:232|191:232|185:198|212:168,1,331.500006322861
212,169,95076,1,0,0:0:0:0:
147,155,95257,1,0,0:0:0:0:
169,179,95347,1,0,0:0:0:0:
191,203,95437,1,0,0:0:0:0:
213,227,95528,1,0,0:0:0:0:
235,251,95618,1,0,0:0:0:0:
425,315,95799,5,0,3:0:0:0:
404,322,95889,1,0,3:0:0:0:
381,322,95979,2,0,P|272:246|392:142,1,331.500006322861,8|0,0:3|0:0,0:0:0:0:
385,140,96522,1,0,0:0:0:0:
112,88,96702,6,0,P|172:153|106:208,1,165.75000316143,8|0,3:0|3:0,0:0:0:0:
277,149,96973,2,0,B|228:231|228:231|161:273,1,165.75000316143,8|0,3:0|3:0,0:0:0:0:
98,312,97244,2,0,L|173:265,1,82.8750015807152,8|0,3:0|0:0,0:0:0:0:
407,332,97425,6,2,B|294:300|294:300|236:335,1,158.437492747307,0|0,0:0|0:0,2:0:0:0:
196,257,97967,2,0,L|200:237,5,19.5
259,321,98148,2,0,P|206:346|115:223,1,234,0|0,0:0|0:0,1:0:0:0:
150,178,98510,1,0,3:0:0:0:
304,169,98630,1,0,3:0:0:0:
196,107,98750,1,0,3:0:0:0:
272,244,98871,2,0,L|353:202,1,78,8|0,3:0|0:0,0:0:0:0:
203,280,99052,2,0,B|106:333|106:333|88:237,1,156
101,265,99323,5,0,0:0:0:0:
105,242,99413,1,0,0:0:0:0:
109,219,99503,1,0,0:0:0:0:
112,195,99594,2,0,B|275:224|275:224|335:183,2,234,8|8|8,0:3|0:3|0:3,0:3:0:0:
331,185,100317,6,0,L|112:195,1,156,0|0,3:0|0:0,0:0:0:0:
400,149,101040,6,0,L|330:185,1,78,0|0,3:0|0:0,0:0:0:0:
105,227,101220,2,0,L|175:191,1,78,0|0,3:0|0:0,0:0:0:0:
365,295,101401,2,0,L|299:252,1,78,0|0,3:0|0:0,0:0:0:0:
150,78,101581,2,0,L|216:121,1,78,0|0,3:0|0:0,0:0:0:0:
152,318,101763,6,0,P|122:280|144:240,1,78,8|0,3:0|0:0,0:0:0:0:
128,254,101943,2,0,P|39:198|217:90,1,390
324,150,102485,6,0,L|182:58,1,156,8|0,3:0|0:0,0:0:0:0:
140,140,102757,2,0,L|164:107,1,39,8|0,3:0|0:0,0:0:0:0:
167,139,102847,1,0,0:0:0:0:
209,184,102937,1,0,3:0:0:0:
261,218,103028,1,8,3:0:0:0:
321,230,103118,1,8,3:0:0:0:
382,219,103208,6,0,B|410:153|410:153|425:228,1,146.250005578995,4|0,3:0|0:0,3:0:0:0:
424,226,103750,1,0,0:0:0:0:
382,219,103931,2,0,P|309:284|183:248,1,219.375008368492
440,204,104293,1,0,3:0:0:0:
160,214,104414,1,0,3:0:0:0:
425,338,104534,1,0,3:0:0:0:
287,147,104654,2,0,L|219:68,1,97.50000371933,8|0,3:0|0:0,0:0:0:0:
193,54,104835,2,0,P|130:30|73:57,1,73.1250027894975
67,202,105016,6,0,L|198:205,1,73.1250027894975
277,127,105196,2,0,L|145:123,1,73.1250027894975,0|0,3:0|0:0,0:0:0:0:
377,215,105377,6,0,L|207:211,1,146.250005578995,8|0,3:0|3:0,0:0:0:0:
326,302,105648,2,0,P|239:331|192:293,1,146.250005578995,8|0,3:0|3:0,0:0:0:0:
21,281,105919,2,0,P|77:263|115:284,1,73.1250027894975,8|0,3:0|3:0,0:0:0:0:
191,224,106100,6,2,L|203:208,13,18.2812506973744,2|2|2|2|2|2|2|2|2|2|2|2|2|2,2:0|2:0|2:0|2:0|2:0|2:0|2:0|2:0|2:0|2:0|2:0|2:0|2:0|2:0,2:0:0:0:
157,195,106461,2,0,L|156:146,5,48.750001859665
88,213,106823,6,0,L|198:244,1,73.1250027894975,0|0,3:0|0:0,0:0:0:0:
279,330,107003,1,0,0:0:0:0:
268,287,107094,1,0,0:0:0:0:
257,244,107184,1,0,0:0:0:0:
247,201,107275,2,0,L|422:181,1,146.250005578995,0|0,3:3|0:0,0:0:0:0:
342,109,107546,6,8,B|359:199|359:199|264:305,1,219.375008368492,8|0,3:3|3:3,0:3:0:0:
50,309,107907,2,0,B|108:280|138:280|167:339|197:339|256:309,1,219.375008368492
156,134,108269,2,0,L|130:230,2,73.1250027894975,8|0|0,0:3|3:0|3:0,0:0:0:0:
139,43,108540,2,0,L|102:106,2,73.1250027894975,8|0|0,0:3|3:0|3:0,0:0:0:0:
213,207,108811,2,0,L|211:287,1,73.1250027894975,8|0,0:3|3:0,0:0:0:0:
361,261,108991,6,2,B|300:280|300:280|280:241|280:241|221:261,1,170.615248164616,0|0,0:0|0:0,2:0:0:0:
81,273,109353,2,0,P|88:311|108:340,1,56.8717493882052,0|0,3:0|0:0,0:0:0:0:
46,237,109534,2,0,P|39:199|19:170,1,56.8717493882052,0|0,3:0|3:0,0:0:0:0:
33,286,109714,2,0,P|89:313|145:199,1,151.657998368547,0|0,0:0|0:0,3:0:0:0:
141,128,110076,5,0,3:0:0:0:
251,47,110196,1,0,3:0:0:0:
265,183,110317,1,0,3:0:0:0:
155,265,110437,2,0,L|99:238,1,56.8717493882052,8|0,3:0|0:0,0:0:0:0:
316,251,110618,2,0,B|229:229|199:296|199:296|162:211|225:118,1,284.358746941026
108,151,111160,6,0,P|125:230|89:270,1,113.74349877641,8|0,3:0|0:0,0:0:0:0:
213,360,111431,2,0,P|196:281|232:241,1,113.74349877641,8|0,3:0|0:0,0:0:0:0:
257,154,111702,2,0,L|190:184,1,56.8717493882052,8|8,3:0|3:0,0:0:0:0:
34,351,111883,6,0,B|65:343|83:314|81:271|45:250|45:250|92:235|139:285|142:311|142:311|210:253|246:198|246:198|219:131|130:97|130:97|159:160|171:188|146:222,1,682.460992658462
128,244,113148,5,0,3:0:0:0:
164,227,113238,1,0,3:0:0:0:
203,223,113329,2,0,L|298:233,1,56.8717493882052,8|0,3:0|0:0,0:0:0:0:
397,307,113510,2,0,L|107:180,1,284.358746941026
133,140,114052,2,0,B|162:95|155:57|155:57|120:80,1,113.74349877641,8|0,3:0|0:0,0:0:0:0:
185,196,114323,2,0,B|156:241|163:279|163:279|198:256,1,113.74349877641,8|0,3:0|0:0,0:0:0:0:
158,166,114594,1,0,3:0:0:0:
158,166,114684,1,0,3:0:0:0:
158,166,114775,2,0,P|260:213|317:124,1,227.486997552821,4|0,3:0|0:0,0:0:0:0:
128,256,115317,5,0,0:0:0:0:
160,288,115407,1,0,0:0:0:0:
205,288,115497,2,0,P|289:282|321:331,1,146.250005578995
307,96,115769,2,0,P|223:102|191:53,1,146.250005578995
180,15,116040,1,0,0:0:0:0:
352,243,116220,2,0,P|346:159|395:127,1,146.250005578995
160,141,116492,2,0,P|166:225|117:257,1,146.250005578995
407,198,116763,1,0,0:0:0:0:
105,186,116943,6,0,P|70:176|125:231,1,219.375008368492,0|8,0:0|0:3,0:0:0:0:
203,193,117305,1,8,3:0:0:0:
220,205,117395,1,0,3:0:0:0:
216,250,117485,1,8,3:0:0:0:
230,250,117576,1,0,3:0:0:0:
259,312,117666,5,0,3:0:0:0:
91,85,118208,5,0,3:0:0:0:
121,56,118299,1,0,3:0:0:0:
131,96,118389,2,0,L|293:96,1,146.250005578995,8|0,3:0|3:0,0:0:0:0:
277,96,118931,2,0,P|243:204|93:53,1,438.750016736985,0|0,3:0|3:0,0:0:0:0:
418,176,119835,5,8,3:0:0:0:
291,140,120016,1,0,3:0:0:0:
205,40,120196,1,0,3:0:0:0:
158,163,120377,1,8,3:0:0:0:
66,257,120558,5,0,3:0:0:0:
342,113,121100,6,0,L|371:184,1,73.1250027894975,0|0,3:0|3:0,0:0:0:0:
380,223,121281,1,8,3:0:0:0:
378,266,121371,1,0,0:0:0:0:
353,301,121461,1,0,0:0:0:0:
313,317,121552,1,0,0:0:0:0:
271,309,121642,1,0,0:0:0:0:
271,201,121823,6,0,L|197:215,1,73.1250027894975
127,228,122184,1,0,3:0:0:0:
57,121,122365,6,0,L|131:135,2,73.1250027894975
303,206,122907,5,0,0:0:0:0:
343,190,122997,1,0,0:0:0:0:
384,174,123088,1,0,0:0:0:0:
263,222,123269,1,0,0:0:0:0:
305,119,123449,6,0,P|234:174|272:103,1,243.75,0|0,3:0|0:0,0:0:0:0:
345,108,123991,6,0,L|254:102,1,73.1250027894975,0|0,3:0|0:0,0:0:0:0:
248,247,124172,2,0,L|272:96,2,146.250005578995,8|0|0,0:3|0:0|0:0,0:0:0:0:
126,336,124714,2,0,L|149:191,1,146.250005578995,0|0,3:0|0:0,0:0:0:0:
320,251,125076,2,0,L|229:245,1,73.1250027894975
271,345,125257,2,0,L|116:334,1,146.250005578995,0|0,3:0|0:0,0:0:0:0:
171,183,125618,6,0,P|206:108|155:64,1,146.250005578995,8|0,3:0|0:0,0:0:0:0:
256,96,125889,1,0,0:0:0:0:
341,183,125979,2,0,P|306:108|357:64,1,146.250005578995
256,320,126341,5,0,3:0:0:0:
128,192,126883,5,0,0:0:0:0:
160,224,126973,1,0,3:0:0:0:
204,224,127064,2,0,B|342:176|342:176|481:226,1,292.50001115799,8|0,3:0|0:0,0:0:0:0:
425,63,127606,6,0,B|431:122|431:122|407:114,1,80.4375024547578
397,235,127967,2,0,B|394:206|394:206|405:210,1,40.2187512273789
466,255,128148,2,0,B|473:330|473:330|443:319,1,107.25000327301,0|8,0:0|3:0,0:0:0:0:
103,248,129232,6,0,B|122:260|169:265|169:265|205:236|215:235|215:235|281:246|303:266|303:266|375:268|391:222|439:200,1,365.625013947487,0|0,3:0|0:0,0:0:0:0:
480,146,129775,2,0,P|439:130|387:145,1,73.1250027894975,0|0,3:0|0:0,0:0:0:0:
118,155,129955,2,0,P|203:183|275:180,1,146.250005578995,8|0,3:0|0:0,0:0:0:0:
284,37,130317,6,0,B|210:53|174:114|174:114|208:129|291:119|291:119|356:135|383:169|383:169|368:194|380:211|380:211|376:237|348:256|348:256|305:274|306:342|375:346,1,585.00002231598
135,260,132666,6,0,L|148:229,2,29.2499991073609,0|0|8,3:0|3:0|3:0,0:0:0:0:
217,258,133344,5,0,3:0:0:0:
217,125,133457,1,0,3:0:0:0:
332,192,133570,2,0,P|403:143|391:95,1,97.5,0|0,3:0|0:0,0:0:0:0:
285,43,133931,1,0,3:0:0:0:
172,146,134112,2,0,B|112:203|112:203|111:166,2,97.5,0|8|0,3:0|3:0|3:0,0:0:0:0:
88,241,135016,6,0,B|112:211|159:203|197:211|235:255|246:326|159:366|159:366|121:332|143:292|143:292|101:340|30:316|23:300|23:300|-13:138|-13:138|44:137|114:111|114:111|150:109|210:118|251:139,1,935.999971435548,4|0,3:0|3:0,0:0:0:0:
101,138,138449,5,0,3:0:0:0:
114,142,138540,1,0,3:0:0:0:
126,146,138630,2,0,B|207:150|207:150|202:126,1,97.5,8|0,3:0|0:0,0:0:0:0:
346,128,139172,2,0,B|277:124|277:124|282:144,1,87.7499973220826,0|0,3:0|3:0,0:0:0:0:
298,211,139534,1,0,3:0:0:0:
165,73,139714,1,0,3:0:0:0:
410,294,140076,5,8,3:0:0:0:
208,259,140799,6,0,B|222:219|204:190|182:149|182:149|242:157|272:118|272:118|276:101|221:80|189:99|189:99|158:101|125:67|110:23|110:23|91:59|52:101|52:101|87:165|122:213|121:228|121:228|106:256|109:300|138:347|175:363|243:366|287:309,1,935.999971435548
173,184,144910,5,0,0:0:0:0:
303,123,145023,1,0,0:0:0:0:
290,265,145136,2,0,P|321:291|346:287,1,58.4999982147217
402,306,145678,2,0,L|331:316,2,58.4999982147217
348,206,146582,6,0,B|327:182|308:177|286:173|257:182|252:208|252:208|245:255|235:304|161:326|98:294|101:230|101:230|290:245|290:245|326:287|370:287|408:271|428:229|433:189|403:158|381:145|381:145|342:31|342:31|238:31|238:31|259:95|259:95|359:96,1,1169.99996429443
142,155,150377,6,0,L|124:226,2,58.4999982147217
333,56,150919,1,8,2:0:0:0:
128,185,152365,6,0,B|81:164|30:200|46:264|78:291|124:273|124:273|159:253|220:245|269:278|269:278|303:232|303:232|282:212|275:187|275:187|280:140|272:95|272:95|264:73|291:16|348:21|387:46|392:91|373:131|358:136|358:136|191:152,1,935.999971435548
143,207,156476,5,0,0:0:0:0:
157,208,156589,1,0,0:0:0:0:
171,209,156702,1,0,0:0:0:0:
91,158,156883,1,0,0:0:0:0:
228,284,157064,1,0,0:0:0:0:
106,96,157244,1,0,0:0:0:0:
186,327,157425,1,0,0:0:0:0:
142,46,157606,1,0,0:0:0:0:
61,140,158148,6,0,B|103:122|169:124|215:201|167:282|167:282|215:262|259:282|285:303|285:303|316:313|346:287|337:249|312:241|284:230|284:230|255:219|255:219|257:182|242:135|204:103|204:103|256:94|302:97|302:97|326:130|332:175|332:175|379:198|407:258,1,935.999971435548
140,240,161943,6,0,L|170:190,2,58.4999982147217
328,152,162485,5,8,0:0:0:0:
181,280,163208,6,0,L|187:247,1,29.2499991073609
167,117,163389,2,0,L|149:140,1,29.2499991073609
330,103,163570,2,0,L|361:95,1,29.2499991073609
344,266,163750,2,0,L|372:285,1,29.2499991073609
167,117,163931,6,0,P|178:58|297:77,1,204.749993751526
167,117,164654,2,0,P|110:138|67:25,1,204.749993751526
167,116,165377,2,0,P|215:158|135:258,1,219.374993305207
224,169,166823,6,0,L|326:178,1,102.374996875763
110,241,167546,2,0,L|212:250,1,102.374996875763
333,117,168269,2,0,L|435:126,1,102.374996875763
224,169,168991,1,0,0:0:0:0:
435,127,169353,1,0,0:0:0:0:
365,331,169714,1,0,0:0:0:0:
130,51,174775,5,0,0:0:0:0:
378,150,174955,1,0,0:0:0:0:
134,234,175136,1,0,0:0:0:0:
382,333,175316,1,0,0:0:0:0:
130,51,175497,6,0,P|221:94|141:203,1,255.937509763241
382,333,176220,2,0,P|291:290|371:181,1,255.937509763241
134,234,176943,2,0,B|251:301|251:301|273:277|363:243|341:200,1,255.937509763241
378,150,177666,2,0,B|261:83|261:83|239:107|149:141|171:184,1,255.937509763241
103,85,178389,5,0,3:0:0:0:
126,269,178750,1,0,3:0:0:0:
163,103,179112,1,0,3:0:0:0:
186,287,179473,1,0,3:0:0:0:
373,124,179835,5,0,3:0:0:0:
124,327,180196,1,0,3:0:0:0:
186,50,180558,1,0,3:0:0:0:
342,240,180919,1,0,3:0:0:0:
364,251,181281,6,0,L|401:246,2,36.5625013947487
256,256,181642,2,0,P|226:264|185:233,1,73.1250027894975
177,222,181913,1,0,0:0:0:0:
157,205,182003,1,0,0:0:0:0:
172,184,182094,1,0,0:0:0:0:
152,167,182184,1,0,0:0:0:0:
100,301,182365,5,0,0:0:0:0:
264,245,182546,5,0,0:0:0:0:
293,212,182636,1,0,0:0:0:0:
290,168,182726,1,0,0:0:0:0:
255,140,182817,1,0,0:0:0:0:
212,149,182907,1,0,0:0:0:0:
76,191,183088,1,0,0:0:0:0:
281,80,183269,5,0,0:0:0:0:
263,127,183359,1,0,0:0:0:0:
245,175,183449,1,0,0:0:0:0:
274,217,183540,1,0,0:0:0:0:
302,259,183630,1,0,0:0:0:0:
452,333,183811,6,0,L|448:277,1,36.5625013947487
388,183,183991,2,0,L|392:239,1,36.5625013947487
378,324,184172,2,0,L|374:268,1,36.5625013947487
314,174,184353,1,0,0:0:0:0:
266,340,184534,5,0,0:0:0:0:
98,261,184714,1,0,0:0:0:0:
146,279,184805,1,0,0:0:0:0:
196,269,184895,1,0,0:0:0:0:
231,232,184985,1,0,0:0:0:0:
242,181,185076,1,0,0:0:0:0:
241,47,185257,6,0,P|294:44|322:77,1,73.1250027894975
334,94,185528,1,0,0:0:0:0:
338,141,185618,1,0,0:0:0:0:
331,187,185708,1,0,0:0:0:0:
329,234,185799,1,0,0:0:0:0:
255,269,185979,6,0,B|165:266|165:266|199:295,1,116.999996429443
204,306,186250,1,0,0:0:0:0:
222,329,186341,2,0,L|206:356,1,29.2499991073609
248,340,186431,2,0,L|243:373,1,29.2499991073609
277,339,186522,2,0,L|285:375,1,29.2499991073609
304,329,186612,2,0,L|325:365,1,29.2499991073609
333,326,186702,2,0,L|330:289,1,29.2499991073609
359,330,186793,2,0,L|379:301,1,29.2499991073609
386,339,186883,2,0,L|409:318,1,29.2499991073609
415,340,186973,2,0,L|455:325,1,29.2499991073609
448,343,187064,6,0,B|487:375|487:375|487:343,2,58.4999982147217,0|0|0,3:0|0:0|0:0,0:0:0:0:
442,205,187425,2,0,P|397:148|434:71,1,116.999996429443,0|0,3:0|0:0,0:0:0:0:
387,133,187697,1,0,0:0:0:0:
364,151,187787,1,0,3:0:0:0:
336,161,187877,1,0,0:0:0:0:
306,162,187968,1,0,0:0:0:0:
279,150,188058,1,0,0:0:0:0:
257,130,188148,1,0,3:0:0:0:
144,149,188329,5,0,0:0:0:0:
136,177,188419,1,0,0:0:0:0:
129,200,188509,1,0,3:0:0:0:
250,170,188688,1,0,0:0:0:0:
31,182,188868,1,0,3:0:0:0:
361,331,189047,1,0,0:0:0:0:
357,306,189137,1,0,0:0:0:0:
354,281,189227,1,0,3:0:0:0:
362,258,189317,1,0,0:0:0:0:
370,235,189407,1,0,0:0:0:0:
148,89,189586,5,0,3:0:0:0:
164,107,189676,1,0,0:0:0:0:
187,114,189766,1,0,3:0:0:0:
198,135,189856,1,0,0:0:0:0:
199,159,189946,1,0,3:0:0:0:
82,261,190125,1,0,0:0:0:0:
337,238,190304,1,0,3:0:0:0:
38,158,190482,5,0,0:0:0:0:
51,164,190572,1,0,0:0:0:0:
64,170,190661,1,0,3:0:0:0:
294,332,190839,1,0,0:0:0:0:
72,322,191018,1,0,0:0:0:0:
285,195,191197,5,0,0:0:0:0:
243,161,191286,1,0,0:0:0:0:
214,115,191375,1,0,3:0:0:0:
160,115,191464,1,0,0:0:0:0:
107,127,191554,1,0,0:0:0:0:
238,243,191732,1,0,3:0:0:0:
198,50,191911,5,0,0:0:0:0:
184,91,192000,1,0,0:0:0:0:
170,132,192089,1,0,3:0:0:0:
156,174,192179,5,0,0:0:0:0:
174,213,192268,1,0,0:0:0:0:
204,244,192357,1,0,3:0:0:0:
243,263,192447,1,0,3:0:0:0:
285,271,192536,1,0,3:0:0:0:
328,268,192625,1,0,3:0:0:0:
369,253,192714,1,0,3:0:0:0:
403,225,192804,1,0,3:0:0:0:
268,106,192984,1,0,0:0:0:0:
82,200,193161,6,0,P|172:188|212:203,1,97.5,0|0,3:0|0:0,0:0:0:0:
204,223,193426,1,0,0:0:0:0:
240,247,193515,1,0,3:0:0:0:
282,254,193603,1,0,0:0:0:0:
326,252,193692,1,0,0:0:0:0:
349,41,193869,6,0,L|338:148,1,97.5,0|0,3:0|0:0,0:0:0:0:
276,167,194134,1,0,0:0:0:0:
199,145,194223,2,0,L|210:252,1,97.5,0|0,3:0|0:0,0:0:0:0:
70,276,194576,6,0,B|139:289|139:289|157:316|188:324,1,97.5,0|0,3:0|0:0,0:0:0:0:
196,329,194840,1,0,0:0:0:0:
239,339,194929,1,0,3:0:0:0:
280,325,195017,1,0,0:0:0:0:
323,321,195105,1,0,0:0:0:0:
339,116,195282,6,0,L|323:175,1,48.75,0|0,3:0|0:0,0:0:0:0:
273,249,195458,2,0,L|270:184,1,48.75,0|0,3:0|0:0,0:0:0:0:
263,118,195635,2,0,B|264:56|219:25,2,97.5,0|0|0,3:0|0:0|3:0,0:0:0:0:
77,180,196165,5,0,0:0:0:0:
113,204,196253,1,0,0:0:0:0:
154,216,196341,1,0,3:0:0:0:
194,231,196429,1,0,0:0:0:0:
230,255,196518,1,0,0:0:0:0:
167,153,196694,6,0,P|202:108|185:52,1,97.5,0|0,3:0|0:0,0:0:0:0:
256,128,196959,1,0,0:0:0:0:
345,153,197047,2,0,P|310:108|327:52,1,97.5,0|0,3:0|0:0,0:0:0:0:
319,258,197397,6,0,P|245:226|180:273,1,146.25,0|0,3:0|0:0,0:0:0:0:
155,279,197748,1,0,3:0:0:0:
48,318,197924,5,0,0:0:0:0:
91,323,198011,1,0,3:0:0:0:
134,329,198099,1,0,3:0:0:0:
177,326,198187,1,0,3:0:0:0:
220,323,198275,1,0,3:0:0:0:
255,298,198362,1,0,3:0:0:0:
291,272,198450,1,0,3:0:0:0:
149,162,198624,5,0,3:0:0:0:
64,82,198798,5,0,3:0:0:0:
185,282,198973,1,0,3:0:0:0:
120,58,199147,5,0,3:0:0:0:
185,282,199322,1,0,3:0:0:0:
185,49,199496,5,0,3:0:0:0:
185,282,199671,1,0,3:0:0:0:
408,61,199845,5,0,3:0:0:0:
328,279,200020,1,0,3:0:0:0:
449,137,200194,5,0,3:0:0:0:
284,301,200369,1,0,3:0:0:0:
451,237,200543,5,0,3:0:0:0:
227,301,200718,1,0,3:0:0:0:
397,334,200892,5,0,3:0:0:0:
174,269,201067,1,0,3:0:0:0:
135,98,201241,6,0,L|168:200,1,97.5,0|0,3:0|3:0,0:0:0:0:
343,261,201587,2,0,B|311:256|311:256|290:294|246:314,1,97.5,0|0,3:0|3:0,0:0:0:0:
58,220,201934,2,0,P|157:211|159:212,1,97.5,0|0,3:0|3:0,0:0:0:0:
268,175,202281,2,0,P|304:131|314:83,1,97.5,0|0,3:0|3:0,0:0:0:0:
180,81,202630,6,0,P|191:149|229:197,1,97.5,0|0,3:0|3:0,0:0:0:0:
290,265,202974,2,0,B|311:278|341:287|341:287|347:334,2,97.5,0|0|0,3:0|3:0|3:0,0:0:0:0:
222,265,203492,2,0,B|201:278|171:287|171:287|165:328,2,97.5,0|0|0,3:0|3:0|3:0,0:0:0:0:
334,40,204007,6,0,L|279:86,1,48.75,0|0,3:0|3:0,0:0:0:0:
217,261,204179,2,0,L|272:215,1,48.75,0|0,3:0|3:0,0:0:0:0:
390,87,204351,2,0,L|321:105,1,48.75,0|0,3:0|3:0,0:0:0:0:
191,238,204523,2,0,L|260:219,1,48.75,0|0,3:0|3:0,0:0:0:0:
422,154,204696,2,0,L|351:141,1,48.75,0|0,3:0|3:0,0:0:0:0:
178,206,204868,2,0,L|248:219,1,48.75,0|0,3:0|3:0,0:0:0:0:
423,228,205041,2,0,L|364:186,1,48.75,0|0,3:0|3:0,0:0:0:0:
179,172,205213,2,0,L|237:213,1,48.75,0|0,3:0|3:0,0:0:0:0:
108,329,205386,6,0,L|187:300,1,48.75,0|0,3:0|3:0,0:0:0:0:
327,131,205558,2,0,L|247:160,1,48.75,0|0,3:0|3:0,0:0:0:0:
64,253,205731,2,0,L|148:261,1,48.75,0|0,3:0|3:0,0:0:0:0:
346,166,205902,2,0,L|261:159,1,48.75,0|0,3:0|3:0,0:0:0:0:
55,166,206075,2,0,L|129:209,1,48.75,0|0,3:0|3:0,0:0:0:0:
348,207,206247,2,0,L|275:164,1,48.75,0|0,3:0|3:0,0:0:0:0:
85,84,206420,2,0,L|133:154,1,48.75,0|0,3:0|3:0,0:0:0:0:
333,244,206593,2,0,L|290:191,1,48.75,0|0,3:0|3:0,0:0:0:0:
145,99,206765,5,0,3:0:0:0:
123,110,206851,1,0,3:0:0:0:
101,121,206938,1,0,3:0:0:0:
79,132,207024,1,0,3:0:0:0:
58,144,207110,5,0,3:0:0:0:
56,216,207196,1,0,3:0:0:0:
82,283,207282,1,0,3:0:0:0:
145,321,207369,1,0,3:0:0:0:
217,330,207455,5,0,3:0:0:0:
302,295,207541,1,0,3:0:0:0:
368,230,207627,1,0,3:0:0:0:
405,145,207713,1,0,3:0:0:0:
377,104,207800,5,0,3:0:0:0:
332,85,207886,5,0,3:0:0:0:
283,90,207972,5,0,3:0:0:0:
248,123,208058,5,0,3:0:0:0:
239,190,208144,6,0,B|200:241|151:238|151:238|161:212|160:170|160:170|191:139|210:104|210:104|238:135|275:143|320:133|320:133|313:183|297:222|297:222|292:260|292:260|238:300,1,546,4|0,3:0|0:0,0:0:0:0:
82,269,209524,6,0,P|139:309|207:290,1,146.25,0|0,3:0|0:0,0:0:0:0:
295,194,209868,2,0,P|316:182|340:177,2,48.75,8|0|0,3:0|0:0|0:0,0:0:0:0:
207,290,210127,2,0,B|191:338|191:338|243:330,1,97.5,0|0,3:0|0:0,0:0:0:0:
443,330,210386,2,0,L|387:316,1,48.75,0|0,3:0|0:0,0:0:0:0:
277,263,210558,2,0,L|333:277,1,48.75,0|0,3:0|0:0,0:0:0:0:
390,295,210730,6,2,P|404:243|376:293,1,146.25,0|0,0:0|0:0,0:2:0:0:
306,171,211075,2,0,L|303:240,1,48.75,0|0,3:0|0:0,0:0:0:0:
247,333,211248,2,0,L|250:264,1,48.75,8|0,3:0|0:0,0:0:0:0:
288,188,211420,2,0,L|285:257,1,48.75,0|0,3:0|3:0,3:0:0:0:
229,350,211593,2,0,L|232:281,1,48.75,0|0,3:0|3:0,3:0:0:0:
110,290,211765,5,0,3:0:0:0:
159,272,211851,1,0,3:0:0:0:
184,226,211937,1,8,3:0:0:0:
184,172,212024,1,0,3:0:0:0:
155,127,212110,1,0,3:0:0:0:
104,111,212196,1,0,3:0:0:0:
58,137,212282,2,0,B|32:101|32:101|92:125|133:100,1,146.25,0|0,3:0|0:0,3:0:0:0:
267,209,212627,6,0,L|349:184,1,48.75,8|0,3:0|0:0,0:0:0:0:
144,214,212799,2,0,B|152:210|97:229,1,48.75
144,214,212972,2,0,B|199:195|199:195|244:195,2,97.5,0|0|8,0:0|0:0|3:0,0:0:0:0:
122,302,213403,5,0,0:0:0:0:
125,321,213489,2,0,P|168:281|199:271,1,48.75,0|0,0:0|3:0,0:0:0:0:
410,219,213661,2,0,P|383:226|335:220,1,48.75,0|0,0:0|3:0,0:0:0:0:
221,214,213834,2,0,P|248:207|296:213,1,48.75
327,259,214006,1,8,3:0:0:0:
345,290,214093,1,0,0:0:0:0:
342,311,214179,1,0,3:0:0:0:
333,322,214265,2,0,P|293:344|206:292,1,146.250005578995,0|0,0:0|3:0,0:0:0:0:
172,215,214524,1,0,0:0:0:0:
173,186,214696,6,0,P|181:143|166:90,1,73.1250027894975,8|0,3:0|0:0,0:0:0:0:
149,240,214868,2,0,P|141:283|156:336,1,73.1250027894975,0|0,3:0|0:0,0:0:0:0:
396,270,215041,6,0,B|323:271|275:218|275:218|257:276|195:287,1,219.375008368492,4|0,3:0|0:0,0:0:0:0:
173,186,215386,6,0,B|184:148|184:148|179:112,1,73.1250027894975,8|0,3:0|0:0,0:0:0:0:
313,135,215558,1,0,0:0:0:0:
336,143,215644,6,0,B|415:161|415:161|383:189|383:189|361:186|352:182,1,146.250005578995,0|0,3:0|0:0,0:0:0:0:
107,212,215903,2,0,P|138:191|208:195,1,73.1250027894975,0|0,3:0|0:0,0:0:0:0:
377,204,216075,1,8,3:0:0:0:
365,231,216161,1,0,0:0:0:0:
347,253,216248,1,0,0:0:0:0:
323,269,216334,2,0,B|243:219|243:219|136:225|136:225|97:139,1,292.50001115799,2|0,0:0|0:0,3:0:0:0:
269,172,216765,2,0,P|306:134|304:85,1,73.1250027894975,8|0,3:3|0:0,0:0:0:0:
313,41,216937,2,0,B|346:52|346:52|392:48,2,48.750001859665,0|0|0,0:0|3:0|0:0,0:0:0:0:
254,24,217110,2,0,B|207:48|194:89|194:89|179:65|136:60,1,146.250005578995
134,38,217368,1,0,0:0:0:0:
119,130,217455,2,0,L|100:219,1,73.1250027894975,8|0,3:0|0:0,0:0:0:0:
200,248,217627,2,0,L|181:337,1,73.1250027894975
103,201,217799,2,2,B|12:306|12:306|77:295|77:295|81:218,1,219.375008368492,0|0,0:0|0:0,2:0:0:0:
475,86,218144,6,0,P|392:106|343:66,1,146.250005578995,8|0,3:0|0:0,0:0:0:0:
119,50,218403,2,0,P|177:111|167:174,1,146.250005578995,0|0,3:0|0:0,0:0:0:0:
97,281,218661,2,0,P|126:251|133:198,1,73.1250027894975,0|0,3:0|0:0,0:0:0:0:
129,185,218834,5,8,3:0:0:0:
115,151,218920,1,0,0:0:0:0:
94,120,219006,1,0,0:0:0:0:
62,102,219092,1,0,0:0:0:0:
94,120,219179,5,0,3:0:0:0:
104,139,219265,1,0,0:0:0:0:
117,155,219351,1,0,0:0:0:0:
132,170,219437,1,0,0:0:0:0:
149,183,219524,1,8,3:0:0:0:
168,193,219610,1,0,0:0:0:0:
455,266,219782,6,0,P|360:272|323:303,1,146.250005578995,0|0,3:0|0:0,0:0:0:0:
176,321,220041,2,0,B|182:346|182:362|182:362|211:355|217:338,1,73.1250027894975,0|0,3:0|0:0,0:0:0:0:
121,247,220213,2,0,B|161:237|189:202|189:202|207:224|255:233,1,146.250005578995,8|0,3:0|0:0,0:0:0:0:
377,98,220472,1,0,0:0:0:0:
385,88,220558,6,0,B|391:198|347:201|453:265,1,146.250005578995,4|0,3:0|0:0,0:0:0:0:
322,346,220817,1,0,0:0:0:0:
307,357,220903,2,0,B|264:334|264:335|255:302,1,73.1250027894975,8|0,3:0|0:0,0:0:0:0:
63,246,221075,2,0,B|106:269|106:268|115:301,1,73.1250027894975,0|0,0:0|3:0,0:0:0:0:
149,160,221248,5,0,0:0:0:0:
157,139,221334,1,0,0:0:0:0:
156,117,221420,2,0,B|131:102|131:102|239:95,1,73.1250027894975,0|0,3:0|0:0,0:0:0:0:
380,88,221592,2,0,B|389:122|389:122|313:122|313:122|293:50|293:50|343:51,1,219.375008368492,8|0,3:0|0:0,0:0:0:0:
448,286,221937,6,0,B|423:202|423:202|284:202,1,219.375008368492,0|0,0:0|0:0,3:0:0:0:
76,294,222282,2,0,B|101:265|101:265|140:276|140:276|215:264,1,146.250005578995,8|0,3:0|0:0,0:0:0:0:
311,147,222541,2,0,B|286:176|286:176|247:165|247:165|172:177,1,146.250005578995,0|0,3:0|3:0,0:0:0:0:
137,167,222799,1,0,0:0:0:0:
103,138,222886,1,0,0:0:0:0:
89,96,222972,1,8,3:0:0:0:
104,54,223058,1,0,0:0:0:0:
141,31,223144,1,0,0:0:0:0:
183,40,223230,1,0,0:0:0:0:
214,71,223317,2,0,B|255:93|287:84|319:75|319:75|352:66|384:57|425:80,1,219.375008368492,2|0,0:0|0:0,0:0:0:0:
202,209,223661,6,0,B|232:173|232:173|239:153|239:153|279:157|284:156|284:156|336:147,1,146.250005578995,8|0,3:0|0:0,0:0:0:0:
23,150,223920,2,0,B|84:170|121:146|121:146|92:175|88:198,1,146.250005578995,0|0,3:0|0:0,0:0:0:0:
77,222,224179,1,0,3:0:0:0:
82,265,224265,1,0,0:0:0:0:
87,308,224351,2,0,L|253:320,1,146.250005578995,8|0,3:0|0:0,0:0:0:0:
361,215,224610,1,0,0:0:0:0:
361,215,224696,1,0,3:0:0:0:
361,215,224782,2,0,L|278:209,1,73.1250027894975
112,49,225041,6,0,B|90:79|105:109|105:109|198:116,1,146.250005578995,8|0,3:0|0:0,0:0:0:0:
402,78,225299,2,0,B|321:58|293:88|293:88|298:112|296:138,1,146.250005578995,0|0,3:0|0:0,0:0:0:0:
187,271,225558,2,0,P|213:252|239:216,1,73.1250027894975,0|0,3:0|0:0,0:0:0:0:
26,187,225730,6,0,B|40:216|55:231|55:231|82:216|82:216|99:195|150:187|143:178|143:178|179:177|179:177|210:142|204:124,1,219.375008368492,8|0,3:0|0:0,0:0:0:0:
400,157,226075,6,0,B|374:131|323:131|297:157|271:182|220:182|194:156,1,219.375008368492,4|0,3:0|0:0,0:0:0:0:
402,260,226420,2,0,P|389:233|360:312,1,146.250005578995,8|0,3:0|0:0,0:0:0:0:
174,265,226679,2,0,B|269:294|269:294|311:270,1,146.250005578995,0|0,3:0|0:0,0:0:0:0:
438,172,226937,2,0,P|354:142|270:176,2,146.250005578995
82,162,227455,6,0,L|355:207,1,219.375008368492,0|0,0:0|0:0,3:0:0:0:
122,159,227799,2,0,P|118:240|221:234,1,146.250005578995
182,258,228029,5,0,0:0:0:0:
203,246,228087,1,0,0:0:0:0:
228,223,228144,1,0,0:0:0:0:
237,198,228230,1,0,0:0:0:0:
219,147,228317,1,0,0:0:0:0:
180,110,228403,1,0,0:0:0:0:
126,119,228489,1,8,3:0:0:0:
231,83,228834,6,0,L|166:102,1,68.2499979171753,8|0,3:0|0:0,0:0:0:0:
81,177,229006,2,0,L|146:158,1,68.2499979171753
260,69,229179,2,0,L|185:70,1,68.2499979171753,8|0,3:0|0:0,0:0:0:0:
74,126,229351,2,0,L|148:124,1,68.2499979171753
299,50,229524,2,0,L|212:29,1,68.2499979171753,8|0,3:0|0:0,0:0:0:0:
65,59,229696,2,0,L|152:80,1,68.2499979171753
340,56,229868,2,0,L|256:10,1,68.2499979171753,8|0,3:0|0:0,0:0:0:0:
94,0,230040,2,0,L|179:46,1,68.2499979171753
412,82,230213,6,0,L|339:144,1,68.2499979171753,8|0,3:0|0:0,0:0:0:0:
44,276,230386,2,0,L|125:208,1,68.2499979171753,8|0,3:0|0:0,0:0:0:0:
496,208,230558,2,0,L|386:240,1,68.2499979171753,8|0,3:0|0:0,0:0:0:0:
53,168,230731,2,0,L|172:133,1,68.2499979171753,8|0,3:0|0:0,0:0:0:0:
464,288,230903,2,0,L|336:325,3,68.2499979171753,8|8|8|8,3:0|3:0|3:0|3:0,0:0:0:0:
352,318,231248,2,0,L|279:256,1,68.2499979171753,8|8,3:0|3:0,0:0:0:0:
306,243,231420,1,8,3:0:0:0:
288,134,231592,6,0,B|257:104|251:61|247:19|247:19|222:48|222:48|185:62|185:62|163:85|143:70|143:70|96:55,1,277.874992579937,4|0,3:0|0:0,0:0:0:0:
61,210,231937,6,0,B|95:207|107:181|107:181|130:202|177:197|177:197|204:219|220:259|214:268,1,185.249995053291,8|0,3:0|0:0,0:0:0:0:
103,364,232196,2,0,B|121:285|121:285|114:250|114:250|108:179,1,185.249995053291,0|0,3:0|0:0,0:0:0:0:
343,157,232455,2,0,P|292:237|174:215,1,185.249995053291,0|8,3:0|3:0,0:0:0:0:
66,53,232799,6,0,B|199:72|199:72|243:120|243:120|118:201|118:201|94:134,1,370.499990106583
118,232,233317,2,0,L|238:311,1,92.6249975266457,8|0,3:0|0:0,0:0:0:0:
290,243,233490,2,0,L|426:197,1,92.6249975266457,0|0,0:0|3:0,0:0:0:0:
465,265,233661,2,0,P|379:294|347:203,1,185.249995053291
354,189,233920,1,0,0:0:0:0:
367,154,234006,5,8,3:0:0:0:
362,118,234092,1,0,0:0:0:0:
340,88,234178,1,0,0:0:0:0:
308,72,234264,1,0,0:0:0:0:
271,73,234351,6,2,B|126:114|126:114|153:77,1,185.249995053291,0|0,3:0|0:0,2:0:0:0:
113,131,234610,1,0,0:0:0:0:
77,173,234696,2,0,B|51:205|51:205|146:188|146:188|115:262,1,185.249995053291,8|0,3:0|0:0,0:0:0:0:
84,312,234955,2,2,P|147:263|206:335,1,185.249995053291,0|0,0:0|0:0,2:0:0:0:
206,328,235213,2,2,P|248:269|324:348,1,185.249995053291,0|8,2:0|3:0,2:0:0:0:
474,289,235472,2,0,L|374:301,2,92.6249975266457
190,229,235730,1,0,3:0:0:0:
250,164,235817,2,0,B|318:155|318:155|376:123|376:123|409:175,1,185.249995053291,8|0,3:0|0:0,0:0:0:0:
190,229,236075,6,0,P|163:128|249:75,1,185.249995053291,8|0,3:0|0:0,0:0:0:0:
198,240,236334,2,0,B|125:251|125:251|94:298|94:298|169:290,1,185.249995053291,8|0,3:0|0:0,0:0:0:0:
159,301,236592,1,4,3:0:0:0:
483,233,236765,5,8,3:0:0:0:
444,297,236851,1,0,0:0:0:0:
369,320,236937,1,0,3:0:0:0:
299,284,237024,1,0,3:0:0:0:
278,210,237110,6,0,B|235:167|192:167|107:251|65:251|23:210,1,277.874992579937,0|0,3:0|0:0,0:0:0:0:
121,20,237455,2,0,B|184:11|190:62|146:133|243:178,1,185.249995053291,8|0,3:0|0:0,0:0:0:0:
202,223,237713,2,0,P|240:99|179:103,1,185.249995053291,0|0,3:0|0:0,0:0:0:0:
115,56,237972,2,0,P|77:180|138:176,1,185.249995053291,0|8,3:0|3:0,0:0:0:0:
256,192,238317,5,0,0:0:0:0:
192,177,238403,1,0,0:0:0:0:
128,160,238489,2,0,P|134:264|158:239,1,185.249995053291,0|0,3:0|0:0,3:3:0:0:
198,313,238748,1,0,0:0:0:0:
204,306,238834,2,0,P|288:274|385:300,1,185.249995053291,8|0,3:0|0:0,0:0:0:0:
448,290,239064,1,0,0:0:0:0:
468,282,239121,1,0,0:0:0:0:
486,271,239179,2,0,B|325:213|325:213|266:108,1,277.874992579937,0|0,3:0|0:0,0:0:0:0:
106,70,239524,6,0,L|203:72,1,92.6249975266457,8|0,3:0|0:0,0:0:0:0:
244,103,239696,1,8,3:0:0:0:
264,154,239782,1,0,0:0:0:0:
251,206,239868,6,0,P|243:272|348:334,1,185.249995053291,2|0,3:1|0:0,0:0:0:0:
398,306,240127,1,0,0:0:0:0:
460,267,240213,2,0,B|323:250|323:250|379:151,1,185.249995053291,8|0,3:0|0:0,0:0:0:0:
510,207,240472,2,0,L|419:380,1,185.249995053291,0|0,3:0|0:0,0:0:0:0:
390,277,240730,2,0,L|335:382,1,92.6249975266457,0|0,3:0|0:0,0:0:0:0:
347,190,240903,6,0,L|292:295,1,92.6249975266457,8|0,3:0|0:0,0:0:0:0:
256,300,241075,1,0,0:0:0:0:
200,305,241161,1,0,3:0:0:0:
145,292,241248,2,0,B|139:228|139:228|172:174|172:174|144:105,1,185.249995053291,0|0,0:0|3:0,0:0:0:0:
135,49,241506,2,0,B|204:40|204:40|177:84,1,92.6249975266457,0|8,0:0|3:0,0:0:0:0:
288,32,241679,2,0,B|336:163|336:163|242:113,1,185.249995053291,0|0,0:0|3:0,0:0:0:0:
65,208,241937,6,0,L|104:299,1,92.6249975266457
119,296,242110,2,0,B|178:266|238:325|298:296,1,185.249995053291,0|8,3:0|3:0,0:0:0:0:
317,298,242368,1,0,0:0:0:0:
335,301,242455,1,0,0:0:0:0:
353,304,242541,1,0,0:0:0:0:
371,308,242627,6,0,B|361:274|361:274|366:251|366:251|348:240|348:240|333:215|333:215|346:187|339:167|339:167|344:133|344:133|324:109|324:109|345:66|345:66|344:46,1,277.874992579937,0|0,3:0|0:0,0:0:0:0:
344,60,242972,2,0,B|271:104|271:104|161:68,1,185.249995053291,8|0,3:0|0:0,0:0:0:0:
107,137,243230,2,0,L|245:185,1,92.6249975266457,0|0,3:0|0:0,0:0:0:0:
290,205,243403,2,0,L|428:253,1,92.6249975266457,0|0,0:0|3:0,0:0:0:0:
385,239,243575,1,0,0:0:0:0:
391,240,243661,2,0,P|397:302|306:261,1,185.249995053291,8|0,3:0|0:0,0:0:0:0:
212,259,243920,6,0,P|250:335|305:283,1,185.249995053291,0|0,3:0|0:0,3:0:0:0:
40,243,244179,2,0,P|76:261|129:247,1,92.6249975266457,0|0,3:0|0:0,0:0:0:0:
205,256,244351,5,8,3:0:0:0:
296,136,244524,1,0,0:0:0:0:
114,122,244696,1,0,0:0:0:0:
126,181,244782,1,0,0:0:0:0:
116,214,244868,1,0,0:0:0:0:
110,277,244955,1,0,0:0:0:0:
121,307,245041,2,0,B|192:310|192:310|239:265|239:265|300:300|300:300|383:291,1,277.874992579937,8|0,3:0|0:0,0:0:0:0:
430,345,245386,2,0,P|448:264|367:213,1,185.249995053291,4|0,3:0|0:0,0:0:0:0:
169,97,245730,6,0,B|206:157|206:157|239:161|239:161|262:182|262:182|313:197,1,185.249995053291,8|0,3:0|0:0,0:0:0:0:
328,198,245989,1,0,0:0:0:0:
345,193,246075,2,0,B|372:175|372:175|337:328,1,185.249995053291,0|0,0:0|3:0,0:0:0:0:
257,297,246334,2,0,P|283:292|345:342,1,92.6249975266457,0|8,0:0|3:0,0:0:0:0:
146,294,246506,2,0,L|238:236,1,92.6249975266457
57,229,246679,2,0,P|101:218|127:181,1,92.6249975266457,0|0,3:0|0:0,0:0:0:0:
87,362,246851,2,0,B|158:381|158:381|286:301,1,185.249995053291
70,156,247110,2,0,B|85:278|85:278|145:293,1,185.249995053291,8|0,3:0|0:0,0:0:0:0:
57,133,247368,1,0,0:0:0:0:
223,135,247541,5,0,0:0:0:0:
213,150,247627,1,0,0:0:0:0:
199,162,247713,1,0,0:0:0:0:
179,167,247799,2,0,L|271:202,1,92.6249975266457,8|0,3:0|0:0,0:0:0:0:
321,310,247972,2,0,L|229:275,1,92.6249975266457
64,225,248144,6,0,P|31:165|102:227,1,277.874992579937,8|0,3:0|0:0,0:0:0:0:
64,256,248489,2,0,P|8:332|120:324,1,219.375008368492,8|0,3:0|0:0,0:0:0:0:
195,272,248834,2,0,P|258:253|247:168,1,146.250005578995,8|0,3:0|0:0,0:0:0:0:
188,166,249092,2,0,B|172:109|119:102|119:102|128:34|201:16,1,185.249995053291,8|0,3:0|0:0,0:0:0:0:
78,233,249351,2,0,L|208:233,1,92.6249975266457,8|0,3:0|0:0,0:0:0:0:
280,297,249524,2,0,P|384:324|344:209,1,277.874992579937,8|0,3:0|0:0,0:0:0:0:
232,166,249868,2,0,B|195:129|195:129|166:121|166:121|111:159|111:159|145:177|145:177|152:197|152:197|168:205|168:205|176:225|176:225|203:241|242:238,1,277.874992579937,8|0,3:0|0:0,0:0:0:0:
260,235,250213,2,0,B|312:203|358:235|358:235|393:213|395:170|363:151|363:151|347:143,1,185.249995053291,8|0,3:0|0:0,0:0:0:0:
322,145,250472,2,0,P|267:145|279:39,1,185.249995053291,8|0,3:0|0:0,0:0:0:0:
292,36,250730,1,8,3:0:0:0:
154,309,250989,5,8,3:0:0:0:
121,40,251161,1,8,3:0:0:0:
76,84,251248,1,8,3:0:0:0:
137,100,251334,1,8,3:0:0:0:
198,117,251420,1,8,3:0:0:0:
259,133,251506,1,8,3:0:0:0:
320,150,251592,1,8,3:0:0:0:
381,167,251679,1,8,3:0:0:0:
442,183,251765,1,8,3:0:0:0:
478,288,251851,5,8,3:0:0:0:
409,269,251937,1,8,3:0:0:0:
341,250,252023,1,8,3:0:0:0:
442,151,252196,5,8,3:0:0:0:
119,106,252972,6,0,B|112:135|137:157|137:157|148:51|286:38,1,231.562493816614,8|0,3:0|0:0,0:0:0:0:
393,278,253230,2,0,B|401:240|369:212|369:212|316:244|316:244|305:295|305:295|247:311|247:311|178:365,1,277.874992579937,8|0,3:0|0:0,0:0:0:0:
256,96,253661,1,0,3:0:0:0:
40,220,254006,6,0,L|159:191,1,116.999996429443
183,197,254265,1,0,0:0:0:0:
212,201,254351,2,0,L|348:219,1,116.999996429443,8|0,3:0|0:0,0:0:0:0:
501,244,254610,2,0,P|414:279|386:274,1,116.999996429443,8|0,3:0|0:0,0:0:0:0:
383,383,254868,2,0,B|365:320|365:320|400:267,1,116.999996429443,2|0,0:1|0:0,0:0:0:0:
231,120,255213,2,0,L|297:183,1,87.7499973220826
394,276,255385,1,0,3:0:0:0:
47,214,255558,6,0,P|81:238|122:239,1,58.4999982147217
140,227,255730,1,0,0:0:0:0:
172,190,255817,1,0,0:0:0:0:
193,148,255903,1,0,0:0:0:0:
229,116,255989,1,0,0:0:0:0:
275,114,256075,1,0,0:0:0:0:
317,132,256161,1,0,0:0:0:0:
346,169,256248,1,0,0:0:0:0:
350,215,256334,1,0,0:0:0:0:
326,255,256420,6,0,B|221:349|221:349|226:294,1,194.999994049072,2|0,1:0|0:0,0:0:0:0:
123,228,256765,2,0,P|153:225|203:244,1,77.999997619629
276,313,256937,1,0,0:0:0:0:
285,322,257024,1,0,0:0:0:0:
295,330,257110,6,0,B|381:354|381:354|424:347|424:347|495:364,2,175.499994644165,8|0|0,3:0|0:0|3:0,0:0:0:0:
169,105,257972,1,0,3:0:0:0:
58,312,258144,2,0,L|111:176,1,116.999996429443,0|0,3:0|0:0,0:0:0:0:
170,155,258489,5,8,3:0:0:0:
208,145,258575,1,0,0:0:0:0:
247,146,258661,1,0,0:0:0:0:
283,158,258747,1,0,0:0:0:0:
317,247,258834,5,0,0:0:0:0:
240,239,258920,1,0,0:0:0:0:
164,257,259006,1,0,0:0:0:0:
96,296,259092,1,0,0:0:0:0:
52,361,259179,2,0,B|13:285|90:209|52:133,1,233.999992858887,0|0,0:0|3:0,0:0:0:0:
183,170,259696,5,0,3:0:0:0:
237,247,259782,1,0,3:0:0:0:
274,158,259868,2,0,P|327:144|399:175,1,116.999996429443,8|0,3:0|0:0,0:0:0:0:
376,67,260127,2,0,P|431:77|481:137,1,116.999996429443,8|0,3:0|0:0,0:0:0:0:
481,313,260386,2,0,B|491:278|491:278|479:280|479:280|475:269|475:269|476:254|476:254|471:231|471:231|484:222|491:210|491:210|479:196|479:196|480:185|480:185|472:176|472:176|472:163|472:163|479:160|479:160|479:144|479:144|479:141|472:129|472:129|473:113,1,233.999992858887,2|0,0:1|0:0,0:0:0:0:
468,4,260903,1,0,0:0:0:0:
300,90,261075,5,0,3:0:0:0:
238,109,261133,1,0,3:0:0:0:
174,102,261190,1,0,3:0:0:0:
127,59,261248,2,0,B|112:146|112:146|133:182|119:225|119:225|129:272|213:287|262:232|248:186,1,350.99998928833,0|0,0:0|0:0,3:0:0:0:
41,265,261937,6,0,B|63:303|81:322|114:346|157:354|201:346,1,190.124991296769,2|0,0:1|0:0,0:0:0:0:
288,299,262282,2,0,L|376:284,1,63.3749970989229
207,290,262455,5,0,3:0:0:0:
233,247,262541,1,0,3:0:0:0:
259,204,262627,2,0,L|414:224,1,126.749994197846,8|0,3:0|0:0,0:0:0:0:
229,131,262886,2,0,L|348:232,1,126.749994197846,8|0,3:0|0:0,0:0:0:0:
245,66,263144,2,0,L|279:181,1,109.687504184246,0|0,3:0|0:0,0:0:0:0:
107,202,263489,2,0,L|154:200,1,36.5625013947487,0|0,3:0|0:0,0:0:0:0:
342,331,263661,2,0,L|107:340,1,219.375008368492,0|0,3:0|0:0,0:0:0:0:
179,253,264006,6,0,L|214:183,3,73.1250027894975,8|0|0|0,3:0|0:0|0:0|0:0,0:0:0:0:
273,245,264351,2,0,L|339:204,3,73.1250027894975
76,151,264696,5,0,3:0:0:0:
101,133,264782,1,0,3:0:0:0:
168,105,264868,1,8,3:0:0:0:
240,107,264954,1,8,3:0:0:0:
307,137,265040,1,0,3:0:0:0:
280,205,265127,1,0,3:0:0:0:
213,178,265213,1,4,3:0:0:0:
147,205,265299,1,4,3:0:0:0:
117,270,265386,6,0,P|58:271|18:349,1,146.250005578995,8|0,3:0|0:0,0:0:0:0:
34,140,265644,2,0,P|34:236|66:268,1,146.250005578995,8|0,3:0|0:0,0:0:0:0:
173,105,265903,2,0,B|94:139|94:139|-29:141,2,146.250005578995,0|0|0,3:0|0:0|0:0,0:0:0:0:
251,63,266334,1,0,3:0:0:0:
338,59,266420,1,4,3:0:0:0:
493,123,266592,5,0,0:0:0:0:
472,136,266679,1,0,0:0:0:0:
428,130,266765,1,8,3:0:0:0:
381,151,266851,1,0,0:0:0:0:
319,126,266937,1,0,0:0:0:0:
258,152,267024,1,0,0:0:0:0:
197,176,267110,1,0,0:0:0:0:
118,159,267196,1,0,0:0:0:0:
96,228,267282,1,0,0:0:0:0:
81,299,267368,1,0,0:0:0:0:
63,370,267455,6,0,B|148:337|148:337|159:275|159:275|225:235,1,219.375008368492,0|0,3:0|0:0,0:0:0:0:
274,282,267799,2,0,P|357:260|365:256,1,73.1250027894975,0|0,3:0|0:0,0:0:0:0:
335,164,267972,2,0,P|418:186|426:190,1,73.1250027894975,0|0,3:0|3:0,0:0:0:0:
399,253,268144,2,0,B|378:286|378:286|384:95,2,219.375008368492,0|0|0,3:0|0:0|3:0,0:0:0:0:
249,166,269007,5,0,3:0:0:0:
183,244,269179,2,0,P|92:202|74:113,1,146.250005578995,0|0,3:0|0:0,0:0:0:0:
190,45,269524,6,0,B|217:80|217:80|197:185,1,146.250005578995,8|0,3:0|0:0,0:0:0:0:
280,32,269782,2,0,B|284:76|284:76|210:153,1,146.250005578995,8|0,3:0|0:0,0:0:0:0:
363,71,270041,2,0,B|342:110|342:110|238:135,1,146.250005578995,8|8,3:0|3:0,0:0:0:0:
49,202,270558,1,8,3:0:0:0:
253,206,270903,1,8,3:0:0:0:
71,110,271248,1,8,3:0:0:0:
84,313,271592,5,8,3:0:0:0:
175,129,271937,1,8,3:0:0:0:
15,257,272282,1,8,3:0:0:0:
280,270,272627,1,8,3:0:0:0:
260,7,272972,6,8,B|253:133|253:133|293:101,1,146.250005578995,8|0,3:0|3:0,0:0:0:0:
440,196,273230,2,8,B|314:189|314:189|346:229,1,146.250005578995,8|0,3:0|3:0,0:0:0:0:
251,376,273489,2,8,B|258:250|258:250|218:282,1,146.250005578995,8|0,3:0|3:0,0:0:0:0:
71,187,273748,2,8,B|197:194|197:194|165:154,1,146.250005578995,8|0,3:0|3:0,0:0:0:0:
367,320,274006,5,8,3:0:0:0:
131,67,274179,1,8,3:0:0:0:
99,258,274351,5,0,0:0:0:0:
215,264,274466,1,0,0:0:0:0:
331,270,274581,1,0,0:0:0:0:
447,277,274696,1,0,0:0:0:0:
296,365,274868,1,0,0:0:0:0:
296,189,275041,1,0,0:0:0:0:
447,277,275213,1,0,0:0:0:0:
296,365,275386,1,0,0:0:0:0:
296,189,275558,1,0,0:0:0:0:
296,365,275730,6,0,B|336:351|336:351|365:281|365:281|313:246|245:246|199:290|199:290|225:217|225:217|210:130|210:130|246:177|378:198|404:165|400:79|327:49|274:106|303:175|303:175|304:246|304:246|259:354|259:354|163:411|75:361,1,1170,0|8,3:0|2:0,0:0:0:0:
45,46,281248,6,0,B|59:77|51:104|51:104|42:135|42:135|70:157|70:157|56:175|56:175|46:205|46:205|66:219|66:219|59:259|59:259|55:282|55:282|56:286|56:286|67:303|67:303|77:315|77:315|196:345|196:345|241:290|241:290|125:261|125:261|172:213|172:213|141:51|141:51|181:51|181:51|191:98,1,936,0|8,0:0|2:0,0:0:0:0:
383,96,286765,6,0,B|348:176|299:163|227:178|198:91|198:91|165:135|102:141|102:141|35:272|114:301|212:268|170:169|32:208|32:208|47:253|33:304|33:304|77:347|131:352|181:325,1,936,0|8,0:0|2:0,0:0:0:0:
65,79,292282,6,0,B|-26:107|3:238|125:228|142:157|142:157|161:212|225:209|225:209|256:155|338:174|338:174|342:257|475:315|594:173|480:24|348:66|336:161,1,936
280,206,297282,6,0,L|326:204,2,39
128,128,298144,5,0,0:0:0:0:
256,96,298317,1,0,0:0:0:0:
288,224,298489,2,0,L|160:256,1,97.5
256,96,298834,2,0,L|384:64,1,97.5
352,64,299524,5,0,0:0:0:0:
384,191,299696,1,0,0:0:0:0:
256,224,299868,2,0,L|224:96,1,97.5
384,191,300213,2,0,L|416:319,2,97.5
186,283,300903,6,0,B|237:333|237:333|247:364,1,97.5
379,352,301248,2,0,B|327:302|327:302|317:272,2,97.5
345,59,301765,2,0,L|418:271,1,195
192,192,302282,6,0,P|96:224|64:64,2,292.5
128,128,303489,2,0,L|224:32,1,97.5
288,160,304006,1,0,0:0:0:0:
295,270,304179,1,0,0:0:0:0:
367,190,304351,1,0,0:0:0:0:
220,241,304524,1,0,0:0:0:0:
377,269,304696,1,0,0:0:0:0:
224,96,305041,5,0,0:0:0:0:
192,248,305386,1,0,0:0:0:0:
265,193,305558,1,0,0:0:0:0:
143,209,305730,1,0,0:0:0:0:
315,228,305903,1,0,0:0:0:0:
185,121,306075,1,0,0:0:0:0:
185,121,306420,6,0,B|241:232|241:232|173:192,2,167.700002558899
259,52,307282,1,0,0:0:0:0:
356,77,307455,1,0,0:0:0:0:
145,218,307799,6,0,P|202:274|304:224,1,167.700002558899
350,181,308317,1,0,0:0:0:0:
278,111,308489,1,0,0:0:0:0:
362,164,308661,1,0,0:0:0:0:
267,129,308834,1,0,0:0:0:0:
366,143,309006,6,0,B|422:138|422:138|401:104,2,83.8500012794495
361,201,309524,2,0,B|304:206|304:206|326:240,2,83.8500012794495
305,206,310041,2,0,L|114:225,1,167.700002558899
205,147,310558,5,0,0:0:0:0:
252,271,310730,1,0,0:0:0:0:
245,136,310903,1,0,0:0:0:0:
210,265,311075,1,0,0:0:0:0:
285,153,311248,1,0,0:0:0:0:
178,234,311420,2,0,B|299:188|299:188|256:192,1,167.700002558899
285,83,311937,6,0,L|256:163,1,83.8500012794495
335,271,312282,2,0,L|280:205,1,83.8500012794495
146,220,312627,2,0,L|231:205,1,83.8500012794495
372,89,313317,6,0,L|277:159,1,83.8500012794495
285,344,313662,2,0,L|273:227,1,83.8500012794495
108,140,314007,2,0,L|216:188,1,83.8500012794495
256,192,314351,1,0,0:0:0:0:
173,164,314696,6,0,B|256:274|256:274|283:219,1,167.700002558899
256,164,315213,2,0,B|173:54|173:54|145:109,1,167.700002558899
268,247,315730,1,0,0:0:0:0:
437,266,316075,6,0,B|263:255,1,167.700002558899
118,219,316765,6,0,B|283:164,8,167.700002558899
118,219,319868,1,0,0:0:0:0:
