osu file format v14

[General]
AudioFilename: audio.mp3
AudioLeadIn: 0
PreviewTime: 148768
Countdown: 0
SampleSet: Soft
StackLeniency: 0.3
Mode: 2
LetterboxInBreaks: 0
WidescreenStoryboard: 1

[Editor]
Bookmarks: 44654,79562,114471,131926,149381,166835,184290,201744,219199,254108,271562,289017,321744,324471,334835
DistanceSpacing: 1.2
BeatDivisor: 4
GridSize: 8
TimelineZoom: 3.699998

[Metadata]
Title:flower of wilderness
TitleUnicode:flower of wilderness
Artist:Camellia
ArtistUnicode:Camellia
Creator:Emiru
Version:chrysanthemums
Source:
Tags:mgncd-002 明星デストピア the morning star: destopia desire utopia binzokomegane girls union jcore electric drum wub electronic instrumental "guest tracks" summary & vips 01 summary01 ctcd-015 かめるかめりあ kamelcamellia cametek j-core ProfessionalBox featured artist fa
BeatmapID:3710976
BeatmapSetID:1809311

[Difficulty]
HPDrainRate:4
CircleSize:4.2
OverallDifficulty:9.6
ApproachRate:9.6
SliderMultiplier:1.9
SliderTickRate:2

[Events]
//Background and Video events
0,0,"flower.jpg",0,0
//Break Periods
//Storyboard Layer 0 (Background)
//Storyboard Layer 1 (Fail)
//Storyboard Layer 2 (Pass)
//Storyboard Layer 3 (Foreground)
//Storyboard Layer 4 (Overlay)
//Storyboard Sound Samples

[TimingPoints]
9745,545.454545454546,4,2,1,15,1,0
9745,-100,4,2,1,15,0,0
9881,-100,4,2,1,15,0,0
10290,-100,4,2,1,10,0,0
10563,-100,4,2,1,15,0,0
13835,-100,4,2,1,10,0,0
14108,-100,4,2,1,15,0,0
19017,-100,4,2,1,10,0,0
19290,-100,4,2,1,15,0,0
25563,-100,4,2,1,20,0,0
26108,-100,4,2,1,20,0,0
26654,-100,4,2,1,20,0,0
27199,-100,4,2,1,25,0,0
27745,-100,4,2,1,10,0,0
28017,-100,4,2,1,25,0,0
30745,-100,4,2,1,10,0,0
31563,-100,4,2,1,25,0,0
34017,-100,4,2,1,10,0,0
34699,-100,4,2,1,25,0,0
36472,-100,4,2,1,10,0,0
36745,-100,4,2,1,25,0,0
40699,-100,4,2,1,10,0,0
40835,-100,4,2,1,25,0,0
44654,-100,4,2,1,35,0,0
75199,-71.4285714285714,4,2,1,40,0,0
76290,-71.4285714285714,4,2,1,45,0,0
76563,-71.4285714285714,4,2,1,50,0,0
76835,-71.4285714285714,4,2,1,50,0,0
77108,-71.4285714285714,4,2,1,50,0,0
77381,272.727272727273,4,2,1,50,1,0
77381,-100,4,2,1,50,0,0
77926,-100,4,2,1,50,0,0
78471,-100,4,2,1,50,0,0
79017,-100,4,3,2,55,0,0
79562,-100,4,1,1,60,0,0
81199,-100,4,1,1,60,0,0
81744,-166.666666666667,4,2,1,45,0,0
83926,-100,4,1,1,50,0,0
85017,-100,4,1,1,55,0,0
85562,-100,4,1,1,55,0,0
85835,-100,4,1,1,55,0,0
86381,-100,4,2,1,45,0,0
87744,-100,4,3,2,55,0,0
88290,-100,4,1,1,55,0,0
89108,-100,4,1,1,55,0,0
89926,-100,4,1,1,55,0,0
90471,-100,4,2,1,45,0,0
92653,-100,4,1,1,55,0,0
93199,-100,4,1,1,55,0,0
93744,-100,4,1,1,55,0,0
94290,-100,4,1,1,55,0,0
94562,-100,4,1,1,55,0,0
95108,-100,4,2,1,45,0,0
97017,-100,4,1,1,55,0,0
103017,-100,4,1,1,60,0,0
103290,-100,4,1,1,60,0,0
105744,-100,4,1,1,65,0,0
107653,-100,4,1,1,70,0,0
112835,-100,4,1,1,70,0,0
113108,-100,4,1,1,70,0,0
113381,-100,4,1,1,60,0,0
114471,-100,4,1,1,50,0,1
115290,-100,4,1,1,60,0,1
115562,-100,4,1,1,60,0,1
118290,-83.3333333333333,4,1,1,60,0,1
118494,-100,4,1,1,60,0,1
118835,-100,4,1,1,60,0,1
119653,-100,4,1,1,60,0,1
119926,-100,4,1,1,60,0,1
122926,-100,4,1,1,60,0,1
123199,-100,4,1,1,60,0,1
124017,-100,4,1,1,60,0,1
124290,-100,4,1,1,60,0,1
127290,-100,4,1,1,60,0,1
127562,-100,4,1,1,60,0,1
128381,-100,4,1,1,60,0,1
128653,-100,4,1,1,60,0,1
129471,-100,4,2,0,50,0,1
129744,-100,4,1,1,60,0,1
131653,-100,4,2,1,50,0,1
131926,-100,4,1,1,60,0,1
132471,-100,4,1,1,60,0,1
133835,-100,4,1,1,60,0,1
136017,-100,4,1,1,60,0,1
140653,-100,4,2,0,50,0,1
145017,-100,4,2,0,60,0,1
147199,-100,4,1,1,60,0,0
148290,-100,4,1,1,60,0,0
148835,-100,4,3,2,60,0,0
149381,-45.4545454545455,4,1,1,60,0,1
149790,-100,4,1,1,60,0,1
151562,-45.4545454545455,4,1,1,60,0,1
151971,-100,4,1,1,60,0,1
153199,-45.4545454545455,4,1,1,60,0,1
153744,-45.4545454545455,4,1,1,60,0,1
154153,-100,4,1,1,60,0,1
155653,-100,4,1,1,60,0,1
155926,-45.4545454545455,4,1,1,60,0,1
156335,-100,4,1,1,60,0,1
157290,-100,4,1,1,60,0,1
158108,-45.4545454545455,4,1,1,60,0,1
158517,-100,4,1,1,60,0,1
160290,-45.4545454545455,4,1,1,60,0,1
160699,-100,4,1,1,60,0,1
160799,-100,4,1,1,60,0,1
162471,-45.4545454545455,4,1,1,60,0,1
162881,-100,4,1,1,60,0,1
164381,-100,4,1,1,60,0,1
164653,-100,4,1,1,60,0,1
166835,-45.4545454545455,4,1,1,60,0,1
167381,-100,4,1,1,60,0,1
171199,-45.4545454545455,4,1,1,60,0,1
171608,-100,4,1,1,60,0,1
173381,-45.4545454545455,4,1,1,60,0,1
173790,-100,4,1,1,60,0,1
175562,-45.4545454545455,4,1,1,60,0,1
175971,-100,4,1,1,60,0,1
177744,-45.4545454545455,4,1,1,60,0,1
178426,-100,4,1,1,60,0,1
179926,-100,4,2,1,55,0,1
182108,-100,4,2,1,65,0,1
184290,545.454545454546,4,2,1,50,1,0
184290,-100,4,2,1,50,0,0
188653,-83.3333333333333,4,2,1,35,0,0
198199,-100,4,2,1,35,0,0
199562,-100,4,2,1,35,0,0
200653,-100,4,2,1,35,0,0
201744,-100,4,2,1,35,0,0
214835,-100,4,2,1,40,0,0
215926,-62.5,4,2,1,45,0,0
217017,272.727272727273,4,2,1,50,1,0
217017,-100,4,2,1,50,0,0
218653,-100,4,3,2,60,0,0
219198,-100,4,1,1,50,0,0
219744,-100,4,1,1,50,0,0
219880,-100,4,1,1,50,0,0
220562,-100,4,1,1,50,0,0
220698,-100,4,1,1,50,0,0
221380,-250,4,2,1,35,0,0
223562,-100,4,1,1,50,0,0
224107,-100,4,1,1,50,0,0
224653,-100,4,1,1,50,0,0
225198,-100,4,1,1,50,0,0
225471,-100,4,1,1,50,0,0
226017,-100,4,2,1,35,0,0
227380,-100,4,3,2,50,0,0
227926,-100,4,1,1,50,0,0
228471,-100,4,1,1,50,0,0
228744,-100,4,1,1,50,0,0
229289,-100,4,1,1,50,0,0
229562,-100,4,1,1,50,0,0
230107,-100,4,2,1,35,0,0
232289,-100,4,2,0,50,0,0
232835,-100,4,1,1,50,0,0
233380,-100,4,1,1,50,0,0
233789,-100,4,1,1,50,0,0
234198,-100,4,1,1,50,0,0
235017,-100,4,2,1,35,0,0
235835,-100,4,2,1,40,0,0
236653,-100,4,1,1,50,0,0
241562,-100,4,1,1,50,0,0
248107,-100,4,1,1,50,0,0
248652,-100,4,1,1,50,0,0
249198,-100,4,1,1,50,0,0
249743,-100,4,1,1,55,0,0
250835,-100,4,1,1,60,0,0
251380,-100,4,1,1,65,0,0
253289,-100,4,3,2,50,0,0
253562,-100,4,3,2,50,0,0
254107,-100,4,2,1,50,0,1
254517,-100,4,2,1,50,0,0
255607,-100,4,3,2,50,0,0
256289,-45.4545454545455,4,2,1,50,0,0
256698,-45.4545454545455,4,2,1,50,0,0
257107,-45.4545454545455,4,2,1,50,0,0
257517,-45.4545454545455,4,2,1,50,0,0
257789,-100,4,2,1,50,0,0
258471,-100,4,1,1,60,0,1
262835,-100,4,1,1,60,0,1
269380,-45.4545454545455,4,1,1,60,0,1
269926,-100,4,1,1,60,0,1
271562,-100,4,1,1,60,0,1
272107,-45.4545454545455,4,1,1,60,0,1
272789,-100,4,1,1,60,0,1
273744,-45.4545454545455,4,1,1,60,0,1
274289,-100,4,1,1,60,0,1
275926,-45.4545454545455,4,1,1,60,0,1
276471,-100,4,1,1,60,0,1
277835,-100,4,1,1,60,0,1
278107,-45.4545454545455,4,1,1,60,0,1
278789,-100,4,1,1,60,0,1
280289,-45.4545454545455,4,1,1,60,0,1
280835,-100,4,1,1,60,0,1
284653,-100,4,2,1,50,0,0
286835,-100,4,2,1,60,0,0
288198,-100,4,2,1,60,0,0
288471,-100,4,2,1,60,0,0
288744,-100,4,2,1,60,0,0
289017,545.454545454546,4,2,1,35,1,0
289017,-83.3333333333333,4,2,1,35,0,0
291744,-100,4,2,1,10,0,0
292289,-100,4,2,1,25,0,0
293926,-100,4,2,1,10,0,0
294198,-100,4,2,1,25,0,0
295835,-100,4,2,1,10,0,0
296517,-100,4,2,1,25,0,0
298017,-100,4,2,1,10,0,0
298562,-100,4,2,1,25,0,0
304835,-100,4,2,1,25,0,0
305380,-100,4,2,1,27,0,0
305926,-100,4,2,1,30,0,0
306471,-100,4,2,1,20,0,0
310017,-100,4,2,1,10,0,0
310835,-100,4,2,1,20,0,0
311107,-100,4,2,1,10,0,0
311653,-100,4,2,1,20,0,0
313289,-100,4,2,1,10,0,0
315198,-100,4,2,1,15,0,0
315471,-100,4,2,1,10,0,0
316017,-100,4,2,1,15,0,0
318744,-100,4,2,1,10,0,0
319562,-100,4,2,1,15,0,0
319835,-200,4,2,1,10,0,0
320380,-200,4,2,1,15,0,0

[Colours]
Combo1 : 108,0,108
Combo2 : 255,128,0
Combo3 : 128,64,0
Combo4 : 255,128,128
Combo5 : 253,200,102

[HitObjects]
384,48,9745,5,2,0:0:0:0:
440,48,9813,1,0,0:0:0:0:
384,48,9881,1,0,0:0:0:0:
256,256,10563,1,0,0:0:0:0:
400,256,10835,1,2,0:0:0:0:
176,256,11654,5,0,0:0:0:0:
152,112,11926,1,2,0:0:0:0:
400,48,13017,2,0,L|88:48,1,285,2|0,0:0|0:0,0:0:0:0:
256,192,14108,2,0,L|336:192,2,47.5,2|0|0,0:0|0:0|0:0,0:0:0:0:
48,72,14926,5,0,0:0:0:0:
200,72,15199,1,2,0:0:0:0:
464,72,16017,1,0,0:0:0:0:
312,72,16290,1,2,0:0:0:0:
88,304,17245,2,0,P|81:289|96:272,3,23.75,2|0|0|0,0:0|0:0|0:0|0:0,0:0:0:0:
256,192,17926,1,0,0:0:0:0:
64,48,18472,2,0,L|288:48,1,190,2|0,0:0|0:0,0:0:0:0:
384,48,19290,5,0,0:0:0:0:
400,192,19563,1,2,0:0:0:0:
168,280,20381,1,0,0:0:0:0:
155,191,20654,1,2,0:0:0:0:
352,56,21745,2,0,L|144:56,1,190,2|0,0:0|0:0,0:0:0:0:
352,192,22835,2,0,L|360:256,2,47.5,0|0|2,0:0|0:0|0:0,0:0:0:0:
160,352,23654,5,0,0:0:0:0:
304,352,23926,1,2,0:0:0:0:
112,64,24745,2,0,L|8:64,2,95,0|2|0,0:0|0:0|0:0,0:0:0:0:
256,64,25563,2,0,P|152:112|128:216,2,190,2|0|0,0:0|0:0|0:0,0:0:0:0:
440,328,27199,6,0,L|232:328,1,190,2|0,0:0|0:0,0:0:0:0:
129,215,28017,1,0,0:0:0:0:
112,80,28290,1,2,0:0:0:0:
320,192,29108,1,0,0:0:0:0:
328,56,29381,1,2,0:0:0:0:
128,280,30472,6,0,P|104:328|128:360,1,95,2|0,0:0|0:0,0:0:0:0:
328,64,31563,2,0,L|400:64,2,47.5,2|0|0,0:0|0:0|0:0,0:0:0:0:
120,120,32381,5,0,0:0:0:0:
256,120,32654,1,2,0:0:0:0:
24,336,33472,2,0,L|144:336,2,95,0|2|0,0:0|0:0|0:0,0:0:0:0:
256,328,34698,5,0,0:0:0:0:
336,328,34835,2,0,P|384:272|304:200,1,190,2|0,0:0|0:0,0:0:0:0:
160,88,35926,2,0,L|352:88,1,190,2|0,0:0|0:0,0:0:0:0:
208,160,36745,5,0,0:0:0:0:
352,160,37017,1,2,0:0:0:0:
112,192,37835,1,0,0:0:0:0:
96,304,38108,1,2,0:0:0:0:
288,312,39199,2,0,P|328:264|224:200,1,190,2|0,0:0|0:0,0:0:0:0:
56,80,40290,2,0,L|208:80,1,142.5,2|0,0:0|0:0,0:0:0:0:
288,80,40835,6,0,L|296:192,1,63.3333333333333
184,192,41199,1,0,0:0:0:0:
296,272,41381,2,0,L|376:272,2,63.3333333333333
168,336,41926,2,0,L|232:336,1,63.3333333333333,0|0,0:0|0:0,0:0:0:0:
320,336,42290,1,0,0:0:0:0:
216,264,42472,2,0,L|208:176,1,63.3333333333333,0|0,0:0|0:0,0:0:0:0:
304,152,42835,5,0,0:0:0:0:
200,88,43017,2,0,L|128:88,2,63.3333333333333,0|0|0,0:0|0:0|0:0,0:0:0:0:
304,88,43563,2,0,L|376:88,2,63.3333333333333,0|0|0,0:0|0:0|0:0,0:0:0:0:
200,160,44108,2,0,P|152:192|208:232,1,142.5,0|0,0:0|0:0,0:0:0:0:
456,344,44654,6,0,L|352:344,1,95,0|0,0:0|0:0,0:0:0:0:
288,344,45063,1,0,0:0:0:0:
456,192,45472,1,0,0:0:0:0:
304,96,45745,1,8,0:0:0:0:
208,40,46017,2,0,L|304:40,1,95,0|0,0:0|0:0,0:0:0:0:
392,160,46426,2,0,L|296:160,1,95,0|0,0:0|0:0,0:0:0:0:
200,232,46835,2,0,L|272:232,1,47.5,0|0,0:0|0:0,0:0:0:0:
328,232,47108,1,0,0:0:0:0:
144,160,47381,6,0,P|104:120|168:64,1,142.5,0|0,0:0|0:0,0:0:0:0:
232,56,47926,2,0,L|376:56,1,142.5,8|0,0:0|0:0,0:0:0:0:
304,32,48472,2,0,L|192:32,1,95,0|0,0:0|0:0,0:0:0:0:
272,72,48881,1,0,0:0:0:0:
424,120,49017,6,0,P|416:176|360:200,1,95,0|0,0:0|0:0,0:0:0:0:
304,232,49426,2,0,L|200:232,1,95,0|0,0:0|0:0,0:0:0:0:
264,272,49835,1,0,0:0:0:0:
184,320,50108,6,0,L|88:320,2,95,8|0|0,0:0|0:0|0:0,0:0:0:0:
280,272,50790,2,0,L|152:272,1,95,0|0,0:0|0:0,0:0:0:0:
280,224,51199,2,0,L|344:224,2,47.5,0|0|0,0:0|0:0|0:0,0:0:0:0:
184,160,51608,2,0,L|344:160,1,142.5,0|0,0:0|0:0,0:0:0:0:
176,64,52290,5,8,0:0:0:0:
344,144,52563,2,0,P|384:104|344:72,1,95,0|0,0:0|0:0,0:0:0:0:
304,40,52972,2,0,L|208:40,1,95,0|0,0:0|0:0,0:0:0:0:
304,104,53381,6,0,L|400:104,1,95
304,152,53790,1,0,0:0:0:0:
144,152,54199,1,0,0:0:0:0:
312,240,54472,2,0,L|384:240,1,47.5,8|0,0:0|0:0,0:0:0:0:
416,312,54745,2,0,L|288:312,1,95,0|0,0:0|0:0,0:0:0:0:
376,264,55154,2,0,L|488:264,1,95,0|0,0:0|0:0,0:0:0:0:
400,192,55563,1,0,0:0:0:0:
353,192,55699,1,0,0:0:0:0:
305,192,55835,1,0,0:0:0:0:
104,32,56108,6,0,P|104:88|184:144,1,142.5,0|0,0:0|0:0,0:0:0:0:
248,232,56654,2,0,L|72:232,1,142.5,8|0,0:0|0:0,0:0:0:0:
176,304,57199,2,0,L|304:304,1,95,0|0,0:0|0:0,0:0:0:0:
192,272,57608,1,0,0:0:0:0:
96,240,57745,6,0,L|88:144,1,95
216,192,58154,2,0,L|216:80,1,95,0|0,0:0|0:0,0:0:0:0:
144,72,58563,1,0,0:0:0:0:
288,72,58835,1,8,0:0:0:0:
144,32,59108,2,0,P|88:56|80:112,1,95
160,128,59517,2,0,L|264:128,1,95,0|0,0:0|0:0,0:0:0:0:
368,192,59926,6,0,L|256:192,1,95
368,328,60335,2,0,P|416:296|360:232,1,142.5,0|0,0:0|0:0,0:0:0:0:
176,128,61017,1,8,0:0:0:0:
328,128,61290,1,0,0:0:0:0:
160,192,61563,2,0,L|152:296,1,95
256,320,61972,1,0,0:0:0:0:
336,192,62108,6,0,L|344:296,1,95
256,80,62517,2,0,L|144:80,1,95,0|0,0:0|0:0,0:0:0:0:
216,48,62926,1,0,0:0:0:0:
368,32,63199,6,0,L|416:32,1,47.5,8|0,0:0|0:0,0:0:0:0:
368,88,63472,2,0,L|256:88,1,95,0|0,0:0|0:0,0:0:0:0:
200,136,63881,2,0,L|320:136,1,95,0|0,0:0|0:0,0:0:0:0:
216,192,64290,2,0,L|152:192,2,47.5,0|0|0,0:0|0:0|0:0,0:0:0:0:
400,328,64835,6,0,L|232:328,1,142.5,0|0,0:0|0:0,0:0:0:0:
184,272,65381,2,0,L|360:272,1,142.5,8|0,0:0|0:0,0:0:0:0:
232,216,65926,2,0,P|184:176|208:128,1,95,0|0,0:0|0:0,0:0:0:0:
256,128,66335,1,0,0:0:0:0:
336,56,66472,6,0,L|240:56,1,95
176,16,66881,2,0,L|280:16,1,95,0|0,0:0|0:0,0:0:0:0:
336,16,67290,1,0,0:0:0:0:
176,112,67563,1,8,0:0:0:0:
336,176,67835,2,0,P|376:200|384:272,1,95
296,248,68245,2,0,P|248:272|248:320,1,95,0|0,0:0|0:0,0:0:0:0:
336,336,68654,2,0,L|400:336,2,47.5,0|0|0,0:0|0:0|0:0,0:0:0:0:
256,336,69063,1,0,0:0:0:0:
408,248,69472,1,0,0:0:0:0:
288,192,69745,1,8,0:0:0:0:
168,112,70017,2,0,L|272:112,1,95,0|0,0:0|0:0,0:0:0:0:
344,64,70426,2,0,L|240:64,1,95,0|0,0:0|0:0,0:0:0:0:
312,128,70835,6,0,L|408:128,1,95
336,192,71245,2,0,P|288:224|336:272,1,142.5,0|0,0:0|0:0,0:0:0:0:
488,272,71926,1,8,0:0:0:0:
336,344,72199,2,0,L|224:344,1,95
184,296,72608,2,0,L|280:296,1,95,0|0,0:0|0:0,0:0:0:0:
192,248,73017,6,0,L|176:144,1,95
256,128,73426,1,0,0:0:0:0:
96,72,73835,1,0,0:0:0:0:
224,48,74108,1,8,0:0:0:0:
344,32,74381,2,0,L|440:32,1,95,0|0,0:0|0:0,0:0:0:0:
384,80,74790,2,0,L|272:80,1,95,0|0,0:0|0:0,0:0:0:0:
200,80,75199,6,0,L|192:152,1,66.4999979705811
288,192,75472,2,0,L|296:264,1,66.4999979705811,0|0,0:0|0:0,0:0:0:0:
192,216,75745,2,0,L|184:288,1,66.4999979705811,0|0,0:0|0:0,0:0:0:0:
96,288,76017,2,0,L|88:360,1,66.4999979705811,0|0,0:0|0:0,0:0:0:0:
184,352,76290,6,0,L|280:352,1,66.4999979705811,8|0,0:0|0:0,0:0:0:0:
160,304,76563,2,0,L|88:304,1,66.4999979705811,0|0,0:0|0:0,0:0:0:0:
184,256,76835,2,0,L|280:256,1,66.4999979705811,0|0,0:0|0:0,0:0:0:0:
160,192,77108,2,0,L|88:192,1,66.4999979705811,0|0,0:0|0:0,0:0:0:0:
416,144,77381,5,0,0:0:0:0:
462,138,77449,1,0,0:0:0:0:
487,100,77517,1,0,0:0:0:0:
456,56,77585,1,0,0:0:0:0:
256,64,77653,2,0,L|192:64,1,47.5,0|0,0:0|0:0,0:0:0:0:
256,32,77790,2,0,L|304:32,1,47.5,0|0,0:0|0:0,0:0:0:0:
96,144,77926,5,0,0:0:0:0:
50,138,77994,1,0,0:0:0:0:
25,100,78062,1,0,0:0:0:0:
56,56,78130,1,0,0:0:0:0:
256,64,78198,2,0,L|320:64,1,47.5,0|0,0:0|0:0,0:0:0:0:
256,32,78335,2,0,L|208:32,1,47.5,0|0,0:0|0:0,0:0:0:0:
392,120,78471,5,0,0:0:0:0:
425,117,78505,1,0,0:0:0:0:
454,132,78539,1,0,0:0:0:0:
472,160,78573,1,0,0:0:0:0:
472,192,78607,1,0,0:0:0:0:
454,220,78641,1,0,0:0:0:0:
425,235,78675,1,0,0:0:0:0:
392,232,78709,1,0,0:0:0:0:
120,120,78744,1,0,0:0:0:0:
88,117,78778,1,0,0:0:0:0:
59,132,78812,1,0,0:0:0:0:
41,160,78846,1,0,0:0:0:0:
41,192,78880,1,0,0:0:0:0:
59,220,78914,1,0,0:0:0:0:
88,235,78948,1,0,0:0:0:0:
121,232,78982,1,0,0:0:0:0:
368,352,79017,6,0,L|264:352,1,95,2|2,0:0|0:0,0:0:0:0:
368,320,79290,2,0,L|472:320,1,95,8|4,0:0|0:0,0:0:0:0:
184,120,79562,6,0,B|328:120|328:120|160:120,1,285,4|0,0:0|0:0,0:0:0:0:
408,192,80108,2,0,L|400:248,1,47.5
224,304,80244,2,0,L|272:304,1,47.5,0|0,0:0|0:0,0:0:0:0:
488,336,80381,6,0,P|416:312|496:176,1,285,4|0,0:0|0:0,0:0:0:0:
104,192,80926,2,0,L|112:248,1,47.5,0|0,0:0|0:0,0:0:0:0:
288,304,81062,2,0,L|240:304,1,47.5,0|0,0:0|0:0,0:0:0:0:
24,336,81199,6,0,P|96:312|16:176,1,285,4|0,0:0|0:0,0:0:0:0:
256,32,81744,5,0,0:0:0:0:
368,32,82016,1,0,0:0:0:0:
256,32,82289,1,8,0:0:0:0:
144,32,82562,1,0,0:0:0:0:
32,32,82834,1,0,0:0:0:0:
144,32,83107,1,0,0:0:0:0:
256,32,83380,1,8,0:0:0:0:
368,32,83653,1,0,0:0:0:0:
184,152,83926,5,0,0:0:0:0:
136,192,83994,1,0,0:0:0:0:
184,192,84062,1,0,0:0:0:0:
231,192,84130,1,0,0:0:0:0:
384,280,84199,2,0,L|336:280,1,47.5,0|0,0:0|0:0,0:0:0:0:
184,280,84335,2,0,L|128:280,1,47.5,0|0,0:0|0:0,0:0:0:0:
336,192,84471,6,0,B|432:192|432:192|432:24|432:24|432:72,1,285,4|0,0:0|0:0,0:0:0:0:
168,48,85017,6,0,P|240:64|152:184,1,285,2|0,0:0|0:0,0:0:0:0:
432,304,85562,2,0,L|312:304,1,95,0|0,0:0|0:0,0:0:0:0:
24,32,85835,6,0,B|168:32|168:32|0:32,1,285,2|0,0:0|0:0,0:0:0:0:
256,128,86381,5,0,0:0:0:0:
352,128,86653,1,8,0:0:0:0:
446,128,86926,1,0,0:0:0:0:
352,256,87199,2,0,L|344:296,6,23.75
136,256,87471,6,0,L|112:280,6,23.75
320,256,87744,2,0,L|368:256,2,47.5,2|0|0,0:0|0:0|0:0,0:0:0:0:
256,256,87949,1,0,0:0:0:0:
96,144,88017,2,0,L|96:264,1,95,8|4,0:0|0:0,0:0:0:0:
160,256,88221,1,0,0:0:0:0:
488,120,88290,6,0,P|432:128|504:272,1,285,4|0,0:0|0:0,0:0:0:0:
184,64,88835,2,0,L|136:64,1,47.5,0|0,0:0|0:0,0:0:0:0:
328,64,88971,2,0,L|376:64,1,47.5,0|0,0:0|0:0,0:0:0:0:
32,328,89108,6,0,P|77:168|184:144,1,285,4|0,0:0|0:0,0:0:0:0:
400,304,89653,2,0,L|336:304,1,47.5,0|0,0:0|0:0,0:0:0:0:
208,304,89790,2,0,L|152:304,1,47.5,0|0,0:0|0:0,0:0:0:0:
352,240,89926,6,0,P|280:216|360:80,1,285,4|0,0:0|0:0,0:0:0:0:
56,32,90471,5,0,0:0:0:0:
160,32,90743,1,0,0:0:0:0:
256,32,91016,1,8,0:0:0:0:
352,32,91289,1,0,0:0:0:0:
456,32,91561,1,0,0:0:0:0:
352,32,91834,1,0,0:0:0:0:
256,32,92107,1,8,0:0:0:0:
160,32,92380,1,0,0:0:0:0:
320,96,92653,6,0,L|376:96,1,47.5,0|0,0:0|0:0,0:0:0:0:
192,96,92790,2,0,L|144:96,1,47.5,0|0,0:0|0:0,0:0:0:0:
320,192,92926,1,0,0:0:0:0:
384,192,92994,2,0,L|440:192,2,47.5,0|0|0,0:0|0:0|0:0,0:0:0:0:
120,320,93199,6,0,L|416:320,1,285,4|0,0:0|0:0,0:0:0:0:
32,40,93744,6,0,B|176:40|176:40|16:40,1,285,2|0,0:0|0:0,0:0:0:0:
256,112,94290,2,0,L|360:112,1,95,0|0,0:0|0:0,0:0:0:0:
32,352,94562,6,0,P|96:336|24:192,1,285,6|0,0:0|0:0,0:0:0:0:
256,128,95108,5,0,0:0:0:0:
352,128,95380,1,8,0:0:0:0:
446,128,95653,1,0,0:0:0:0:
352,128,95926,1,0,0:0:0:0:
208,128,96199,2,0,L|160:128,2,47.5,0|0|0,0:0|0:0|0:0,0:0:0:0:
448,248,96471,2,0,L|328:248,1,95,2|0,0:0|0:0,0:0:0:0:
256,312,96744,2,0,L|376:312,1,95,0|0,0:0|0:0,0:0:0:0:
120,40,97017,6,0,P|72:72|128:112,1,142.5,0|0,0:0|0:0,0:0:0:0:
192,120,97290,1,0,0:0:0:0:
88,192,97426,1,0,0:0:0:0:
328,288,97562,1,0,0:0:0:0:
372,273,97630,1,0,0:0:0:0:
389,230,97698,1,0,0:0:0:0:
367,190,97766,1,0,0:0:0:0:
322,180,97834,1,0,0:0:0:0:
104,40,97971,6,0,L|208:40,2,95,0|0|0,0:0|0:0|0:0,0:0:0:0:
304,40,98381,2,0,L|400:40,1,95,0|0,0:0|0:0,0:0:0:0:
200,128,98653,2,0,L|96:128,1,95,0|0,0:0|0:0,0:0:0:0:
304,192,98926,2,0,L|408:192,1,95,0|0,0:0|0:0,0:0:0:0:
304,248,99199,2,0,L|184:248,1,95,0|0,0:0|0:0,0:0:0:0:
304,296,99471,6,0,L|399:296,1,95,8|0,0:0|0:0,0:0:0:0:
120,48,99744,2,0,L|16:48,1,95
120,48,100017,1,8,0:0:0:0:
392,48,100153,2,0,L|488:48,1,95
392,48,100426,1,0,0:0:0:0:
120,312,100562,2,0,L|224:312,3,95,8|0|0|0,0:0|0:0|0:0|0:0,0:0:0:0:
472,40,101108,6,0,L|472:96,3,47.5,8|0|0|0,0:0|0:0|0:0|0:0,0:0:0:0:
472,136,101381,1,0,0:0:0:0:
448,176,101449,1,0,0:0:0:0:
408,208,101517,1,0,0:0:0:0:
364,211,101585,1,0,0:0:0:0:
200,96,101653,2,0,L|144:96,1,47.5,8|0,0:0|0:0,0:0:0:0:
200,72,101790,2,0,L|256:72,1,47.5,0|0,0:0|0:0,0:0:0:0:
88,192,101926,6,0,P|24:232|96:288,1,190,0|8,0:0|0:0,0:0:0:0:
192,288,102335,1,0,0:0:0:0:
384,64,102471,2,0,L|288:64,1,95,0|0,0:0|0:0,0:0:0:0:
384,96,102744,2,0,L|480:96,1,95,8|0,0:0|0:0,0:0:0:0:
256,48,103017,2,0,P|208:80|272:112,1,142.5,2|0,0:2|0:2,0:0:0:0:
488,152,103290,6,0,L|352:152,1,95,8|0,0:0|0:0,0:0:0:0:
296,224,103562,2,0,L|416:224,1,95
24,152,103835,2,0,L|144:152,1,95,8|0,0:0|0:0,0:0:0:0:
216,224,104107,2,0,L|112:224,1,95,0|0,0:0|0:0,0:0:0:0:
352,64,104381,1,8,0:0:0:0:
456,64,104517,1,0,0:0:0:0:
352,64,104653,1,0,0:0:0:0:
152,120,104790,2,0,L|88:120,2,47.5,0|0|8,0:0|0:0|0:0,0:0:0:0:
360,112,105062,1,0,0:0:0:0:
152,192,105199,5,0,0:0:0:0:
107,203,105267,1,0,0:0:0:0:
87,244,105335,1,0,0:0:0:0:
107,286,105403,1,0,0:0:0:0:
152,297,105471,1,8,0:0:0:0:
352,296,105608,1,0,0:0:0:0:
160,64,105744,6,0,L|64:64,1,95,0|0,0:0|0:0,0:0:0:0:
312,64,106017,2,0,L|408:64,1,95,8|0,0:0|0:0,0:0:0:0:
200,152,106290,2,0,L|144:152,1,47.5,0|0,0:0|0:0,0:0:0:0:
208,192,106426,2,0,L|272:192,1,47.5,0|0,0:0|0:0,0:0:0:0:
448,336,106562,2,0,L|328:336,1,95,8|0,0:0|0:0,0:0:0:0:
32,272,106835,5,0,0:0:0:0:
128,272,106971,1,0,0:0:0:0:
32,272,107108,1,8,0:0:0:0:
256,272,107244,1,0,0:0:0:0:
32,216,107381,1,0,0:0:0:0:
256,216,107517,1,0,0:0:0:0:
32,160,107653,2,0,L|128:160,1,95,8|0,0:0|0:0,0:0:0:0:
480,272,107926,5,0,0:0:0:0:
384,272,108062,1,0,0:0:0:0:
480,272,108199,1,8,0:0:0:0:
256,272,108335,1,0,0:0:0:0:
480,216,108472,1,0,0:0:0:0:
256,216,108608,1,0,0:0:0:0:
480,160,108744,2,0,L|384:160,1,95,8|0,0:0|0:0,0:0:0:0:
112,48,109017,6,0,L|104:152,1,95,0|0,0:0|0:0,0:0:0:0:
400,48,109290,2,0,L|408:152,1,95,8|0,0:0|0:0,0:0:0:0:
112,256,109562,2,0,L|0:256,1,95,0|0,0:0|0:0,0:0:0:0:
400,256,109835,2,0,L|512:256,1,95,8|0,0:0|0:0,0:0:0:0:
128,64,110108,5,0,0:0:0:0:
64,64,110176,2,0,L|0:64,2,47.5,0|0|0,0:0|0:0|0:0,0:0:0:0:
240,128,110381,1,8,0:0:0:0:
176,128,110449,2,0,L|112:128,2,47.5,0|0|0,0:0|0:0|0:0,0:0:0:0:
384,64,110653,5,0,0:0:0:0:
448,64,110721,2,0,L|512:64,2,47.5,0|0|0,0:0|0:0|0:0,0:0:0:0:
272,128,110926,1,8,0:0:0:0:
336,128,110994,2,0,L|400:128,2,47.5,0|0|0,0:0|0:0|0:0,0:0:0:0:
64,192,111199,6,0,L|8:192,1,47.5,0|0,0:0|0:0,0:0:0:0:
224,192,111335,2,0,L|280:192,1,47.5,0|0,0:0|0:0,0:0:0:0:
448,192,111471,2,0,L|504:192,1,47.5,8|0,0:0|0:0,0:0:0:0:
280,192,111607,2,0,L|224:192,1,47.5,0|0,0:0|0:0,0:0:0:0:
448,56,111744,6,0,L|496:56,1,47.5,0|0,0:0|0:0,0:0:0:0:
280,56,111881,2,0,L|232:56,1,47.5,0|0,0:0|0:0,0:0:0:0:
448,120,112017,2,0,L|496:120,1,47.5,8|0,0:0|0:0,0:0:0:0:
280,112,112154,2,0,L|232:112,1,47.5,0|0,0:0|0:0,0:0:0:0:
64,56,112290,6,0,L|16:56,1,47.5,0|0,0:0|0:0,0:0:0:0:
233,56,112427,2,0,L|281:56,1,47.5,0|0,0:0|0:0,0:0:0:0:
64,120,112563,2,0,L|16:120,1,47.5,8|0,0:0|0:0,0:0:0:0:
233,112,112700,2,0,L|281:112,1,47.5,0|0,0:0|0:0,0:0:0:0:
448,232,112835,6,0,L|504:232,1,47.5,0|0,0:0|0:0,0:0:0:0:
64,304,112971,2,0,L|16:304,1,47.5,0|0,0:0|0:0,0:0:0:0:
448,304,113108,2,0,L|496:304,1,47.5,8|0,0:0|0:0,0:0:0:0:
64,232,113244,2,0,L|8:232,1,47.5,0|0,0:0|0:0,0:0:0:0:
256,192,113381,1,2,0:0:0:0:
400,192,113653,5,0,0:0:0:0:
376,288,113790,1,0,0:0:0:0:
256,192,113926,1,8,0:0:0:0:
256,304,114062,1,0,0:0:0:0:
112,192,114199,1,0,0:0:0:0:
136,288,114335,1,0,0:0:0:0:
464,32,114471,5,4,3:1:0:0:
472,32,114488,1,0,0:0:0:0:
464,48,114506,1,0,0:0:0:0:
480,48,114523,1,0,0:0:0:0:
464,64,114540,1,0,0:0:0:0:
488,64,114557,1,0,0:0:0:0:
464,88,114574,1,0,0:0:0:0:
496,88,114591,1,0,0:0:0:0:
464,88,114608,1,0,0:0:0:0:
496,88,114625,1,0,0:0:0:0:
464,88,114642,1,0,0:0:0:0:
496,88,114659,1,0,0:0:0:0:
464,88,114676,1,0,0:0:0:0:
496,88,114693,1,0,0:0:0:0:
464,88,114710,1,0,0:0:0:0:
496,88,114727,5,0,0:0:0:0:
464,88,114744,1,0,0:0:0:0:
496,88,114761,1,0,0:0:0:0:
464,88,114778,1,0,0:0:0:0:
496,88,114795,1,0,0:0:0:0:
464,88,114812,1,0,0:0:0:0:
496,88,114829,1,0,0:0:0:0:
464,88,114846,1,0,0:0:0:0:
496,88,114863,1,0,0:0:0:0:
464,120,114881,1,0,0:0:0:0:
488,120,114898,1,0,0:0:0:0:
464,144,114915,1,0,0:0:0:0:
480,144,114932,1,0,0:0:0:0:
464,168,114949,1,0,0:0:0:0:
304,176,115017,6,0,L|320:232,1,47.5,8|0,0:0|2:0,0:0:0:0:
464,272,115153,2,0,L|416:272,1,47.5,0|0,0:0|2:0,0:0:0:0:
208,248,115290,2,0,L|232:296,1,47.5,0|0,0:0|0:0,0:0:0:0:
288,312,115426,1,0,0:0:0:0:
192,352,115562,5,0,3:0:0:0:
400,104,115699,2,0,L|352:96,1,47.5,0|0,0:0|0:0,0:0:0:0:
216,56,115835,2,0,L|152:40,1,47.5,0|0,0:0|0:0,0:0:0:0:
336,192,115971,1,0,0:0:0:0:
232,296,116108,6,0,L|240:224,1,47.5,8|0,0:0|0:0,0:0:0:0:
448,352,116244,2,0,L|456:288,1,47.5,0|0,0:0|2:0,0:0:0:0:
400,288,116381,1,0,0:0:0:0:
160,120,116517,2,0,L|272:120,1,95,0|0,0:0|3:0,0:0:0:0:
32,256,116790,2,0,L|152:256,2,95,0|0|0,0:0|0:0|0:0,0:0:0:0:
280,48,117199,6,0,L|168:48,1,95,10|0,0:0|2:0,0:0:0:0:
232,88,117403,1,0,3:0:0:0:
376,176,117471,2,0,L|328:176,1,47.5,0|0,0:0|2:0,0:0:0:0:
160,280,117608,2,0,L|224:280,1,47.5,0|0,3:0|2:0,0:0:0:0:
376,272,117744,1,0,3:0:0:0:
280,312,117881,6,0,L|272:336,4,23.75,0|0|0|0|0,0:0|0:0|0:0|0:0|0:0,0:0:0:0:
376,344,118153,1,0,0:0:0:0:
160,96,118290,2,0,P|104:152|184:184,1,170.999994781494,10|0,0:0|2:0,0:0:0:0:
328,216,118562,2,0,L|320:272,1,47.5,0|0,0:0|2:0,0:0:0:0:
160,320,118699,2,0,L|216:320,1,47.5,0|0,0:0|2:0,0:0:0:0:
456,96,118835,6,0,P|376:120|472:280,1,332.5,4|0,3:1|0:0,0:0:0:0:
312,64,119381,2,0,L|312:120,1,47.5,8|0,0:0|0:0,0:0:0:0:
376,64,119517,2,0,L|376:112,1,47.5,0|0,0:0|0:0,0:0:0:0:
208,264,119653,2,0,L|256:264,1,47.5,0|0,0:0|2:0,0:0:0:0:
312,264,119790,1,0,0:0:0:0:
208,216,119926,5,0,0:0:0:0:
416,216,120062,1,0,0:0:0:0:
208,336,120199,2,0,L|256:336,1,47.5,0|0,0:0|2:0,0:0:0:0:
416,144,120335,2,0,L|304:144,1,95,0|8,0:0|0:0,0:0:0:0:
112,136,120608,2,0,L|120:184,1,47.5,0|0,0:0|0:0,0:0:0:0:
304,248,120744,2,0,L|256:248,1,47.5,0|0,0:0|2:0,0:0:0:0:
120,248,120881,1,0,0:0:0:0:
216,192,121017,6,0,L|240:192,4,23.75,0|0|0|0|0,3:0|0:0|0:0|0:0|0:0,0:0:0:0:
120,72,121290,2,0,L|272:72,1,142.5,0|0,0:0|0:0,0:0:0:0:
200,112,121562,1,8,0:0:0:0:
296,136,121699,1,0,0:0:0:0:
40,192,121835,6,0,L|32:216,4,23.75,0|0|0|0|0,0:0|0:0|0:0|0:0|0:0,0:0:0:0:
256,296,122108,2,0,L|152:296,1,95,0|0,3:0|0:0,0:0:0:0:
360,264,122381,2,0,L|368:160,1,95,0|0,0:0|0:0,0:0:0:0:
152,152,122653,2,0,P|105:199|168:232,1,142.5,8|0,0:0|0:0,0:0:0:0:
304,192,122926,2,0,L|323:211,6,23.75,2|0|0|0|0|0|0,0:0|0:0|0:0|0:0|0:0|0:0|0:0,0:0:0:0:
88,48,123199,6,0,B|256:48|256:48|80:48,1,332.5,4|0,3:1|0:0,0:0:0:0:
256,128,123744,2,0,L|304:128,1,47.5,8|0,0:0|2:0,0:0:0:0:
152,192,123881,2,0,L|152:256,1,47.5,0|0,0:0|2:0,0:0:0:0:
352,248,124017,1,0,0:0:0:0:
304,248,124085,1,0,0:0:0:0:
257,248,124153,1,0,0:0:0:0:
352,344,124290,5,0,3:0:0:0:
152,56,124426,2,0,L|200:56,1,47.5,0|0,0:0|0:0,0:0:0:0:
352,56,124562,2,0,L|400:56,1,47.5,0|0,0:0|0:0,0:0:0:0:
208,128,124699,1,0,0:0:0:0:
312,128,124835,2,0,L|312:176,1,47.5,8|0,0:0|2:0,0:0:0:0:
160,288,124971,2,0,L|216:288,1,47.5,0|0,0:0|2:0,0:0:0:0:
408,344,125108,6,0,L|296:344,2,95,0|0|0,0:0|0:0|3:0,0:0:0:0:
80,192,125517,2,0,L|232:192,1,142.5,2|0,0:2|0:0,0:0:0:0:
160,160,125790,1,0,0:0:0:0:
368,48,125926,1,10,0:0:0:0:
432,48,125994,2,0,L|480:48,2,47.5,0|0|0,0:0|2:0|3:0,0:0:0:0:
200,56,126199,2,0,L|144:56,1,47.5,0|0,0:0|2:0,0:0:0:0:
304,112,126335,2,0,L|352:112,1,47.5,0|0,3:0|2:0,0:0:0:0:
160,304,126471,5,0,3:0:0:0:
256,256,126608,2,0,L|256:208,1,47.5,0|0,0:0|0:0,0:0:0:0:
96,192,126744,2,0,L|144:192,1,47.5,0|0,0:0|0:0,0:0:0:0:
208,192,126881,1,0,0:0:0:0:
432,48,127017,2,0,P|480:80|408:112,1,142.5,10|0,0:0|0:0,0:0:0:0:
256,104,127290,2,0,L|248:128,6,23.75,0|0|0|0|0|0|2,0:0|0:0|0:0|0:0|0:0|0:0|0:0,0:0:0:0:
488,160,127562,6,0,P|416:168|504:320,1,332.5,4|0,3:1|0:0,0:0:0:0:
208,264,128108,1,8,0:0:0:0:
160,240,128176,1,0,2:0:0:0:
207,240,128244,1,0,0:0:0:0:
255,240,128312,1,0,2:0:0:0:
416,128,128381,2,0,L|360:128,1,47.5,2|0,0:0|2:0,0:0:0:0:
312,128,128517,1,0,0:0:0:0:
408,64,128653,1,0,3:0:0:0:
184,48,128790,6,0,L|184:96,1,47.5,2|0,0:0|2:0,0:0:0:0:
240,48,128926,2,0,L|240:96,1,47.5,0|0,0:0|2:0,0:0:0:0:
80,144,129062,2,0,L|128:144,1,47.5,0|0,0:0|0:0,0:0:0:0:
336,312,129199,2,0,L|192:312,1,142.5,10|0,0:0|2:0,0:0:0:0:
424,232,129471,2,0,L|448:232,6,23.75,0|0|0|0|0|0|0,0:0|0:0|0:0|0:0|0:0|0:0|0:0,0:0:0:0:
192,64,129744,5,0,3:0:0:0:
320,64,129881,1,0,0:0:0:0:
323,111,129949,1,0,0:0:0:0:
327,158,130017,1,8,0:0:0:0:
192,64,130153,1,0,0:0:0:0:
189,111,130221,1,0,0:0:0:0:
185,158,130289,1,0,0:0:0:0:
432,32,130426,2,0,L|456:32,4,23.75,0|0|0|0|8,0:0|0:0|0:0|0:0|0:0,0:0:0:0:
208,328,130699,6,0,L|320:328,1,95,0|0,0:0|0:0,0:0:0:0:
72,232,130971,2,0,L|80:176,1,47.5,0|0,0:0|0:0,0:0:0:0:
256,72,131108,2,0,L|152:72,1,95,8|0,0:0|0:0,0:0:0:0:
208,40,131312,1,0,0:0:0:0:
400,32,131381,6,0,P|448:80|400:320,1,332.5,2|0,0:0|0:0,0:0:0:0:
256,112,131926,2,0,B|256:304|256:304|256:152,1,332.5,0|0,3:0|0:0,0:0:0:0:
48,32,132471,5,12,3:1:0:0:
40,32,132488,1,0,0:0:0:0:
48,48,132506,1,0,0:0:0:0:
32,48,132523,1,0,0:0:0:0:
48,64,132540,1,0,0:0:0:0:
24,64,132557,1,0,0:0:0:0:
48,88,132574,1,0,0:0:0:0:
16,88,132591,1,0,0:0:0:0:
48,88,132608,1,0,0:0:0:0:
16,88,132625,1,0,0:0:0:0:
48,88,132642,1,0,0:0:0:0:
16,88,132659,1,0,0:0:0:0:
48,88,132676,1,0,0:0:0:0:
16,88,132693,1,0,0:0:0:0:
48,88,132710,1,0,0:0:0:0:
16,88,132727,5,0,0:0:0:0:
48,88,132744,1,0,0:0:0:0:
16,88,132761,1,0,0:0:0:0:
48,88,132778,1,0,0:0:0:0:
16,88,132795,1,0,0:0:0:0:
48,88,132812,1,0,0:0:0:0:
16,88,132829,1,0,0:0:0:0:
48,88,132846,1,0,0:0:0:0:
16,88,132863,1,0,0:0:0:0:
48,120,132881,1,0,0:0:0:0:
24,120,132898,1,0,0:0:0:0:
48,144,132915,1,0,0:0:0:0:
32,144,132932,1,0,0:0:0:0:
48,168,132949,1,0,0:0:0:0:
464,248,133017,5,0,3:0:0:0:
360,192,133153,2,0,L|352:240,2,47.5,0|0|0,0:0|0:0|0:0,0:0:0:0:
464,136,133426,1,0,0:0:0:0:
168,40,133562,2,0,L|216:40,1,47.5,8|0,0:0|0:0,0:0:0:0:
352,40,133699,2,0,L|304:40,1,47.5,0|0,0:0|0:0,0:0:0:0:
144,120,133835,2,0,P|104:144|160:208,1,142.5,2|0,0:0|0:0,0:0:0:0:
304,296,134108,5,0,3:0:0:0:
208,352,134244,1,0,0:0:0:0:
256,352,134312,1,0,0:0:0:0:
303,352,134380,1,0,0:0:0:0:
208,296,134517,1,0,0:0:0:0:
424,32,134653,6,0,B|440:88|440:88|416:136,1,95,10|0,0:0|0:0,0:0:0:0:
264,32,134858,2,0,B|248:88|248:88|272:136,1,95,0|0,3:0|0:0,0:0:0:0:
416,192,135062,2,0,L|472:192,2,47.5,0|0|0,3:0|0:0|3:0,0:0:0:0:
304,136,135335,2,0,L|312:192,1,47.5,0|0,0:0|0:0,0:0:0:0:
464,296,135471,2,0,L|408:296,1,47.5,0|0,0:0|0:0,0:0:0:0:
208,240,135608,1,0,0:0:0:0:
304,240,135744,6,0,L|312:264,6,23.75,10|0|0|0|0|0|0,0:0|0:0|0:0|0:0|0:0|0:0|0:0,0:0:0:0:
144,64,136017,2,0,L|88:64,2,47.5,0|0|2,0:0|0:0|0:0,0:0:0:0:
208,64,136221,1,0,0:0:0:0:
16,208,136290,6,0,P|80:216|8:344,1,285,4|0,3:1|0:0,0:0:0:0:
240,128,136835,2,0,L|264:144,4,23.75,8|0|0|0|0,0:0|0:0|0:0|0:0|0:0,0:0:0:0:
136,56,137108,2,0,L|192:56,1,47.5,0|0,0:0|0:0,0:0:0:0:
352,56,137244,1,0,0:0:0:0:
128,296,137381,2,0,L|16:296,1,95,0|2,3:0|0:0,0:0:0:0:
256,296,137653,1,0,0:0:0:0:
304,360,137790,6,0,L|232:360,1,47.5,2|0,0:0|0:0,0:0:0:0:
192,360,137926,1,8,0:0:0:0:
456,144,138062,2,0,L|520:144,2,47.5,0|0|0,0:0|0:0|0:0,0:0:0:0:
256,144,138335,1,2,0:0:0:0:
456,72,138471,6,0,L|352:72,1,95,0|0,3:0|0:0,0:0:0:0:
161,96,138744,2,0,L|289:96,1,95,2|0,0:0|0:0,0:0:0:0:
304,96,138949,1,0,0:0:0:0:
120,256,139017,2,0,P|64:222|94:165,1,142.5,8|0,0:0|0:0,0:0:0:0:
304,336,139290,2,0,L|248:336,1,47.5,0|0,0:0|0:0,0:0:0:0:
120,336,139426,2,0,L|64:336,1,47.5,0|0,0:0|0:0,0:0:0:0:
376,168,139562,6,0,L|384:264,1,95,0|0,3:0|0:0,0:0:0:0:
264,168,139835,2,0,L|256:264,1,95,0|0,0:0|0:0,0:0:0:0:
40,56,140108,2,0,L|144:56,1,95,8|0,0:0|0:0,0:0:0:0:
232,112,140381,2,0,L|128:112,1,95,2|0,0:0|0:0,0:0:0:0:
392,112,140653,6,0,P|464:144|368:280,1,285,4|0,3:1|0:0,0:0:0:0:
256,224,141199,2,0,L|248:112,1,95,0|0,0:0|0:0,0:0:0:0:
368,152,141471,2,0,L|376:48,1,95,0|0,0:0|0:0,0:0:0:0:
256,224,141744,6,0,L|248:112,1,95
136,152,142016,2,0,L|128:48,1,95,0|0,0:0|0:0,0:0:0:0:
256,360,142290,2,0,L|264:256,1,95,0|2,0:0|0:0,0:0:0:0:
376,328,142562,2,0,L|368:232,1,95,0|0,0:0|0:0,0:0:0:0:
136,328,142835,6,0,L|144:232,1,95,0|2,0:0|0:0,0:0:0:0:
376,328,143108,2,0,L|368:232,1,95,0|0,0:0|0:0,0:0:0:0:
144,56,143381,6,0,L|256:56,1,95,0|0,0:0|0:0,0:0:0:0:
32,56,143653,2,0,L|24:160,1,95,8|0,0:0|0:0,0:0:0:0:
368,56,143926,2,0,L|256:56,1,95,0|0,0:0|0:0,0:0:0:0:
480,56,144198,2,0,L|488:160,1,95,8|0,0:0|0:0,0:0:0:0:
144,144,144471,1,0,0:0:0:0:
368,144,144608,1,0,0:0:0:0:
144,192,144744,1,8,0:0:0:0:
368,192,144881,1,0,0:0:0:0:
64,32,145017,6,0,L|8:32,1,47.5,0|0,0:0|0:0,0:0:0:0:
208,112,145153,2,0,L|264:112,1,47.5,0|0,0:0|0:0,0:0:0:0:
64,192,145290,2,0,L|8:192,1,47.5,8|0,0:0|0:0,0:0:0:0:
208,280,145426,2,0,L|264:280,1,47.5,0|0,0:0|0:0,0:0:0:0:
448,352,145562,6,0,L|504:352,1,47.5,0|0,0:0|0:0,0:0:0:0:
304,272,145698,2,0,L|248:272,1,47.5,0|0,0:0|0:0,0:0:0:0:
448,192,145835,2,0,L|504:192,1,47.5,8|0,0:0|0:0,0:0:0:0:
304,104,145971,2,0,L|248:104,1,47.5,0|0,0:0|0:0,0:0:0:0:
56,280,146108,6,0,L|56:344,1,47.5
200,360,146244,2,0,L|280:360,1,47.5
456,280,146381,2,0,L|456:344,1,47.5,8|0,0:0|0:0,0:0:0:0:
304,312,146517,2,0,L|256:312,1,47.5,0|0,0:0|0:0,0:0:0:0:
128,56,146653,6,0,L|104:56,2,23.75
256,56,146756,1,0,0:0:0:0:
384,56,146790,2,0,L|408:56,2,23.75
256,56,146892,1,0,0:0:0:0:
104,120,146926,2,0,L|80:120,2,23.75,8|0|0,0:0|0:0|0:0,0:0:0:0:
256,128,147029,1,0,0:0:0:0:
408,120,147063,2,0,L|432:120,2,23.75
32,192,147199,5,0,3:0:0:0:
352,192,148290,5,0,3:0:0:0:
192,136,148562,2,0,L|185:39,1,63.3333333333333,8|0,0:0|0:0,0:0:0:0:
256,48,148744,1,0,0:0:0:0:
40,192,148835,2,0,L|160:192,1,95,2|2,0:0|0:0,0:0:0:0:
232,240,149108,2,0,L|104:240,1,95,8|4,0:0|0:0,0:0:0:0:
376,152,149381,6,0,B|464:344|464:344|256:344,1,418.000012756348,4|0,3:1|0:0,0:0:0:0:
160,344,149790,1,0,0:0:0:0:
472,56,149926,2,0,L|368:56,2,95,8|0|0,0:0|0:0|0:0,0:0:0:0:
256,56,150335,1,0,0:0:0:0:
472,128,150471,2,0,L|368:128,1,95,0|0,3:0|0:0,0:0:0:0:
144,128,150744,1,0,0:0:0:0:
360,192,150881,2,0,L|416:192,2,47.5,0|0|8,0:0|0:0|0:0,0:0:0:0:
144,192,151153,1,0,0:0:0:0:
360,312,151290,2,0,L|480:312,1,95,0|0,0:0|0:0,0:0:0:0:
136,152,151562,6,0,B|48:344|48:344|256:344,1,418.000012756348,4|0,3:1|0:0,0:0:0:0:
352,344,151971,1,0,0:0:0:0:
40,56,152108,2,0,L|144:56,2,95,8|0|0,0:0|0:0|0:0,0:0:0:0:
256,56,152517,1,0,0:0:0:0:
40,136,152653,5,0,3:0:0:0:
256,128,152790,1,0,0:0:0:0:
320,128,152858,2,0,L|368:128,2,47.5,0|0|0,2:0|0:0|2:0,0:0:0:0:
112,280,153062,2,0,L|160:280,1,47.5,0|0,0:0|2:0,0:0:0:0:
368,344,153199,6,0,B|162:344|162:344|250:152,1,418.000012756348,8|0,0:0|0:0,0:0:0:0:
352,192,153608,1,0,0:0:0:0:
48,64,153744,6,0,L|480:64,1,418.000012756348,4|0,3:1|0:0,0:0:0:0:
368,104,154153,1,0,0:0:0:0:
160,192,154290,2,0,L|264:192,2,95,8|0|0,0:0|0:0|0:0,0:0:0:0:
368,192,154699,1,0,0:0:0:0:
160,280,154835,6,0,L|256:280,1,95,0|0,3:0|0:0,0:0:0:0:
40,280,155108,1,0,0:0:0:0:
256,72,155244,2,0,L|240:128,1,47.5,0|0,0:0|0:0,0:0:0:0:
184,144,155381,1,8,0:0:0:0:
296,192,155517,1,0,0:0:0:0:
96,224,155653,2,0,P|42:187|73:130,1,142.5,0|0,0:0|0:0,0:0:0:0:
464,64,155926,6,0,L|32:64,1,418.000012756348,4|0,3:1|0:0,0:0:0:0:
144,104,156335,1,0,0:0:0:0:
416,128,156471,2,0,L|464:128,2,47.5,8|0|0,0:0|0:0|0:0,0:0:0:0:
248,136,156676,2,0,L|264:264,1,95,0|0,0:0|0:0,0:0:0:0:
480,328,156881,2,0,L|464:224,1,95,0|0,0:0|3:0,0:0:0:0:
256,72,157153,1,0,0:0:0:0:
40,192,157290,6,0,L|24:216,6,23.75,0|0|0|0|0|0|0,0:0|0:0|0:0|0:0|0:0|0:0|0:0,0:0:0:0:
256,136,157562,2,0,L|209:136,1,47.5,8|0,0:0|0:0,0:0:0:0:
72,112,157699,2,0,L|24:112,1,47.5,0|0,0:0|0:0,0:0:0:0:
200,312,157835,1,0,0:0:0:0:
243,300,157903,1,0,0:0:0:0:
256,256,157971,1,0,0:0:0:0:
224,224,158039,1,0,0:0:0:0:
16,352,158108,6,0,B|222:352|222:352|134:160,1,418.000012756348,4|0,3:1|0:0,0:0:0:0:
32,192,158517,1,0,0:0:0:0:
256,112,158653,2,0,L|144:112,1,95,8|0,0:0|0:0,0:0:0:0:
376,112,158926,1,0,0:0:0:0:
168,64,159062,1,0,0:0:0:0:
376,248,159199,2,0,L|264:248,2,95,0|0|0,3:0|0:0|0:0,0:0:0:0:
160,360,159608,5,0,0:0:0:0:
207,360,159676,1,0,0:0:0:0:
255,360,159744,1,8,0:0:0:0:
256,288,159881,1,0,0:0:0:0:
16,88,160017,2,0,L|111:88,1,95,0|0,0:0|0:0,0:0:0:0:
16,88,160290,6,0,B|224:89|224:89|-48:88,1,418.000012756348,4|0,3:1|0:0,0:0:0:0:
112,128,160699,1,0,0:0:0:0:
352,56,160835,2,0,L|232:56,2,95,8|0|0,0:0|0:0|0:0,0:0:0:0:
144,56,161244,1,0,0:0:0:0:
344,144,161381,5,0,3:0:0:0:
216,192,161517,2,0,L|264:192,1,47.5,0|0,0:0|2:0,0:0:0:0:
392,272,161653,1,0,2:0:0:0:
440,272,161721,1,0,0:0:0:0:
408,312,161790,1,0,0:0:0:0:
361,312,161857,1,0,0:0:0:0:
504,80,161926,2,0,L|512:112,6,23.75,8|0|0|0|0|0|0,0:0|0:0|0:0|0:0|0:0|0:0|0:0,0:0:0:0:
352,184,162199,2,0,P|296:152|344:88,1,142.5,0|0,0:0|0:0,0:0:0:0:
512,344,162471,6,0,B|306:344|306:344|394:152,1,418.000012756348,4|0,3:1|0:0,0:0:0:0:
496,192,162880,1,0,0:0:0:0:
200,96,163017,2,0,L|312:96,2,95,8|0|0,0:0|0:0|0:0,0:0:0:0:
416,48,163426,1,0,0:0:0:0:
200,160,163562,6,0,L|304:160,1,95,0|0,3:0|0:0,0:0:0:0:
64,160,163835,1,0,0:0:0:0:
168,248,163971,2,0,L|168:296,2,47.5,0|0|8,0:0|0:0|0:0,0:0:0:0:
280,160,164244,1,0,0:0:0:0:
64,328,164381,2,0,P|16:296|64:240,1,142.5,0|0,0:0|0:0,0:0:0:0:
312,48,164653,6,0,L|416:48,3,95,0|0|0|0,3:1|0:0|0:0|0:0,0:0:0:0:
96,96,165199,2,0,L|200:96,2,95,8|0|0,0:0|0:0|0:0,0:0:0:0:
456,192,165608,1,0,0:0:0:0:
256,320,165744,6,0,L|384:320,1,95,8|0,0:0|0:0,0:0:0:0:
56,192,166017,1,0,0:0:0:0:
256,320,166153,2,0,L|128:320,1,95,8|0,0:0|0:0,0:0:0:0:
456,192,166426,2,0,L|352:192,2,95,0|8|0,0:0|0:0|0:0,0:0:0:0:
256,88,166835,6,0,B|48:88|48:88|184:336,1,418.000012756348,4|0,3:1|0:0,0:0:0:0:
256,272,167244,1,0,0:0:0:0:
40,344,167381,2,0,L|160:344,2,95,8|0|0,0:0|0:0|0:0,0:0:0:0:
256,192,167790,2,0,L|342:192,2,47.5,0|0|0,0:0|0:0|0:0,0:0:0:0:
40,192,168062,1,0,0:0:0:0:
256,96,168199,2,0,L|152:96,2,95,0|0|8,3:0|0:0|0:0,0:0:0:0:
40,32,168608,2,0,L|56:80,1,47.5,0|0,0:0|0:0,0:0:0:0:
112,104,168744,1,0,0:0:0:0:
16,104,168881,1,0,0:0:0:0:
248,144,169017,6,0,L|280:128,6,23.75,4|0|0|0|0|0|0,3:1|0:0|0:0|0:0|0:0|0:0|0:0,0:0:0:0:
112,304,169290,2,0,P|64:280|88:208,1,142.5,0|0,0:0|0:0,0:0:0:0:
304,240,169562,1,8,0:0:0:0:
208,240,169699,2,0,L|160:240,1,47.5
208,288,169835,2,0,L|264:288,1,47.5
112,104,169971,2,0,L|112:32,1,47.5,0|0,0:0|0:0,0:0:0:0:
400,72,170108,6,0,P|392:128|320:176,1,142.5,0|0,0:0|0:0,0:0:0:0:
112,72,170381,2,0,P|120:128|192:176,1,142.5,0|0,3:0|0:0,0:0:0:0:
256,192,170653,1,8,0:0:0:0:
48,232,170790,2,0,L|24:232,4,23.75,0|0|0|0|0,0:0|0:0|0:0|0:0|0:0,0:0:0:0:
144,232,171062,1,0,0:0:0:0:
376,152,171199,6,0,B|464:344|464:344|256:344,1,418.000012756348,4|0,3:1|0:0,0:0:0:0:
160,344,171608,1,0,0:0:0:0:
376,80,171744,2,0,L|280:80,2,95,8|0|0,0:0|0:0|0:0,0:0:0:0:
128,192,172153,6,0,L|24:192,1,95
256,240,172426,1,0,0:0:0:0:
32,304,172562,2,0,L|144:304,2,95,0|0|8,3:0|0:0|0:0,0:0:0:0:
256,112,172971,1,0,0:0:0:0:
152,112,173108,1,0,0:0:0:0:
256,112,173244,1,0,0:0:0:0:
496,88,173381,6,0,B|288:89|288:89|560:88,1,418.000012756348,4|0,3:1|0:0,0:0:0:0:
400,128,173790,1,0,0:0:0:0:
192,128,173926,2,0,P|152:96|176:56,1,95,8|0,0:0|0:0,0:0:0:0:
320,128,174131,2,0,P|360:96|336:56,1,95,0|0,0:0|0:0,0:0:0:0:
136,192,174335,6,0,P|80:216|152:288,1,190,0|0,3:0|0:0,0:0:0:0:
408,336,174744,1,0,3:0:0:0:
361,336,174812,1,0,0:0:0:0:
313,336,174880,1,0,0:0:0:0:
408,288,175017,1,8,0:0:0:0:
176,128,175153,2,0,L|128:128,2,47.5,0|0|0,0:0|0:0|0:0,0:0:0:0:
336,128,175358,2,0,L|384:128,2,47.5,0|0|0,0:0|0:0|0:0,0:0:0:0:
24,256,175562,6,0,B|232:257|232:257|-40:256,1,418.000012756348,4|0,3:1|0:0,0:0:0:0:
120,296,175971,1,0,0:0:0:0:
352,112,176108,2,0,L|232:112,1,95,8|0,0:0|0:0,0:0:0:0:
464,112,176381,1,0,0:0:0:0:
256,192,176517,2,0,L|248:240,2,47.5,0|0|0,0:0|0:0|0:0,0:0:0:0:
456,304,176790,2,0,L|352:304,2,95,0|0|0,0:0|3:0|0:0,0:0:0:0:
256,304,177199,1,8,0:0:0:0:
456,56,177335,2,0,L|464:112,2,47.5,0|0|0,0:0|0:0|0:0,0:0:0:0:
256,56,177608,1,0,0:0:0:0:
496,384,177744,6,0,B|290:384|290:384|378:192,1,418.000012756348,4|0,3:1|0:0,0:0:0:0:
496,192,178153,1,0,0:0:0:0:
280,128,178290,1,8,0:0:0:0:
384,64,178426,2,0,L|432:64,1,47.5
480,32,178562,2,0,L|432:32,1,47.5,0|0,0:0|0:0,0:0:0:0:
256,192,178699,2,0,L|200:192,1,47.5
456,192,178835,6,0,L|464:296,1,95,0|0,0:0|0:0,0:0:0:0:
376,328,179108,1,0,3:0:0:0:
136,328,179244,1,0,0:0:0:0:
256,296,179381,2,0,L|280:320,6,23.75,8|0|0|0|0|0|0,0:0|0:0|0:0|0:0|0:0|0:0|0:0,0:0:0:0:
96,232,179653,2,0,P|72:184|128:128,1,142.5,0|0,0:0|0:0,0:0:0:0:
408,40,179926,6,0,L|512:40,1,95,0|0,0:0|0:0,0:0:0:0:
256,112,180199,2,0,L|360:112,1,95,0|0,0:0|0:0,0:0:0:0:
104,40,180471,2,0,L|0:40,1,95,0|0,0:0|0:0,0:0:0:0:
256,112,180744,2,0,L|152:112,1,95,0|0,0:0|0:0,0:0:0:0:
456,192,181017,6,0,L|464:288,1,95,0|0,0:0|0:0,0:0:0:0:
256,192,181290,1,0,0:0:0:0:
456,192,181426,1,0,0:0:0:0:
56,192,181562,2,0,L|48:288,1,95,0|0,0:0|0:0,0:0:0:0:
256,192,181835,1,0,0:0:0:0:
56,192,181971,1,0,0:0:0:0:
424,80,182108,6,0,L|472:80,1,47.5,0|0,0:0|0:0,0:0:0:0:
280,72,182244,2,0,L|224:72,1,47.5,0|0,0:0|0:0,0:0:0:0:
88,80,182381,2,0,L|40:80,1,47.5,0|0,0:0|0:0,0:0:0:0:
232,72,182517,2,0,L|288:72,1,47.5,0|0,0:0|0:0,0:0:0:0:
464,136,182653,6,0,L|512:136,1,47.5,0|0,0:0|0:0,0:0:0:0:
280,136,182790,2,0,L|232:136,1,47.5,0|0,0:0|0:0,0:0:0:0:
48,136,182926,2,0,L|0:136,1,47.5,0|0,0:0|0:0,0:0:0:0:
232,136,183063,2,0,L|280:136,1,47.5,0|0,0:0|0:0,0:0:0:0:
464,232,183199,6,0,L|512:232,1,47.5,0|0,0:0|0:0,0:0:0:0:
136,40,183335,2,0,L|88:40,1,47.5,0|0,0:0|0:0,0:0:0:0:
408,40,183471,2,0,L|456:40,1,47.5,0|0,0:0|0:0,0:0:0:0:
120,96,183608,2,0,L|72:96,1,47.5,0|0,0:0|0:0,0:0:0:0:
424,96,183744,2,0,L|472:96,1,47.5,0|0,0:0|0:0,0:0:0:0:
104,144,183881,2,0,L|56:144,1,47.5,0|0,0:0|0:0,0:0:0:0:
440,144,184017,2,0,L|488:144,1,47.5,0|0,0:0|0:0,0:0:0:0:
88,192,184153,2,0,L|40:192,1,47.5,0|0,0:0|0:0,0:0:0:0:
488,272,184290,5,4,0:0:0:0:
256,192,184358,12,0,188653,0:0:0:0:
168,192,189471,5,0,0:0:0:0:
344,192,189744,1,0,0:0:0:0:
168,24,190017,2,0,P|121:50|186:127,1,170.999994781494,0|0,0:0|0:0,0:0:0:0:
336,312,190835,6,0,L|160:312,2,170.999994781494,2|0|0,0:0|0:0|0:0,0:0:0:0:
488,216,192199,2,0,L|352:216,1,113.999996520996,0|0,0:0|0:0,0:0:0:0:
256,192,192608,2,0,L|376:192,1,113.999996520996,0|0,0:0|0:0,0:0:0:0:
64,328,193017,6,0,P|32:280|120:160,1,227.999993041992,2|0,0:0|0:0,0:0:0:0:
280,160,193835,1,0,0:0:0:0:
112,96,194108,1,0,0:0:0:0:
288,304,194380,2,0,P|320:256|216:192,1,170.999994781494,0|0,0:0|0:0,0:0:0:0:
88,352,195199,6,0,L|296:352,2,170.999994781494,2|0|0,0:0|0:0|0:0,0:0:0:0:
312,80,196562,2,0,L|184:80,1,113.999996520996,0|0,0:0|0:0,0:0:0:0:
88,40,196971,2,0,L|216:40,1,113.999996520996,0|0,0:0|0:0,0:0:0:0:
432,192,197380,2,0,L|248:192,2,170.999994781494,2|0|0,0:0|0:0|0:0,0:0:0:0:
256,304,198471,6,0,L|240:240,2,63.3333333333333,0|0|0,0:0|0:0|0:0,0:0:0:0:
384,304,199017,2,0,L|400:240,2,63.3333333333333,0|0|0,0:0|0:0|0:0,0:0:0:0:
256,160,199562,6,0,L|168:160,2,63.3333333333333,0|0|0,0:0|0:0|0:0,0:0:0:0:
392,160,200108,2,0,L|488:160,2,63.3333333333333,0|0|0,0:0|0:0|0:0,0:0:0:0:
256,96,200653,2,0,L|336:96,1,63.3333333333333,0|0,0:0|0:0,0:0:0:0:
448,96,201017,1,0,0:0:0:0:
320,48,201199,1,0,0:0:0:0:
136,48,201471,5,2,0:0:0:0:
320,128,201744,2,0,P|352:192|288:240,1,142.5,2|0,0:0|0:0,0:0:0:0:
80,232,202562,1,0,0:0:0:0:
248,312,202835,2,0,L|312:312,2,47.5,8|0|0,0:0|0:0|0:0,0:0:0:0:
80,192,203380,1,0,0:0:0:0:
8,136,203517,2,0,L|176:136,1,142.5,0|0,0:0|0:0,0:0:0:0:
328,88,204471,6,0,L|160:88,1,142.5,0|0,0:0|0:0,0:0:0:0:
256,144,205017,2,0,L|376:144,2,95,8|0|0,0:0|0:0|0:0,0:0:0:0:
392,216,205835,2,0,L|400:304,1,47.5,0|0,0:0|0:0,0:0:0:0:
304,312,206108,6,0,P|272:280|312:240,1,95,0|0,0:0|0:0,0:0:0:0:
392,312,206517,2,0,P|424:280|384:240,1,95,0|0,0:0|0:0,0:0:0:0:
328,192,206926,2,0,L|208:192,1,95,0|8,0:0|0:0,0:0:0:0:
304,136,207335,2,0,L|408:136,1,95,0|0,0:0|0:0,0:0:0:0:
328,96,207744,1,0,0:0:0:0:
160,240,208017,6,0,L|112:240,2,47.5,0|0|0,0:0|0:0|0:0,0:0:0:0:
312,192,208562,2,0,L|176:192,1,95,0|0,0:0|0:0,0:0:0:0:
80,192,209108,1,0,0:0:0:0:
216,272,209380,2,0,P|272:312|272:360,2,95,8|0|0,0:0|0:0|0:0,0:0:0:0:
80,264,210199,2,0,L|80:328,1,47.5,0|0,0:0|0:0,0:0:0:0:
328,80,210471,6,0,P|368:120|328:176,1,95,0|0,0:0|0:0,0:0:0:0:
296,192,210880,1,0,0:0:0:0:
136,192,211290,1,0,0:0:0:0:
288,256,211562,2,0,L|352:256,3,47.5,8|0|0|0,0:0|0:0|0:0|0:0,0:0:0:0:
240,216,212108,1,0,0:0:0:0:
384,112,212380,2,0,L|392:176,1,47.5
72,136,212653,1,0,0:0:0:0:
208,64,212926,5,0,0:0:0:0:
136,32,213062,2,0,L|320:32,1,142.5,0|0,0:0|0:0,0:0:0:0:
432,40,213744,1,8,0:0:0:0:
280,112,214017,2,0,L|216:112,2,47.5,0|0|0,0:0|0:0|0:0,0:0:0:0:
432,112,214562,1,0,0:0:0:0:
32,264,214835,6,0,L|208:264,2,142.5,0|0|0,0:0|0:0|0:0,0:0:0:0:
192,40,215926,1,8,0:0:0:0:
267,41,216062,1,0,0:0:0:0:
331,80,216198,1,0,0:0:0:0:
367,146,216335,1,0,0:0:0:0:
366,221,216471,1,0,0:0:0:0:
328,286,216607,1,0,0:0:0:0:
263,323,216744,1,0,0:0:0:0:
188,323,216880,1,0,0:0:0:0:
480,48,217017,6,0,L|488:96,3,47.5,0|0|0|0,0:0|0:0|0:0|0:0,0:0:0:0:
336,88,217289,2,0,L|336:136,3,47.5,0|0|0|0,0:0|0:0|0:0|0:0,0:0:0:0:
176,88,217562,2,0,L|176:136,3,47.5,0|0|0|0,0:0|0:0|0:0|0:0,0:0:0:0:
32,48,217835,2,0,L|24:96,3,47.5,0|0|0|0,0:0|0:0|0:0|0:0,0:0:0:0:
296,120,218107,6,0,L|336:120,2,23.75,8|0|0,0:0|0:0|0:0,0:0:0:0:
256,120,218210,1,0,0:0:0:0:
216,120,218244,2,0,L|176:120,2,23.75
256,120,218346,1,0,0:0:0:0:
296,160,218380,2,0,L|336:160,2,23.75,0|0|0,0:0|0:0|0:0,0:0:0:0:
256,160,218483,1,0,0:0:0:0:
216,160,218517,2,0,L|176:160,2,23.75
480,56,218653,6,0,L|376:56,3,95,2|2|8|4,0:0|0:0|0:0|0:0,0:0:0:0:
40,96,219198,6,0,P|104:104|24:232,1,285,4|0,0:0|0:0,0:0:0:0:
136,336,219744,2,0,L|32:336,1,95,0|0,0:0|2:0,0:0:0:0:
400,192,220017,6,0,L|104:192,1,285,4|0,0:0|0:0,0:0:0:0:
216,128,220562,2,0,L|121:128,1,95,0|0,0:0|2:0,0:0:0:0:
472,96,220835,6,0,P|408:104|488:232,1,285,4|0,0:0|2:0,0:0:0:0:
256,56,221380,5,0,0:0:0:0:
182,46,221652,1,0,0:0:0:0:
114,78,221925,1,8,0:0:0:0:
74,141,222198,1,0,0:0:0:0:
73,216,222470,1,0,0:0:0:0:
113,280,222743,1,0,0:0:0:0:
181,312,223016,1,8,0:0:0:0:
255,304,223289,1,0,0:0:0:0:
376,192,223562,6,0,L|328:192,1,47.5,0|0,0:0|0:0,0:0:0:0:
200,192,223698,2,0,L|136:192,1,47.5,0|0,0:0|0:0,0:0:0:0:
312,112,223835,1,0,0:0:0:0:
376,112,223903,2,0,L|432:112,2,47.5,0|0|0,0:0|0:0|0:0,0:0:0:0:
184,40,224107,6,0,B|328:40|328:40|184:40,1,285,4|0,0:0|0:0,0:0:0:0:
456,192,224653,6,0,L|392:280,1,95,0|0,0:0|2:0,0:0:0:0:
184,264,224926,1,8,0:2:0:0:
352,56,225198,2,0,P|400:88|344:128,1,142.5,2|0,0:0|2:0,0:0:0:0:
112,192,225471,6,0,B|304:192|304:192|416:192,1,285,4|0,0:0|2:0,0:0:0:0:
192,32,226017,5,0,0:0:0:0:
27,101,226289,1,8,0:0:0:0:
29,280,226562,1,0,0:0:0:0:
195,347,226835,1,0,0:0:0:0:
104,192,227107,6,0,L|80:216,6,23.75,0|0|0|0|0|0|0,0:0|0:0|0:0|0:0|0:0|0:0|0:0,0:0:0:0:
360,192,227380,2,0,L|408:192,2,47.5,2|0|2,0:0|0:0|0:0,0:0:0:0:
296,192,227585,1,0,0:0:0:0:
136,80,227653,2,0,L|136:200,1,95,8|4,0:0|0:0,0:0:0:0:
200,192,227857,1,0,0:0:0:0:
472,96,227926,6,0,P|408:104|488:232,1,285,4|0,0:0|0:0,0:0:0:0:
376,336,228472,2,0,L|480:336,1,95,0|0,0:0|2:0,0:0:0:0:
112,192,228745,6,0,L|408:192,1,285,4|0,0:0|0:0,0:0:0:0:
296,128,229290,2,0,L|391:128,1,95,0|0,0:0|2:0,0:0:0:0:
40,96,229563,6,0,P|104:104|24:232,1,285,4|0,0:0|2:0,0:0:0:0:
256,56,230107,5,0,0:0:0:0:
330,46,230379,1,0,0:0:0:0:
398,78,230652,1,8,0:0:0:0:
438,141,230925,1,0,0:0:0:0:
439,216,231197,1,0,0:0:0:0:
399,280,231470,1,0,0:0:0:0:
331,312,231743,1,8,0:0:0:0:
257,304,232016,1,0,0:0:0:0:
112,192,232289,6,0,L|56:192,1,47.5,0|0,0:0|0:0,0:0:0:0:
232,192,232426,2,0,L|288:192,1,47.5,0|0,0:0|0:0,0:0:0:0:
112,112,232562,2,0,L|56:112,2,47.5,0|0|0,0:0|0:0|0:0,0:0:0:0:
176,112,232767,1,0,0:0:0:0:
360,40,232835,6,0,B|168:40|168:40|280:40,1,285,4|0,0:0|0:0,0:0:0:0:
24,120,233380,6,0,L|152:120,1,95,0|0,0:0|2:0,0:0:0:0:
352,128,233653,1,0,0:0:0:0:
200,192,233926,2,0,L|200:288,1,95,2|0,0:0|0:0,0:0:0:0:
448,48,234198,6,0,B|256:48|256:48|480:48,1,380,4|0,0:0|0:0,0:0:0:0:
256,128,235017,2,0,P|200:128|128:240,2,190,0|8|0,0:0|0:0|0:0,0:0:0:0:
376,192,235835,2,0,L|392:312,1,95
256,192,236107,2,0,L|256:304,1,95
136,192,236380,2,0,L|128:289,1,95
416,72,236653,6,0,P|456:104|424:176,1,142.5,0|0,0:0|2:0,0:0:0:0:
352,192,236926,1,0,0:0:0:0:
144,192,237062,1,0,0:0:0:0:
256,72,237198,1,0,0:0:0:0:
296,93,237266,1,0,0:0:0:0:
312,137,237334,1,0,0:0:0:0:
294,180,237402,1,0,0:0:0:0:
251,199,237470,1,0,0:0:0:0:
56,296,237607,6,0,L|152:296,1,95,0|0,0:0|0:0,0:0:0:0:
360,336,237880,2,0,L|256:336,2,95,0|0|0,0:0|0:0|0:0,0:0:0:0:
152,192,238289,2,0,L|32:192,1,95
152,152,238562,1,0,0:0:0:0:
448,32,238698,2,0,L|344:32,1,95,0|0,0:0|0:0,0:0:0:0:
256,96,238971,2,0,L|360:96,1,95,0|8,0:0|0:0,0:0:0:0:
144,192,239244,6,0,L|40:192,2,95,0|0|0,0:0|0:0|0:0,0:0:0:0:
360,192,239653,2,0,L|456:192,1,95,8|0,0:0|0:0,0:0:0:0:
360,248,239926,1,0,0:0:0:0:
48,64,240062,2,0,L|152:64,1,95,0|8,0:0|0:0,0:0:0:0:
256,64,240335,1,0,0:0:0:0:
144,128,240471,2,0,L|49:128,1,95,0|0,0:0|0:0,0:0:0:0:
376,352,240744,5,8,0:0:0:0:
421,349,240812,1,0,0:0:0:0:
445,309,240880,1,0,0:0:0:0:
426,267,240948,1,0,0:0:0:0:
168,192,241017,2,0,L|264:192,1,95,0|0,0:0|0:0,0:0:0:0:
168,152,241289,2,0,L|72:152,1,95,8|0,0:0|0:0,0:0:0:0:
432,88,241562,6,0,P|464:136|392:192,1,142.5,0|0,0:0|2:0,0:0:0:0:
256,192,241835,2,0,P|224:240|296:296,1,142.5,8|0,0:0|2:0,0:0:0:0:
336,304,242107,1,0,0:0:0:0:
240,352,242244,2,0,L|128:352,2,95,0|8|0,0:0|0:0|0:0,0:0:0:0:
464,48,242653,6,0,L|352:48,1,95,0|0,0:0|0:0,0:0:0:0:
280,104,242926,2,0,L|392:104,1,95,8|0,0:0|0:0,0:0:0:0:
48,48,243198,2,0,L|160:48,1,95,0|0,0:0|0:0,0:0:0:0:
232,104,243471,2,0,L|120:104,1,95,8|0,0:0|0:0,0:0:0:0:
336,192,243744,6,0,P|400:224|352:280,1,142.5,0|0,0:0|0:0,0:0:0:0:
320,280,244017,1,8,0:0:0:0:
80,328,244153,2,0,L|184:328,1,95,0|0,0:0|0:0,0:0:0:0:
448,192,244426,1,0,0:0:0:0:
400,192,244494,1,0,0:0:0:0:
353,192,244562,1,8,0:0:0:0:
448,256,244698,1,0,0:0:0:0:
208,64,244835,5,0,0:0:0:0:
163,74,244903,1,0,0:0:0:0:
144,116,244971,1,0,0:0:0:0:
165,157,245039,1,0,0:0:0:0:
210,165,245107,1,8,0:0:0:0:
440,192,245244,1,0,0:0:0:0:
216,272,245380,6,0,L|112:272,3,95,0|0|8|0,0:0|0:0|0:0|0:0,0:0:0:0:
328,24,245926,2,0,L|320:72,1,47.5,0|0,0:0|0:0,0:0:0:0:
120,112,246062,2,0,L|168:112,1,47.5,0|0,0:0|0:0,0:0:0:0:
336,264,246198,6,0,L|440:264,3,95,8|0|0|0,0:0|0:0|0:0|0:0,0:0:0:0:
160,328,246744,2,0,L|272:328,1,95,8|0,0:0|0:0,0:0:0:0:
40,224,247017,6,0,L|32:128,1,95,0|0,0:0|0:0,0:0:0:0:
256,40,247289,2,0,L|160:40,1,95,8|0,0:0|0:0,0:0:0:0:
472,224,247562,2,0,L|480:128,1,95,0|0,0:0|0:0,0:0:0:0:
256,40,247834,2,0,L|352:40,1,95,8|0,0:0|0:0,0:0:0:0:
80,192,248107,6,0,L|96:296,1,95,0|0,0:0|0:0,0:0:0:0:
432,192,248380,2,0,L|416:296,1,95,8|0,0:0|0:0,0:0:0:0:
40,192,248653,2,0,L|112:272,1,95,0|0,0:0|0:0,0:0:0:0:
472,192,248926,2,0,L|400:272,1,95,8|0,0:0|0:0,0:0:0:0:
40,192,249198,2,0,L|160:192,1,95,0|0,0:0|0:0,0:0:0:0:
472,192,249471,2,0,L|352:192,1,95,8|0,0:0|0:0,0:0:0:0:
32,24,249744,6,0,L|32:80,1,47.5,0|0,0:0|0:0,0:0:0:0:
224,24,249880,2,0,L|272:24,1,47.5,0|0,0:0|0:0,0:0:0:0:
32,71,250017,2,0,L|32:127,1,47.5,8|0,0:0|0:0,0:0:0:0:
224,72,250153,2,0,L|272:72,1,47.5,0|0,0:0|0:0,0:0:0:0:
480,360,250289,6,0,L|480:304,1,47.5,0|0,0:0|0:0,0:0:0:0:
288,360,250425,2,0,L|240:360,1,47.5,0|0,0:0|0:0,0:0:0:0:
480,312,250562,2,0,L|480:256,1,47.5,8|0,0:0|0:0,0:0:0:0:
288,312,250698,2,0,L|240:312,1,47.5,0|0,0:0|0:0,0:0:0:0:
32,128,250835,6,0,L|88:128,1,47.5,0|0,0:0|0:0,0:0:0:0:
232,128,250971,2,0,L|280:128,1,47.5,0|0,0:0|0:0,0:0:0:0:
432,128,251107,2,0,L|480:128,1,47.5,8|0,0:0|0:0,0:0:0:0:
280,192,251244,2,0,L|232:192,1,47.5,0|0,0:0|0:0,0:0:0:0:
80,192,251380,2,0,L|32:192,1,47.5,0|0,0:0|0:0,0:0:0:0:
232,240,251517,2,0,L|280:240,1,47.5,0|0,0:0|0:0,0:0:0:0:
432,240,251653,2,0,L|479:240,1,47.5,8|0,0:0|0:0,0:0:0:0:
280,288,251789,2,0,L|232:288,1,47.5,0|0,0:0|0:0,0:0:0:0:
24,103,251926,6,0,L|24:56,1,47.5,0|0,0:0|0:0,0:0:0:0:
232,24,252062,2,0,L|296:24,1,47.5,0|0,0:0|0:0,0:0:0:0:
488,103,252198,2,0,L|488:56,1,47.5,8|0,0:0|0:0,0:0:0:0:
280,24,252334,2,0,L|216:24,1,47.5,0|0,0:0|0:0,0:0:0:0:
64,224,252471,2,0,L|16:224,1,47.5,0|0,0:0|0:0,0:0:0:0:
448,224,252607,2,0,L|496:224,1,47.5,0|0,0:0|0:0,0:0:0:0:
64,264,252744,2,0,L|16:264,1,47.5,8|0,0:0|0:0,0:0:0:0:
448,264,252880,2,0,L|496:264,1,47.5,0|0,0:0|0:0,0:0:0:0:
112,192,253017,1,0,0:0:0:0:
256,192,253289,5,0,0:0:0:0:
256,192,253357,1,0,0:0:0:0:
256,192,253426,1,0,0:0:0:0:
472,32,253562,2,0,L|480:128,1,95,2|0,0:0|0:0,0:0:0:0:
368,32,253835,2,0,L|360:128,1,95,8|4,0:0|0:0,0:0:0:0:
160,312,254107,6,0,L|368:312,1,190,4|0,0:1|0:0,0:0:0:0:
256,239,254517,2,0,L|256:191,1,47.5,0|0,0:0|0:0,0:0:0:0:
304,159,254653,1,0,0:0:0:0:
432,64,254789,2,0,L|312:64,1,95,0|0,0:0|0:0,0:0:0:0:
240,64,255062,2,0,P|168:80|272:192,1,285,0|0,0:0|0:0,0:0:0:0:
344,304,255607,6,0,L|288:304,1,47.5,0|0,0:0|0:0,0:0:0:0:
224,304,255744,1,10,0:0:0:0:
480,192,255880,2,0,L|376:192,2,95,2|8|4,0:0|0:0|0:0,0:0:0:0:
216,192,256289,5,8,0:1:0:0:
432,88,256426,2,0,B|224:88|224:88|264:200,1,313.500009567261,0|0,3:0|0:0,0:0:0:0:
320,192,256698,1,0,0:1:0:0:
80,88,256835,2,0,B|288:88|288:88|248:200,1,313.500009567261,0|0,3:0|0:0,0:0:0:0:
192,192,257107,1,0,0:1:0:0:
432,88,257244,2,0,B|224:88|224:88|264:200,1,313.500009567261,0|0,3:0|0:0,0:0:0:0:
320,192,257516,1,0,0:1:0:0:
80,336,257653,1,0,3:0:0:0:
272,64,257789,5,0,0:0:0:0:
318,68,257857,1,0,0:0:0:0:
359,92,257925,1,8,0:1:0:0:
385,131,257993,1,0,0:0:0:0:
392,177,258061,1,0,0:0:0:0:
112,64,258130,1,0,0:0:0:0:
66,66,258198,1,0,0:0:0:0:
44,106,258266,1,0,0:0:0:0:
66,145,258334,1,0,0:0:0:0:
111,148,258402,1,0,0:0:0:0:
352,304,258471,6,0,L|232:304,1,95,4|0,3:1|0:0,0:0:0:0:
456,304,258744,1,0,0:0:0:0:
256,240,258880,1,0,0:0:0:0:
303,240,258948,1,0,0:0:0:0:
351,240,259016,1,8,0:0:0:0:
112,336,259153,2,0,L|216:336,2,95,0|0|0,0:0|0:0|0:0,0:0:0:0:
352,168,259562,6,0,P|392:128|344:72,1,142.5,0|0,3:0|0:0,0:0:0:0:
272,72,259835,1,0,0:0:0:0:
384,32,259971,1,0,0:0:0:0:
48,40,260107,2,0,L|160:40,2,95,8|0|0,0:0|0:0|0:0,0:0:0:0:
256,144,260517,1,0,0:0:0:0:
136,192,260653,6,0,L|128:216,4,23.75,4|0|0|0|0,3:1|0:0|0:0|0:0|0:0,0:0:0:0:
232,72,260926,2,0,L|136:72,1,95,0|0,0:0|0:0,0:0:0:0:
368,232,261198,2,0,P|408:192|376:152,1,95,8|0,0:0|0:0,0:0:0:0:
232,240,261403,2,0,P|192:200|224:160,1,95,0|0,0:0|0:0,0:0:0:0:
376,32,261607,6,0,P|432:48|368:120,1,190,0|0,3:0|0:0,0:0:0:0:
256,192,262017,2,0,L|256:240,2,47.5,0|0|0,0:0|0:0|0:0,0:0:0:0:
136,192,262289,1,8,0:0:0:0:
344,64,262426,2,0,L|392:64,1,47.5,0|0,0:0|0:0,0:0:0:0:
424,112,262562,1,0,0:0:0:0:
168,64,262630,2,0,L|120:64,1,47.5,0|0,0:0|0:0,0:0:0:0:
88,112,262766,1,0,0:0:0:0:
352,320,262835,6,0,L|152:320,1,190,4|0,3:1|0:0,0:0:0:0:
400,232,263244,1,0,0:0:0:0:
160,192,263380,1,8,0:0:0:0:
256,192,263517,1,0,0:0:0:0:
352,192,263653,1,0,0:0:0:0:
160,56,263789,6,0,L|112:56,2,47.5,0|0|0,0:0|0:0|0:0,0:0:0:0:
304,112,263994,1,0,0:0:0:0:
256,112,264062,1,0,0:0:0:0:
209,112,264130,1,0,0:0:0:0:
352,56,264198,2,0,L|432:56,1,47.5,0|0,0:0|0:0,0:0:0:0:
344,40,264335,2,0,L|280:40,1,47.5,0|0,0:0|0:0,0:0:0:0:
104,232,264471,2,0,L|208:232,1,95,8|0,0:0|0:0,0:0:0:0:
104,296,264744,2,0,L|0:296,1,95,0|0,0:0|0:0,0:0:0:0:
256,144,265017,6,0,P|192:168|256:232,1,190,4|0,3:1|0:0,0:0:0:0:
344,192,265426,1,0,0:0:0:0:
104,32,265562,2,0,L|112:80,1,47.5,8|0,0:0|0:0,0:0:0:0:
256,72,265698,2,0,L|264:120,1,47.5,0|0,0:0|0:0,0:0:0:0:
120,232,265835,2,0,L|176:232,1,47.5,0|0,0:0|0:0,0:0:0:0:
344,344,265971,1,0,0:0:0:0:
232,344,266107,6,0,B|216:296|216:296|232:240,1,95,0|0,3:0|0:0,0:0:0:0:
344,256,266380,1,0,0:0:0:0:
112,104,266517,1,0,0:0:0:0:
208,104,266653,2,0,L|232:120,4,23.75,8|0|0|0|0,0:0|0:0|0:0|0:0|0:0,0:0:0:0:
8,192,266926,6,0,P|16:248|128:312,1,190,0|4,0:0|0:0,0:0:0:0:
40,336,267335,1,0,0:0:0:0:
256,192,267471,2,0,L|152:192,2,95,0|0|8,0:0|0:0|0:0,0:0:0:0:
56,128,267880,1,0,0:0:0:0:
256,128,268017,1,0,0:0:0:0:
56,72,268153,2,0,L|112:72,1,47.5,0|0,0:0|0:0,0:0:0:0:
152,72,268289,1,0,3:0:0:0:
368,48,268426,6,0,L|264:48,1,95,0|0,0:0|0:0,0:0:0:0:
368,112,268698,2,0,L|464:112,1,95,0|8,0:0|0:0,0:0:0:0:
256,192,268971,1,0,0:0:0:0:
464,192,269107,2,0,L|344:192,1,95,0|0,0:0|0:0,0:0:0:0:
152,352,269380,6,0,B|360:352|360:352|64:352,1,418.000012756348,4|0,3:1|0:0,0:0:0:0:
256,312,269789,1,0,0:0:0:0:
32,192,269926,2,0,L|24:304,1,95,8|0,0:0|0:0,0:0:0:0:
256,192,270198,1,0,0:0:0:0:
32,192,270335,1,0,0:0:0:0:
256,104,270471,6,0,L|136:104,1,95,8|0,0:0|0:0,0:0:0:0:
368,104,270744,1,0,0:0:0:0:
160,48,270880,2,0,L|264:48,2,95,8|0|0,0:0|0:0|0:0,0:0:0:0:
368,192,271289,2,0,L|480:192,1,95,8|0,0:0|0:0,0:0:0:0:
256,56,271562,6,0,B|160:56|160:56|160:152|160:152|272:152,1,285,0|0,3:0|0:0,0:0:0:0:
480,304,272107,6,0,B|272:304|272:304|376:120|376:120|136:120,1,627.000019134522,8|0,0:1|0:0,0:0:0:0:
256,64,272653,1,0,0:0:0:0:
32,40,272789,2,0,L|160:40,2,95,0|0|0,0:0|3:0|0:0,0:0:0:0:
256,120,273198,1,8,0:0:0:0:
32,192,273335,2,0,L|96:192,1,47.5,0|0,0:0|0:0,0:0:0:0:
144,192,273471,1,0,0:0:0:0:
376,192,273607,1,0,0:0:0:0:
256,288,273744,6,0,B|48:288|48:288|48:80|48:80|304:80,1,627.000019134522,4|0,3:1|0:0,0:0:0:0:
376,80,274289,1,8,0:0:0:0:
144,192,274426,2,0,L|24:192,2,95,0|0|0,0:0|0:0|0:0,0:0:0:0:
368,312,274835,5,0,0:0:0:0:
144,312,274971,1,0,0:0:0:0:
368,264,275107,1,0,3:0:0:0:
144,264,275244,1,0,0:0:0:0:
368,56,275380,2,0,L|160:56,1,190,8|0,1:0|0:0,0:0:0:0:
272,96,275789,1,0,0:0:0:0:
32,304,275926,6,0,B|240:304|240:304|136:120|136:120|376:120,1,627.000019134522,4|0,3:1|0:0,0:0:0:0:
256,64,276471,1,8,0:0:0:0:
480,32,276607,2,0,L|376:32,2,95,0|0|0,0:0|0:0|0:0,0:0:0:0:
256,272,277017,2,0,L|160:272,1,95,0|0,0:0|0:0,0:0:0:0:
376,248,277289,2,0,L|376:144,1,95,0|0,3:0|0:0,0:0:0:0:
312,112,277494,1,0,0:0:0:0:
160,56,277562,2,0,L|264:56,1,95,8|0,1:0|0:0,0:0:0:0:
160,96,277835,2,0,L|48:96,1,95,0|0,0:0|0:0,0:0:0:0:
368,352,278107,6,0,B|160:352|160:352|160:144|160:144|416:144,1,627.000019134522,4|0,3:1|0:0,0:0:0:0:
256,112,278653,1,8,0:0:0:0:
32,40,278789,2,0,L|152:40,1,95,0|0,0:0|0:0,0:0:0:0:
424,192,279062,2,0,L|312:192,2,95,0|0|0,3:0|0:0|0:0,0:0:0:0:
184,336,279471,5,0,3:0:0:0:
139,326,279539,1,0,0:0:0:0:
118,285,279607,1,0,0:0:0:0:
138,243,279675,1,0,0:0:0:0:
328,336,279744,1,8,0:0:0:0:
373,326,279812,1,0,0:0:0:0:
394,285,279880,1,0,0:0:0:0:
374,243,279948,1,0,0:0:0:0:
144,152,280017,2,0,L|200:152,1,47.5,0|0,0:0|0:0,0:0:0:0:
368,152,280153,2,0,L|312:152,1,47.5,0|0,0:0|0:0,0:0:0:0:
136,64,280289,6,0,B|344:64|344:64|256:256,1,418.000012756348,4|0,3:1|0:0,0:0:0:0:
136,256,280698,1,0,0:0:0:0:
368,72,280835,2,0,L|256:72,2,95,8|0|0,0:0|0:0|0:0,0:0:0:0:
160,72,281244,1,0,0:0:0:0:
368,192,281380,1,0,0:0:0:0:
256,192,281517,1,0,0:0:0:0:
144,192,281653,1,8,0:0:0:0:
368,280,281789,2,0,L|424:280,2,47.5,0|0|8,0:0|0:0|0:0,0:0:0:0:
144,280,282062,1,0,0:0:0:0:
256,152,282198,2,0,P|304:128|272:56,1,142.5,0|0,0:0|2:0,0:0:0:0:
32,72,282471,6,0,L|24:96,12,23.75,4|0|0|0|0|0|0|0|0|0|0|0|0,3:1|0:0|0:0|0:0|0:0|0:0|0:0|0:0|0:0|0:0|0:0|0:0|0:0,0:0:0:0:
256,56,283017,6,0,L|144:56,3,95,8|0|0|0,0:0|0:0|0:0|0:0,0:0:0:0:
400,192,283562,2,0,L|352:192,1,47.5,0|0,0:0|0:0,0:0:0:0:
216,248,283698,2,0,L|168:248,1,47.5,0|0,0:0|0:0,0:0:0:0:
352,312,283835,2,0,L|456:312,1,95,0|0,3:0|0:0,0:0:0:0:
120,112,284107,2,0,L|112:136,4,23.75,8|0|0|0|0,0:1|0:0|0:0|0:0|0:0,0:0:0:0:
216,192,284380,2,0,L|112:192,1,95,0|0,0:0|0:0,0:0:0:0:
464,192,284653,6,0,L|472:288,1,95,0|0,0:0|0:0,0:0:0:0:
344,192,284926,2,0,L|336:288,1,95,0|0,0:0|0:0,0:0:0:0:
464,192,285198,2,0,L|472:288,1,95,0|0,0:0|0:0,0:0:0:0:
256,192,285471,2,0,L|248:288,1,95,0|0,0:0|0:0,0:0:0:0:
48,192,285744,6,0,L|40:288,1,95,0|0,0:0|0:0,0:0:0:0:
168,192,286017,2,0,L|176:288,1,95,0|0,0:0|0:0,0:0:0:0:
48,192,286289,2,0,L|40:288,1,95,0|0,0:0|0:0,0:0:0:0:
256,192,286562,2,0,L|264:288,1,95,0|0,0:0|0:0,0:0:0:0:
464,48,286835,6,0,L|520:48,1,47.5,0|0,0:0|0:0,0:0:0:0:
456,80,286971,2,0,L|384:80,1,47.5,0|0,0:0|0:0,0:0:0:0:
256,80,287107,2,0,L|208:80,1,47.5,0|0,0:0|0:0,0:0:0:0:
408,144,287244,2,0,L|464:144,1,47.5,0|0,0:0|0:0,0:0:0:0:
48,48,287380,6,0,L|-8:48,1,47.5,0|0,0:0|0:0,0:0:0:0:
56,80,287516,2,0,L|128:80,1,47.5,0|0,0:0|0:0,0:0:0:0:
264,80,287652,2,0,L|312:80,1,47.5,0|0,0:0|0:0,0:0:0:0:
104,144,287789,2,0,L|48:144,1,47.5,0|0,0:0|0:0,0:0:0:0:
368,192,287926,6,0,L|392:192,2,23.75,0|0|0,0:0|0:0|0:0,0:0:0:0:
256,192,288028,1,0,0:0:0:0:
144,192,288062,2,0,L|120:192,2,23.75,0|0|0,0:0|0:0|0:0,0:0:0:0:
256,192,288164,1,0,0:0:0:0:
400,128,288198,6,0,L|424:128,2,23.75,0|0|0,0:0|0:0|0:0,0:0:0:0:
256,128,288301,1,0,0:0:0:0:
112,128,288335,2,0,L|88:128,2,23.75,0|0|0,0:0|0:0|0:0,0:0:0:0:
256,128,288438,1,0,0:0:0:0:
432,64,288471,6,0,L|456:64,2,23.75,0|0|0,0:0|0:0|0:0,0:0:0:0:
256,64,288573,1,0,0:0:0:0:
80,64,288607,2,0,L|56:64,2,23.75,0|0|0,0:0|0:0|0:0,0:0:0:0:
256,64,288709,1,0,0:0:0:0:
464,8,288744,6,0,L|488:8,2,23.75,0|0|0,0:0|0:0|0:0,0:0:0:0:
256,8,288846,1,0,0:0:0:0:
48,8,288880,2,0,L|24:8,2,23.75,0|0|0,0:0|0:0|0:0,0:0:0:0:
256,8,288982,1,0,0:0:0:0:
512,24,289017,6,0,P|512:272|0:24,1,1139.99996520996,4|0,0:1|0:0,0:0:0:0:
256,192,292289,5,0,0:0:0:0:
432,192,293380,1,0,0:0:0:0:
488,192,293471,1,0,0:0:0:0:
432,192,293562,1,0,0:0:0:0:
256,160,294198,6,0,B|232:208|232:208|264:256,1,95,0|0,0:0|0:0,0:0:0:0:
432,80,295289,2,0,L|320:80,2,95,0|0|0,0:0|0:0|0:0,0:0:0:0:
272,56,296517,1,0,0:0:0:0:
328,56,296585,1,0,0:0:0:0:
376,56,296653,2,0,P|432:88|368:168,1,190,0|0,0:0|0:0,0:0:0:0:
208,320,297744,2,0,L|328:320,1,95,0|0,0:0|0:0,0:0:0:0:
64,248,298562,5,0,0:0:0:0:
48,120,298835,1,0,0:0:0:0:
240,232,299653,1,0,0:0:0:0:
256,104,299926,1,0,0:0:0:0:
160,32,300880,1,0,0:0:0:0:
208,32,300948,1,0,0:0:0:0:
256,32,301017,2,0,P|312:32|384:160,2,190,0|0|0,0:0|0:0|0:0,0:0:0:0:
34,198,302653,6,0,L|24:264,2,63.3333333333333,0|0|0,0:0|0:0|0:0,0:0:0:0:
144,192,303198,2,0,L|144:280,2,63.3333333333333,0|0|0,0:0|0:0|0:0,0:0:0:0:
256,192,303744,2,0,L|320:192,2,63.3333333333333,0|0|0,0:0|0:0|0:0,0:0:0:0:
176,128,304289,1,0,0:0:0:0:
256,128,304471,1,0,0:0:0:0:
336,128,304653,1,0,0:0:0:0:
176,48,304835,6,0,L|104:48,2,63.3333333333333,0|0|0,0:0|0:0|0:0,0:0:0:0:
328,72,305380,1,0,0:0:0:0:
256,72,305562,1,0,0:0:0:0:
184,72,305744,1,0,0:0:0:0:
328,176,305926,2,0,P|368:232|320:256,1,126.666666666667,0|0,0:0|0:0,0:0:0:0:
184,192,306471,1,0,0:0:0:0:
448,248,307289,5,0,0:0:0:0:
464,120,307562,1,0,0:0:0:0:
272,232,308380,1,0,0:0:0:0:
256,104,308653,1,0,0:0:0:0:
488,40,309744,6,0,L|368:40,1,95,0|0,0:0|0:0,0:0:0:0:
208,40,310835,2,0,L|312:40,1,95,0|0,0:0|0:0,0:0:0:0:
112,192,311653,5,0,0:0:0:0:
96,312,311926,1,0,0:0:0:0:
400,192,313017,2,0,L|424:312,1,95
208,64,315198,2,0,L|328:64,1,95,0|0,0:0|0:0,0:0:0:0:
64,248,316017,5,0,0:0:0:0:
48,120,316290,1,0,0:0:0:0:
240,232,317108,1,0,0:0:0:0:
256,104,317381,1,0,0:0:0:0:
56,48,318471,6,0,L|160:48,1,95,0|0,0:0|0:0,0:0:0:0:
304,336,319562,2,0,L|192:336,1,95,0|0,0:0|0:0,0:0:0:0:
448,248,320380,5,0,0:0:0:0:
464,120,320653,1,0,0:0:0:0:
272,232,321471,1,0,0:0:0:0:
256,104,321744,1,0,0:0:0:0:
256,192,321880,12,0,324471,0:0:0:0:
