osu file format v14

[General]
AudioFilename: flower of wilderness.mp3
AudioLeadIn: 0
PreviewTime: 148725
Countdown: 0
SampleSet: Soft
StackLeniency: 0.2
Mode: 0
LetterboxInBreaks: 0
EpilepsyWarning: 1
WidescreenStoryboard: 1

[Editor]
Bookmarks: 44612,79521,114430,149339,184248,198430,219157,254066,288975
DistanceSpacing: 1
BeatDivisor: 8
GridSize: 4
TimelineZoom: 2.499999

[Metadata]
Title:flower of wilderness
TitleUnicode:flower of wilderness
Artist:Camellia
ArtistUnicode:かめりあ
Creator:Alheak
Version:Yamazakura
Source:
Tags:cametek kamelcamellia kameria MGNCD-002 明星デストピア THE MORNING STAR: DESTOPIA desire utopia Binzokomegane Girls Union jcore electro wubs marathon
BeatmapID:869973
BeatmapSetID:399727

[Difficulty]
HPDrainRate:6
CircleSize:4.2
OverallDifficulty:8.5
ApproachRate:9.5
SliderMultiplier:1.6
SliderTickRate:1

[Events]
//Background and Video events
0,0,"bg.jpg",0,0
//Break Periods
2,188812,197339
//Storyboard Layer 0 (Background)
//Storyboard Layer 1 (Fail)
//Storyboard Layer 2 (Pass)
//Storyboard Layer 3 (Foreground)
//Storyboard Sound Samples

[TimingPoints]
9703,272.727272727273,4,2,10,10,1,0
9703,-250,4,2,10,10,0,0
27157,-250,4,2,10,20,0,0
30839,-250,4,2,10,10,0,0
31521,-250,4,2,10,20,0,0
34112,-250,4,2,10,10,0,0
34793,-250,4,2,10,20,0,0
40248,-250,4,2,10,25,0,0
44612,-133.333333333333,4,2,1,30,0,0
75157,-133.333333333333,4,2,1,35,0,0
76248,-133.333333333333,4,2,1,40,0,0
77339,-133.333333333333,4,2,1,45,0,0
77884,-133.333333333333,4,2,1,50,0,0
78430,-100,4,2,1,50,0,0
78839,-100,4,2,2,55,0,0
79112,-100,4,2,3,55,0,0
79248,-100,4,2,4,55,0,0
79384,-100,4,2,5,55,0,0
79521,-200,4,2,6,60,0,0
82248,-200,4,2,6,50,0,0
83884,-200,4,2,6,60,0,0
84907,-200,4,2,6,20,0,0
84975,-200,4,2,6,60,0,0
86612,-200,4,2,6,50,0,0
87157,-200,4,2,2,60,0,0
87839,-200,4,2,3,60,0,0
87975,-200,4,2,4,60,0,0
88112,-200,4,2,5,60,0,0
88248,-200,4,2,6,60,0,0
90975,-200,4,2,6,50,0,0
92612,-200,4,2,6,60,0,0
93634,-200,4,2,6,20,0,0
93703,-200,4,2,6,60,0,0
95339,-200,4,2,6,50,0,0
95884,-166.666666666667,4,2,1,50,0,0
96430,-133.333333333333,4,2,6,50,0,0
96975,-100,4,2,7,50,0,0
101339,-100,4,2,7,55,0,0
104612,-100,4,2,8,55,0,0
105703,-100,4,2,8,60,0,0
106316,-100,4,2,8,20,0,0
106384,-100,4,2,8,60,0,0
106453,-100,4,2,8,20,0,0
106521,-100,4,2,8,60,0,0
107271,-100,4,2,8,20,0,0
107339,-100,4,2,8,60,0,0
110066,-100,4,2,8,65,0,0
112112,-83.3333333333333,4,2,8,65,0,0
112384,-71.4285714285714,4,2,8,65,0,0
112657,-66.6666666666667,4,2,8,65,0,0
113339,-133.333333333333,4,2,2,50,0,0
113543,-133.333333333333,4,2,2,5,0,0
113612,-133.333333333333,4,2,2,65,0,0
113748,-100,4,2,2,65,0,0
113884,-100,4,2,3,65,0,0
114021,-100,4,2,4,65,0,0
114157,-100,4,2,5,65,0,0
114293,-100,4,2,7,65,0,0
114430,-100,4,2,9,70,0,0
115657,-100,4,2,2,50,0,0
115793,-100,4,2,3,50,0,0
115930,-100,4,2,9,70,0,0
116203,-90.9090909090909,4,2,9,70,0,0
116612,-100,4,2,9,70,0,0
117089,-100,4,2,9,30,0,0
117157,-100,4,2,9,70,0,0
117339,-83.3333333333333,4,2,9,70,0,0
117703,-100,4,2,9,70,0,0
119884,-83.3333333333333,4,2,9,70,0,0
120089,-83.3333333333333,4,2,9,30,0,0
120157,-83.3333333333333,4,2,9,70,0,0
120225,-83.3333333333333,4,2,9,30,0,0
120293,-83.3333333333333,4,2,9,70,0,0
120771,-83.3333333333333,4,2,9,30,0,0
120839,-83.3333333333333,4,2,9,70,0,0
121180,-83.3333333333333,4,2,9,30,0,0
121248,-83.3333333333333,4,2,9,70,0,0
121657,-100,4,2,9,70,0,0
121998,-100,4,2,9,30,0,0
122066,-100,4,2,9,70,0,0
123021,-100,4,2,9,30,0,0
123157,-100,4,2,9,70,0,0
124384,-100,4,2,2,50,0,0
124521,-100,4,2,3,50,0,0
124657,-100,4,2,9,70,0,0
125066,-100,4,2,9,30,0,0
125203,-100,4,2,9,70,0,0
126066,-83.3333333333333,4,2,9,70,0,0
126339,-83.3333333333333,4,2,9,30,0,0
126430,-100,4,2,9,70,0,0
128612,-83.3333333333333,4,2,9,70,0,0
128816,-83.3333333333333,4,2,9,30,0,0
128884,-83.3333333333333,4,2,9,70,0,0
128953,-83.3333333333333,4,2,9,30,0,0
129021,-83.3333333333333,4,2,9,70,0,0
129703,-100,4,2,8,70,0,0
131612,-100,4,2,2,70,0,0
131884,-400,4,2,9,70,0,0
132157,-400,4,2,10,70,0,0
132225,-400,4,2,9,5,0,0
132430,-100,4,2,9,70,0,0
133112,-100,4,2,2,50,0,0
133248,-100,4,2,3,50,0,0
133384,-100,4,2,9,70,0,0
133657,-90.9090909090909,4,2,9,70,0,0
134066,-100,4,2,9,70,0,0
134543,-100,4,2,9,30,0,0
134612,-100,4,2,9,70,0,0
134793,-83.3333333333333,4,2,9,70,0,0
135157,-100,4,2,9,70,0,0
137339,-83.3333333333333,4,2,9,70,0,0
137543,-83.3333333333333,4,2,9,30,0,0
137612,-83.3333333333333,4,2,9,70,0,0
137680,-83.3333333333333,4,2,9,30,0,0
137748,-83.3333333333333,4,2,9,70,0,0
138225,-83.3333333333333,4,2,9,30,0,0
138293,-83.3333333333333,4,2,9,70,0,0
138634,-83.3333333333333,4,2,9,30,0,0
138703,-83.3333333333333,4,2,9,70,0,0
139112,-100,4,2,9,70,0,0
139316,-100,4,2,9,30,0,0
139384,-100,4,2,9,70,0,0
139453,-100,4,2,9,30,0,0
139521,-100,4,2,9,70,0,0
140475,-100,4,2,9,30,0,0
140612,-100,4,2,9,70,0,0
141157,-133.333333333333,4,2,9,70,0,0
141839,-83.3333333333333,4,2,2,50,0,0
141975,-83.3333333333333,4,2,3,50,0,0
142112,-133.333333333333,4,2,9,65,0,0
143339,-133.333333333333,4,2,8,50,0,0
144975,-133.333333333333,4,2,2,65,0,0
145521,-133.333333333333,4,2,3,65,0,0
146066,-133.333333333333,4,2,4,65,0,0
146612,-133.333333333333,4,2,5,65,0,0
147157,-133.333333333333,4,2,9,65,0,0
148112,-133.333333333333,4,2,9,5,0,0
148248,-133.333333333333,4,2,2,65,0,0
148930,-133.333333333333,4,2,3,65,0,0
149066,-133.333333333333,4,2,4,65,0,0
149203,-133.333333333333,4,2,5,65,0,0
149339,-100,4,2,9,70,0,1
149407,-100,4,2,9,30,0,1
149475,-100,4,2,9,70,0,1
149543,-100,4,2,9,30,0,1
149612,-100,4,2,9,70,0,1
149680,-100,4,2,9,30,0,1
149748,-100,4,2,9,70,0,1
149816,-100,4,2,9,30,0,1
149884,-100,4,2,9,70,0,1
151316,-100,4,2,9,30,0,1
151384,-100,4,2,9,70,0,1
152407,-100,4,2,9,30,0,1
152475,-100,4,2,9,70,0,1
152543,-100,4,2,9,30,0,1
152612,-100,4,2,9,70,0,1
152680,-100,4,2,9,30,0,1
152748,-100,4,2,9,70,0,1
152816,-100,4,2,9,30,0,1
152884,-100,4,2,9,70,0,1
152953,-100,4,2,9,30,0,1
153021,-100,4,2,9,70,0,1
153089,-100,4,2,9,30,0,1
153157,-100,4,2,9,70,0,1
154043,-100,4,2,9,30,0,1
154112,-100,4,2,9,70,0,1
154180,-100,4,2,9,30,0,1
154248,-100,4,2,9,70,0,1
155953,-100,4,2,9,30,0,1
156021,-100,4,2,9,70,0,1
156089,-100,4,2,9,30,0,1
156157,-100,4,2,9,70,0,1
156225,-100,4,2,9,30,0,1
156293,-100,4,2,9,70,0,1
156362,-100,4,2,9,30,0,1
156430,-100,4,2,9,70,0,1
158134,-100,4,2,9,30,0,1
158203,-100,4,2,9,70,0,1
158271,-100,4,2,9,30,0,1
158339,-100,4,2,9,70,0,1
158407,-100,4,2,9,30,0,1
158475,-100,4,2,9,70,0,1
158543,-100,4,2,9,30,0,1
158612,-100,4,2,9,70,0,1
159907,-100,4,2,9,30,0,1
159975,-100,4,2,9,70,0,1
161407,-100,4,2,9,30,0,1
161475,-100,4,2,9,70,0,1
161543,-100,4,2,9,30,0,1
161612,-100,4,2,9,70,0,1
161680,-100,4,2,9,30,0,1
161748,-100,4,2,9,70,0,1
161816,-100,4,2,9,30,0,1
161884,-100,4,2,9,70,0,1
162498,-100,4,2,9,30,0,1
162566,-100,4,2,9,70,0,1
164680,-100,4,2,9,30,0,1
164748,-100,4,2,9,70,0,1
164816,-100,4,2,9,30,0,1
164884,-100,4,2,9,70,0,1
164953,-100,4,2,9,30,0,1
165021,-100,4,2,9,70,0,1
165089,-100,4,2,9,30,0,1
165157,-100,4,2,9,70,0,1
165634,-100,4,2,9,30,0,1
165703,-100,4,2,9,70,0,1
166043,-100,4,2,9,30,0,1
166112,-100,4,2,9,70,0,1
166453,-100,4,2,9,30,0,1
166521,-100,4,2,9,70,0,1
166862,-100,4,2,9,30,0,1
166930,-100,4,2,9,70,0,1
166998,-100,4,2,9,30,0,1
167066,-100,4,2,9,70,0,1
167134,-100,4,2,9,30,0,1
167203,-100,4,2,9,70,0,1
167271,-100,4,2,9,30,0,1
167339,-100,4,2,9,70,0,1
170134,-100,4,2,9,30,0,1
170203,-100,4,2,9,70,0,1
170271,-100,4,2,9,30,0,1
170339,-100,4,2,9,70,0,1
171225,-100,4,2,9,30,0,1
171293,-100,4,2,9,70,0,1
173407,-100,4,2,9,30,0,1
173475,-100,4,2,9,70,0,1
173543,-100,4,2,9,30,0,1
173612,-100,4,2,9,70,0,1
173680,-100,4,2,9,30,0,1
173748,-100,4,2,9,70,0,1
173816,-100,4,2,9,30,0,1
173884,-100,4,2,9,70,0,1
175589,-100,4,2,9,30,0,1
175657,-100,4,2,9,70,0,1
175725,-100,4,2,9,30,0,1
175793,-100,4,2,9,70,0,1
175862,-100,4,2,9,30,0,1
175930,-100,4,2,9,70,0,1
175998,-100,4,2,9,30,0,1
176066,-100,4,2,9,70,0,1
178862,-100,4,2,9,30,0,1
178930,-100,4,2,9,70,0,1
178998,-100,4,2,9,30,0,1
179066,-100,4,2,9,70,0,1
182066,-100,4,2,8,70,0,1
184248,-200,4,2,9,70,0,0
185339,-200,4,2,9,50,0,0
186430,-200,4,2,9,38,0,0
187521,-200,4,2,9,25,0,0
201703,-133.333333333333,4,2,1,30,0,0
214793,-133.333333333333,4,2,1,35,0,0
215884,-133.333333333333,4,2,1,40,0,0
216975,-133.333333333333,4,2,1,45,0,0
218066,-100,4,2,1,50,0,0
218475,-100,4,2,2,50,0,0
218748,-100,4,2,3,50,0,0
218884,-100,4,2,4,50,0,0
219021,-100,4,2,5,50,0,0
219157,-200,4,2,6,60,0,0
219703,-200,4,2,9,60,0,0
219975,-200,4,2,6,60,0,0
220521,-200,4,2,9,60,0,0
220793,-200,4,2,6,60,0,0
221339,-200,4,2,9,60,0,0
221884,-200,4,2,6,50,0,0
223521,-200,4,2,6,60,0,0
224543,-200,4,2,6,20,0,0
224612,-200,4,2,6,60,0,0
224884,-200,4,2,9,60,0,0
225430,-200,4,2,6,60,0,0
226248,-200,4,2,6,50,0,0
226793,-200,4,2,2,60,0,0
227475,-200,4,2,3,60,0,0
227612,-200,4,2,4,60,0,0
227748,-200,4,2,5,60,0,0
227884,-200,4,2,6,60,0,0
228430,-200,4,2,9,60,0,0
228703,-200,4,2,6,60,0,0
229248,-200,4,2,9,60,0,0
229521,-200,4,2,6,60,0,0
230612,-200,4,2,6,50,0,0
232248,-200,4,2,6,60,0,0
233271,-200,4,2,6,20,0,0
233339,-200,4,2,6,60,0,0
233612,-200,4,2,9,60,0,0
234157,-200,4,2,6,60,0,0
234975,-200,4,2,6,50,0,0
235521,-166.666666666667,4,2,6,50,0,0
236066,-133.333333333333,4,2,6,50,0,0
236612,-100,4,2,7,50,0,0
240975,-100,4,2,7,55,0,0
244248,-100,4,2,8,55,0,0
245339,-100,4,2,8,60,0,0
245953,-100,4,2,8,20,0,0
246021,-100,4,2,8,60,0,0
246089,-100,4,2,8,20,0,0
246157,-100,4,2,8,60,0,0
246771,-100,4,2,8,20,0,0
246839,-100,4,2,8,60,0,0
246907,-100,4,2,8,20,0,0
246975,-100,4,2,8,60,0,0
249703,-100,4,2,8,65,0,0
252293,-83.3333333333333,4,2,8,65,0,0
252566,-71.4285714285714,4,2,8,65,0,0
252839,-66.6666666666667,4,2,8,65,0,0
252975,-100,4,2,2,65,0,0
253657,-100,4,2,3,65,0,0
253793,-100,4,2,4,65,0,0
253930,-100,4,2,5,65,0,0
254066,-100,4,2,6,70,0,0
255566,-100,4,2,2,70,0,0
255839,-100,4,2,3,70,0,0
255975,-100,4,2,4,70,0,0
256112,-100,4,2,5,70,0,0
256248,-100,4,2,9,70,0,0
256657,-90.9090909090909,4,2,9,70,0,0
257066,-83.3333333333333,4,2,9,70,0,0
257475,-76.9230769230769,4,2,9,70,0,0
258430,-100,4,2,9,70,0,1
260680,-100,4,2,9,30,0,1
260748,-100,4,2,9,70,0,1
260816,-100,4,2,9,30,0,1
260884,-100,4,2,9,70,0,1
260953,-100,4,2,9,30,0,1
261021,-100,4,2,9,70,0,1
261089,-100,4,2,9,30,0,1
261157,-100,4,2,9,70,0,1
262862,-100,4,2,9,30,0,1
262930,-100,4,2,9,70,0,1
262998,-100,4,2,9,30,0,1
263066,-100,4,2,9,70,0,1
263134,-100,4,2,9,30,0,1
263203,-100,4,2,9,70,0,1
263271,-100,4,2,9,30,0,1
263339,-100,4,2,9,70,0,1
266134,-100,4,2,9,30,0,1
266203,-100,4,2,9,70,0,1
266271,-100,4,2,9,30,0,1
266339,-100,4,2,9,70,0,1
266407,-100,4,2,9,30,0,1
266475,-100,4,2,9,70,0,1
266543,-100,4,2,9,30,0,1
266612,-100,4,2,9,70,0,1
267225,-100,4,2,9,30,0,1
267293,-100,4,2,9,70,0,1
269407,-100,4,2,9,30,0,1
269475,-100,4,2,9,70,0,1
269543,-100,4,2,9,30,0,1
269612,-100,4,2,9,70,0,1
269680,-100,4,2,9,30,0,1
269748,-100,4,2,9,70,0,1
269816,-100,4,2,9,30,0,1
269884,-100,4,2,9,70,0,1
270771,-100,4,2,9,30,0,1
270839,-100,4,2,9,70,0,1
271180,-100,4,2,9,30,0,1
271248,-100,4,2,9,70,0,1
271521,-700,4,2,9,70,0,0
271793,-700,4,2,10,70,0,0
271862,-700,4,2,9,5,0,0
272066,-100,4,2,9,70,0,1
274862,-100,4,2,9,30,0,1
274930,-100,4,2,9,70,0,1
274998,-100,4,2,9,30,0,1
275066,-100,4,2,9,70,0,1
275953,-100,4,2,9,30,0,1
276021,-100,4,2,9,70,0,1
278134,-100,4,2,9,30,0,1
278203,-100,4,2,9,70,0,1
278271,-100,4,2,9,30,0,1
278339,-100,4,2,9,70,0,1
278407,-100,4,2,9,30,0,1
278475,-100,4,2,9,70,0,1
278543,-100,4,2,9,30,0,1
278612,-100,4,2,9,70,0,1
279498,-100,4,2,9,30,0,1
279566,-100,4,2,9,70,0,1
279634,-100,4,2,9,30,0,1
279703,-100,4,2,9,70,0,1
280316,-100,4,2,9,30,0,1
280384,-100,4,2,9,70,0,1
280453,-100,4,2,9,30,0,1
280521,-100,4,2,9,70,0,1
280589,-100,4,2,9,30,0,1
280657,-100,4,2,9,70,0,1
280725,-100,4,2,9,30,0,1
280793,-100,4,2,9,70,0,1
283589,-100,4,2,9,30,0,1
283657,-100,4,2,9,70,0,1
283725,-100,4,2,9,30,0,1
283793,-100,4,2,9,70,0,1
286793,-100,4,2,8,70,0,1
288975,-100,4,2,9,70,0,0
290066,-100,4,2,9,50,0,0
291157,-100,4,2,9,40,0,0
292248,-100,4,2,9,30,0,0
293339,-250,4,2,10,20,0,0
303430,-250,4,2,10,10,0,0
303703,-250,4,2,10,25,0,0
306430,-250,4,2,10,20,0,0

[Colours]
Combo1 : 156,105,250
Combo2 : 189,221,79
Combo3 : 126,220,164
Combo4 : 251,140,74
Combo5 : 245,84,75
Combo6 : 250,143,232

[HitObjects]
132,108,9703,6,0,B|164:108|193:124|193:124|256:108|256:108|285:124|318:124,1,192
309,48,10793,2,0,P|374:75|359:189,1,192
291,197,11884,1,0,0:0:0:0:
291,197,12975,6,0,B|275:194|261:187|261:187|262:222|250:250|218:266|218:266|171:219|132:257|91:202,1,272
83,187,14248,2,0,P|75:169|69:152,1,37.3333333333333
66,62,14884,1,0,0:0:0:0:
178,92,15157,70,0,B|248:99|300:61|300:61|338:62|360:77,1,192
316,140,16248,2,0,B|230:184|130:159|130:159|105:183|99:221,1,256
110,317,17884,1,0,0:0:0:0:
201,367,18430,6,0,B|226:361|248:364|248:364|227:314|227:314|245:271|234:224,1,192
310,309,19521,2,0,B|377:328|368:288|445:308|445:308|439:277|450:247,1,192
463,179,20612,1,0,0:0:0:0:
463,179,21703,70,0,B|479:147|473:115|473:115|450:90|449:58,1,128
320,258,22793,2,0,P|283:273|243:273,1,80
244,274,23612,1,0,0:0:0:0:
259,160,23884,6,0,P|226:99|116:127,1,192
183,163,24975,2,0,P|185:206|167:266,1,96
157,278,25521,1,0,0:0:0:0:
296,343,26066,2,0,P|302:262|322:215,1,128
416,188,27157,70,0,B|402:143|361:119|320:117|320:117|308:84|276:70,1,192
245,140,28248,2,0,B|215:127|202:92|202:92|150:55|81:65,1,192
8,86,29339,1,0,0:0:0:0:
8,86,30430,6,0,P|29:123|36:181,1,96
23,303,31521,70,0,B|45:304|66:311|66:311|85:304|105:303,1,80
252,216,32339,1,0,0:0:0:0:
225,328,32612,2,0,B|258:339|304:328|332:298|332:298|355:310|373:312|373:312|388:305|402:289,1,192
438,227,33703,6,0,P|448:181|443:128,1,96
444,132,34793,2,0,B|382:147|382:147|318:136,1,128
356,67,35884,70,0,P|397:130|333:213,1,192
259,223,36975,2,0,B|211:227|168:201|168:201|161:166|134:142|102:138,1,192
92,215,38066,1,0,0:0:0:0:
92,215,39157,2,0,P|38:182|32:115,1,128
120,57,40248,6,0,L|170:48,2,42.6666666666667
286,99,40793,1,0,0:0:0:0:
286,99,40975,2,0,L|236:90,1,42.6666666666667
102,138,41339,69,0,0:0:0:0:
102,138,41521,2,0,L|152:129,1,42.6666666666667
374,92,41884,1,0,0:0:0:0:
374,92,42066,2,0,L|332:99,1,42.6666666666667
234,210,42430,6,0,L|248:169,1,42.6666666666667
202,28,42793,2,0,L|229:60,1,42.6666666666667
351,208,43157,1,0,0:0:0:0:
266,277,43339,1,0,0:0:0:0:
163,237,43521,70,0,L|116:219,1,42.6666666666667
369,317,43884,1,0,0:0:0:0:
333,100,44066,1,0,0:0:0:0:
181,346,44339,5,0,0:0:0:0:
198,330,44612,70,0,P|202:273|213:189,1,120.000004577637,2|4,0:0|0:0,0:0:0:0:
210,211,45021,1,0,0:0:0:0:
124,146,45430,2,0,P|122:177|117:216,1,60.0000022888184
53,134,45703,2,0,P|109:111|163:86,1,120.000004577637,8|2,0:0|0:0,0:0:0:0:
245,264,46384,1,0,0:0:0:0:
166,240,46521,2,0,P|139:225|118:204,1,60.0000022888184
53,134,46793,6,0,P|46:192|41:254,1,120.000004577637,2|4,0:0|0:0,0:0:0:0:
41,253,47203,1,0,0:0:0:0:
62,336,47339,2,0,P|106:318|191:327,1,120.000004577637
233,145,47884,2,0,P|277:163|362:154,1,120.000004577637,8|2,0:0|0:0,0:0:0:0:
348,159,48293,1,0,0:0:0:0:
417,239,48430,2,0,P|358:246|298:251,1,120.000004577637
233,145,48975,70,0,P|174:138|114:133,1,120.000004577637,2|4,0:0|0:0,0:0:0:0:
114,133,49384,1,0,0:0:0:0:
25,20,49793,2,0,P|52:35|73:54,1,60.0000022888184
157,51,50066,2,0,P|216:57|278:59,1,120.000004577637,8|2,0:0|0:0,0:0:0:0:
411,16,50748,1,0,0:0:0:0:
358,81,50884,2,0,P|350:110|347:140,1,60.0000022888184
349,225,51157,6,0,P|382:266|375:337,1,120.000004577637,2|4,0:0|0:0,0:0:0:0:
310,293,51566,1,0,0:0:0:0:
347,139,51975,2,0,P|370:119|398:100,1,60.0000022888185
476,82,52248,2,0,P|466:113|452:211,1,120.000004577637,8|2,0:0|0:0,0:0:0:0:
153,161,52930,1,0,0:0:0:0:
210,100,53066,1,0,0:0:0:0:
191,237,53339,70,0,P|181:295|166:354,1,120.000004577637,2|4,0:0|0:0,0:0:0:0:
166,354,53748,1,0,0:0:0:0:
117,198,54157,2,0,P|113:168|111:138,1,60.0000022888184
115,54,54430,1,8,0:0:0:0:
34,221,54703,1,2,0:0:0:0:
227,154,55112,1,0,0:0:0:0:
227,154,55248,2,0,P|243:129|251:100,1,60.0000022888184
293,27,55521,6,0,P|306:86|323:144,1,120.000004577637,2|4,0:0|0:0,0:0:0:0:
322,143,55930,1,0,0:0:0:0:
371,212,56066,1,0,0:0:0:0:
227,154,56339,1,0,0:0:0:0:
415,277,56612,2,0,P|447:231|433:165,1,120.000004577637,8|2,0:0|0:0,0:0:0:0:
262,142,57157,2,0,P|284:168|315:189,1,60.0000022888184
371,212,57430,1,0,0:0:0:0:
176,241,57703,70,0,P|165:272|179:365,1,120.000004577637,2|4,0:0|0:0,0:0:0:0:
175,357,58112,1,0,0:0:0:0:
371,212,58521,1,0,0:0:0:0:
417,356,58793,2,0,P|430:298|447:240,1,120.000004577637,8|2,0:0|0:0,0:0:0:0:
313,317,59339,2,0,P|301:259|284:201,1,120.000004577637
284,201,59748,1,0,0:0:0:0:
209,180,59884,6,0,P|239:138|308:126,1,120.000004577637,2|4,0:0|0:0,0:0:0:0:
303,124,60293,1,0,0:0:0:0:
122,36,60703,1,0,0:0:0:0:
66,153,60975,2,0,P|81:220|73:284,1,120.000004577637,8|2,0:0|0:0,0:0:0:0:
164,237,61521,2,0,P|162:266|157:296,1,60.0000022888184
129,375,61793,1,0,0:0:0:0:
279,283,62066,70,0,P|336:262|396:255,1,120.000004577637,2|4,0:0|0:0,0:0:0:0:
394,255,62475,1,0,0:0:0:0:
343,25,62884,1,0,0:0:0:0:
416,140,63157,2,0,P|361:119|297:111,1,120.000004577637,8|2,0:0|0:0,0:0:0:0:
128,202,63839,1,0,0:0:0:0:
200,244,63975,2,0,P|232:252|265:252,1,60.0000022888184
333,210,64248,6,0,P|344:245|308:323,1,120.000004577637,2|4,0:0|0:0,0:0:0:0:
313,318,64657,1,0,0:0:0:0:
201,329,64793,2,0,P|142:324|81:326,1,120.000004577637
184,153,65339,2,0,P|243:158|303:155,1,120.000004577637,8|2,0:0|0:0,0:0:0:0:
192,240,65884,1,0,0:0:0:0:
316,368,66157,1,0,0:0:0:0:
428,243,66430,70,0,B|433:225|437:207|437:207|418:168|421:126,1,120.000004577637,2|4,0:0|0:0,0:0:0:0:
421,126,66839,1,0,0:0:0:0:
253,33,67248,1,0,0:0:0:0:
310,155,67521,2,0,B|320:197|295:232|295:232|256:240,1,120.000004577637,8|2,0:0|0:0,0:0:0:0:
73,136,68203,1,0,0:0:0:0:
118,70,68339,2,0,P|127:46|128:6,1,60.0000022888184
52,28,68612,6,0,P|42:86|73:136,1,120.000004577637,2|4,0:0|0:0,0:0:0:0:
156,148,69021,1,0,0:0:0:0:
409,218,69430,2,0,P|423:244|433:272,1,60.0000022888184
332,225,69703,2,0,P|345:174|413:140,1,120.000004577637,8|2,0:0|0:0,0:0:0:0:
185,195,70384,1,0,0:0:0:0:
237,128,70521,1,0,0:0:0:0:
241,301,70793,70,0,P|184:346|139:365,1,120.000004577637,2|4,0:0|0:0,0:0:0:0:
140,364,71203,1,0,0:0:0:0:
185,195,71612,2,0,P|193:164|199:131,1,60.0000022888184
183,54,71884,2,0,P|216:93|281:111,1,120.000004577637,8|2,0:0|0:0,0:0:0:0:
280,111,72566,1,0,0:0:0:0:
117,136,72703,2,0,P|111:108|109:72,1,60.0000022888184
31,119,72975,6,0,P|43:176|49:237,1,120.000004577637,2|4,0:0|0:0,0:0:0:0:
49,237,73384,1,0,0:0:0:0:
306,180,73793,2,0,P|304:210|308:240,1,60.0000022888184
327,323,74066,2,0,P|269:315|230:272,1,120.000004577637,8|2,0:0|0:0,0:0:0:0:
403,113,74748,1,0,0:0:0:0:
436,189,74884,1,0,0:0:0:0:
273,109,75157,70,0,P|215:93|156:82,1,120.000004577637,2|4,0:0|0:0,0:0:0:0:
170,166,75566,2,0,P|110:166|50:171,1,120.000004577637
83,255,75975,1,0,0:0:0:0:
312,191,76248,2,0,P|368:184|430:196,1,120.000004577637,8|2,0:0|0:0,0:0:0:0:
306,320,76793,1,0,0:0:0:0:
165,355,77066,1,0,0:0:0:0:
41,258,77339,6,0,P|31:248|19:239,3,30.0000011444092,2|2|2|2,0:0|0:0|0:0|0:0,0:0:0:0:
130,202,77612,2,0,P|127:187|120:173,3,30.0000011444092,6|2|2|2,0:0|0:0|0:0|0:0,0:0:0:0:
231,218,77884,69,2,0:0:0:0:
240,212,77953,1,2,0:0:0:0:
252,206,78021,1,2,0:0:0:0:
261,202,78089,1,2,0:0:0:0:
273,197,78157,1,2,0:0:0:0:
294,195,78225,1,2,0:0:0:0:
315,199,78293,1,2,0:0:0:0:
335,208,78362,1,2,0:0:0:0:
351,221,78430,5,2,0:0:0:0:
379,211,78498,1,2,0:0:0:0:
404,195,78566,1,2,0:0:0:0:
419,169,78634,1,2,0:0:0:0:
425,139,78703,1,2,0:0:0:0:
422,109,78771,1,2,0:0:0:0:
415,79,78839,2,0,P|409:59|398:40,1,40,10|10,0:0|0:0,0:0:0:0:
300,55,78975,69,10,0:0:0:0:
240,204,79112,1,8,0:0:0:0:
313,65,79248,1,8,0:0:0:0:
146,141,79384,1,8,0:0:0:0:
345,234,79521,54,0,P|332:155|326:76,1,160,6|0,0:0|0:0,0:0:0:0:
308,90,80134,1,0,0:0:0:0:
288,101,80203,1,0,0:0:0:0:
266,106,80271,1,0,0:0:0:0:
214,87,80339,6,0,P|160:140|183:213,1,160,6|0,0:0|0:0,0:0:0:0:
207,236,80953,1,0,0:0:0:0:
219,263,81021,1,0,0:0:0:0:
218,294,81089,1,0,0:0:0:0:
168,319,81157,70,0,P|288:309|335:310,1,160,6|0,0:0|0:0,0:0:0:0:
459,322,82248,21,8,0:0:0:0:
345,215,82657,1,0,0:0:0:0:
345,215,82793,2,0,P|342:178|340:158,2,40
459,322,83339,1,8,0:0:0:0:
459,322,83884,5,0,0:0:0:0:
461,307,83953,1,0,0:0:0:0:
459,292,84021,1,0,0:0:0:0:
453,278,84089,1,0,0:0:0:0:
439,258,84157,1,0,0:0:0:0:
429,236,84225,1,0,0:0:0:0:
423,212,84293,1,0,0:0:0:0:
424,187,84362,1,0,0:0:0:0:
438,133,84430,38,0,B|395:132|364:108|364:108|348:137|317:148,1,140,6|0,0:0|0:0,0:0:0:0:
190,186,84975,2,0,P|226:190|268:297,1,160,6|0,0:0|0:0,0:0:0:0:
280,62,85793,6,0,B|250:77|228:109|228:144|228:144|201:160|190:188,1,160,6|0,0:0|0:0,0:0:0:0:
199,263,86612,5,8,0:0:0:0:
122,233,87157,6,0,P|111:209|137:121,1,120,0|2,0:0|0:0,0:0:0:0:
151,113,87634,1,2,0:0:0:0:
170,106,87703,1,10,0:0:0:0:
291,200,87839,1,8,0:0:0:0:
242,40,87975,1,8,0:0:0:0:
190,185,88112,1,8,0:0:0:0:
445,132,88248,38,0,P|399:70|322:76,1,160,6|0,0:0|0:0,0:0:0:0:
316,90,88862,1,0,0:0:0:0:
315,105,88930,1,0,0:0:0:0:
317,120,88998,1,0,0:0:0:0:
367,142,89066,6,0,B|369:168|386:191|411:205|411:205|434:245|420:285,1,160,6|0,0:0|0:0,0:0:0:0:
405,300,89680,1,0,0:0:0:0:
389,317,89748,1,0,0:0:0:0:
370,330,89816,1,0,0:0:0:0:
316,343,89884,70,0,P|234:327|150:330,1,160,6|0,0:0|0:0,0:0:0:0:
38,177,90975,21,8,0:0:0:0:
180,222,91384,1,0,0:0:0:0:
180,222,91521,2,0,P|195:241|204:256,2,40
38,177,92066,1,8,0:0:0:0:
38,177,92612,5,0,0:0:0:0:
42,157,92680,1,0,0:0:0:0:
50,140,92748,1,0,0:0:0:0:
63,126,92816,1,0,0:0:0:0:
80,115,92884,1,0,0:0:0:0:
103,121,92953,1,0,0:0:0:0:
126,123,93021,1,0,0:0:0:0:
149,119,93089,1,0,0:0:0:0:
201,98,93157,38,0,P|201:165|255:207,1,140,6|0,0:0|0:0,0:0:0:0:
413,168,93703,2,0,B|371:184|326:173|326:173|307:141|271:131,1,160,6|0,0:0|0:0,0:0:0:0:
244,360,94521,6,0,P|315:326|321:247,1,160,6|0,0:0|0:0,0:0:0:0:
181,314,95339,6,0,P|139:306|88:303,1,80,8|0,0:0|0:0,0:0:0:0:
24,240,95884,6,0,P|60:222|117:208,1,95.9999970703126
211,159,96430,70,0,P|169:134|99:115,1,120.000004577637,10|2,0:0|0:0,0:0:0:0:
100,115,96839,1,2,0:0:0:0:
199,234,96975,6,0,P|270:206|282:131,1,160,6|2,0:0|0:0,0:0:0:0:
100,115,97384,1,0,0:0:0:0:
201,22,97521,1,2,0:0:0:0:
216,16,97589,1,0,0:0:0:0:
231,12,97657,1,0,0:0:0:0:
246,10,97725,1,0,0:0:0:0:
261,9,97793,2,0,P|295:8|342:13,1,80,2|0,0:0|0:0,0:0:0:0:
457,98,98066,70,0,L|463:178,1,80,2|0,0:0|0:0,0:0:0:0:
342,215,98339,2,0,L|347:165,1,40,2|0,0:0|0:0,0:0:0:0:
355,104,98475,1,0,0:0:0:0:
389,274,98612,2,0,B|372:291|339:297|312:286|312:286|270:301|256:340,1,160,2|2,0:0|0:0,0:0:0:0:
332,365,99021,1,0,0:0:0:0:
201,274,99157,6,0,P|170:259|123:254,1,80,2|0,0:0|0:0,0:0:0:0:
43,373,99430,2,0,P|82:369|118:352,1,80,10|0,0:0|0:0,0:0:0:0:
140,153,99703,2,0,P|100:156|64:173,1,80,10|0,0:0|0:0,0:0:0:0:
13,305,99975,1,2,0:0:0:0:
125,253,100112,1,0,0:0:0:0:
27,110,100248,70,0,P|17:81|17:30,1,80,2|0,0:0|0:0,0:0:0:0:
172,69,100521,1,2,0:0:0:0:
157,169,100657,1,0,0:0:0:0:
341,182,100793,1,10,0:0:0:0:
305,61,100930,1,0,0:0:0:0:
442,82,101066,2,0,P|462:86|482:86,3,40,2|2|2|2,0:0|0:0|0:0|0:0,0:0:0:0:
460,108,101339,6,0,P|478:145|486:184,1,80,2|0,0:0|0:0,0:0:0:0:
489,219,101543,1,0,0:0:0:0:
485,255,101612,1,10,0:0:0:0:
455,248,101680,1,0,0:0:0:0:
425,243,101748,1,0,0:0:0:0:
395,245,101816,1,0,0:0:0:0:
366,253,101884,2,0,P|330:281|344:385,1,160,10|2,0:0|0:0,0:0:0:0:
394,325,102293,1,0,0:0:0:0:
240,294,102430,70,0,B|189:291|140:314|140:314|119:309|94:282,1,160,2|2,0:0|0:0,0:0:0:0:
47,196,102839,1,0,0:0:0:0:
185,101,102975,2,0,P|201:74|214:24,1,80,10|0,0:0|0:0,0:0:0:0:
252,167,103248,2,0,P|272:201|301:228,1,80,2|0,0:0|0:0,0:0:0:0:
410,182,103521,5,2,0:0:0:0:
288,82,103657,1,0,0:0:0:0:
415,193,103793,1,2,0:0:0:0:
402,7,103930,1,0,0:0:0:0:
420,204,104066,2,0,P|410:242|388:278,1,80,2|0,0:0|0:0,0:0:0:0:
238,384,104339,1,2,0:0:0:0:
427,377,104475,1,0,0:0:0:0:
267,283,104612,70,0,P|227:283|188:294,1,80
188,294,104816,1,0,0:0:0:0:
188,294,104884,1,0,0:0:0:0:
60,381,105021,1,0,0:0:0:0:
86,234,105157,1,0,0:0:0:0:
78,212,105225,1,0,0:0:0:0:
67,192,105293,1,0,0:0:0:0:
52,174,105362,1,0,0:0:0:0:
36,157,105430,2,0,P|27:128|36:76,1,80,0|0,0:0|0:0,0:0:0:0:
137,2,105703,5,0,0:0:0:0:
108,117,105839,1,0,0:0:0:0:
147,4,105975,1,0,0:0:0:0:
144,135,106112,1,0,0:0:0:0:
281,87,106248,2,0,L|241:91,1,40,0|0,0:0|0:0,0:0:0:0:
156,6,106384,2,0,L|196:10,1,40,0|0,0:0|0:0,0:0:0:0:
183,146,106521,2,0,P|183:178|163:226,1,80,0|0,0:0|0:0,0:0:0:0:
77,306,106793,69,0,0:0:0:0:
49,197,106930,1,0,0:0:0:0:
189,318,107066,1,0,0:0:0:0:
144,135,107203,2,0,L|133:94,1,40,0|0,0:0|0:0,0:0:0:0:
203,199,107339,2,0,L|285:219,1,80,0|0,0:0|0:0,0:0:0:0:
449,261,107612,1,0,0:0:0:0:
317,298,107748,1,0,0:0:0:0:
450,173,107884,6,0,L|509:118,1,80,0|0,0:0|0:0,0:0:0:0:
299,74,108157,2,0,L|320:152,1,80,0|0,0:0|0:0,0:0:0:0:
225,350,108430,2,0,L|283:294,1,80,0|0,0:0|0:0,0:0:0:0:
502,275,108703,2,0,L|425:254,1,80,0|0,0:0|0:0,0:0:0:0:
157,182,108975,69,0,0:0:0:0:
342,232,109112,1,0,0:0:0:0:
476,94,109248,2,0,L|422:153,1,80,0|0,0:0|0:0,0:0:0:0:
225,350,109521,1,0,0:0:0:0:
502,275,109657,1,0,0:0:0:0:
234,205,109793,2,0,L|157:182,1,80
407,264,110066,6,0,L|435:294,3,40,0|0|0|0,0:0|0:0|0:0|0:0,0:0:0:0:
344,345,110339,2,0,L|355:384,3,40,0|0|0|0,0:0|0:0|0:0|0:0,0:0:0:0:
245,316,110612,69,0,0:0:0:0:
216,307,110680,1,0,0:0:0:0:
186,303,110748,1,0,0:0:0:0:
156,302,110816,1,0,0:0:0:0:
126,306,110884,1,0,0:0:0:0:
106,275,110953,1,0,0:0:0:0:
99,239,111021,1,0,0:0:0:0:
103,203,111089,1,0,0:0:0:0:
120,171,111157,6,0,P|134:158|154:146,1,40,8|0,0:0|0:0,0:0:0:0:
281,103,111293,2,8,P|267:116|247:128,1,40,8|8,0:0|0:0,0:0:0:0:
136,180,111430,2,0,P|150:167|170:155,1,40,8|0,0:0|0:0,0:0:0:0:
297,112,111566,2,8,P|283:125|263:137,1,40,8|8,0:0|0:0,0:0:0:0:
193,229,111703,69,8,0:0:0:0:
191,234,111771,1,0,0:0:0:0:
189,239,111839,2,8,L|170:284,1,40,8|8,0:0|0:0,0:0:0:0:
286,301,111975,1,8,0:0:0:0:
294,309,112043,1,0,0:0:0:0:
303,316,112112,2,8,P|327:328|348:332,1,47.9999985351563,8|8,0:0|0:0,0:0:0:0:
379,227,112248,5,8,0:0:0:0:
390,207,112316,1,0,0:0:0:0:
405,190,112384,2,8,P|420:170|446:150,1,55.9999982910157,8|8,0:0|0:0,0:0:0:0:
326,77,112521,1,8,0:0:0:0:
303,57,112589,1,0,0:0:0:0:
277,41,112657,2,8,P|247:28|218:24,1,60.0000022888184,8|8,0:0|0:0,0:0:0:0:
97,58,112793,69,8,0:0:0:0:
65,76,112862,1,0,0:0:0:0:
42,104,112930,1,8,0:0:0:0:
27,136,112998,1,8,0:0:0:0:
46,173,113066,1,8,0:0:0:0:
58,212,113134,1,0,0:0:0:0:
64,254,113203,1,8,0:0:0:0:
59,295,113271,1,8,0:0:0:0:
42,333,113339,6,0,P|84:308|135:301,1,90.0000034332277
197,307,113612,69,2,0:0:0:0:
373,192,113748,1,2,0:0:0:0:
327,322,113884,1,8,0:0:0:0:
183,170,114021,1,8,0:0:0:0:
390,116,114157,2,0,P|428:137|447:173,1,80,8|2,0:0|0:0,0:0:0:0:
462,309,114430,54,0,P|466:331|474:353,7,40,6|0|0|0|0|0|0|0,0:0|0:0|0:0|0:0|0:0|0:0|0:0|0:0,0:0:0:0:
462,309,114975,2,0,L|363:300,1,80,8|0,0:0|0:0,0:0:0:0:
248,257,115248,2,0,L|239:228,2,20
277,348,115384,1,0,0:0:0:0:
154,236,115521,5,2,0:0:0:0:
312,185,115657,2,0,L|342:150,1,40,4|0,0:0|0:0,0:0:0:0:
183,327,115793,2,0,P|139:330|101:316,1,80,4|0,0:0|0:0,0:0:0:0:
26,132,116066,1,8,0:0:0:0:
190,141,116203,70,0,P|225:114|146:88,1,176.000005371094
154,236,116612,5,2,0:0:0:0:
343,183,116748,2,0,P|382:188|420:202,1,80
232,257,117021,2,0,P|226:274|218:306,1,40
347,69,117157,1,8,0:0:0:0:
190,141,117339,70,0,P|163:146|127:145,1,63.9999980468751
279,186,117521,2,0,P|311:181|343:183,1,63.9999980468751
333,283,117703,6,0,P|343:321|369:352,1,80,2|0,0:0|0:0,0:0:0:0:
382,361,117907,1,0,0:0:0:0:
397,368,117975,2,0,P|421:372|440:371,1,40
427,277,118112,1,0,0:0:0:0:
291,134,118248,2,0,L|287:108,6,20,8|0|0|0|0|0|0,0:0|0:0|0:0|0:0|0:0|0:0|0:0,0:0:0:0:
206,172,118521,1,0,0:0:0:0:
276,26,118657,1,0,0:0:0:0:
278,226,118793,70,0,B|247:265|204:274|165:261|139:234|139:234|98:231|58:244|58:244|21:221|0:180,1,320,2|8,0:0|0:0,0:0:0:0:
85,144,119475,1,0,0:0:0:0:
109,327,119612,2,0,P|139:342|199:355,1,80
29,275,119884,5,2,0:0:0:0:
206,171,120021,2,0,B|215:155|218:136|218:136|211:138|208:142,1,47.9999985351563
133,225,120157,2,0,B|115:226|97:233|97:233|102:238|106:238,1,47.9999985351563
218,262,120293,2,0,P|256:259|309:230,1,95.9999970703126,0|8,0:0|0:0,0:0:0:0:
357,110,120566,1,0,0:0:0:0:
357,110,120634,1,0,0:0:0:0:
357,110,120703,2,0,P|357:87|352:59,1,47.9999985351563
407,204,120839,1,0,0:0:0:0:
286,10,120975,69,2,0:0:0:0:
275,152,121112,2,0,P|280:174|293:199,1,47.9999985351563
202,86,121248,2,0,P|107:76|63:160,1,191.999994140625,0|8,0:0|0:0,0:0:0:0:
135,278,121657,6,0,P|151:220|152:160,1,120
202,86,121930,2,0,P|218:100|231:118,1,40
242,250,122066,1,2,0:0:0:0:
321,239,122203,2,0,P|281:242|242:251,1,80
430,266,122475,1,0,0:0:0:0:
370,100,122612,2,0,L|376:75,6,20,8|0|0|0|0|0|0,0:0|0:0|0:0|0:0|0:0|0:0|0:0,0:0:0:0:
370,100,122884,2,0,P|333:82|295:71,1,80
48,47,123157,70,0,P|32:48|2:53,7,40,2|0|0|0|0|0|0|0,0:0|0:0|0:0|0:0|0:0|0:0|0:0|0:0,0:0:0:0:
48,47,123703,2,0,L|52:133,1,80,8|0,0:0|0:0,0:0:0:0:
108,310,123975,2,0,L|107:329,4,20
238,170,124248,5,2,0:0:0:0:
294,354,124384,1,4,0:0:0:0:
294,354,124453,1,0,0:0:0:0:
294,354,124521,2,0,L|295:373,4,20,4|0|0|0|0,0:0|0:0|0:0|0:0|0:0,0:0:0:0:
424,214,124793,1,8,0:0:0:0:
255,265,124930,2,0,P|215:263|177:244,1,80
103,86,125203,1,0,0:0:0:0:
89,277,125339,69,2,0:0:0:0:
238,170,125475,2,0,P|305:182|351:267,1,160
229,366,125884,1,8,0:0:0:0:
395,334,126066,6,0,P|367:339|330:339,1,63.9999980468751
193,251,126248,2,0,P|216:253|255:265,1,63.9999980468751
81,252,126430,70,0,P|89:225|93:168,1,80,2|0,0:0|0:0,0:0:0:0:
88,143,126634,1,0,0:0:0:0:
77,114,126703,2,0,P|63:90|45:74,2,40
285,141,126975,2,0,L|312:144,6,20,8|0|0|0|0|0|0,0:0|0:0|0:0|0:0|0:0|0:0|0:0,0:0:0:0:
238,45,127248,1,0,0:0:0:0:
200,201,127384,1,0,0:0:0:0:
389,108,127521,6,0,B|411:91|423:66|423:37|423:37|426:57|435:74|435:74|430:93|430:114|430:114|430:133|437:153|437:153|430:175|432:191|432:191|450:212|461:248|450:280,1,320,2|8,0:0|0:0,0:0:0:0:
290,369,128203,1,0,0:0:0:0:
236,151,128339,1,0,0:0:0:0:
356,254,128475,1,0,0:0:0:0:
168,226,128612,69,2,0:0:0:0:
329,163,128748,2,0,B|349:150|357:132|357:132|353:123|346:116,1,47.9999985351563
264,262,128884,2,0,B|262:238|251:222|251:222|241:221|231:223,1,47.9999985351563
290,369,129021,1,0,0:0:0:0:
290,369,129089,1,0,0:0:0:0:
290,369,129157,6,0,B|266:375|228:373|197:357|197:357|209:295|154:243|98:255|64:287,1,287.999991210938,8|0,0:0|0:0,0:0:0:0:
121,341,129703,69,12,0:0:0:0:
62,187,129839,1,8,0:0:0:0:
62,187,129907,1,8,0:0:0:0:
62,187,129975,2,8,P|55:146|51:94,1,80
142,112,130180,1,8,0:0:0:0:
142,112,130248,2,8,P|156:72|178:25,1,80
258,91,130453,1,8,0:0:0:0:
258,91,130521,2,8,P|290:64|333:34,1,80
363,146,130725,1,8,0:0:0:0:
363,146,130793,6,8,P|404:138|456:134,1,80
396,262,130998,1,8,0:0:0:0:
396,262,131066,2,8,P|435:276|479:300,1,80
328,366,131271,1,8,0:0:0:0:
328,366,131339,2,0,P|257:337|255:261,1,160,8|8,0:0|0:0,0:0:0:0:
41,286,131884,6,0,P|27:319|19:353,1,70,2|0,0:0|0:0,0:0:0:0:
99,368,132430,54,0,P|103:349|111:331,7,40,12|0|0|0|0|0|0|0,0:0|0:0|0:0|0:0|0:0|0:0|0:0|0:0,0:0:0:0:
178,384,132975,6,0,P|193:350|190:301,1,80,2|4,0:0|0:0,0:0:0:0:
154,236,133180,1,0,0:0:0:0:
143,208,133248,2,0,P|141:168|157:131,1,80,4|0,0:0|0:0,0:0:0:0:
357,43,133521,1,8,0:0:0:0:
268,164,133657,70,0,P|295:231|338:172,1,176.000005371094
235,44,134066,5,2,0:0:0:0:
416,106,134203,2,0,P|449:125|482:158,1,80
314,256,134475,2,0,P|315:279|320:299,1,40
357,43,134612,1,8,0:0:0:0:
179,111,134793,2,0,P|159:84|149:51,1,63.9999980468751
286,117,134975,2,0,P|306:144|316:177,1,63.9999980468751
214,194,135157,70,0,P|175:203|135:204,1,80,2|0,0:0|0:0,0:0:0:0:
130,202,135362,1,0,0:0:0:0:
125,200,135430,2,0,P|104:198|86:200,1,40
265,277,135566,1,0,0:0:0:0:
262,118,135703,2,0,L|260:87,6,20,8|0|0|0|0|0|0,0:0|0:0|0:0|0:0|0:0|0:0|0:0,0:0:0:0:
329,68,135975,1,0,0:0:0:0:
401,194,136112,1,0,0:0:0:0:
214,194,136248,6,0,B|176:222|160:259|163:300|188:337|188:337|164:322|141:315|114:317|114:317|87:335|54:340|25:330,1,320,2|8,0:0|0:0,0:0:0:0:
32,173,136930,1,0,0:0:0:0:
265,277,137066,1,0,0:0:0:0:
60,252,137203,1,0,0:0:0:0:
214,194,137339,69,2,0:0:0:0:
163,18,137475,2,0,P|143:9|117:5,1,47.9999985351563
119,93,137612,2,0,P|97:95|72:104,1,47.9999985351563
100,187,137748,2,0,P|94:241|103:285,1,95.9999970703126,0|8,0:0|0:0,0:0:0:0:
300,369,138021,1,0,0:0:0:0:
300,369,138089,1,0,0:0:0:0:
300,369,138157,2,0,P|317:372|348:375,1,47.9999985351563
227,292,138293,1,0,0:0:0:0:
388,229,138430,5,2,0:0:0:0:
258,114,138566,2,0,P|241:111|210:108,1,47.9999985351563
99,186,138703,2,0,P|194:194|290:207,1,191.999994140625,0|8,0:0|0:0,0:0:0:0:
415,115,139112,70,0,P|365:81|325:38,1,120
325,38,139384,2,0,P|331:60|332:86,1,40
322,304,139521,5,2,0:0:0:0:
487,249,139657,2,0,P|498:210|504:166,1,80
507,67,139930,1,0,0:0:0:0:
399,260,140066,2,0,L|409:286,6,20,8|0|0|0|0|0|0,0:0|0:0|0:0|0:0|0:0|0:0|0:0,0:0:0:0:
323,217,140339,2,0,P|283:223|242:277,1,80
91,300,140612,6,0,B|92:260|76:222|76:222|96:185|94:144|94:144|67:124|56:97|60:64,1,240,6|0,0:0|0:0,0:0:0:0:
137,78,141157,6,0,P|169:69|197:67,1,60.0000022888184
340,118,141430,2,0,P|312:105|283:98,1,60.0000022888184
186,169,141703,1,0,0:0:0:0:
339,223,141839,70,0,B|363:242|379:268|382:292|382:292|370:293|358:291,1,95.9999970703126,4|4,0:0|0:0,0:0:0:0:
340,118,142112,5,0,0:0:0:0:
340,118,142248,1,0,0:0:0:0:
227,240,142384,2,0,P|217:269|214:299,1,60.0000022888184
305,372,142657,2,0,P|301:342|291:313,1,60.0000022888184
148,241,142930,2,0,P|110:257|84:342,1,120.000004577637
158,318,143339,70,0,P|193:310|219:297,1,60.0000022888184
315,195,143612,2,0,P|326:160|328:132,1,60.0000022888184
184,51,143884,2,0,P|187:80|197:109,1,60.0000022888184
101,159,144157,2,0,P|118:183|141:202,1,60.0000022888184
283,256,144430,1,0,0:0:0:0:
283,256,144566,1,0,0:0:0:0:
139,320,144703,1,0,0:0:0:0:
139,320,144839,1,0,0:0:0:0:
241,148,144975,6,8,P|236:133|232:119,3,30.0000011444092
341,103,145248,2,8,P|343:87|348:73,3,30.0000011444092
433,185,145521,2,8,L|471:178,3,30.0000011444092
329,263,145793,2,8,L|320:291,3,30.0000011444092
233,316,146066,69,8,0:0:0:0:
210,312,146134,1,8,0:0:0:0:
187,308,146203,1,8,0:0:0:0:
164,304,146271,1,8,0:0:0:0:
141,300,146339,2,8,L|93:292,1,30.0000011444092
35,203,146475,2,8,L|64:207,1,30.0000011444092
161,175,146612,5,8,0:0:0:0:
187,161,146680,1,8,0:0:0:0:
207,139,146748,1,8,0:0:0:0:
219,111,146816,1,8,0:0:0:0:
217,81,146884,1,8,0:0:0:0:
252,72,146953,1,8,0:0:0:0:
286,65,147021,1,8,0:0:0:0:
320,57,147089,1,8,0:0:0:0:
355,49,147157,69,4,0:0:0:0:
256,192,147225,12,0,148112,0:0:0:0:
192,97,148248,6,0,P|240:116|292:117,1,105.000004005432,8|2,0:0|0:0,0:0:0:0:
376,83,148589,70,0,P|394:61|405:40,1,45.0000017166138,2|2,0:0|0:0,0:0:0:0:
364,172,148793,6,0,P|358:199|359:237,1,60.0000022888185,2|8,0:0|0:0,0:0:0:0:
419,375,149066,1,8,0:0:0:0:
133,329,149203,1,8,0:0:0:0:
311,102,149339,6,0,P|292:87|265:76,1,40,6|0,0:0|0:0,0:0:0:0:
170,114,149475,2,0,P|188:119|206:126,1,40
310,194,149612,2,0,P|291:179|264:168,1,40
170,206,149748,2,0,P|188:211|206:218,1,40
297,341,149884,2,0,P|254:325|218:302,1,80,8|0,0:0|0:0,0:0:0:0:
87,158,150157,1,0,0:0:0:0:
59,319,150293,1,0,0:0:0:0:
207,218,150430,6,0,P|245:207|285:203,1,80,2|0,0:0|0:0,0:0:0:0:
376,348,150703,2,0,P|337:342|296:340,1,80
126,356,150975,2,0,P|134:317|134:277,1,80,8|0,0:0|0:0,0:0:0:0:
104,203,151180,1,0,0:0:0:0:
84,168,151248,2,0,P|75:147|70:126,1,40
23,283,151384,1,0,0:0:0:0:
183,126,151521,70,0,P|263:140|254:275,1,240,2|0,0:0|0:0,0:0:0:0:
177,263,151998,1,0,0:0:0:0:
145,249,152066,2,0,P|176:223|211:205,1,80,8|0,0:0|0:0,0:0:0:0:
295,190,152271,1,0,0:0:0:0:
324,185,152339,2,0,P|349:170|365:153,1,40
348,41,152475,2,0,P|322:26|299:21,1,40
427,96,152612,6,0,L|475:92,1,40,2|0,0:0|0:0,0:0:0:0:
273,103,152748,2,0,L|225:99,1,40
419,117,152884,2,0,L|467:113,1,40
265,124,153020,2,0,L|217:120,1,40
332,252,153157,2,0,P|329:308|279:350,1,120,8|0,0:0|0:0,0:0:0:0:
207,331,153430,2,0,P|225:296|259:275,1,80
197,112,153703,70,0,P|164:89|127:73,1,80,2|0,0:0|0:0,0:0:0:0:
58,219,153975,2,0,L|49:267,1,40
132,261,154112,2,0,L|135:309,1,40
225,204,154248,2,0,P|262:190|302:184,1,80,8|0,0:0|0:0,0:0:0:0:
423,282,154521,1,0,0:0:0:0:
397,190,154657,1,0,0:0:0:0:
288,299,154793,6,0,B|284:333|284:333|291:380,1,80,2|0,0:0|0:0,0:0:0:0:
400,270,155066,2,0,B|404:236|404:236|397:189,1,80
477,320,155339,2,0,P|441:353|403:361,1,80,8|0,0:0|0:0,0:0:0:0:
210,310,155612,1,0,0:0:0:0:
310,212,155748,1,0,0:0:0:0:
107,230,155884,70,0,L|69:211,1,40,2|0,0:0|0:0,0:0:0:0:
135,147,156021,2,0,L|111:111,1,40
200,89,156157,2,0,L|197:46,1,40
285,71,156293,2,0,L|304:33,1,40
259,154,156430,2,0,P|279:189|311:213,1,80,8|0,0:0|0:0,0:0:0:0:
428,104,156703,2,0,P|388:124|346:126,1,80
161,78,156975,5,2,0:0:0:0:
92,164,157112,2,0,P|137:166|174:185,1,80
193,211,157316,1,0,0:0:0:0:
193,211,157384,1,0,0:0:0:0:
161,78,157521,1,8,0:0:0:0:
111,263,157657,1,0,0:0:0:0:
119,302,157725,1,0,0:0:0:0:
137,337,157793,1,0,0:0:0:0:
168,362,157862,1,0,0:0:0:0:
206,373,157930,2,0,P|230:377|255:375,1,40
420,276,158066,70,0,L|464:283,1,40,2|0,0:0|0:0,0:0:0:0:
311,283,158203,2,0,L|271:276,1,40
389,202,158339,2,0,P|393:178|391:153,1,40
362,341,158475,2,0,P|361:360|365:380,1,40
284,181,158612,2,0,P|245:168|200:168,1,80,8|0,0:0|0:0,0:0:0:0:
135,239,158884,1,0,0:0:0:0:
262,76,159021,1,0,0:0:0:0:
232,301,159157,6,0,P|209:338|181:362,1,80,2|0,0:0|0:0,0:0:0:0:
339,243,159430,2,0,L|418:252,1,80
232,301,159703,1,8,0:0:0:0:
300,157,159839,2,0,L|326:121,1,40
226,192,159975,2,0,L|146:182,1,80
9,282,160248,70,0,P|114:266|133:376,1,240,2|0,0:0|0:0,0:0:0:0:
70,231,160725,1,0,0:0:0:0:
63,200,160793,2,0,P|67:155|101:111,1,80,8|0,0:0|0:0,0:0:0:0:
246,51,161066,1,0,0:0:0:0:
146,184,161203,1,0,0:0:0:0:
338,166,161339,6,0,P|360:171|386:184,1,40,2|0,0:0|0:0,0:0:0:0:
350,250,161476,2,0,P|366:258|382:271,1,40
272,220,161612,2,0,P|252:216|232:216,1,40
230,293,161748,2,0,P|210:295|191:300,1,40
76,349,161884,2,0,B|87:358|102:361|102:361|88:331|82:300|88:268,1,120,8|0,0:0|0:0,0:0:0:0:
110,195,162157,2,0,P|130:160|158:132,1,80,0|0,0:3|0:0,0:0:0:0:
267,373,162430,70,0,P|289:377|314:372,1,40,2|0,0:0|0:0,0:0:0:0:
154,340,162566,2,0,P|114:339|76:349,2,80
226,218,162975,2,0,P|272:197|305:198,1,80,8|0,0:0|0:0,0:0:0:0:
285,292,163248,1,0,0:0:0:0:
139,197,163384,1,0,0:0:0:0:
277,121,163521,6,0,B|285:75|285:75|279:43,1,80,2|0,0:0|0:0,0:0:0:0:
326,266,163793,2,0,P|363:282|403:284,1,80
226,218,164066,2,0,P|186:220|149:236,1,80,8|0,0:0|0:0,0:0:0:0:
394,144,164339,1,0,0:0:0:0:
210,66,164475,1,0,0:0:0:0:
245,317,164612,70,0,P|225:310|199:307,1,40,2|0,0:0|0:0,0:0:0:0:
79,320,164748,2,0,P|53:329|27:344,1,40
249,240,164884,2,0,P|229:233|203:230,1,40
52,247,165020,2,0,P|26:256|0:271,1,40
102,154,165157,2,0,P|91:115|75:79,1,80,8|0,0:0|0:0,0:0:0:0:
206,186,165430,1,0,0:0:0:0:
230,203,165498,1,0,0:0:0:0:
257,213,165566,2,0,P|278:219|298:220,1,40
419,157,165703,6,0,P|444:145|500:129,1,80,8|0,0:0|0:0,0:0:0:0:
287,119,165975,2,0,P|267:115|247:114,1,40,2|0,0:0|0:0,0:0:0:0:
395,234,166112,70,0,P|417:249|459:290,1,80,8|0,0:0|0:0,0:0:0:0:
361,100,166384,2,0,P|354:80|345:62,1,40,2|0,0:0|0:0,0:0:0:0:
320,254,166521,6,0,P|317:281|303:338,1,80,8|0,0:0|0:0,0:0:0:0:
158,123,166793,70,0,P|151:102|148:75,1,40,6|0,0:0|0:0,0:0:0:0:
237,82,166930,2,0,P|235:59|239:33,1,40,4|0,0:0|0:0,0:0:0:0:
221,190,167066,2,0,P|216:211|204:236,1,40
132,210,167203,2,0,P|117:226|95:242,1,40
328,136,167339,2,0,P|361:130|411:131,1,80,8|0,0:0|0:0,0:0:0:0:
237,82,167612,1,0,0:0:0:0:
193,278,167748,6,0,B|181:308|186:336|186:336|160:309|123:301|92:313,1,160
272,319,168157,2,0,L|359:311,1,80,2|0,0:0|0:0,0:0:0:0:
474,208,168430,2,0,P|435:198|397:170,1,80,8|0,0:0|0:0,0:0:0:0:
386,150,168634,1,0,0:0:0:0:
379,120,168703,1,0,0:0:0:0:
476,13,168839,1,0,0:0:0:0:
280,82,168975,70,0,B|261:147|304:195|304:195|232:178|188:211,1,240,2|0,0:0|0:0,0:0:0:0:
167,229,169453,1,0,0:0:0:0:
150,254,169521,1,8,0:0:0:0:
115,365,169657,1,0,0:0:0:0:
257,311,169793,1,0,0:0:0:0:
48,227,169930,1,0,0:0:0:0:
131,53,170066,6,0,P|138:32|140:9,1,40
129,144,170203,2,0,P|131:163|138:182,1,40
207,99,170339,2,0,P|259:96|301:83,1,80,2|0,0:0|0:0,0:0:0:0:
414,214,170612,2,0,P|341:197|261:250,1,160,8|0,0:0|0:0,0:0:0:0:
224,366,171021,1,0,0:0:0:0:
161,216,171157,70,0,P|151:198|138:183,1,40,2|0,0:0|0:0,0:0:0:0:
102,285,171293,2,0,P|62:284|23:274,2,80
270,236,171703,2,0,P|289:201|299:162,1,80,8|0,0:0|0:0,0:0:0:0:
180,316,171975,1,0,0:0:0:0:
172,161,172112,6,0,P|148:105|50:95,1,160
3,207,172521,2,0,P|3:246|13:285,1,80,2|0,0:0|0:0,0:0:0:0:
180,316,172793,1,8,0:0:0:0:
110,384,172930,1,0,0:0:0:0:
105,230,173066,2,0,P|105:190|114:151,1,80
319,86,173339,70,0,L|329:37,1,40,2|0,0:0|0:0,0:0:0:0:
230,130,173475,2,0,L|220:81,1,40
332,121,173612,2,0,L|344:62,1,40
225,173,173748,2,0,L|213:114,1,40
287,241,173884,2,0,L|369:269,1,80,8|0,0:0|0:0,0:0:0:0:
198,260,174157,1,0,0:0:0:0:
430,200,174293,6,0,P|457:258|411:349,1,160,2|0,0:0|0:0,0:0:0:0:
266,255,174703,2,0,P|239:257|217:264,1,40,2|0,0:0|0:0,0:0:0:0:
91,314,174839,2,0,P|118:312|140:305,1,40
118,208,174975,2,0,P|117:168|108:129,1,80,8|0,0:0|0:0,0:0:0:0:
70,60,175180,1,0,0:3:0:0:
57,47,175248,1,0,0:3:0:0:
93,28,175316,1,0,0:3:0:0:
133,32,175384,1,0,0:3:0:0:
171,44,175453,1,0,0:3:0:0:
206,63,175521,70,0,P|224:70|244:73,1,40,2|0,0:0|0:0,0:0:0:0:
375,87,175657,2,0,P|355:89|335:93,1,40
182,137,175793,2,0,P|204:145|227:149,1,40
376,164,175929,2,0,P|355:169|336:178,1,40
212,264,176066,2,0,P|202:302|202:342,1,80,8|0,0:0|0:0,0:0:0:0:
128,214,176339,1,0,0:0:0:0:
300,259,176475,6,0,B|324:270|355:266|355:266|380:272|399:294|399:294|435:295|461:277,1,160
474,126,176884,2,0,P|483:87|483:47,1,80,2|0,0:0|0:0,0:0:0:0:
344,163,177157,2,0,P|344:202|353:241,1,80,8|0,0:0|0:0,0:0:0:0:
237,131,177430,1,0,0:0:0:0:
386,69,177566,1,0,0:0:0:0:
194,48,177703,70,0,P|152:92|236:225,1,240,2|0,0:0|0:0,0:0:0:0:
227,224,178180,1,0,0:0:0:0:
227,224,178248,1,8,0:0:0:0:
324,94,178384,1,0,0:0:0:0:
237,131,178521,1,0,0:0:0:0:
400,149,178657,1,0,0:0:0:0:
307,290,178794,6,0,L|311:251,1,40
227,224,178930,2,0,L|223:263,1,40
300,369,179066,2,0,L|307:289,1,80,2|0,0:0|0:0,0:0:0:0:
194,338,179339,2,0,P|124:370|61:327,1,160,8|0,0:0|0:0,0:0:0:0:
131,293,179748,1,0,0:0:0:0:
284,232,179884,70,0,B|328:211|328:211|375:203,2,80,6|2|2,0:0|0:0|0:0,0:0:0:0:
131,293,180293,1,2,0:0:0:0:
225,307,180430,1,2,0:0:0:0:
320,322,180566,1,2,0:0:0:0:
190,217,180702,2,0,L|106:188,1,80,2|2,0:0|0:0,0:0:0:0:
320,322,180975,6,0,L|395:349,1,80,2|2,0:0|0:0,0:0:0:0:
284,232,181248,1,2,0:0:0:0:
190,217,181384,1,2,0:0:0:0:
225,307,181521,1,2,0:0:0:0:
249,142,181657,1,2,0:0:0:0:
378,247,181793,1,2,0:0:0:0:
320,322,181930,1,2,0:0:0:0:
343,157,182066,70,8,L|376:115,3,40
495,99,182339,2,8,L|455:94,3,40
382,35,182612,5,8,0:0:0:0:
353,29,182680,1,8,0:0:0:0:
323,24,182748,1,8,0:0:0:0:
293,19,182816,1,8,0:0:0:0:
263,14,182884,1,8,0:0:0:0:
276,53,182953,1,8,0:0:0:0:
279,93,183021,1,8,0:0:0:0:
274,133,183089,1,8,0:0:0:0:
255,169,183157,70,8,P|238:192|221:205,1,40
104,226,183293,2,8,P|132:230|152:238,1,40
214,292,183430,1,8,0:0:0:0:
242,321,183498,1,8,0:0:0:0:
288,335,183566,1,8,0:0:0:0:
335,337,183634,1,8,0:0:0:0:
380,320,183703,5,8,0:0:0:0:
416,290,183771,1,8,0:0:0:0:
431,245,183839,1,8,0:0:0:0:
427,197,183907,1,8,0:0:0:0:
404,154,183975,1,8,0:0:0:0:
356,183,184043,1,8,0:0:0:0:
300,189,184112,2,8,P|276:186|253:177,1,40
138,40,184248,37,4,0:0:0:0:
256,192,184316,12,0,188612,0:0:0:0:
320,67,198430,6,0,P|280:67|240:74,1,80
141,128,198975,2,0,P|120:122|86:117,2,53.3333333333333
202,171,199521,69,0,0:0:0:0:
220,243,199703,1,0,0:0:0:0:
199,314,199884,1,0,0:0:0:0:
273,321,200066,2,0,P|299:317|325:310,1,53.3333333333333
297,237,200430,2,0,P|321:226|344:213,1,53.3333333333333
385,144,200793,1,0,0:0:0:0:
379,64,200975,1,0,0:0:0:0:
321,8,201157,1,0,0:0:0:0:
476,170,201430,5,0,0:0:0:0:
253,108,201703,70,0,P|193:98|134:96,1,120.000004577637,2|4,0:0|0:0,0:0:0:0:
134,96,202112,1,0,0:0:0:0:
73,255,202521,2,0,P|43:257|14:262,1,60.0000022888184
159,258,202793,2,0,P|217:264|276:278,1,120.000004577637,8|2,0:0|0:0,0:0:0:0:
383,160,203475,1,0,0:0:0:0:
364,241,203612,2,0,P|360:270|358:300,1,60.0000022888184
304,184,203884,6,0,P|281:161|197:140,1,120.000004577637,2|4,0:0|0:0,0:0:0:0:
198,139,204293,1,0,0:0:0:0:
141,47,204430,2,0,P|200:44|260:34,1,120.000004577637
260,34,204839,1,0,0:0:0:0:
340,77,204975,2,0,P|399:67|459:64,1,120.000004577637,8|2,0:0|0:0,0:0:0:0:
414,191,205521,1,0,0:0:0:0:
458,260,205657,1,0,0:0:0:0:
331,191,205793,2,0,P|304:184|271:181,1,60.0000022888184
177,178,206066,70,0,P|216:138|221:71,1,120.000004577637,2|4,0:0|0:0,0:0:0:0:
222,76,206475,1,0,0:0:0:0:
93,65,206884,2,0,P|114:86|140:99,1,60.0000022888184
177,178,207157,2,0,P|174:237|164:297,1,120.000004577637,8|2,0:0|0:0,0:0:0:0:
290,359,207839,1,0,0:0:0:0:
221,314,207975,2,0,P|196:304|163:296,1,60.0000022888184
247,243,208248,6,0,P|295:214|317:151,1,120.000004577637,2|4,0:0|0:0,0:0:0:0:
317,156,208657,1,0,0:0:0:0:
438,193,209066,2,0,P|447:223|453:255,1,60.0000022888184
450,371,209339,2,0,P|457:311|452:246,1,120.000004577637,8|2,0:0|0:0,0:0:0:0:
358,48,210021,1,0,0:0:0:0:
428,92,210157,1,0,0:0:0:0:
252,74,210430,70,0,P|195:76|125:93,1,120.000004577637,2|4,0:0|0:0,0:0:0:0:
78,200,210839,2,0,P|131:171|189:155,1,120.000004577637
141,260,211248,1,0,0:0:0:0:
305,227,211521,2,0,P|343:196|349:109,1,120.000004577637,8|2,0:0|0:0,0:0:0:0:
500,309,212203,1,0,0:0:0:0:
417,297,212339,2,0,P|386:293|348:295,1,60.0000022888184
274,305,212612,6,0,P|236:275|230:188,1,120.000004577637,2|4,0:0|0:0,0:0:0:0:
260,133,213021,2,0,P|277:97|289:15,1,120.000004577637
206,31,213430,2,0,P|193:25|143:16,1,60.0000022888184
65,27,213703,2,0,P|82:63|94:145,1,120.000004577637,8|2,0:0|0:0,0:0:0:0:
94,319,214384,1,0,0:0:0:0:
44,250,214521,1,0,0:0:0:0:
178,212,214793,70,0,P|237:202|297:199,1,120.000004577637,2|4,0:0|0:0,0:0:0:0:
381,210,215203,1,0,0:0:0:0:
330,276,215339,1,0,0:0:0:0:
347,134,215612,2,0,P|355:105|369:79,1,60.0000022888184
432,23,215884,2,0,P|369:10|312:10,1,120.000004577637,8|2,0:0|0:0,0:0:0:0:
87,74,216430,1,0,0:0:0:0:
190,176,216703,1,0,0:0:0:0:
53,262,216975,6,0,L|28:288,3,30.0000011444092,2|2|2|2,0:0|0:0|0:0|0:0,0:0:0:0:
130,333,217248,2,0,L|123:363,3,30.0000011444092,6|2|2|2,0:0|0:0|0:0|0:0,0:0:0:0:
237,348,217521,69,2,0:0:0:0:
247,351,217589,1,2,0:0:0:0:
258,353,217657,1,2,0:0:0:0:
269,354,217725,1,2,0:0:0:0:
280,355,217793,1,2,0:0:0:0:
302,349,217862,1,2,0:0:0:0:
321,337,217930,1,2,0:0:0:0:
336,320,217998,1,2,0:0:0:0:
343,299,218066,5,2,0:0:0:0:
336,269,218134,1,2,0:0:0:0:
332,238,218203,1,2,0:0:0:0:
333,208,218271,1,2,0:0:0:0:
341,179,218339,1,2,0:0:0:0:
358,154,218407,1,2,0:0:0:0:
380,133,218475,2,0,P|401:118|425:111,1,40,10|10,0:0|0:0,0:0:0:0:
308,37,218612,69,10,0:0:0:0:
436,192,218748,1,8,0:0:0:0:
304,53,218884,1,8,0:0:0:0:
312,237,219021,1,8,0:0:0:0:
296,68,219157,54,0,B|269:41|228:35|192:52|192:52|168:40|141:42,1,160,6|8,0:0|0:0,0:0:0:0:
126,48,219771,1,0,0:0:0:0:
110,59,219839,1,0,0:0:0:0:
97,74,219907,1,0,0:0:0:0:
111,128,219975,6,0,P|167:171|167:257,1,160,6|8,0:0|0:0,0:0:0:0:
187,247,220589,1,0,0:0:0:0:
206,245,220657,1,0,0:0:0:0:
225,250,220725,1,0,0:0:0:0:
252,299,220793,70,0,B|276:328|315:336|350:319|350:319|360:294|384:279,1,160,6|0,0:0|0:0,0:0:0:0:
121,340,221884,21,8,0:0:0:0:
45,217,222293,1,0,0:0:0:0:
45,217,222430,2,0,L|39:168,2,40
121,340,222975,1,8,0:0:0:0:
121,340,223521,5,0,0:0:0:0:
134,332,223589,1,0,0:0:0:0:
146,323,223657,1,0,0:0:0:0:
157,312,223725,1,0,0:0:0:0:
164,298,223793,1,0,0:0:0:0:
167,278,223862,1,0,0:0:0:0:
165,258,223930,1,0,0:0:0:0:
159,238,223998,1,0,0:0:0:0:
165,182,224066,38,0,B|180:78|180:78|168:28,1,140,6|0,0:0|0:0,0:0:0:0:
79,163,224612,2,0,L|91:84,2,80,6|8|0,0:0|0:0|0:0,0:0:0:0:
244,266,225430,6,0,L|268:108,1,160,6|0,0:0|0:0,0:0:0:0:
366,51,226248,5,8,0:0:0:0:
366,51,226793,6,0,P|398:102|405:169,1,120,0|2,0:0|0:0,0:0:0:0:
402,180,227271,1,2,0:0:0:0:
394,198,227339,1,10,0:0:0:0:
305,266,227475,1,8,0:0:0:0:
451,311,227612,1,8,0:0:0:0:
310,282,227748,1,8,0:0:0:0:
177,355,227884,38,0,P|195:324|141:223,1,160,6|8,0:0|0:0,0:0:0:0:
124,227,228498,1,0,0:0:0:0:
106,236,228566,1,0,0:0:0:0:
92,250,228634,1,0,0:0:0:0:
118,300,228703,6,0,P|196:284|285:283,1,160,6|8,0:0|0:0,0:0:0:0:
303,288,229316,1,0,0:0:0:0:
329,295,229384,1,0,0:0:0:0:
351,312,229453,1,0,0:0:0:0:
357,368,229521,70,0,B|383:358|401:337|405:311|405:311|398:282|403:253|418:232,1,160,6|0,0:0|0:0,0:0:0:0:
289,150,230612,21,8,0:0:0:0:
394,52,231021,1,0,0:0:0:0:
394,52,231157,2,0,L|390:6,2,40
289,150,231703,1,8,0:0:0:0:
289,150,232248,5,0,0:0:0:0:
288,164,232316,1,0,0:0:0:0:
285,178,232385,1,0,0:0:0:0:
281,192,232453,1,0,0:0:0:0:
273,206,232521,1,0,0:0:0:0:
251,226,232589,1,0,0:0:0:0:
222,236,232657,1,0,0:0:0:0:
192,235,232725,1,0,0:0:0:0:
147,202,232793,38,0,B|152:122|152:122|137:62,1,140,6|0,0:0|0:0,0:0:0:0:
367,139,233339,2,0,P|328:149|288:149,2,80,6|8|0,0:0|0:0|0:0,0:0:0:0:
75,233,234157,6,0,P|137:280|209:249,1,160,6|0,0:0|0:0,0:0:0:0:
482,189,234975,6,0,P|481:228|472:267,1,80,8|0,0:0|0:0,0:0:0:0:
338,345,235521,6,0,P|368:299|379:252,1,95.9999970703126
294,128,236066,70,0,P|294:184|272:253,1,120.000004577637,10|2,0:0|0:0,0:0:0:0:
275,244,236475,1,2,0:0:0:0:
121,200,236612,6,0,P|83:187|43:183,1,80,6|0,0:0|0:0,0:0:0:0:
70,341,236884,2,0,P|99:339|153:322,1,80,2|0,0:0|0:0,0:0:0:0:
215,160,237157,1,2,0:0:0:0:
224,131,237225,1,0,0:0:0:0:
224,101,237293,1,0,0:0:0:0:
218,71,237362,1,0,0:0:0:0:
206,43,237430,2,0,L|126:35,1,80,2|0,0:0|0:0,0:0:0:0:
321,112,237703,70,0,L|401:104,1,80,2|0,0:0|0:0,0:0:0:0:
446,203,237975,1,2,0:0:0:0:
430,198,238043,1,0,0:0:0:0:
413,196,238112,1,0,0:0:0:0:
397,196,238180,1,0,0:0:0:0:
381,198,238248,2,0,P|324:230|308:324,1,160,2|2,0:0|0:0,0:0:0:0:
399,294,238657,1,0,0:0:0:0:
255,179,238793,6,0,P|234:147|228:104,1,80,2|0,0:0|0:0,0:0:0:0:
278,26,239066,1,10,0:0:0:0:
321,110,239203,1,0,0:0:0:0:
133,102,239339,2,0,P|93:107|60:129,1,80,10|0,0:0|0:0,0:0:0:0:
201,257,239612,1,2,0:0:0:0:
128,197,239748,1,0,0:0:0:0:
255,179,239884,70,0,L|340:192,1,80,2|0,0:0|0:0,0:0:0:0:
226,89,240157,1,2,0:0:0:0:
161,159,240293,1,0,0:0:0:0:
320,108,240430,2,0,L|400:76,1,80,10|0,0:0|0:0,0:0:0:0:
419,254,240703,2,0,L|426:298,3,40,2|2|2|2,0:0|0:0|0:0|0:0,0:0:0:0:
386,321,240975,6,0,P|347:317|308:309,1,80,2|0,0:0|0:0,0:0:0:0:
315,295,241180,1,0,0:0:0:0:
322,280,241248,1,10,0:0:0:0:
316,250,241316,1,0,0:0:0:0:
298,225,241384,1,0,0:0:0:0:
274,205,241453,1,0,0:0:0:0:
246,193,241521,2,0,P|165:171|88:168,1,160,10|2,0:0|0:0,0:0:0:0:
23,238,241930,1,0,0:0:0:0:
177,126,242066,70,0,B|196:106|220:97|245:95|245:95|272:115|301:118|327:113,1,160,2|2,0:0|0:0,0:0:0:0:
304,17,242475,1,0,0:0:0:0:
246,193,242612,2,0,P|237:238|239:288,1,80,10|0,0:0|0:0,0:0:0:0:
400,352,242884,2,0,P|399:312|391:273,1,80,2|0,0:0|0:0,0:0:0:0:
324,113,243157,5,2,0:0:0:0:
422,166,243293,1,0,0:0:0:0:
246,192,243430,1,2,0:0:0:0:
274,309,243566,1,0,0:0:0:0:
124,199,243703,2,0,P|83:184|13:279,1,160,2|2,0:0|0:0,0:0:0:0:
189,268,244112,1,0,0:0:0:0:
180,115,244248,70,0,P|182:68|196:21,1,80
190,36,244453,1,0,0:0:0:0:
190,36,244521,1,0,0:0:0:0:
42,62,244657,1,0,0:0:0:0:
124,199,244793,1,0,0:0:0:0:
140,196,244862,1,0,0:0:0:0:
155,193,244930,2,0,L|224:180,1,40
352,159,245066,1,0,0:0:0:0:
214,76,245203,1,0,0:0:0:0:
292,236,245339,6,0,P|301:281|299:331,1,80
194,185,245612,1,0,0:0:0:0:
318,59,245748,1,0,0:0:0:0:
447,171,245885,2,0,L|488:177,1,40
356,207,246021,2,0,L|316:201,1,40
431,267,246157,2,0,P|471:288|510:295,1,80
337,350,246430,69,0,0:0:0:0:
244,275,246566,1,0,0:0:0:0:
308,119,246703,2,0,P|317:95|319:75,1,40
232,69,246839,2,0,P|234:43|231:23,1,40
141,68,246975,2,0,P|102:76|67:95,1,80
191,210,247248,2,0,P|229:201|264:182,1,80
88,197,247521,6,0,L|74:301,1,80
224,372,247793,2,0,L|210:268,1,80
317,75,248066,2,0,L|303:179,1,80
453,250,248338,2,0,L|439:146,1,80
204,70,248612,70,0,B|172:60|172:60|117:63,1,80
42,208,248884,1,0,0:0:0:0:
155,166,249021,1,0,0:0:0:0:
374,242,249157,2,0,B|406:252|406:252|461:249,1,80
336,151,249430,1,0,0:0:0:0:
309,300,249566,1,0,0:0:0:0:
434,150,249703,6,0,L|467:110,3,40
377,70,249975,2,0,L|385:18,3,40
282,58,250248,69,0,0:0:0:0:
252,63,250316,1,0,0:0:0:0:
222,68,250384,1,0,0:0:0:0:
192,73,250453,1,0,0:0:0:0:
162,78,250521,1,0,0:0:0:0:
182,112,250589,1,0,0:0:0:0:
194,149,250657,1,0,0:0:0:0:
196,188,250725,1,0,0:0:0:0:
187,226,250793,5,0,0:0:0:0:
176,265,250862,1,0,0:0:0:0:
176,304,250930,1,0,0:0:0:0:
199,336,250998,1,0,0:0:0:0:
236,348,251066,1,0,0:0:0:0:
275,340,251134,1,0,0:0:0:0:
304,314,251203,1,0,0:0:0:0:
338,293,251271,1,0,0:0:0:0:
375,280,251339,70,0,P|402:278|427:284,1,40,8|0,0:0|0:0,0:0:0:0:
512,338,251476,2,8,P|484:339|459:333,1,40
415,240,251612,2,0,P|416:267|410:292,1,40,8|0,0:0|0:0,0:0:0:0:
346,343,251749,2,8,P|322:357|297:365,1,40
200,353,251885,5,8,0:0:0:0:
193,350,251953,1,0,0:0:0:0:
188,346,252021,2,8,P|173:322|165:297,1,40
216,171,252158,1,8,0:0:0:0:
229,180,252226,1,0,0:0:0:0:
242,190,252294,2,8,P|261:208|278:234,1,47.9999985351563
346,343,252430,69,8,0:0:0:0:
357,315,252499,1,0,0:0:0:0:
375,292,252567,2,8,P|390:279|424:265,1,55.9999982910157
366,148,252703,1,8,0:0:0:0:
355,109,252771,1,0,0:0:0:0:
326,80,252839,2,8,P|305:67|272:56,1,60.0000022888184
45,83,252975,5,8,0:0:0:0:
52,90,253248,1,2,0:0:0:0:
52,90,253316,1,2,0:0:0:0:
52,90,253384,2,2,P|72:86|91:85,1,40
258,129,253521,1,10,0:0:0:0:
102,241,253657,1,8,0:0:0:0:
298,280,253793,1,8,0:0:0:0:
131,156,253930,1,8,0:0:0:0:
326,85,254066,38,0,B|350:82|371:93|371:93|375:58|346:29|310:41|310:41|290:49|271:50|271:50|243:42|243:42|224:44|210:57,1,240,6|0,0:0|0:0,0:0:0:0:
258,129,254612,2,0,P|293:159|340:164,1,80
405,165,254884,1,0,0:0:0:0:
262,233,255021,6,0,P|226:299|265:366,1,160
304,298,255430,1,0,0:0:0:0:
149,274,255566,1,2,0:0:0:0:
149,274,255634,1,2,0:0:0:0:
149,274,255703,1,10,0:0:0:0:
262,233,255839,1,8,0:0:0:0:
169,141,255975,1,8,0:0:0:0:
313,89,256112,1,8,0:0:0:0:
294,259,256248,69,8,0:0:0:0:
425,62,256384,2,0,P|429:101|429:149,1,80,2|0,0:0|0:0,0:0:0:0:
304,298,256657,5,8,0:0:0:0:
191,127,256793,2,0,P|187:166|188:221,1,88.000002685547,2|0,0:0|0:0,0:0:0:0:
313,335,257066,69,8,0:0:0:0:
444,89,257203,2,0,P|448:128|446:184,1,95.9999970703126,2|0,0:0|0:0,0:0:0:0:
323,372,257475,5,8,0:0:0:0:
172,154,257612,2,0,P|168:193|170:257,1,103.999995239258,2|0,0:0|0:0,0:0:0:0:
202,330,257816,1,0,0:0:0:0:
222,351,257884,1,8,0:0:0:0:
250,366,257953,1,0,0:0:0:0:
284,374,258021,1,0,0:0:0:0:
323,372,258089,1,0,0:0:0:0:
359,356,258157,1,0,0:0:0:0:
388,323,258225,1,0,0:0:0:0:
404,282,258293,1,0,0:0:0:0:
406,233,258362,1,0,0:0:0:0:
397,185,258430,38,0,B|371:133|305:120|259:156|259:156|208:147|177:118,1,240,6|0,0:0|0:0,0:0:0:0:
104,0,258975,1,8,0:0:0:0:
76,118,259112,1,0,0:0:0:0:
247,59,259248,1,0,0:0:0:0:
153,210,259384,1,0,0:0:0:0:
351,185,259521,6,0,P|390:171|428:145,1,80,2|0,0:0|0:0,0:0:0:0:
414,23,259793,2,0,P|375:37|337:63,1,80
231,141,260066,2,0,B|237:101|237:101|230:56,1,80,8|0,0:0|0:0,0:0:0:0:
272,233,260339,1,0,0:0:0:0:
153,210,260475,1,0,0:0:0:0:
351,185,260612,70,0,P|350:207|352:235,1,40,2|0,0:0|0:0,0:0:0:0:
433,301,260748,2,0,P|427:281|423:262,1,40
367,162,260884,2,0,P|366:185|369:216,1,40
456,287,261020,2,0,P|450:266|445:245,1,40
437,94,261157,2,0,P|398:85|362:66,1,80,8|0,0:0|0:0,0:0:0:0:
289,4,261430,1,0,0:0:0:0:
465,8,261566,1,0,0:0:0:0:
367,162,261703,6,0,P|327:163|279:152,1,80,2|0,0:0|0:0,0:0:0:0:
148,78,261975,1,0,0:0:0:0:
132,72,262043,1,0,0:0:0:0:
115,70,262112,2,0,P|75:73|37:86,1,80,0|8,0:0|0:0,0:0:0:0:
40,236,262384,1,0,0:0:0:0:
40,236,262453,1,0,0:0:0:0:
40,236,262521,1,0,0:0:0:0:
64,253,262589,1,0,0:0:0:0:
85,274,262657,2,0,P|99:293|109:317,1,40
193,365,262793,70,0,P|190:341|193:315,1,40,2|0,0:0|0:0,0:0:0:0:
214,239,262930,2,0,P|223:217|239:196,1,40
148,160,263066,2,0,P|135:139|117:121,1,40
237,107,263203,2,0,P|254:90|276:77,1,40
151,41,263339,2,0,P|108:39|68:57,1,80,8|0,0:0|0:0,0:0:0:0:
43,194,263612,1,0,0:0:0:0:
194,245,263748,1,0,0:0:0:0:
237,107,263884,6,0,P|267:81|305:69,1,80,2|0,0:0|0:0,0:0:0:0:
194,245,264157,2,0,P|195:284|213:320,1,80
414,319,264430,2,0,P|374:316|339:297,1,80,8|0,0:0|0:0,0:0:0:0:
321,273,264634,1,0,0:0:0:0:
311,244,264703,1,0,0:0:0:0:
417,145,264839,1,0,0:0:0:0:
237,107,264975,70,0,B|184:99|130:111|87:146|87:146|88:105|72:68,1,240,2|0,0:0|0:0,0:0:0:0:
71,67,265453,1,0,0:0:0:0:
71,67,265521,1,8,0:0:0:0:
230,10,265657,1,0,0:0:0:0:
160,206,265793,1,0,0:0:0:0:
350,157,265930,1,0,0:0:0:0:
250,297,266066,6,0,P|242:321|241:350,1,40,2|0,0:0|0:0,0:0:0:0:
326,341,266203,2,0,P|323:364|331:394,1,40
438,348,266339,2,0,P|428:327|409:307,1,40
479,258,266475,2,0,P|466:244|436:224,1,40
350,157,266612,2,0,B|329:143|296:146|296:146|334:102|326:43,1,160,8|0,0:0|0:0,0:0:0:0:
310,224,267021,1,0,0:0:0:0:
158,63,267157,70,0,P|157:37|162:9,1,40,2|0,0:0|0:0,0:0:0:0:
113,146,267293,2,0,P|75:159|35:163,2,80
245,26,267703,1,8,0:0:0:0:
188,201,267839,1,0,0:0:0:0:
65,68,267975,1,0,0:0:0:0:
317,110,268112,1,0,0:0:0:0:
210,291,268248,6,0,P|193:339|192:385,1,80,2|0,0:0|0:0,0:0:0:0:
151,215,268521,2,0,P|136:178|113:146,1,80
305,165,268793,2,0,L|396:160,1,80,8|0,0:0|0:0,0:0:0:0:
210,291,269066,1,0,0:0:0:0:
417,250,269203,1,0,0:0:0:0:
310,36,269339,70,0,L|265:30,1,40,2|0,0:0|0:0,0:0:0:0:
398,83,269475,2,0,L|443:77,1,40
280,115,269612,2,0,L|235:109,1,40
429,161,269748,2,0,L|474:155,1,40
310,36,269884,1,8,0:0:0:0:
195,197,270021,2,0,P|155:202|115:200,1,80
86,193,270225,1,0,0:0:0:0:
86,193,270293,1,2,0:0:0:0:
287,269,270430,6,0,P|326:265|370:264,1,80,8|0,0:0|0:0,0:0:0:0:
158,307,270703,2,0,L|118:304,1,40,2|0,0:0|0:0,0:0:0:0:
290,181,270839,70,0,P|332:177|374:176,1,80,8|0,0:0|0:0,0:0:0:0:
161,219,271112,2,0,L|121:216,1,40,2|0,0:0|0:0,0:0:0:0:
293,93,271248,6,0,P|334:88|376:88,1,80,8|0,0:0|0:0,0:0:0:0:
164,131,271521,38,0,L|124:128,1,40,2|0,0:0|0:0,0:0:0:0:
44,122,272066,22,0,L|124:128,1,80,12|0,0:0|0:0,0:0:0:0:
252,138,272339,1,0,0:0:0:0:
121,216,272475,6,0,P|97:278|150:353,1,160
272,374,272884,2,0,L|361:370,1,80,2|0,0:0|0:0,0:0:0:0:
263,278,273157,2,0,L|174:274,1,80,8|0,0:0|0:0,0:0:0:0:
280,253,273362,1,0,0:0:0:0:
288,224,273430,2,0,P|293:183|287:145,1,80
157,77,273703,70,0,B|130:48|84:47|84:47|98:33|119:29|119:29|143:41|176:38|176:38|206:56|242:50,1,240,2|0,0:0|0:0,0:0:0:0:
234,50,274180,1,0,0:0:0:0:
234,50,274248,1,8,0:0:0:0:
90,138,274384,1,0,0:0:0:0:
192,186,274521,1,0,0:0:0:0:
84,47,274657,1,0,0:0:0:0:
278,139,274793,6,0,L|330:149,1,40
192,186,274930,2,0,L|152:178,1,40
276,237,275066,2,0,P|291:274|297:312,1,80,2|0,0:0|0:0,0:0:0:0:
434,362,275339,2,0,P|407:289|452:228,1,160,8|0,0:0|0:0,0:0:0:0:
485,301,275748,1,0,0:0:0:0:
297,313,275884,70,0,L|244:318,1,40,2|0,0:0|0:0,0:0:0:0:
161,328,276021,2,0,L|66:338,2,80
260,226,276430,2,0,P|275:189|281:151,1,80,8|0,0:0|0:0,0:0:0:0:
281,33,276703,1,0,0:0:0:0:
177,153,276839,6,0,B|52:169|52:169|88:138,1,160
201,69,277248,2,0,L|122:80,1,80,2|0,0:0|0:0,0:0:0:0:
32,252,277521,2,0,L|111:241,1,80,8|0,0:0|0:0,0:0:0:0:
260,226,277793,1,0,0:0:0:0:
177,153,277930,1,0,0:0:0:0:
367,127,278066,70,0,P|387:122|407:111,1,40,2|0,0:0|0:0,0:0:0:0:
286,85,278203,2,0,P|266:90|246:101,1,40
374,143,278339,2,0,P|393:148|416:149,1,40
279,69,278475,2,0,P|260:64|237:63,1,40
291,177,278612,2,0,P|284:216|269:253,1,80,8|0,0:0|0:3,0:3:0:0:
148,329,278884,1,0,0:0:0:0:
198,159,279021,6,0,P|130:127|59:181,1,160,2|0,0:0|0:0,0:0:0:0:
127,246,279430,2,0,L|133:207,1,40,2|0,0:0|0:0,0:0:0:0:
149,9,279566,2,0,L|153:48,1,40
236,73,279703,2,0,P|272:58|312:51,1,80,8|0,0:0|0:3,0:3:0:0:
342,50,279907,1,0,0:0:0:0:
371,52,279975,1,0,0:0:0:0:
358,89,280043,1,0,0:0:0:0:
357,129,280112,1,0,0:0:0:0:
367,167,280180,1,0,0:0:0:0:
386,202,280248,70,0,P|407:222|435:238,1,40,2|0,0:0|0:0,0:0:0:0:
482,325,280384,2,0,P|456:311|425:302,1,40
358,292,280521,2,0,P|329:292|297:301,1,40
234,325,280657,2,0,P|209:340|186:363,1,40
250,235,280793,2,0,P|254:195|250:155,1,80,8|0,0:0|0:3,0:3:0:0:
181,29,281066,1,0,0:0:0:0:
348,127,281203,6,0,P|404:115|345:65,1,160
250,155,281612,2,0,P|213:169|173:176,1,80,2|0,0:0|0:0,0:0:0:0:
34,140,281884,2,0,P|48:176|55:216,1,80,8|0,0:0|0:0,0:0:0:0:
55,246,282089,1,0,0:0:0:0:
51,275,282157,1,0,0:0:0:0:
161,368,282293,1,0,0:0:0:0:
173,176,282430,70,0,P|197:95|329:144,1,240,2|0,0:0|0:0,0:0:0:0:
388,75,282906,1,0,0:0:0:0:
417,75,282975,2,0,P|456:68|493:53,1,80,8|0,0:0|0:0,0:0:0:0:
293,36,283248,1,0,0:0:0:0:
333,235,283384,1,0,0:0:0:0:
105,215,283521,6,0,P|127:219|145:219,1,40
250,155,283657,2,0,P|230:152|210:151,1,40
104,303,283793,2,0,P|148:311|186:302,1,80,2|0,0:0|0:0,0:0:0:0:
22,184,284066,2,0,B|10:222|29:262|29:262|10:295|26:339,1,160,8|0,0:0|0:0,0:0:0:0:
104,303,284475,1,0,0:0:0:0:
264,319,284612,70,0,L|347:330,2,80,6|2|2,0:0|0:0|0:0,0:0:0:0:
104,303,285021,1,2,0:0:0:0:
9,294,285157,1,2,0:0:0:0:
49,382,285293,1,2,0:0:0:0:
64,214,285430,2,0,L|74:135,1,80,2|2,0:0|0:0,0:0:0:0:
194,54,285703,6,0,P|233:75|280:87,1,80,2|2,0:0|0:0,0:0:0:0:
433,143,285975,2,0,P|393:145|354:154,1,80,2|2,0:0|0:0,0:0:0:0:
167,291,286248,1,2,0:0:0:0:
315,243,286384,1,2,0:0:0:0:
167,195,286521,1,2,0:0:0:0:
259,321,286657,1,2,0:0:0:0:
259,165,286793,70,8,P|259:138|266:116,3,40
361,42,287066,2,8,P|337:56|315:61,3,40
235,39,287339,5,8,0:0:0:0:
206,31,287407,1,8,0:0:0:0:
176,28,287475,1,8,0:0:0:0:
146,28,287543,1,8,0:0:0:0:
116,34,287612,1,8,0:0:0:0:
125,73,287680,1,8,0:0:0:0:
124,113,287748,1,8,0:0:0:0:
113,152,287816,1,8,0:0:0:0:
87,183,287884,70,8,P|71:196|49:204,1,40
134,264,288021,2,8,L|173:272,1,40
292,291,288157,1,8,0:0:0:0:
331,299,288225,1,8,0:0:0:0:
370,307,288293,1,8,0:0:0:0:
409,315,288362,1,8,0:0:0:0:
448,323,288430,5,8,0:0:0:0:
439,276,288498,1,8,0:0:0:0:
443,229,288566,1,8,0:0:0:0:
456,184,288634,1,8,0:0:0:0:
482,143,288703,1,8,0:0:0:0:
467,89,288771,1,8,0:0:0:0:
423,55,288839,2,8,P|388:43|369:41,1,40
216,110,288975,37,4,0:0:0:0:
256,192,289043,12,0,292248,0:0:0:0:
173,130,293339,6,0,P|213:133|252:125,1,80
253,126,295248,69,0,0:0:0:0:
229,200,295521,2,0,B|229:234|251:259|251:259|254:293|232:318|232:318|201:317|179:289|167:256,1,224
161,231,296612,1,0,0:0:0:0:
228,97,297157,1,0,0:0:0:0:
317,189,297703,6,0,B|349:179|380:186|380:186|368:146|388:98|439:86,1,192
454,163,298793,2,0,B|465:197|455:233|423:255|423:255|405:302|430:340,1,192
495,294,299884,1,0,0:0:0:0:
266,265,300975,70,0,P|220:252|140:256,1,128
141,256,302066,2,0,P|179:169|110:111,1,192
51,154,303157,2,0,P|72:177|102:188,1,64
204,105,303703,2,0,L|193:55,2,42.6666666666667
261,156,304248,5,0,0:0:0:0:
321,203,304430,1,0,0:0:0:0:
378,254,304612,2,0,L|386:296,2,42.6666666666667
394,178,305157,1,0,0:0:0:0:
416,104,305339,2,0,L|448:73,1,42.6666666666667
469,161,305703,2,0,L|512:152,1,42.6666666666667,0|0,0:3|0:3,0:3:0:0:
444,235,306066,2,0,L|473:267,1,42.6666666666667,0|0,0:3|0:3,0:3:0:0:
417,327,306430,69,0,0:0:0:0:
149,269,307521,2,0,B|166:214|171:149|163:85|163:85|173:131|193:153,1,256
313,85,309703,5,0,0:0:0:0:
351,273,310793,1,0,0:0:0:0:
165,238,311884,2,0,B|149:183|187:172|181:117|181:117|220:146|277:143|303:108,1,256
295,114,315157,69,0,0:0:0:0:
175,189,316248,2,0,B|213:170|232:131|211:87|211:87|182:109|148:121|148:121|117:134|106:165,1,256
145,291,318430,5,0,0:0:0:0:
347,126,319521,1,0,0:0:0:0:
261,281,320612,2,0,B|261:252|248:225|223:206|223:206|253:202|278:189|296:171|296:171|268:161|247:138|241:104,1,256
