osu file format v14

[General]
AudioFilename: audio.mp3
AudioLeadIn: 0
PreviewTime: 88875
Countdown: 1
SampleSet: Normal
StackLeniency: 0.7
Mode: 1
LetterboxInBreaks: 0
WidescreenStoryboard: 0

[Editor]
DistanceSpacing: 1
BeatDivisor: 6
GridSize: 8
TimelineZoom: 1.5

[Metadata]
Title:farewell to today
TitleUnicode:farewell to today
Artist:Camellia
ArtistUnicode:Camellia
Creator:worst player
Version:greetings to tomorrow
Source:osu!
Tags:
BeatmapID:1937986
BeatmapSetID:927830

[Difficulty]
HPDrainRate:5
CircleSize:5
OverallDifficulty:6
ApproachRate:5
SliderMultiplier:1.4
SliderTickRate:1

[Events]
//Background and Video events
0,0,"Untitled.png",0,0
//Break Periods
//Storyboard Layer 0 (Background)
//Storyboard Layer 1 (Fail)
//Storyboard Layer 2 (Pass)
//Storyboard Layer 3 (Foreground)
//Storyboard Sound Samples

[TimingPoints]
13,352.941176470588,4,1,0,100,1,0
13,-133.333333333333,4,1,0,50,0,0
10601,-133.333333333333,4,1,0,50,0,0
10689,-128.052778233077,4,1,0,50,0,0
10777,-123.174553122721,4,1,0,50,0,0
10865,-118.654364582147,4,1,0,50,0,0
10954,-114.45432185242,4,1,0,50,0,0
11042,-110.541331956725,4,1,0,50,0,0
11130,-106.887053519417,4,1,0,50,0,0
11218,-103.466650112003,4,1,0,50,0,0
11307,-100.258365808689,4,1,0,70,0,0
18983,-100,4,1,0,70,0,0
19071,-97.2972762600484,4,1,0,70,0,0
19248,-92.3077207100679,4,1,0,70,0,0
19424,-87.8048694824518,4,1,0,70,0,0
19512,-85.7142612244968,4,1,0,70,0,0
19601,-83.7209613845438,4,1,0,70,0,0
19689,-81.8181966942176,4,1,0,70,0,0
19777,-80,4,1,0,100,0,0
19865,-80,4,1,0,20,0,0
21895,-100,4,1,0,50,0,0
21954,-97.9797554229345,4,1,0,50,0,0
22012,-96.039614420156,4,1,0,50,0,0
22071,-94.1747280233855,4,1,0,50,0,0
22160,-91.5093925240487,4,1,0,50,0,0
22248,-88.9908526302581,4,1,0,50,0,0
22336,-86.6071560028719,4,1,0,50,0,0
22424,-84.3478268204159,4,1,0,50,0,0
22512,-82.2033793809263,4,1,0,50,0,0
22601,-80.165268717989,4,1,0,70,0,0
33895,-80,4,1,0,70,0,0
34071,-79.7507947166693,4,1,0,70,0,0
34160,-79.6267733877768,4,1,0,70,0,0
34248,-79.5031371937937,4,1,0,70,0,0
34424,-79.2569502401089,4,1,0,70,0,0
34601,-79.0123456790123,4,1,0,70,0,0
34689,-78.8906087041586,4,1,0,70,0,0
34777,-78.7692462807131,4,1,0,70,0,0
34865,-78.6482566827424,4,1,0,70,0,0
34954,-78.5275765290497,4,1,0,70,0,0
35130,-78.2874464513866,4,1,0,70,0,0
35218,-78.1679312935151,4,1,0,70,0,0
35307,-78.0487804878049,4,1,0,70,0,0
35483,-77.811565288572,4,1,0,70,0,0
35571,-77.6934975981055,4,1,0,70,0,0
35660,-77.5757876657601,4,1,0,70,0,0
35836,-77.3413747738732,4,1,0,70,0,0
36012,-77.1084337349398,4,1,0,70,0,0
36101,-76.9924886128109,4,1,0,70,0,0
36189,-76.8768916520152,4,1,0,70,0,0
36277,-76.7616412867093,4,1,0,70,0,0
36365,-76.6466772132494,4,1,0,70,0,0
36542,-76.4178958485214,4,1,0,70,0,0
36718,-76.1904761904762,4,1,0,70,0,0
36807,-76.0772732079428,4,1,0,70,0,0
36895,-75.9644061178694,4,1,0,70,0,0
36983,-75.8518734274958,4,1,0,70,0,0
37071,-75.7396736528942,4,1,0,70,0,0
37248,-75.516209932043,4,1,0,70,0,0
37424,-75.2941176470588,4,1,0,70,0,0
37512,-75.1835606633596,4,1,0,70,0,0
37601,-75.073327873,4,1,0,70,0,0
37689,-74.9634178520882,4,1,0,70,0,0
37777,-74.8537731541434,4,1,0,70,0,0
37954,-74.6355545869519,4,1,0,70,0,0
38042,-74.5269217325721,4,1,0,70,0,0
38130,-74.4186046511628,4,1,0,70,0,0
38307,-74.2029123159026,4,1,0,70,0,0
38395,-74.0955343362411,4,1,0,70,0,0
38483,-73.9884666778143,4,1,0,70,0,0
38660,-73.7752025313747,4,1,0,70,0,0
38836,-73.5632183908046,4,1,0,70,0,0
38924,-73.4576824982664,4,1,0,70,0,0
39012,-73.3524489815379,4,1,0,70,0,0
39101,-73.2475165429516,4,1,0,70,0,0
39189,-73.1428303934792,4,1,0,70,0,0
39365,-72.934459635882,4,1,0,70,0,0
39424,-72.8652662934022,4,1,0,70,0,0
39483,-72.7962041147326,4,1,0,70,0,0
39542,-72.7272727272727,4,1,0,70,0,0
39718,-72.5212596072539,4,1,0,70,0,0
39807,-72.4186901052171,4,1,0,70,0,0
39895,-72.3164103290975,4,1,0,70,0,0
40071,-72.1126630557452,4,1,0,70,0,0
40248,-71.9101123595506,4,1,0,70,0,0
40424,-71.7086963287299,4,1,0,70,0,0
40512,-71.6084108375033,4,1,0,70,0,0
40601,-71.5083543210353,4,1,0,70,0,0
40777,-71.3091794880571,4,1,0,70,0,0
40865,-71.2100075696238,4,1,0,70,0,0
40954,-71.1111111111111,4,1,0,70,0,0
41130,-70.9141399958586,4,1,0,70,0,0
41307,-70.7182570495495,4,1,0,70,0,0
41395,-70.6206709528706,4,1,0,70,0,0
41483,-70.5234035440831,4,1,0,70,0,0
41571,-70.4264037038654,4,1,0,70,0,0
41660,-70.3296703296703,4,1,0,70,0,0
41836,-70.1369985993641,4,1,0,70,0,0
41895,-70.0730090681481,4,1,0,70,0,0
41954,-70.0091361922731,4,1,0,70,0,0
42012,-69.9453307295018,4,1,0,70,0,0
42189,-69.7547562280534,4,1,0,70,0,0
42248,-69.6914619596124,4,1,0,70,0,0
42307,-69.6282824513055,4,1,0,70,0,0
42365,-69.5652173913043,4,1,0,70,0,0
42542,-69.3767057997539,4,1,0,70,0,0
42718,-69.189213124917,4,1,0,70,0,0
42895,-69.0026835143619,4,1,0,70,0,0
42983,-68.9098190979429,4,1,0,70,0,0
43071,-68.8172043010753,4,1,0,70,0,0
43248,-68.6327195509224,4,1,0,70,0,0
43336,-68.5408476035378,4,1,0,70,0,0
43424,-68.4491744345071,4,1,0,70,0,0
43512,-68.3577928909263,4,1,0,70,0,0
43601,-68.2666550158242,4,1,0,70,0,0
43689,-68.1757598358873,4,1,0,70,0,0
43777,-68.0851063829787,4,1,0,70,0,0
43865,-67.9946936941041,4,1,0,70,0,0
43954,-67.9045208113775,4,1,0,70,0,0
44042,-67.8145867819876,4,1,0,70,0,0
44130,-67.724890658164,4,1,0,70,0,0
44218,-67.6353857516591,4,1,0,70,0,0
44307,-67.546162736268,4,1,0,70,0,0
44395,-67.4571748125702,4,1,0,70,0,0
44483,-67.3684210526316,4,1,0,70,0,0
44571,-67.2799005333951,4,1,0,70,0,0
44660,-67.1916123366488,4,1,0,70,0,0
44748,-67.1035555489943,4,1,0,70,0,0
44836,-67.0156843507655,4,1,0,70,0,0
44924,-66.9280877775257,4,1,0,70,0,0
45012,-66.8407199012896,4,1,0,70,0,0
45101,-66.7535798276022,4,1,0,70,0,0
45189,-66.6666666666667,4,1,0,70,0,0
45718,-133.333333333333,4,1,0,50,0,0
61248,-133.333333333333,4,1,0,60,0,0
61601,-130.973367875376,4,1,0,60,0,0
61689,-130.396457389046,4,1,0,60,0,0
61777,-129.824606956002,4,1,0,60,0,0
61865,-129.257583219264,4,1,0,60,0,0
61954,-128.695656650284,4,1,0,60,0,0
62042,-128.138594704032,4,1,0,60,0,0
62130,-127.586171700366,4,1,0,60,0,0
62660,-124.369756260152,4,1,0,70,0,0
63189,-121.31152313896,4,1,0,70,0,0
63277,-120.816283135376,4,1,0,70,0,0
63365,-120.325214991078,4,1,0,70,0,0
63454,-119.838122663906,4,1,0,70,0,0
63542,-119.354815608745,4,1,0,70,0,0
64071,-116.535447752497,4,1,0,80,0,0
64424,-114.728632365865,4,1,0,80,0,0
64512,-114.285714285714,4,1,0,80,0,0
64601,-113.846202887595,4,1,0,80,0,0
64689,-113.409930400326,4,1,0,80,0,0
64777,-112.977116485056,4,1,0,80,0,0
64865,-112.547466894163,4,1,0,80,0,0
64954,-112.121198530764,4,1,0,80,0,0
65483,-109.629649119345,4,1,0,90,0,0
65836,-108.02915923066,4,1,0,90,0,0
66012,-107.246426549067,4,1,0,90,0,0
66101,-106.859184172873,4,1,0,90,0,0
66189,-106.474841592054,4,1,0,90,0,0
66277,-106.093141290602,4,1,0,90,0,0
66365,-105.71427967347,4,1,0,90,0,0
66630,-104.593648446104,4,1,0,90,0,0
66895,-103.496526656565,4,1,0,90,0,0
67071,-102.77777492284,4,1,0,90,0,0
67160,-102.422182186529,4,1,0,90,0,0
67248,-102.068937360293,4,1,0,90,0,0
67336,-101.718224243928,4,1,0,90,0,0
67424,-101.369913004341,4,1,0,90,0,0
67512,-101.023876993327,4,1,0,90,0,0
67601,-100.680296765243,4,1,0,90,0,0
67689,-100.338944956062,4,1,0,90,0,0
67777,-100,4,1,0,100,0,0
68042,-133.333333333333,4,1,0,70,0,0
77660,-133.333333333333,4,1,0,70,0,0
77924,-125.490196078431,4,1,0,70,0,0
78189,-118.518518518519,4,1,0,70,0,0
78454,-112.280701754386,4,1,0,70,0,0
78542,-110.344827586207,4,1,0,70,0,0
78630,-108.474576271186,4,1,0,70,0,0
78718,-106.666666666667,4,1,0,70,0,0
78807,-104.918032786885,4,1,0,70,0,0
78895,-103.225806451613,4,1,0,70,0,0
78954,-102.127624807617,4,1,0,70,0,0
79012,-101.05266561774,4,1,0,70,0,0
79071,-100,4,1,0,70,0,0
84718,-100,4,1,0,70,0,0
84895,-98.970802623518,4,1,0,70,0,0
85071,-97.9626703448384,4,1,0,70,0,0
85248,-96.9747749215474,4,1,0,70,0,0
85424,-96.0066974272125,4,1,0,70,0,0
85601,-95.0576667335239,4,1,0,70,0,0
85777,-94.1272148133646,4,1,0,70,0,0
85954,-93.2148882819564,4,1,0,70,0,0
86042,-92.7652390096383,4,1,0,70,0,0
86130,-92.3199921712647,4,1,0,70,0,0
86307,-91.4421153121651,4,1,0,70,0,0
86483,-90.5808588152386,4,1,0,70,0,0
86660,-89.7355940720667,4,1,0,70,0,0
86836,-88.9060378757502,4,1,0,70,0,0
87012,-88.0916011705612,4,1,0,70,0,0
87189,-87.2919505473642,4,1,0,70,0,0
87365,-86.5067618010362,4,1,0,70,0,0
87424,-86.2481618360509,4,1,0,70,0,0
87483,-85.9910294158113,4,1,0,70,0,0
87542,-85.7354991263553,4,1,0,70,0,0
87630,-85.3550385506032,4,1,0,70,0,0
87718,-84.9779397268469,4,1,0,70,0,0
87807,-84.6040867158047,4,1,0,70,0,0
87895,-84.233579716554,4,1,0,70,0,0
87983,-83.8663036933043,4,1,0,70,0,0
88071,-83.5021468401953,4,1,0,70,0,0
88160,-83.1412078588395,4,1,0,70,0,0
88248,-82.7833757736106,4,1,0,70,0,0
88336,-82.4285426963366,4,1,0,70,0,0
88424,-82.0768058333627,4,1,0,70,0,0
88512,-81.7280580596124,4,1,0,70,0,0
88601,-81.3822614340043,4,1,0,70,0,0
88689,-81.0393129811203,4,1,0,70,0,0
88777,-80.6993079227353,4,1,0,70,0,0
88865,-80.3621439655664,4,1,0,70,0,0
88954,-80.0277216027632,4,1,0,70,0,0
89130,-100,4,1,0,50,0,0
90012,-100,4,1,0,70,0,0
90101,-94.2308127219136,4,1,0,70,0,0
90189,-89.0909074710744,4,1,0,70,0,0
90277,-84.4827921224865,4,1,0,70,0,0
90365,-80.3278662187585,4,1,0,100,0,1
95307,-66.6666666666667,4,1,0,100,0,1
96189,-80,4,1,0,100,0,1
99542,-80,4,1,0,100,0,1
99630,-84.1201370148792,4,1,0,100,0,1
99718,-88.6877844106386,4,1,0,100,0,1
99807,-93.7798630251321,4,1,0,100,0,1
99895,-99.4923898271021,4,1,0,100,0,1
100248,-66.6666666666667,4,1,0,100,0,0
100424,-80,4,1,0,70,0,0
101660,-66.6666666666667,4,1,0,100,0,1
101836,-80,4,1,0,100,0,1
106601,-66.6666666666667,4,1,0,100,0,1
107483,-80,4,1,0,100,0,1
110836,-80,4,1,0,100,0,1
110924,-84.1201370148792,4,1,0,100,0,1
111012,-88.6877844106386,4,1,0,100,0,1
111101,-93.7798630251321,4,1,0,100,0,1
111189,-99.4923898271021,4,1,0,100,0,1
111542,-66.6666666666667,4,1,0,100,0,0
111630,-66.6666666666667,4,1,0,20,0,0
112777,-100,4,1,0,70,0,0
112865,-89.2857142857143,4,1,0,70,0,0
112954,-80.6451612903226,4,1,0,100,0,1
117718,-80,4,1,0,100,0,1
117807,-78.4441081807007,4,1,0,100,0,1
117895,-76.9475225590899,4,1,0,100,0,1
117983,-75.5070297044655,4,1,0,100,0,1
118071,-74.1194241810174,4,1,0,100,0,1
118160,-72.7819518227148,4,1,0,100,0,1
118248,-71.4918928193543,4,1,0,100,0,1
118336,-70.246720531852,4,1,0,100,0,1
118424,-69.0442276609128,4,1,0,100,0,1
118512,-67.8822107878409,4,1,0,100,0,1
118601,-66.7586155331276,4,1,0,100,0,1
118777,-80,4,1,0,100,0,1
122130,-80,4,1,0,100,0,1
122218,-84.1201370148792,4,1,0,100,0,1
122307,-88.6877844106386,4,1,0,100,0,1
122395,-93.7798630251321,4,1,0,100,0,1
122483,-99.4923898271021,4,1,0,100,0,1
122836,-66.6666666666667,4,1,0,100,0,0
123012,-80,4,1,0,70,0,0
124601,-66.6666666666667,4,1,0,100,0,1
124777,-80,4,1,0,100,0,1
129189,-66.6666666666667,4,1,0,100,0,1
130071,-80,4,1,0,100,0,1
132718,-80,4,1,0,100,0,1
132807,-79.5044013636595,4,1,0,100,0,1
132895,-79.0149053717493,4,1,0,100,0,1
132983,-78.5313383232146,4,1,0,100,0,1
133071,-78.0537150055926,4,1,0,100,0,1
133160,-77.5818663248927,4,1,0,100,0,1
133248,-77.1156881842571,4,1,0,100,0,1
133336,-76.6550789738951,4,1,0,100,0,1
133424,-76.1998814329845,4,1,0,100,0,1
133512,-75.7501155189262,4,1,0,100,0,1
133601,-75.3056278907948,4,1,0,100,0,1
133689,-74.8663261746152,4,1,0,100,0,1
133777,-74.4321201393965,4,1,0,100,0,1
133954,-73.5785903960809,4,1,0,100,0,1
134012,-73.2984139689185,4,1,0,100,0,1
134071,-73.0203631886824,4,1,0,100,0,1
134130,-72.7444668739884,4,1,0,100,0,1
134218,-72.3344048469838,4,1,0,100,0,1
134307,-71.9289916993944,4,1,0,100,0,1
134395,-71.5280976673257,4,1,0,100,0,1
134483,-71.1316476081272,4,1,0,100,0,1
134571,-70.7395680359018,4,1,0,100,0,1
134660,-70.3517375823907,4,1,0,100,0,1
134748,-69.9681854660686,4,1,0,100,0,1
134836,-69.5887928640868,4,1,0,100,0,1
134924,-69.2134924782237,4,1,0,100,0,1
135012,-68.8422184542581,4,1,0,100,0,1
135101,-68.474859455351,4,1,0,100,0,1
135189,-68.1114466735051,4,1,0,100,0,1
135277,-67.7518709679168,4,1,0,100,0,1
135365,-67.3960718873461,4,1,0,100,0,1
135454,-67.0439902437585,4,1,0,100,0,1
135542,-66.6955235965428,4,1,0,100,0,0
136071,-133.333333333333,4,1,0,50,0,0
151601,-133.333333333333,4,1,0,60,0,0
151954,-130.973367875376,4,1,0,60,0,0
152042,-130.396457389046,4,1,0,60,0,0
152130,-129.824606956002,4,1,0,60,0,0
152218,-129.257583219264,4,1,0,60,0,0
152307,-128.695656650284,4,1,0,60,0,0
152395,-128.138594704032,4,1,0,60,0,0
152483,-127.586171700366,4,1,0,60,0,0
153012,-124.369756260152,4,1,0,70,0,0
153542,-121.31152313896,4,1,0,70,0,0
153630,-120.816283135376,4,1,0,70,0,0
153718,-120.325214991078,4,1,0,70,0,0
153807,-119.838122663906,4,1,0,70,0,0
153895,-119.354815608745,4,1,0,70,0,0
154424,-116.535447752497,4,1,0,80,0,0
154777,-114.728632365865,4,1,0,80,0,0
154865,-114.285714285714,4,1,0,80,0,0
154954,-113.846202887595,4,1,0,80,0,0
155042,-113.409930400326,4,1,0,80,0,0
155130,-112.977116485056,4,1,0,80,0,0
155218,-112.547466894163,4,1,0,80,0,0
155307,-112.121198530764,4,1,0,80,0,0
155836,-109.629649119345,4,1,0,90,0,0
156365,-107.246426549067,4,1,0,90,0,0
156454,-106.859184172873,4,1,0,90,0,0
156542,-106.474841592054,4,1,0,90,0,0
156630,-106.093141290602,4,1,0,90,0,0
156718,-105.71427967347,4,1,0,90,0,0
156983,-104.593648446104,4,1,0,90,0,0
157248,-103.496526656565,4,1,0,90,0,0
157424,-102.77777492284,4,1,0,90,0,0
157483,-102.540439385783,4,1,0,90,0,0
157542,-102.304197438917,4,1,0,90,0,0
157601,-102.068937360293,4,1,0,90,0,0
157689,-101.718224243928,4,1,0,90,0,0
157777,-101.369913004341,4,1,0,90,0,0
157865,-101.023876993327,4,1,0,90,0,0
157954,-100.680296765243,4,1,0,90,0,0
158042,-100.338944956062,4,1,0,90,0,0
158130,-100,4,1,0,100,0,0
158660,-100,4,1,0,50,0,0
174189,-100,4,1,0,50,0,0
174277,-99.5714445028597,4,1,0,50,0,0
174542,-98.3074407918861,4,1,0,60,0,0
174630,-97.8932395907671,4,1,0,60,0,0
174718,-97.482514074038,4,1,0,60,0,0
174807,-97.0752206762454,4,1,0,60,0,0
174895,-96.6713165569931,4,1,0,60,0,0
174983,-96.2707595859202,4,1,0,60,0,0
175071,-95.8734164108444,4,1,0,60,0,0
175248,-95.0886701849475,4,1,0,60,0,0
175425,-94.3166663208389,4,1,0,60,0,0
175601,-93.5570094314821,4,1,0,60,0,0
175689,-93.1817948863694,4,1,0,60,0,0
175954,-92.0739943448153,4,1,0,70,0,0
176130,-91.3498956784191,4,1,0,70,0,0
176218,-90.9921419186239,4,1,0,70,0,0
176307,-90.637179370978,4,1,0,70,0,0
176395,-90.2849754966577,4,1,0,70,0,0
176483,-89.9354982606475,4,1,0,70,0,0
176660,-89.2445980244816,4,1,0,70,0,0
176837,-88.5641536588066,4,1,0,70,0,0
177013,-87.8940841128806,4,1,0,70,0,0
177101,-87.5628372811039,4,1,0,70,0,0
177365,-86.5838347980432,4,1,0,80,0,0
177454,-86.26237218073,4,1,0,80,0,0
177542,-85.943287743284,4,1,0,80,0,0
177630,-85.6265551923087,4,1,0,80,0,0
177718,-85.3121486205879,4,1,0,80,0,0
177807,-84.9999702500104,4,1,0,80,0,0
177895,-84.6901399504563,4,1,0,80,0,0
178071,-84.0772064171087,4,1,0,80,0,0
178248,-83.4730811834146,4,1,0,80,0,0
178424,-82.8775070445881,4,1,0,80,0,0
178601,-82.2904391676157,4,1,0,90,0,0
178689,-82.0000131200021,4,1,0,90,0,0
178777,-81.7116298528537,4,1,0,90,0,0
178865,-81.4252015884428,4,1,0,90,0,0
178954,-81.1408402134004,4,1,0,90,0,0
179042,-80.8584580777195,4,1,0,90,0,0
179130,-80.5780345889271,4,1,0,90,0,0
179218,-80.2995494392281,4,1,0,90,0,0
179307,-80.0229826006029,4,1,0,100,0,0
179395,-80.0229826006029,4,1,0,20,0,0
180542,-100,4,1,0,70,0,0
180630,-88.8888888888889,4,1,0,70,0,0
180718,-80,4,1,0,100,0,0
180983,-133.333333333333,4,1,0,70,0,0
190601,-133.333333333333,4,1,0,70,0,0
190866,-125.490196078431,4,1,0,70,0,0
191131,-118.518518518519,4,1,0,70,0,0
191395,-112.280701754386,4,1,0,70,0,0
191483,-110.344827586207,4,1,0,70,0,0
191571,-108.474576271186,4,1,0,70,0,0
191660,-106.666666666667,4,1,0,70,0,0
191748,-104.918032786885,4,1,0,70,0,0
191836,-103.225806451613,4,1,0,70,0,0
191895,-102.127624807617,4,1,0,70,0,0
191954,-101.05266561774,4,1,0,70,0,0
192012,-100,4,1,0,70,0,0
197836,-100,4,1,0,70,0,0
198012,-98.926645892071,4,1,0,70,0,0
198189,-97.8760888714887,4,1,0,70,0,0
198365,-96.8476102852162,4,1,0,70,0,0
198542,-95.8405213724363,4,1,0,70,0,0
198718,-94.8541617263458,4,1,0,70,0,0
198895,-93.8879859994235,4,1,0,70,0,0
198983,-93.4121981384817,4,1,0,70,0,0
199071,-92.9412081799416,4,1,0,70,0,0
199248,-92.0133345724462,4,1,0,70,0,0
199424,-91.1038045859833,4,1,0,70,0,0
199601,-90.2120795778796,4,1,0,70,0,0
199777,-89.3376417900047,4,1,0,70,0,0
199954,-88.4799933463045,4,1,0,70,0,0
200130,-87.6386553075284,4,1,0,70,0,0
200307,-86.8131667793791,4,1,0,70,0,0
200365,-86.5414988122179,4,1,0,70,0,0
200424,-86.2714513963897,4,1,0,70,0,0
200483,-86.0030840705948,4,1,0,70,0,0
200571,-85.6036857522937,4,1,0,70,0,0
200660,-85.2079798977334,4,1,0,70,0,0
200748,-84.8159155369187,4,1,0,70,0,0
200836,-84.4275139136543,4,1,0,70,0,0
200924,-84.0425826958003,4,1,0,70,0,0
201012,-83.6611455887988,4,1,0,70,0,0
201101,-83.2831552323059,4,1,0,70,0,0
201189,-82.9085651180452,4,1,0,70,0,0
201277,-82.5373295707316,4,1,0,70,0,0
201365,-82.1694037295049,4,1,0,70,0,0
201454,-81.8047435298583,4,1,0,70,0,0
201542,-81.4433056860458,4,1,0,70,0,0
201630,-81.0850476739538,4,1,0,70,0,0
201718,-80.7299277144227,4,1,0,70,0,0
201807,-80.3779047570055,4,1,0,70,0,0
201895,-80.0289384641486,4,1,0,70,0,0
202071,-100,4,1,0,50,0,0
203130,-66.6666666666667,4,1,0,70,0,0
203307,-66.6666666666667,4,1,0,100,0,1
222895,-66.6666666666667,4,1,0,100,0,1
222983,-61.5384615384615,4,1,0,100,0,1
223071,-57.1428571428571,4,1,0,100,0,1
223248,-66.6666666666667,4,1,0,100,0,1
223601,-57.1428571428571,4,1,0,100,0,1
223777,-66.6666666666667,4,1,0,100,0,1
248483,-66.6666666666667,4,1,0,100,0,0
248660,-80,4,1,0,70,0,0
259777,-80,4,1,0,67,0,0
259954,-80.314705140623,4,1,0,67,0,0
260042,-80.4729880344714,4,1,0,67,0,0
260130,-80.6318960429091,4,1,0,67,0,0
260218,-80.7914328764578,4,1,0,67,0,0
260307,-80.9516022750638,4,1,0,67,0,0
260483,-81.2738538761126,4,1,0,67,0,0
260571,-81.4359437082183,4,1,0,67,0,0
260660,-81.5986813653091,4,1,0,67,0,0
260748,-81.7620707389084,4,1,0,67,0,0
260836,-81.9261157517704,4,1,0,67,0,0
261012,-82.2561885443451,4,1,0,67,0,0
261189,-82.588931761721,4,1,0,65,0,0
261365,-82.9243779427789,4,1,0,65,0,0
261454,-83.0931249579341,4,1,0,65,0,0
261542,-83.2625601571997,4,1,0,65,0,0
261630,-83.4326877590063,4,1,0,65,0,0
261718,-83.6035120163328,4,1,0,65,0,0
261895,-83.9472676843314,4,1,0,65,0,0
261983,-84.1201370148792,4,1,0,65,0,0
262071,-84.2937908350733,4,1,0,65,0,0
262160,-84.4681631046442,4,1,0,65,0,0
262248,-84.643258291442,4,1,0,65,0,0
262424,-84.9956354741184,4,1,0,65,0,0
262601,-85.3509588753475,4,1,0,62,0,0
262777,-85.7092656001577,4,1,0,62,0,0
262865,-85.8895494749572,4,1,0,62,0,0
262954,-86.0705933792778,4,1,0,62,0,0
263042,-86.2524021293993,4,1,0,62,0,0
263130,-86.4349805823816,4,1,0,62,0,0
263307,-86.8024662316706,4,1,0,62,0,0
263395,-86.9873833499189,4,1,0,62,0,0
263483,-87.1730900158045,4,1,0,62,0,0
263571,-87.3595912968881,4,1,0,62,0,0
263660,-87.5468923041904,4,1,0,62,0,0
263836,-87.9239141616411,4,1,0,62,0,0
264012,-88.3041973634133,4,1,0,60,0,0
264189,-88.6877844106386,4,1,0,60,0,0
264277,-88.8808303602696,4,1,0,60,0,0
264365,-89.0747185461581,4,1,0,60,0,0
264454,-89.2694544922175,4,1,0,60,0,0
264542,-89.4650437707727,4,1,0,60,0,0
264718,-89.8588048599236,4,1,0,60,0,0
264807,-90.0569880620457,4,1,0,60,0,0
264895,-90.2560473808146,4,1,0,60,0,0
264983,-90.4559886387278,4,1,0,60,0,0
265071,-90.6568177099906,4,1,0,60,0,0
265248,-91.0611630513867,4,1,0,60,0,0
265424,-91.4691314548623,4,1,0,57,0,0
265601,-91.8807718352357,4,1,0,57,0,0
265689,-92.0879845439527,4,1,0,57,0,0
265777,-92.2961339918355,4,1,0,57,0,0
265954,-92.7152686285836,4,1,0,57,0,0
266130,-93.138227374629,4,1,0,57,0,0
266218,-93.3511571809444,4,1,0,57,0,0
266307,-93.5649752614205,4,1,0,57,0,0
266483,-93.9957401130581,4,1,0,57,0,0
266571,-94.2126133731036,4,1,0,57,0,0
266660,-94.4304897165197,4,1,0,57,0,0
266748,-94.6493761186373,4,1,0,57,0,0
266836,-94.8692796196121,4,1,0,55,0,0
267012,-95.3121664074176,4,1,0,55,0,0
267101,-95.5351641055281,4,1,0,55,0,0
267189,-95.759207726619,4,1,0,55,0,0
267365,-96.2104623105135,4,1,0,55,0,0
267542,-96.6659900047366,4,1,0,55,0,0
267630,-96.8953752806332,4,1,0,55,0,0
267718,-97.1258517937202,4,1,0,55,0,0
267895,-97.5901098279096,4,1,0,55,0,0
267983,-97.8239071846769,4,1,0,55,0,0
268071,-98.0588274517649,4,1,0,55,0,0
268160,-98.2948787385228,4,1,0,55,0,0
268248,-98.5320692325731,4,1,0,52,0,0
268424,-99.009900990099,4,1,0,52,0,0
268512,-99.2505590287737,4,1,0,52,0,0
268601,-99.4923898271021,4,1,0,52,0,0
268777,-99.9796041607512,4,1,0,52,0,0
268954,-100,4,1,0,70,0,0
269042,-96.9999844800025,4,1,0,70,0,0
269130,-94.1747280233855,4,1,0,70,0,0
269218,-91.5093925240487,4,1,0,70,0,0
269307,-88.9908526302581,4,1,0,70,0,0
269395,-86.6071560028719,4,1,0,70,0,0
269483,-84.3478268204159,4,1,0,70,0,0
269571,-82.2033793809263,4,1,0,70,0,0
269660,-80.165268717989,4,1,0,100,0,0
269748,-80.165268717989,4,1,0,20,0,0
270895,-100,4,1,0,70,0,0
271071,-100,4,1,0,50,0,0
271424,-133.333333333333,4,1,0,50,0,0
275307,-133.333333333333,4,1,0,50,0,0
275660,-114.285714285714,4,1,0,50,0,0
276012,-100,4,1,0,50,0,0
276718,-133.333333333333,4,1,0,50,0,0
281836,-133.333333333333,4,1,0,50,0,0
281924,-126.315736288111,4,1,0,50,0,0
282013,-120.000048000019,4,1,0,50,0,0
282101,-114.285714285714,4,1,0,50,0,0
282189,-109.090869421502,4,1,0,50,0,0
282277,-104.347862381865,4,1,0,50,0,0
282365,-100,4,1,0,70,0,0
288277,-100,4,1,0,70,0,0
288365,-99.4485577472913,4,1,0,70,0,0
288542,-98.3636227715721,4,1,0,70,0,0
288718,-97.3021992243069,4,1,0,70,0,0
288983,-95.7522391661129,4,1,0,70,0,0
289071,-95.2464406405133,4,1,0,70,0,0
289248,-94.2508845445514,4,1,0,70,0,0
289336,-93.7608704009121,4,1,0,70,0,0
289424,-93.2758381067243,4,1,0,70,0,0
289689,-91.8505591402788,4,1,0,70,0,0
289777,-91.3851243294616,4,1,0,70,0,0
289954,-90.4682637330824,4,1,0,70,0,0
290130,-89.5695377584865,4,1,0,70,0,0
290395,-88.2544764876836,4,1,0,70,0,0
290483,-87.8246878710593,4,1,0,70,0,0
290660,-86.9774719649864,4,1,0,70,0,0
290718,-86.698687381873,4,1,0,70,0,0
290777,-86.421758924775,4,1,0,70,0,0
290836,-86.1465197236764,4,1,0,70,0,0
291012,-85.3312216700344,4,1,0,70,0,0
291189,-84.5312824917117,4,1,0,70,0,0
291365,-83.7461319755294,4,1,0,70,0,0
291454,-83.359035702675,4,1,0,70,0,0
291542,-82.9754326339058,4,1,0,70,0,0
291718,-82.2188567303534,4,1,0,70,0,0
291895,-81.4758868039209,4,1,0,70,0,0
291983,-81.109447466222,4,1,0,70,0,0
292071,-80.7462895061315,4,1,0,70,0,0
292130,-80.5059638818044,4,1,0,70,0,0
292189,-80.2670645772615,4,1,0,70,0,0
292248,-80.0295789323734,4,1,0,70,0,0
292954,-100,4,1,0,50,0,0

[HitObjects]
472,311,13,5,4,0:0:0:0:
454,331,365,1,8,0:0:0:0:
454,331,718,1,0,0:0:0:0:
454,331,1071,1,8,0:0:0:0:
454,331,1424,1,0,0:0:0:0:
454,331,1777,1,8,0:0:0:0:
469,349,2130,1,0,0:0:0:0:
469,349,2483,1,8,0:0:0:0:
378,242,2836,1,0,0:0:0:0:
471,346,3189,1,8,0:0:0:0:
471,346,3542,1,0,0:0:0:0:
471,346,3895,1,8,0:0:0:0:
471,346,4248,1,0,0:0:0:0:
471,346,4601,1,8,0:0:0:0:
471,346,4954,1,0,0:0:0:0:
469,311,5042,1,0,0:0:0:0:
469,311,5130,1,8,0:0:0:0:
434,303,5218,1,0,0:0:0:0:
493,345,5307,1,8,0:0:0:0:
484,311,5395,1,8,0:0:0:0:
484,311,5483,1,0,0:0:0:0:
450,301,5571,1,0,0:0:0:0:
450,298,5660,1,0,0:0:0:0:
484,310,6012,1,8,0:0:0:0:
484,310,6365,1,0,0:0:0:0:
485,333,6718,1,8,0:0:0:0:
485,333,7071,1,0,0:0:0:0:
486,355,7424,1,8,0:0:0:0:
486,355,7777,1,0,0:0:0:0:
486,355,8130,1,8,0:0:0:0:
493,380,8483,1,0,0:0:0:0:
368,316,8836,1,8,0:0:0:0:
235,271,9189,1,0,0:0:0:0:
356,341,9542,1,8,0:0:0:0:
249,250,9895,1,0,0:0:0:0:
352,343,10248,1,8,0:0:0:0:
352,343,10601,1,0,0:0:0:0:
384,329,10689,1,0,0:0:0:0:
417,319,10777,1,8,0:0:0:0:
451,323,10865,1,0,0:0:0:0:
488,355,10954,1,8,0:0:0:0:
488,355,11042,1,8,0:0:0:0:
472,323,11130,1,0,0:0:0:0:
467,326,11218,1,8,0:0:0:0:
477,359,11307,1,4,0:0:0:0:
472,323,11660,1,0,0:0:0:0:
458,352,11836,1,8,0:0:0:0:
472,323,12012,1,0,0:0:0:0:
472,323,12365,1,0,0:0:0:0:
470,349,12630,1,0,0:0:0:0:
470,349,12718,1,8,0:0:0:0:
470,349,12895,1,8,0:0:0:0:
470,349,13071,1,0,0:0:0:0:
503,336,13424,1,0,0:0:0:0:
503,336,13601,1,8,0:0:0:0:
503,336,13777,1,0,0:0:0:0:
503,336,14130,1,0,0:0:0:0:
500,301,14218,1,8,0:0:0:0:
500,301,14395,1,8,0:0:0:0:
500,301,14483,1,0,0:0:0:0:
429,297,14660,1,0,0:0:0:0:
472,351,14836,1,0,0:0:0:0:
503,336,14924,1,0,0:0:0:0:
503,336,15012,1,0,0:0:0:0:
481,325,15189,1,0,0:0:0:0:
481,325,15542,1,0,0:0:0:0:
490,349,15895,1,8,0:0:0:0:
476,369,16248,1,0,0:0:0:0:
476,369,16336,1,8,0:0:0:0:
476,369,16424,1,0,0:0:0:0:
476,369,16512,1,0,0:0:0:0:
476,369,16601,1,8,0:0:0:0:
476,369,16689,1,8,0:0:0:0:
476,369,16777,1,0,0:0:0:0:
476,369,16865,1,0,0:0:0:0:
477,333,16954,1,8,0:0:0:0:
477,333,17307,1,0,0:0:0:0:
477,333,17483,1,8,0:0:0:0:
477,333,17660,1,0,0:0:0:0:
500,344,18012,1,0,0:0:0:0:
500,344,18277,1,0,0:0:0:0:
500,344,18365,1,8,0:0:0:0:
500,344,18542,1,8,0:0:0:0:
431,356,18718,1,0,0:0:0:0:
484,353,18983,1,8,0:0:0:0:
484,353,19071,1,0,0:0:0:0:
501,284,19248,1,8,0:0:0:0:
480,350,19424,1,8,0:0:0:0:
480,350,19512,1,8,0:0:0:0:
480,350,19601,1,0,0:0:0:0:
480,350,19689,1,0,0:0:0:0:
480,350,19777,1,12,0:0:0:0:
256,192,20130,12,0,21542,0:0:0:0:
327,268,21895,5,0,0:0:0:0:
344,252,21954,1,0,0:0:0:0:
362,238,22012,1,0,0:0:0:0:
382,226,22071,1,8,0:0:0:0:
346,228,22160,1,8,0:0:0:0:
311,226,22248,1,0,0:0:0:0:
338,248,22336,1,8,0:0:0:0:
306,249,22424,1,0,0:0:0:0:
440,289,22512,1,0,0:0:0:0:
468,309,22601,1,12,0:0:0:0:
404,279,22777,1,0,0:0:0:0:
372,263,22865,1,0,0:0:0:0:
339,248,22954,1,8,0:0:0:0:
393,291,23130,1,8,0:0:0:0:
419,313,23218,1,0,0:0:0:0:
445,336,23307,1,8,0:0:0:0:
459,351,23483,1,0,0:0:0:0:
459,351,23571,1,0,0:0:0:0:
459,351,23660,1,8,0:0:0:0:
459,351,23748,1,0,0:0:0:0:
459,351,23836,1,0,0:0:0:0:
459,351,23924,1,0,0:0:0:0:
459,351,24012,1,8,0:0:0:0:
475,369,24189,1,8,0:0:0:0:
475,369,24277,1,8,0:0:0:0:
475,369,24365,1,8,0:0:0:0:
475,369,24542,1,8,0:0:0:0:
475,369,24630,1,8,0:0:0:0:
475,369,24718,1,0,0:0:0:0:
459,351,24895,1,8,0:0:0:0:
475,369,24983,1,0,0:0:0:0:
475,369,25071,1,8,0:0:0:0:
475,369,25160,1,8,0:0:0:0:
475,369,25248,1,0,0:0:0:0:
475,369,25336,1,0,0:0:0:0:
438,355,25424,1,8,0:0:0:0:
475,369,25601,1,8,0:0:0:0:
475,369,25689,1,0,0:0:0:0:
459,351,25777,1,8,0:0:0:0:
494,301,25954,1,0,0:0:0:0:
460,290,26042,1,8,0:0:0:0:
486,335,26130,1,0,0:0:0:0:
459,351,26307,1,0,0:0:0:0:
459,351,26395,1,0,0:0:0:0:
459,351,26483,1,8,0:0:0:0:
475,369,26571,1,8,0:0:0:0:
475,369,26660,1,0,0:0:0:0:
459,351,26748,1,0,0:0:0:0:
459,351,26836,1,8,0:0:0:0:
486,335,27012,1,0,0:0:0:0:
486,335,27101,1,0,0:0:0:0:
486,335,27189,1,8,0:0:0:0:
459,351,27365,1,0,0:0:0:0:
459,351,27454,1,8,0:0:0:0:
475,369,27542,1,0,0:0:0:0:
475,369,27630,1,0,0:0:0:0:
475,369,27718,1,8,0:0:0:0:
475,369,27807,1,0,0:0:0:0:
475,369,27895,1,8,0:0:0:0:
459,351,28071,1,8,0:0:0:0:
459,351,28160,1,0,0:0:0:0:
459,351,28248,1,0,0:0:0:0:
475,369,28424,1,0,0:0:0:0:
475,369,28512,1,0,0:0:0:0:
475,369,28601,1,8,0:0:0:0:
475,369,28689,1,8,0:0:0:0:
475,369,28777,1,0,0:0:0:0:
475,369,28954,1,8,0:0:0:0:
475,369,29042,1,0,0:0:0:0:
475,369,29130,1,8,0:0:0:0:
475,369,29218,1,8,0:0:0:0:
475,369,29307,1,0,0:0:0:0:
475,369,29483,1,0,0:0:0:0:
475,369,29571,1,8,0:0:0:0:
475,369,29660,1,8,0:0:0:0:
475,369,29836,1,0,0:0:0:0:
475,369,29924,1,8,0:0:0:0:
475,369,30012,1,0,0:0:0:0:
475,369,30189,1,8,0:0:0:0:
475,369,30365,1,0,0:0:0:0:
475,369,30454,1,8,0:0:0:0:
475,369,30542,1,0,0:0:0:0:
475,369,30630,1,0,0:0:0:0:
475,369,30718,1,8,0:0:0:0:
475,369,30895,1,0,0:0:0:0:
475,369,30983,1,0,0:0:0:0:
475,369,31071,1,8,0:0:0:0:
507,306,31248,1,8,0:0:0:0:
493,337,31336,1,0,0:0:0:0:
493,337,31424,1,8,0:0:0:0:
493,337,31512,1,0,0:0:0:0:
493,337,31601,1,0,0:0:0:0:
475,369,31777,1,0,0:0:0:0:
475,369,31865,1,0,0:0:0:0:
475,369,31954,1,0,0:0:0:0:
475,369,32042,1,8,0:0:0:0:
475,369,32130,1,0,0:0:0:0:
475,369,32307,1,0,0:0:0:0:
475,369,32395,1,8,0:0:0:0:
475,369,32483,1,8,0:0:0:0:
475,369,32660,1,8,0:0:0:0:
475,369,32748,1,0,0:0:0:0:
475,369,32836,1,8,0:0:0:0:
475,369,32924,1,8,0:0:0:0:
475,369,33012,1,0,0:0:0:0:
475,369,33189,1,8,0:0:0:0:
475,369,33277,1,0,0:0:0:0:
475,369,33365,1,8,0:0:0:0:
475,369,33454,1,8,0:0:0:0:
475,369,33542,1,0,0:0:0:0:
475,369,33630,1,8,0:0:0:0:
475,369,33718,1,8,0:0:0:0:
455,339,33807,1,0,0:0:0:0:
455,339,33895,1,8,0:0:0:0:
475,369,34160,1,0,0:0:0:0:
475,369,34248,1,8,0:0:0:0:
475,369,34424,1,0,0:0:0:0:
455,339,34601,1,0,0:0:0:0:
455,339,34689,1,0,0:0:0:0:
455,339,34777,1,8,0:0:0:0:
455,339,34954,1,0,0:0:0:0:
475,369,35130,1,0,0:0:0:0:
475,369,35218,1,8,0:0:0:0:
475,369,35307,1,8,0:0:0:0:
412,337,35483,1,8,0:0:0:0:
446,341,35571,1,0,0:0:0:0:
480,348,35660,1,0,0:0:0:0:
475,369,35836,1,0,0:0:0:0:
480,348,36012,1,0,0:0:0:0:
480,348,36101,1,8,0:0:0:0:
480,348,36189,1,8,0:0:0:0:
480,348,36277,1,0,0:0:0:0:
480,348,36365,1,8,0:0:0:0:
480,348,36542,1,0,0:0:0:0:
473,278,36718,1,8,0:0:0:0:
474,313,36807,1,8,0:0:0:0:
474,313,36895,1,0,0:0:0:0:
474,313,36983,1,8,0:0:0:0:
472,347,37071,1,8,0:0:0:0:
480,348,37248,1,0,0:0:0:0:
466,364,37424,1,0,0:0:0:0:
466,364,37512,1,0,0:0:0:0:
466,364,37601,1,0,0:0:0:0:
466,364,37689,1,8,0:0:0:0:
466,364,37777,1,8,0:0:0:0:
466,364,37954,1,0,0:0:0:0:
466,364,38042,1,0,0:0:0:0:
466,364,38130,1,8,0:0:0:0:
466,364,38307,1,0,0:0:0:0:
466,364,38395,1,8,0:0:0:0:
466,364,38483,1,8,0:0:0:0:
466,364,38660,1,0,0:0:0:0:
466,364,38836,1,0,0:0:0:0:
466,364,38924,1,8,0:0:0:0:
466,364,39012,1,0,0:0:0:0:
466,364,39101,1,0,0:0:0:0:
466,364,39189,1,8,0:0:0:0:
476,294,39365,1,0,0:0:0:0:
479,270,39424,1,0,0:0:0:0:
483,246,39483,1,0,0:0:0:0:
486,222,39542,1,8,0:0:0:0:
482,291,39718,1,0,0:0:0:0:
483,326,39807,1,0,0:0:0:0:
483,326,39895,1,8,0:0:0:0:
479,346,40071,1,8,0:0:0:0:
483,326,40248,1,0,0:0:0:0:
483,326,40424,1,8,0:0:0:0:
483,326,40512,1,0,0:0:0:0:
483,326,40601,1,8,0:0:0:0:
479,346,40777,1,8,0:0:0:0:
479,346,40865,1,0,0:0:0:0:
479,346,40954,1,0,0:0:0:0:
466,364,41130,1,0,0:0:0:0:
466,364,41307,1,8,0:0:0:0:
466,364,41395,1,0,0:0:0:0:
466,364,41483,1,0,0:0:0:0:
466,364,41571,1,0,0:0:0:0:
466,364,41660,1,8,0:0:0:0:
471,294,41836,1,8,0:0:0:0:
473,246,41924,1,0,0:0:0:0:
474,223,42012,1,8,0:0:0:0:
481,153,42189,1,0,0:0:0:0:
484,129,42248,1,0,0:0:0:0:
484,129,42307,1,0,0:0:0:0:
484,129,42365,1,8,0:0:0:0:
486,199,42542,1,0,0:0:0:0:
488,268,42718,1,8,0:0:0:0:
474,336,42895,1,0,0:0:0:0:
481,301,42983,1,0,0:0:0:0:
481,301,43071,1,8,0:0:0:0:
474,336,43248,1,0,0:0:0:0:
474,336,43336,1,0,0:0:0:0:
481,301,43424,1,8,0:0:0:0:
481,301,43512,1,0,0:0:0:0:
504,327,43601,1,8,0:0:0:0:
504,327,43689,1,8,0:0:0:0:
504,327,43777,1,0,0:0:0:0:
470,317,43865,1,8,0:0:0:0:
474,336,43954,1,8,0:0:0:0:
474,336,44042,1,8,0:0:0:0:
474,336,44130,1,0,0:0:0:0:
474,336,44218,1,8,0:0:0:0:
474,336,44307,1,8,0:0:0:0:
481,301,44395,1,0,0:0:0:0:
481,301,44483,1,8,0:0:0:0:
474,336,44571,1,0,0:0:0:0:
474,336,44660,1,8,0:0:0:0:
470,317,44748,1,0,0:0:0:0:
481,301,44836,1,8,0:0:0:0:
474,336,44924,1,0,0:0:0:0:
474,336,45012,1,0,0:0:0:0:
474,336,45101,1,0,0:0:0:0:
474,336,45189,1,12,0:0:0:0:
321,250,45718,1,0,0:0:0:0:
494,368,46248,1,0,0:0:0:0:
465,348,46336,1,0,0:0:0:0:
465,348,46424,1,8,0:0:0:0:
465,348,46512,1,8,0:0:0:0:
465,348,46601,1,8,0:0:0:0:
465,348,47130,1,0,0:0:0:0:
465,348,47483,1,0,0:0:0:0:
465,348,47571,1,0,0:0:0:0:
465,348,47660,1,8,0:0:0:0:
465,348,47748,1,0,0:0:0:0:
465,348,47836,1,0,0:0:0:0:
465,348,47924,1,0,0:0:0:0:
465,348,48012,1,8,0:0:0:0:
465,348,48542,1,0,0:0:0:0:
465,348,49071,1,0,0:0:0:0:
465,348,49160,1,8,0:0:0:0:
465,348,49248,1,0,0:0:0:0:
465,348,49336,1,0,0:0:0:0:
465,348,49424,1,8,0:0:0:0:
465,348,49954,1,0,0:0:0:0:
465,348,50307,1,0,0:0:0:0:
465,348,50395,1,0,0:0:0:0:
465,348,50483,1,8,0:0:0:0:
465,348,50571,1,8,0:0:0:0:
469,383,50660,1,0,0:0:0:0:
469,383,50748,1,0,0:0:0:0:
469,383,50836,1,8,0:0:0:0:
465,348,51365,1,0,0:0:0:0:
465,348,51895,1,0,0:0:0:0:
465,348,51983,1,0,0:0:0:0:
465,348,52071,1,0,0:0:0:0:
465,348,52160,1,0,0:0:0:0:
465,348,52248,1,8,0:0:0:0:
465,348,52777,1,0,0:0:0:0:
465,348,53130,1,0,0:0:0:0:
465,348,53218,1,8,0:0:0:0:
465,348,53307,1,0,0:0:0:0:
465,348,53395,1,0,0:0:0:0:
465,348,53483,1,8,0:0:0:0:
465,348,53571,1,8,0:0:0:0:
484,377,53660,1,8,0:0:0:0:
484,377,54189,1,0,0:0:0:0:
492,167,54718,1,0,0:0:0:0:
490,202,54807,1,8,0:0:0:0:
488,236,54895,1,8,0:0:0:0:
487,270,54983,1,8,0:0:0:0:
486,304,55071,1,8,0:0:0:0:
486,304,55336,1,8,0:0:0:0:
486,304,55601,1,0,0:0:0:0:
473,359,55954,1,0,0:0:0:0:
473,359,56042,1,0,0:0:0:0:
473,359,56130,1,8,0:0:0:0:
473,359,56218,1,8,0:0:0:0:
473,359,56307,1,0,0:0:0:0:
473,359,56395,1,8,0:0:0:0:
473,359,56483,1,8,0:0:0:0:
473,359,57012,1,0,0:0:0:0:
473,359,57542,1,0,0:0:0:0:
473,359,57630,1,0,0:0:0:0:
473,359,57718,1,0,0:0:0:0:
473,359,57807,1,8,0:0:0:0:
473,359,57895,1,8,0:0:0:0:
473,359,58424,1,0,0:0:0:0:
491,352,58777,1,0,0:0:0:0:
491,352,58865,1,8,0:0:0:0:
491,352,58954,1,8,0:0:0:0:
473,359,59042,1,0,0:0:0:0:
473,359,59130,1,0,0:0:0:0:
473,359,59218,1,8,0:0:0:0:
473,359,59307,1,8,0:0:0:0:
491,352,59836,1,0,0:0:0:0:
478,370,60365,1,0,0:0:0:0:
478,370,60454,1,8,0:0:0:0:
478,370,60542,1,8,0:0:0:0:
478,370,60630,1,0,0:0:0:0:
478,370,60718,1,8,0:0:0:0:
478,370,61248,1,8,0:0:0:0:
478,370,61601,1,0,0:0:0:0:
478,370,61689,1,8,0:0:0:0:
478,370,61777,1,8,0:0:0:0:
478,370,61865,1,8,0:0:0:0:
478,370,61954,1,0,0:0:0:0:
478,370,62042,1,0,0:0:0:0:
478,370,62130,1,8,0:0:0:0:
478,370,62660,1,8,0:0:0:0:
400,175,63189,1,8,0:0:0:0:
412,207,63277,1,8,0:0:0:0:
424,239,63365,1,0,0:0:0:0:
437,271,63454,1,0,0:0:0:0:
478,370,63542,1,8,0:0:0:0:
478,370,64071,1,8,0:0:0:0:
478,370,64424,1,8,0:0:0:0:
478,370,64512,1,0,0:0:0:0:
478,370,64601,1,8,0:0:0:0:
478,370,64689,1,8,0:0:0:0:
478,370,64777,1,0,0:0:0:0:
478,370,64865,1,0,0:0:0:0:
478,370,64954,1,8,0:0:0:0:
489,342,65483,1,8,0:0:0:0:
470,350,65836,1,0,0:0:0:0:
470,350,66012,1,0,0:0:0:0:
470,350,66101,1,0,0:0:0:0:
470,350,66189,1,8,0:0:0:0:
470,350,66277,1,8,0:0:0:0:
470,350,66365,1,8,0:0:0:0:
497,300,66630,1,8,0:0:0:0:
497,300,66895,1,0,0:0:0:0:
470,350,67071,1,0,0:0:0:0:
470,350,67160,1,0,0:0:0:0:
484,381,67248,1,8,0:0:0:0:
484,381,67336,1,8,0:0:0:0:
470,350,67424,1,8,0:0:0:0:
470,350,67512,1,8,0:0:0:0:
470,350,67601,1,0,0:0:0:0:
470,350,67777,1,4,0:0:0:0:
470,350,68042,1,0,0:0:0:0:
470,350,68307,1,0,0:0:0:0:
470,350,68571,1,0,0:0:0:0:
503,363,69189,1,0,0:0:0:0:
503,363,69454,1,0,0:0:0:0:
508,330,69718,1,0,0:0:0:0:
508,330,69983,1,0,0:0:0:0:
450,164,70424,1,0,0:0:0:0:
461,196,70512,1,0,0:0:0:0:
461,196,70601,1,0,0:0:0:0:
477,299,70865,1,0,0:0:0:0:
481,322,71130,1,0,0:0:0:0:
481,322,71395,1,0,0:0:0:0:
478,367,72012,1,0,0:0:0:0:
478,367,72277,1,0,0:0:0:0:
478,367,72542,1,0,0:0:0:0:
478,367,72807,1,0,0:0:0:0:
454,325,73071,1,0,0:0:0:0:
478,367,73248,1,0,0:0:0:0:
478,367,73336,1,0,0:0:0:0:
478,367,73424,1,0,0:0:0:0:
478,367,73689,1,0,0:0:0:0:
478,367,73954,1,0,0:0:0:0:
478,367,74218,1,0,0:0:0:0:
478,367,74836,1,0,0:0:0:0:
478,367,75101,1,0,0:0:0:0:
478,367,75365,1,0,0:0:0:0:
494,356,75630,1,0,0:0:0:0:
121,141,76071,1,0,0:0:0:0:
130,139,76160,1,0,0:0:0:0:
129,139,76248,1,0,0:0:0:0:
480,213,76512,1,0,0:0:0:0:
488,317,76777,1,0,0:0:0:0:
488,317,77042,1,0,0:0:0:0:
500,336,77660,1,0,0:0:0:0:
500,336,77924,1,0,0:0:0:0:
500,336,78189,1,0,0:0:0:0:
500,336,78454,1,0,0:0:0:0:
467,349,78542,1,0,0:0:0:0:
467,349,78630,1,8,0:0:0:0:
467,349,78718,1,0,0:0:0:0:
470,313,78807,1,8,0:0:0:0:
466,278,78895,1,8,0:0:0:0:
463,254,78954,1,8,0:0:0:0:
461,231,79012,1,8,0:0:0:0:
463,207,79071,1,0,0:0:0:0:
467,349,79336,1,0,0:0:0:0:
467,349,79424,1,8,0:0:0:0:
467,349,79601,1,0,0:0:0:0:
467,349,79777,1,0,0:0:0:0:
467,349,80042,1,0,0:0:0:0:
467,349,80130,1,8,0:0:0:0:
467,349,80307,1,0,0:0:0:0:
467,349,80395,1,0,0:0:0:0:
467,349,80483,1,0,0:0:0:0:
467,349,80748,1,0,0:0:0:0:
467,349,80836,1,8,0:0:0:0:
461,279,81012,1,0,0:0:0:0:
470,348,81189,1,0,0:0:0:0:
467,349,81454,1,0,0:0:0:0:
467,349,81542,1,8,0:0:0:0:
462,279,81718,1,0,0:0:0:0:
460,255,81777,1,0,0:0:0:0:
458,231,81836,1,0,0:0:0:0:
456,207,81895,1,0,0:0:0:0:
470,348,82160,1,0,0:0:0:0:
484,316,82248,1,8,0:0:0:0:
484,316,82424,1,0,0:0:0:0:
484,316,82601,1,0,0:0:0:0:
484,316,82865,1,0,0:0:0:0:
484,316,82954,1,8,0:0:0:0:
484,316,83130,1,0,0:0:0:0:
484,316,83218,1,0,0:0:0:0:
484,316,83307,1,0,0:0:0:0:
476,334,83571,1,0,0:0:0:0:
476,334,83660,1,8,0:0:0:0:
476,334,83836,1,0,0:0:0:0:
476,334,84012,1,0,0:0:0:0:
476,334,84277,1,0,0:0:0:0:
476,334,84365,1,8,0:0:0:0:
468,264,84542,1,0,0:0:0:0:
466,240,84601,1,0,0:0:0:0:
464,216,84660,1,0,0:0:0:0:
465,193,84718,1,0,0:0:0:0:
476,334,84895,1,0,0:0:0:0:
476,334,85071,1,0,0:0:0:0:
476,334,85248,1,0,0:0:0:0:
476,334,85424,1,0,0:0:0:0:
476,334,85601,1,0,0:0:0:0:
476,334,85777,1,0,0:0:0:0:
476,334,85954,1,0,0:0:0:0:
476,334,86042,1,8,0:0:0:0:
462,366,86130,1,0,0:0:0:0:
476,334,86307,1,0,0:0:0:0:
476,334,86483,1,0,0:0:0:0:
487,352,86660,1,0,0:0:0:0:
487,352,86836,1,0,0:0:0:0:
487,352,87012,1,0,0:0:0:0:
487,352,87189,1,0,0:0:0:0:
465,285,87365,1,0,0:0:0:0:
457,262,87424,1,0,0:0:0:0:
450,239,87483,1,0,0:0:0:0:
443,216,87542,1,8,0:0:0:0:
487,352,87630,1,8,0:0:0:0:
487,352,87718,1,0,0:0:0:0:
487,352,87807,1,0,0:0:0:0:
487,352,87895,1,8,0:0:0:0:
487,352,87983,1,0,0:0:0:0:
487,352,88071,1,0,0:0:0:0:
487,352,88160,1,0,0:0:0:0:
487,352,88248,1,8,0:0:0:0:
487,352,88336,1,0,0:0:0:0:
487,352,88424,1,0,0:0:0:0:
487,352,88512,1,0,0:0:0:0:
487,352,88601,1,8,0:0:0:0:
487,352,88689,1,8,0:0:0:0:
487,352,88777,1,8,0:0:0:0:
487,352,88865,1,8,0:0:0:0:
483,316,88954,1,0,0:0:0:0:
463,383,89130,1,0,0:0:0:0:
484,316,89307,1,8,0:0:0:0:
445,374,89483,1,0,0:0:0:0:
464,345,89571,1,0,0:0:0:0:
464,345,89660,1,8,0:0:0:0:
463,383,89836,1,0,0:0:0:0:
464,345,90012,1,8,0:0:0:0:
481,383,90101,1,8,0:0:0:0:
481,383,90189,1,0,0:0:0:0:
481,383,90277,1,0,0:0:0:0:
463,383,90365,1,12,0:0:0:0:
426,323,90542,1,8,0:0:0:0:
444,352,90630,1,0,0:0:0:0:
444,352,90718,1,8,0:0:0:0:
463,383,90895,1,0,0:0:0:0:
463,383,91071,1,0,0:0:0:0:
463,383,91160,1,0,0:0:0:0:
463,383,91248,1,8,0:0:0:0:
455,348,91336,1,0,0:0:0:0:
455,348,91424,1,8,0:0:0:0:
455,348,91601,1,0,0:0:0:0:
455,348,91777,1,0,0:0:0:0:
485,284,91954,1,0,0:0:0:0:
473,317,92042,1,8,0:0:0:0:
464,350,92130,1,0,0:0:0:0:
455,348,92307,1,8,0:0:0:0:
467,375,92483,1,8,0:0:0:0:
467,375,92571,1,0,0:0:0:0:
467,375,92660,1,8,0:0:0:0:
467,375,92748,1,8,0:0:0:0:
467,375,92836,1,0,0:0:0:0:
464,350,93012,1,8,0:0:0:0:
467,375,93189,1,0,0:0:0:0:
464,350,93365,1,0,0:0:0:0:
464,350,93454,1,8,0:0:0:0:
467,375,93542,1,8,0:0:0:0:
467,375,93718,1,8,0:0:0:0:
464,350,93895,1,0,0:0:0:0:
464,350,93983,1,8,0:0:0:0:
468,279,94160,1,8,0:0:0:0:
466,313,94248,1,0,0:0:0:0:
466,313,94336,1,0,0:0:0:0:
466,313,94424,1,0,0:0:0:0:
466,313,94512,1,0,0:0:0:0:
464,350,94601,1,8,0:0:0:0:
464,350,94777,1,8,0:0:0:0:
464,350,94865,1,8,0:0:0:0:
464,350,94954,1,0,0:0:0:0:
464,350,95130,1,0,0:0:0:0:
405,311,95307,1,4,0:0:0:0:
464,350,95660,1,12,0:0:0:0:
346,274,96012,1,12,0:0:0:0:
413,294,96189,1,0,0:0:0:0:
446,304,96277,1,0,0:0:0:0:
478,315,96365,1,8,0:0:0:0:
464,350,96542,1,8,0:0:0:0:
464,350,96718,1,8,0:0:0:0:
478,315,96807,1,8,0:0:0:0:
464,350,96895,1,0,0:0:0:0:
464,350,96983,1,0,0:0:0:0:
464,350,97071,1,8,0:0:0:0:
464,350,97248,1,0,0:0:0:0:
478,315,97424,1,0,0:0:0:0:
478,315,97512,1,8,0:0:0:0:
467,348,97601,1,0,0:0:0:0:
464,350,97689,1,0,0:0:0:0:
464,350,97777,1,8,0:0:0:0:
464,350,97954,1,8,0:0:0:0:
464,350,98130,1,8,0:0:0:0:
464,350,98218,1,0,0:0:0:0:
467,348,98307,1,8,0:0:0:0:
467,348,98395,1,0,0:0:0:0:
467,348,98483,1,0,0:0:0:0:
464,350,98660,1,8,0:0:0:0:
482,339,98836,1,0,0:0:0:0:
482,339,99012,1,0,0:0:0:0:
464,350,99101,1,8,0:0:0:0:
464,350,99189,1,8,0:0:0:0:
492,364,99365,1,8,0:0:0:0:
464,350,99542,1,0,0:0:0:0:
464,350,99630,1,0,0:0:0:0:
482,339,99718,1,8,0:0:0:0:
482,339,99807,1,8,0:0:0:0:
464,350,99895,1,0,0:0:0:0:
464,350,100248,1,4,0:0:0:0:
423,293,100424,1,0,0:0:0:0:
440,323,100512,1,0,0:0:0:0:
440,323,100601,1,8,0:0:0:0:
482,339,100777,1,8,0:0:0:0:
464,350,100865,1,8,0:0:0:0:
464,350,100954,1,0,0:0:0:0:
474,316,101042,1,0,0:0:0:0:
474,316,101130,1,8,0:0:0:0:
474,316,101218,1,0,0:0:0:0:
474,316,101307,1,8,0:0:0:0:
482,339,101483,1,8,0:0:0:0:
482,339,101660,1,4,0:0:0:0:
499,319,101836,1,8,0:0:0:0:
499,319,102012,1,0,0:0:0:0:
482,339,102189,1,8,0:0:0:0:
482,339,102277,1,0,0:0:0:0:
482,339,102365,1,0,0:0:0:0:
482,339,102542,1,8,0:0:0:0:
475,359,102718,1,0,0:0:0:0:
475,359,102895,1,0,0:0:0:0:
475,359,102983,1,8,0:0:0:0:
475,359,103071,1,8,0:0:0:0:
475,359,103160,1,0,0:0:0:0:
475,359,103248,1,8,0:0:0:0:
475,359,103336,1,0,0:0:0:0:
448,336,103424,1,0,0:0:0:0:
496,335,103601,1,8,0:0:0:0:
426,343,103777,1,0,0:0:0:0:
460,339,103865,1,8,0:0:0:0:
475,359,103954,1,8,0:0:0:0:
475,359,104042,1,0,0:0:0:0:
475,359,104130,1,0,0:0:0:0:
460,339,104307,1,8,0:0:0:0:
460,339,104395,1,0,0:0:0:0:
460,339,104483,1,0,0:0:0:0:
475,359,104660,1,0,0:0:0:0:
475,359,104748,1,8,0:0:0:0:
475,359,104836,1,8,0:0:0:0:
486,328,105012,1,8,0:0:0:0:
475,359,105189,1,0,0:0:0:0:
475,359,105277,1,8,0:0:0:0:
475,359,105365,1,0,0:0:0:0:
475,359,105454,1,0,0:0:0:0:
475,359,105542,1,8,0:0:0:0:
475,359,105718,1,0,0:0:0:0:
475,359,105807,1,0,0:0:0:0:
475,359,105895,1,8,0:0:0:0:
475,359,105983,1,0,0:0:0:0:
475,359,106071,1,8,0:0:0:0:
475,359,106160,1,8,0:0:0:0:
475,359,106248,1,0,0:0:0:0:
475,359,106424,1,0,0:0:0:0:
415,322,106601,1,4,0:0:0:0:
294,250,106954,1,12,0:0:0:0:
173,177,107307,1,12,0:0:0:0:
240,196,107483,1,0,0:0:0:0:
273,206,107571,1,0,0:0:0:0:
306,217,107660,1,8,0:0:0:0:
363,255,107836,1,8,0:0:0:0:
419,296,108012,1,0,0:0:0:0:
447,317,108101,1,8,0:0:0:0:
474,338,108189,1,8,0:0:0:0:
474,338,108277,1,0,0:0:0:0:
474,338,108365,1,8,0:0:0:0:
484,354,108542,1,0,0:0:0:0:
484,354,108630,1,0,0:0:0:0:
484,354,108718,1,8,0:0:0:0:
474,338,108807,1,0,0:0:0:0:
484,354,108895,1,8,0:0:0:0:
505,347,108983,1,8,0:0:0:0:
505,347,109071,1,0,0:0:0:0:
484,354,109248,1,8,0:0:0:0:
484,354,109424,1,8,0:0:0:0:
484,354,109512,1,0,0:0:0:0:
484,354,109601,1,0,0:0:0:0:
484,354,109689,1,8,0:0:0:0:
484,354,109777,1,0,0:0:0:0:
484,354,109954,1,8,0:0:0:0:
484,354,110042,1,0,0:0:0:0:
484,354,110130,1,0,0:0:0:0:
484,354,110395,1,0,0:0:0:0:
484,354,110483,1,8,0:0:0:0:
484,354,110660,1,0,0:0:0:0:
484,354,110924,1,0,0:0:0:0:
484,354,111012,1,8,0:0:0:0:
484,354,111101,1,8,0:0:0:0:
455,374,111189,1,0,0:0:0:0:
498,240,111542,1,4,0:0:0:0:
256,192,111630,12,0,112601,0:0:0:0:
483,340,112777,5,8,0:0:0:0:
483,340,112865,1,8,0:0:0:0:
474,305,112954,1,4,0:0:0:0:
469,374,113130,1,0,0:0:0:0:
469,374,113218,1,0,0:0:0:0:
469,374,113307,1,8,0:0:0:0:
469,374,113395,1,8,0:0:0:0:
469,374,113483,1,0,0:0:0:0:
469,374,113660,1,0,0:0:0:0:
496,351,113748,1,8,0:0:0:0:
496,351,113836,1,8,0:0:0:0:
496,351,113924,1,0,0:0:0:0:
496,351,114012,1,8,0:0:0:0:
427,353,114189,1,0,0:0:0:0:
495,338,114365,1,8,0:0:0:0:
462,352,114454,1,0,0:0:0:0:
462,352,114542,1,8,0:0:0:0:
462,352,114630,1,8,0:0:0:0:
462,352,114718,1,0,0:0:0:0:
462,352,114895,1,8,0:0:0:0:
482,359,115071,1,0,0:0:0:0:
482,359,115160,1,8,0:0:0:0:
482,359,115248,1,0,0:0:0:0:
462,352,115336,1,8,0:0:0:0:
490,380,115424,1,0,0:0:0:0:
426,349,115601,1,8,0:0:0:0:
394,333,115689,1,8,0:0:0:0:
362,318,115777,1,0,0:0:0:0:
482,359,115954,1,0,0:0:0:0:
482,359,116042,1,8,0:0:0:0:
482,359,116130,1,8,0:0:0:0:
482,359,116307,1,8,0:0:0:0:
482,359,116395,1,0,0:0:0:0:
482,359,116483,1,0,0:0:0:0:
482,359,116571,1,0,0:0:0:0:
482,359,116660,1,8,0:0:0:0:
482,359,116748,1,8,0:0:0:0:
482,359,116836,1,0,0:0:0:0:
482,359,116924,1,0,0:0:0:0:
482,359,117012,1,0,0:0:0:0:
482,359,117101,1,0,0:0:0:0:
482,359,117189,1,8,0:0:0:0:
482,359,117277,1,8,0:0:0:0:
482,359,117365,1,8,0:0:0:0:
482,359,117454,1,8,0:0:0:0:
482,359,117542,1,0,0:0:0:0:
482,359,117718,1,0,0:0:0:0:
482,359,117807,1,0,0:0:0:0:
482,359,117895,1,8,0:0:0:0:
482,359,117983,1,0,0:0:0:0:
482,359,118071,1,0,0:0:0:0:
482,359,118160,1,0,0:0:0:0:
482,359,118248,1,8,0:0:0:0:
482,359,118336,1,8,0:0:0:0:
482,359,118424,1,0,0:0:0:0:
482,359,118512,1,0,0:0:0:0:
456,334,118601,1,12,0:0:0:0:
493,323,118777,1,0,0:0:0:0:
493,323,118865,1,0,0:0:0:0:
493,323,118954,1,8,0:0:0:0:
493,323,119042,1,8,0:0:0:0:
493,323,119130,1,0,0:0:0:0:
432,357,119307,1,0,0:0:0:0:
463,342,119395,1,8,0:0:0:0:
463,342,119483,1,0,0:0:0:0:
463,342,119571,1,0,0:0:0:0:
463,342,119660,1,8,0:0:0:0:
484,356,119836,1,8,0:0:0:0:
484,356,119924,1,0,0:0:0:0:
484,356,120012,1,0,0:0:0:0:
454,336,120101,1,0,0:0:0:0:
484,356,120189,1,8,0:0:0:0:
484,356,120277,1,0,0:0:0:0:
463,342,120365,1,0,0:0:0:0:
463,342,120542,1,8,0:0:0:0:
484,356,120718,1,8,0:0:0:0:
484,356,120807,1,0,0:0:0:0:
484,356,120895,1,8,0:0:0:0:
484,356,120983,1,8,0:0:0:0:
484,356,121071,1,0,0:0:0:0:
484,356,121160,1,0,0:0:0:0:
484,356,121248,1,8,0:0:0:0:
414,364,121424,1,8,0:0:0:0:
463,342,121512,1,0,0:0:0:0:
463,342,121601,1,0,0:0:0:0:
463,342,121689,1,0,0:0:0:0:
456,376,121777,1,0,0:0:0:0:
456,376,121954,1,8,0:0:0:0:
484,356,122130,1,8,0:0:0:0:
484,356,122218,1,0,0:0:0:0:
484,356,122307,1,8,0:0:0:0:
484,356,122395,1,8,0:0:0:0:
484,356,122483,1,0,0:0:0:0:
484,356,122836,1,4,0:0:0:0:
419,329,123012,1,0,0:0:0:0:
447,349,123101,1,0,0:0:0:0:
354,300,123189,1,8,0:0:0:0:
484,356,123277,1,8,0:0:0:0:
484,356,123365,1,0,0:0:0:0:
447,349,123454,1,8,0:0:0:0:
462,289,123542,1,0,0:0:0:0:
447,349,123630,1,0,0:0:0:0:
460,358,123718,1,0,0:0:0:0:
460,358,123807,1,0,0:0:0:0:
460,358,123895,1,8,0:0:0:0:
457,288,124071,1,8,0:0:0:0:
447,349,124160,1,0,0:0:0:0:
447,349,124248,1,0,0:0:0:0:
447,349,124601,1,12,0:0:0:0:
447,349,124777,1,0,0:0:0:0:
447,349,124865,1,0,0:0:0:0:
447,349,124954,1,8,0:0:0:0:
447,349,125042,1,8,0:0:0:0:
447,349,125130,1,0,0:0:0:0:
460,358,125218,1,0,0:0:0:0:
460,358,125307,1,8,0:0:0:0:
460,358,125395,1,0,0:0:0:0:
460,358,125483,1,0,0:0:0:0:
460,358,125571,1,8,0:0:0:0:
460,358,125660,1,8,0:0:0:0:
460,358,125836,1,0,0:0:0:0:
460,358,125924,1,8,0:0:0:0:
460,358,126013,1,0,0:0:0:0:
460,358,126101,1,0,0:0:0:0:
460,358,126189,1,8,0:0:0:0:
460,358,126277,1,0,0:0:0:0:
460,358,126366,1,0,0:0:0:0:
460,358,126454,1,0,0:0:0:0:
460,358,126542,1,8,0:0:0:0:
460,358,126630,1,8,0:0:0:0:
460,358,126719,1,0,0:0:0:0:
460,358,126807,1,0,0:0:0:0:
469,376,126895,1,8,0:0:0:0:
438,359,126983,1,8,0:0:0:0:
407,342,127071,1,0,0:0:0:0:
473,318,127248,1,8,0:0:0:0:
473,318,127336,1,0,0:0:0:0:
473,318,127424,1,8,0:0:0:0:
489,348,127512,1,8,0:0:0:0:
489,348,127601,1,0,0:0:0:0:
489,348,127689,1,8,0:0:0:0:
489,348,127777,1,8,0:0:0:0:
489,348,127865,1,0,0:0:0:0:
489,348,127954,1,8,0:0:0:0:
489,348,128042,1,8,0:0:0:0:
489,348,128130,1,0,0:0:0:0:
489,348,128218,1,0,0:0:0:0:
489,348,128307,1,0,0:0:0:0:
489,348,128395,1,0,0:0:0:0:
489,348,128483,1,8,0:0:0:0:
426,316,128660,1,8,0:0:0:0:
394,300,128748,1,8,0:0:0:0:
362,284,128836,1,0,0:0:0:0:
454,354,129012,1,8,0:0:0:0:
467,285,129189,1,4,0:0:0:0:
465,320,129542,1,12,0:0:0:0:
465,320,129895,1,12,0:0:0:0:
463,352,130071,1,0,0:0:0:0:
463,352,130160,1,0,0:0:0:0:
463,352,130248,1,8,0:0:0:0:
463,352,130336,1,0,0:0:0:0:
463,352,130424,1,8,0:0:0:0:
463,352,130512,1,8,0:0:0:0:
463,352,130601,1,0,0:0:0:0:
463,352,130689,1,0,0:0:0:0:
463,352,130777,1,8,0:0:0:0:
463,352,130865,1,0,0:0:0:0:
463,352,130954,1,0,0:0:0:0:
463,352,131042,1,8,0:0:0:0:
463,352,131130,1,0,0:0:0:0:
463,352,131218,1,0,0:0:0:0:
463,352,131307,1,8,0:0:0:0:
463,352,131395,1,0,0:0:0:0:
463,352,131483,1,0,0:0:0:0:
463,352,131571,1,0,0:0:0:0:
463,352,131660,1,8,0:0:0:0:
463,352,131748,1,8,0:0:0:0:
463,352,131836,1,8,0:0:0:0:
463,352,131924,1,8,0:0:0:0:
431,336,132012,1,0,0:0:0:0:
399,321,132101,1,8,0:0:0:0:
367,306,132189,1,8,0:0:0:0:
335,291,132277,1,0,0:0:0:0:
302,277,132365,1,8,0:0:0:0:
269,263,132454,1,8,0:0:0:0:
236,249,132542,1,0,0:0:0:0:
267,263,132630,1,0,0:0:0:0:
463,352,132718,1,8,0:0:0:0:
465,373,132807,1,0,0:0:0:0:
465,373,132895,1,0,0:0:0:0:
465,373,132983,1,8,0:0:0:0:
465,373,133071,1,0,0:0:0:0:
465,373,133160,1,0,0:0:0:0:
465,373,133248,1,8,0:0:0:0:
465,373,133336,1,0,0:0:0:0:
465,373,133424,1,0,0:0:0:0:
465,373,133512,1,8,0:0:0:0:
465,373,133601,1,0,0:0:0:0:
463,352,133689,1,0,0:0:0:0:
463,352,133777,1,8,0:0:0:0:
410,306,133954,1,0,0:0:0:0:
396,287,134012,1,0,0:0:0:0:
382,267,134071,1,0,0:0:0:0:
369,247,134130,1,8,0:0:0:0:
334,239,134218,1,0,0:0:0:0:
299,231,134307,1,8,0:0:0:0:
264,228,134395,1,0,0:0:0:0:
229,225,134483,1,0,0:0:0:0:
194,226,134571,1,8,0:0:0:0:
195,190,134660,1,0,0:0:0:0:
198,155,134748,1,0,0:0:0:0:
202,120,134836,1,8,0:0:0:0:
202,120,134924,1,0,0:0:0:0:
444,300,135012,1,0,0:0:0:0:
414,280,135101,1,0,0:0:0:0:
414,280,135189,1,8,0:0:0:0:
414,280,135277,1,8,0:0:0:0:
326,219,135365,1,0,0:0:0:0:
301,193,135454,1,0,0:0:0:0:
326,219,135542,1,12,0:0:0:0:
459,352,136071,1,0,0:0:0:0:
477,368,136601,1,0,0:0:0:0:
477,368,136689,1,0,0:0:0:0:
477,368,136777,1,8,0:0:0:0:
477,368,136865,1,8,0:0:0:0:
477,368,136954,1,8,0:0:0:0:
477,368,137483,1,0,0:0:0:0:
477,368,137836,1,0,0:0:0:0:
458,342,137924,1,8,0:0:0:0:
477,368,138012,1,8,0:0:0:0:
477,368,138101,1,8,0:0:0:0:
477,368,138189,1,0,0:0:0:0:
477,368,138277,1,0,0:0:0:0:
477,368,138365,1,8,0:0:0:0:
477,368,138895,1,0,0:0:0:0:
477,368,139424,1,0,0:0:0:0:
477,368,139512,1,8,0:0:0:0:
477,368,139601,1,0,0:0:0:0:
477,368,139689,1,8,0:0:0:0:
477,368,139777,1,8,0:0:0:0:
477,368,140307,1,0,0:0:0:0:
477,368,140660,1,0,0:0:0:0:
477,368,140748,1,0,0:0:0:0:
477,368,140836,1,8,0:0:0:0:
477,368,140924,1,0,0:0:0:0:
477,368,141012,1,8,0:0:0:0:
477,368,141101,1,0,0:0:0:0:
477,368,141189,1,8,0:0:0:0:
477,368,141718,1,0,0:0:0:0:
477,368,142248,1,0,0:0:0:0:
477,368,142336,1,0,0:0:0:0:
477,368,142424,1,8,0:0:0:0:
477,368,142512,1,8,0:0:0:0:
477,368,142601,1,8,0:0:0:0:
477,368,143130,1,0,0:0:0:0:
477,368,143483,1,0,0:0:0:0:
477,368,143571,1,0,0:0:0:0:
477,368,143660,1,8,0:0:0:0:
478,336,143748,1,8,0:0:0:0:
478,336,143836,1,8,0:0:0:0:
478,336,143924,1,0,0:0:0:0:
478,336,144012,1,8,0:0:0:0:
478,336,144542,1,0,0:0:0:0:
468,361,145071,1,0,0:0:0:0:
468,361,145160,1,8,0:0:0:0:
468,361,145248,1,8,0:0:0:0:
468,361,145336,1,8,0:0:0:0:
468,361,145424,1,8,0:0:0:0:
468,361,145689,1,8,0:0:0:0:
468,361,145954,1,0,0:0:0:0:
468,361,146307,1,0,0:0:0:0:
468,361,146395,1,8,0:0:0:0:
468,361,146483,1,8,0:0:0:0:
468,361,146571,1,0,0:0:0:0:
468,361,146660,1,0,0:0:0:0:
468,361,146748,1,8,0:0:0:0:
468,361,146836,1,8,0:0:0:0:
468,361,147365,1,0,0:0:0:0:
468,361,147895,1,0,0:0:0:0:
468,361,147983,1,8,0:0:0:0:
468,361,148071,1,8,0:0:0:0:
468,361,148160,1,0,0:0:0:0:
468,361,148248,1,8,0:0:0:0:
468,361,148777,1,0,0:0:0:0:
468,361,149130,1,0,0:0:0:0:
468,361,149218,1,8,0:0:0:0:
444,340,149307,1,8,0:0:0:0:
444,340,149395,1,0,0:0:0:0:
468,361,149483,1,0,0:0:0:0:
444,340,149571,1,0,0:0:0:0:
444,340,149660,1,8,0:0:0:0:
493,350,150189,1,0,0:0:0:0:
307,315,150718,1,0,0:0:0:0:
307,315,150807,1,8,0:0:0:0:
307,315,150895,1,0,0:0:0:0:
307,315,150983,1,0,0:0:0:0:
307,315,151071,1,8,0:0:0:0:
491,357,151601,1,8,0:0:0:0:
453,369,151954,1,0,0:0:0:0:
453,369,152042,1,0,0:0:0:0:
453,369,152130,1,8,0:0:0:0:
446,338,152218,1,0,0:0:0:0:
446,338,152307,1,0,0:0:0:0:
450,337,152395,1,8,0:0:0:0:
453,369,152483,1,8,0:0:0:0:
446,338,153012,1,8,0:0:0:0:
446,338,153542,1,8,0:0:0:0:
446,338,153630,1,0,0:0:0:0:
446,338,153718,1,0,0:0:0:0:
446,338,153807,1,8,0:0:0:0:
446,338,153895,1,8,0:0:0:0:
470,364,154424,1,8,0:0:0:0:
498,241,154777,1,8,0:0:0:0:
491,271,154865,1,0,0:0:0:0:
485,302,154954,1,8,0:0:0:0:
482,333,155042,1,8,0:0:0:0:
482,333,155130,1,8,0:0:0:0:
482,333,155218,1,0,0:0:0:0:
482,333,155307,1,8,0:0:0:0:
474,364,155836,1,8,0:0:0:0:
474,364,156365,1,8,0:0:0:0:
474,364,156454,1,0,0:0:0:0:
474,364,156542,1,8,0:0:0:0:
474,364,156630,1,8,0:0:0:0:
474,364,156718,1,8,0:0:0:0:
474,364,156983,1,8,0:0:0:0:
474,364,157248,1,0,0:0:0:0:
475,301,157424,1,0,0:0:0:0:
475,279,157483,1,0,0:0:0:0:
475,257,157542,1,0,0:0:0:0:
476,235,157601,1,8,0:0:0:0:
475,266,157689,1,8,0:0:0:0:
473,297,157777,1,8,0:0:0:0:
474,364,157865,1,8,0:0:0:0:
474,364,157954,1,0,0:0:0:0:
474,364,158042,1,0,0:0:0:0:
463,334,158130,1,12,0:0:0:0:
474,364,158660,1,0,0:0:0:0:
474,364,159189,1,0,0:0:0:0:
474,364,159277,1,0,0:0:0:0:
474,364,159365,1,0,0:0:0:0:
474,364,159454,1,8,0:0:0:0:
474,364,159542,1,8,0:0:0:0:
506,353,160071,1,0,0:0:0:0:
474,364,160424,1,0,0:0:0:0:
474,364,160512,1,8,0:0:0:0:
502,376,160601,1,0,0:0:0:0:
474,364,160689,1,0,0:0:0:0:
502,376,160777,1,8,0:0:0:0:
502,376,160865,1,0,0:0:0:0:
502,376,160954,1,8,0:0:0:0:
474,364,161483,1,0,0:0:0:0:
474,364,162012,1,0,0:0:0:0:
474,364,162101,1,0,0:0:0:0:
474,364,162189,1,8,0:0:0:0:
474,364,162277,1,8,0:0:0:0:
474,364,162365,1,8,0:0:0:0:
474,364,162895,1,0,0:0:0:0:
474,364,163248,1,0,0:0:0:0:
474,364,163336,1,0,0:0:0:0:
474,364,163424,1,8,0:0:0:0:
474,364,163512,1,8,0:0:0:0:
474,364,163601,1,0,0:0:0:0:
474,364,163689,1,0,0:0:0:0:
474,364,163777,1,8,0:0:0:0:
474,364,164307,1,0,0:0:0:0:
474,364,164836,1,0,0:0:0:0:
474,364,164924,1,8,0:0:0:0:
474,364,165012,1,8,0:0:0:0:
474,364,165101,1,0,0:0:0:0:
474,364,165189,1,8,0:0:0:0:
474,364,165718,1,0,0:0:0:0:
474,364,166071,1,0,0:0:0:0:
474,364,166160,1,8,0:0:0:0:
474,364,166248,1,8,0:0:0:0:
474,364,166336,1,8,0:0:0:0:
474,364,166424,1,0,0:0:0:0:
474,364,166512,1,8,0:0:0:0:
474,364,166601,1,8,0:0:0:0:
474,364,167130,1,0,0:0:0:0:
474,364,167660,1,0,0:0:0:0:
474,364,167748,1,8,0:0:0:0:
474,364,167836,1,8,0:0:0:0:
474,364,167924,1,8,0:0:0:0:
474,364,168012,1,8,0:0:0:0:
474,364,168277,1,8,0:0:0:0:
474,364,168542,1,0,0:0:0:0:
474,364,168895,1,0,0:0:0:0:
474,364,168983,1,8,0:0:0:0:
474,364,169071,1,8,0:0:0:0:
474,364,169160,1,0,0:0:0:0:
474,364,169248,1,0,0:0:0:0:
474,364,169336,1,8,0:0:0:0:
474,364,169424,1,8,0:0:0:0:
474,364,169601,1,0,0:0:0:0:
474,364,169777,1,8,0:0:0:0:
474,364,169954,1,0,0:0:0:0:
474,364,170042,1,8,0:0:0:0:
474,364,170307,1,0,0:0:0:0:
474,364,170483,1,0,0:0:0:0:
474,364,170571,1,0,0:0:0:0:
474,364,170660,1,8,0:0:0:0:
474,364,170748,1,8,0:0:0:0:
474,364,170836,1,8,0:0:0:0:
474,364,171012,1,0,0:0:0:0:
474,364,171189,1,8,0:0:0:0:
474,364,171365,1,0,0:0:0:0:
474,364,171454,1,8,0:0:0:0:
474,364,171718,1,0,0:0:0:0:
474,364,171807,1,0,0:0:0:0:
474,364,171895,1,8,0:0:0:0:
474,364,171983,1,0,0:0:0:0:
474,364,172071,1,8,0:0:0:0:
474,364,172160,1,8,0:0:0:0:
474,364,172248,1,8,0:0:0:0:
474,364,172424,1,0,0:0:0:0:
474,364,172601,1,8,0:0:0:0:
474,364,172777,1,0,0:0:0:0:
474,364,172865,1,8,0:0:0:0:
397,308,173130,1,0,0:0:0:0:
474,364,173307,1,0,0:0:0:0:
474,364,173395,1,8,0:0:0:0:
474,364,173483,1,8,0:0:0:0:
474,364,173571,1,0,0:0:0:0:
474,364,173660,1,8,0:0:0:0:
474,364,173836,1,0,0:0:0:0:
474,364,174013,1,8,0:0:0:0:
421,328,174189,1,8,0:0:0:0:
401,303,174277,1,0,0:0:0:0:
486,342,174542,1,0,0:0:0:0:
486,342,174630,1,8,0:0:0:0:
486,342,174718,1,8,0:0:0:0:
486,342,174807,1,8,0:0:0:0:
486,342,174895,1,0,0:0:0:0:
474,364,174983,1,0,0:0:0:0:
486,342,175071,1,8,0:0:0:0:
474,364,175248,1,0,0:0:0:0:
474,364,175425,1,8,0:0:0:0:
420,330,175601,1,8,0:0:0:0:
474,364,175689,1,8,0:0:0:0:
440,275,175954,1,0,0:0:0:0:
474,364,176130,1,8,0:0:0:0:
474,364,176218,1,0,0:0:0:0:
474,364,176307,1,0,0:0:0:0:
474,364,176395,1,0,0:0:0:0:
474,364,176483,1,8,0:0:0:0:
474,364,176660,1,0,0:0:0:0:
474,364,176837,1,8,0:0:0:0:
420,330,177013,1,8,0:0:0:0:
474,364,177101,1,8,0:0:0:0:
493,324,177365,1,8,0:0:0:0:
493,324,177454,1,0,0:0:0:0:
493,324,177542,1,8,0:0:0:0:
493,324,177630,1,8,0:0:0:0:
493,324,177718,1,0,0:0:0:0:
493,324,177807,1,0,0:0:0:0:
508,351,177895,1,8,0:0:0:0:
454,317,178071,1,0,0:0:0:0:
403,279,178248,1,8,0:0:0:0:
475,378,178424,1,8,0:0:0:0:
471,314,178601,1,8,0:0:0:0:
483,342,178689,1,0,0:0:0:0:
483,342,178777,1,0,0:0:0:0:
483,342,178865,1,0,0:0:0:0:
454,328,178954,1,8,0:0:0:0:
454,328,179042,1,8,0:0:0:0:
483,342,179130,1,0,0:0:0:0:
483,342,179218,1,0,0:0:0:0:
483,342,179307,1,0,0:0:0:0:
256,192,179395,12,8,180365,0:0:0:0:
175,203,180542,5,8,0:0:0:0:
204,213,180630,1,8,0:0:0:0:
235,215,180718,1,4,0:0:0:0:
315,265,180983,1,0,0:0:0:0:
394,316,181248,1,0,0:0:0:0:
471,369,181512,1,0,0:0:0:0:
235,215,182130,1,0,0:0:0:0:
315,265,182395,1,0,0:0:0:0:
394,316,182660,1,0,0:0:0:0:
471,369,182924,1,0,0:0:0:0:
351,266,183365,1,0,0:0:0:0:
327,244,183454,1,0,0:0:0:0:
235,215,183542,1,0,0:0:0:0:
315,265,183807,1,0,0:0:0:0:
394,316,184072,1,0,0:0:0:0:
471,369,184336,1,0,0:0:0:0:
235,215,184954,1,0,0:0:0:0:
315,265,185219,1,0,0:0:0:0:
394,316,185484,1,0,0:0:0:0:
471,369,185748,1,0,0:0:0:0:
471,369,186012,1,0,0:0:0:0:
471,369,186189,1,0,0:0:0:0:
471,369,186277,1,0,0:0:0:0:
235,215,186365,1,0,0:0:0:0:
315,265,186630,1,0,0:0:0:0:
394,316,186895,1,0,0:0:0:0:
471,369,187159,1,0,0:0:0:0:
235,215,187777,1,0,0:0:0:0:
315,265,188042,1,0,0:0:0:0:
394,316,188307,1,0,0:0:0:0:
471,369,188571,1,0,0:0:0:0:
500,214,189012,1,0,0:0:0:0:
494,245,189101,1,0,0:0:0:0:
235,215,189189,1,0,0:0:0:0:
315,265,189454,1,0,0:0:0:0:
394,316,189719,1,0,0:0:0:0:
471,369,189983,1,0,0:0:0:0:
235,215,190601,1,0,0:0:0:0:
315,265,190866,1,0,0:0:0:0:
394,316,191131,1,0,0:0:0:0:
471,369,191395,1,0,0:0:0:0:
448,347,191483,1,0,0:0:0:0:
424,326,191571,1,8,0:0:0:0:
471,369,191660,1,8,0:0:0:0:
460,339,191748,1,0,0:0:0:0:
474,306,191836,1,8,0:0:0:0:
479,285,191895,1,8,0:0:0:0:
484,264,191954,1,8,0:0:0:0:
484,264,192012,1,0,0:0:0:0:
448,347,192277,1,8,0:0:0:0:
460,339,192365,1,0,0:0:0:0:
460,339,192542,1,8,0:0:0:0:
460,339,192718,1,0,0:0:0:0:
462,358,192983,1,8,0:0:0:0:
462,358,193071,1,0,0:0:0:0:
462,358,193248,1,8,0:0:0:0:
462,358,193336,1,8,0:0:0:0:
462,358,193424,1,0,0:0:0:0:
462,358,193689,1,8,0:0:0:0:
462,358,193777,1,0,0:0:0:0:
462,358,193954,1,8,0:0:0:0:
462,358,194130,1,0,0:0:0:0:
476,336,194395,1,8,0:0:0:0:
476,336,194483,1,0,0:0:0:0:
480,273,194660,1,8,0:0:0:0:
483,252,194718,1,8,0:0:0:0:
487,231,194777,1,8,0:0:0:0:
487,231,194836,1,0,0:0:0:0:
448,347,195101,1,8,0:0:0:0:
460,339,195189,1,0,0:0:0:0:
460,339,195366,1,8,0:0:0:0:
460,339,195542,1,0,0:0:0:0:
462,358,195807,1,8,0:0:0:0:
462,358,195895,1,0,0:0:0:0:
462,358,196072,1,8,0:0:0:0:
462,358,196160,1,8,0:0:0:0:
462,358,196248,1,0,0:0:0:0:
462,358,196513,1,8,0:0:0:0:
462,358,196601,1,0,0:0:0:0:
462,358,196778,1,8,0:0:0:0:
462,358,196954,1,0,0:0:0:0:
476,336,197219,1,8,0:0:0:0:
476,336,197307,1,0,0:0:0:0:
480,273,197483,1,8,0:0:0:0:
483,252,197542,1,8,0:0:0:0:
487,231,197601,1,8,0:0:0:0:
487,231,197660,1,0,0:0:0:0:
476,336,197836,1,0,0:0:0:0:
476,336,198012,1,0,0:0:0:0:
476,336,198189,1,0,0:0:0:0:
476,336,198365,1,0,0:0:0:0:
476,336,198542,1,0,0:0:0:0:
476,336,198718,1,0,0:0:0:0:
476,336,198895,1,0,0:0:0:0:
476,336,198983,1,8,0:0:0:0:
476,336,199071,1,0,0:0:0:0:
476,336,199248,1,0,0:0:0:0:
476,336,199424,1,0,0:0:0:0:
476,336,199601,1,0,0:0:0:0:
476,336,199777,1,0,0:0:0:0:
476,336,199954,1,0,0:0:0:0:
476,336,200130,1,0,0:0:0:0:
474,363,200307,1,0,0:0:0:0:
476,336,200365,1,0,0:0:0:0:
476,336,200424,1,0,0:0:0:0:
476,336,200483,1,8,0:0:0:0:
482,305,200571,1,0,0:0:0:0:
482,305,200660,1,0,0:0:0:0:
482,305,200748,1,0,0:0:0:0:
482,305,200836,1,8,0:0:0:0:
482,305,200924,1,0,0:0:0:0:
482,305,201012,1,0,0:0:0:0:
482,305,201101,1,0,0:0:0:0:
482,305,201189,1,8,0:0:0:0:
494,333,201277,1,8,0:0:0:0:
494,333,201365,1,0,0:0:0:0:
494,333,201454,1,0,0:0:0:0:
494,333,201542,1,8,0:0:0:0:
494,333,201630,1,0,0:0:0:0:
494,333,201718,1,8,0:0:0:0:
494,333,201807,1,8,0:0:0:0:
494,333,201895,1,0,0:0:0:0:
456,314,202071,1,0,0:0:0:0:
456,314,202160,1,8,0:0:0:0:
456,314,202336,1,8,0:0:0:0:
456,314,202424,1,0,0:0:0:0:
464,345,202601,1,8,0:0:0:0:
463,383,202777,1,0,0:0:0:0:
464,345,202953,1,8,0:0:0:0:
463,383,203306,1,4,0:0:0:0:
411,345,203483,1,0,0:0:0:0:
385,326,203571,1,8,0:0:0:0:
456,314,203660,1,8,0:0:0:0:
427,301,203748,1,0,0:0:0:0:
464,345,203836,1,8,0:0:0:0:
464,345,203924,1,0,0:0:0:0:
464,345,204012,1,0,0:0:0:0:
464,345,204189,1,0,0:0:0:0:
464,345,204277,1,0,0:0:0:0:
405,322,204454,1,0,0:0:0:0:
375,310,204542,1,8,0:0:0:0:
345,298,204630,1,8,0:0:0:0:
345,298,204718,1,0,0:0:0:0:
375,305,204807,1,8,0:0:0:0:
464,345,204983,1,0,0:0:0:0:
464,345,205071,1,8,0:0:0:0:
464,345,205248,1,0,0:0:0:0:
464,345,205336,1,0,0:0:0:0:
464,345,205424,1,8,0:0:0:0:
464,345,205601,1,0,0:0:0:0:
464,345,205689,1,8,0:0:0:0:
464,345,205777,1,8,0:0:0:0:
435,331,205865,1,0,0:0:0:0:
407,314,205954,1,0,0:0:0:0:
464,345,206042,1,8,0:0:0:0:
466,373,206218,1,8,0:0:0:0:
466,373,206307,1,0,0:0:0:0:
444,313,206483,1,8,0:0:0:0:
444,313,206571,1,8,0:0:0:0:
435,331,206660,1,0,0:0:0:0:
435,331,206748,1,0,0:0:0:0:
435,331,206836,1,8,0:0:0:0:
464,345,207012,1,8,0:0:0:0:
464,345,207101,1,0,0:0:0:0:
464,345,207277,1,0,0:0:0:0:
464,345,207365,1,8,0:0:0:0:
464,345,207454,1,0,0:0:0:0:
464,345,207542,1,0,0:0:0:0:
464,345,207630,1,8,0:0:0:0:
464,345,207807,1,8,0:0:0:0:
442,321,207895,1,8,0:0:0:0:
464,345,207983,1,0,0:0:0:0:
439,325,208071,1,0,0:0:0:0:
436,330,208160,1,0,0:0:0:0:
408,315,208248,1,8,0:0:0:0:
464,345,208424,1,8,0:0:0:0:
464,345,208512,1,0,0:0:0:0:
464,345,208601,1,0,0:0:0:0:
464,345,208689,1,0,0:0:0:0:
464,345,208777,1,8,0:0:0:0:
464,345,208865,1,8,0:0:0:0:
464,345,208954,1,0,0:0:0:0:
435,331,209042,1,0,0:0:0:0:
406,316,209130,1,8,0:0:0:0:
464,345,209218,1,0,0:0:0:0:
435,331,209307,1,8,0:0:0:0:
464,345,209483,1,8,0:0:0:0:
464,345,209571,1,0,0:0:0:0:
464,345,209660,1,0,0:0:0:0:
464,345,209836,1,0,0:0:0:0:
464,345,209924,1,0,0:0:0:0:
464,345,210012,1,0,0:0:0:0:
464,345,210101,1,8,0:0:0:0:
464,345,210189,1,0,0:0:0:0:
464,345,210277,1,0,0:0:0:0:
464,345,210365,1,8,0:0:0:0:
464,345,210454,1,8,0:0:0:0:
461,365,210630,1,8,0:0:0:0:
461,365,210718,1,8,0:0:0:0:
434,348,210807,1,0,0:0:0:0:
407,330,210895,1,0,0:0:0:0:
464,345,210983,1,8,0:0:0:0:
351,299,211071,1,0,0:0:0:0:
464,345,211248,1,0,0:0:0:0:
464,345,211336,1,8,0:0:0:0:
464,345,211424,1,8,0:0:0:0:
455,321,211512,1,8,0:0:0:0:
440,292,211601,1,0,0:0:0:0:
455,321,211689,1,8,0:0:0:0:
464,345,211865,1,8,0:0:0:0:
464,345,211954,1,0,0:0:0:0:
484,336,212130,1,8,0:0:0:0:
484,336,212218,1,8,0:0:0:0:
484,336,212307,1,0,0:0:0:0:
484,336,212395,1,0,0:0:0:0:
484,336,212483,1,8,0:0:0:0:
484,336,212660,1,8,0:0:0:0:
484,336,212748,1,0,0:0:0:0:
484,336,212836,1,0,0:0:0:0:
464,345,212924,1,8,0:0:0:0:
436,330,213012,1,0,0:0:0:0:
408,314,213101,1,0,0:0:0:0:
469,368,213189,1,8,0:0:0:0:
469,368,213277,1,8,0:0:0:0:
417,331,213454,1,8,0:0:0:0:
390,313,213542,1,0,0:0:0:0:
363,295,213630,1,8,0:0:0:0:
336,277,213718,1,8,0:0:0:0:
309,259,213807,1,0,0:0:0:0:
366,283,213983,1,0,0:0:0:0:
395,294,214071,1,8,0:0:0:0:
423,307,214160,1,0,0:0:0:0:
460,349,214248,1,8,0:0:0:0:
460,349,214336,1,0,0:0:0:0:
451,320,214424,1,8,0:0:0:0:
460,349,214512,1,8,0:0:0:0:
479,334,214601,1,0,0:0:0:0:
479,334,214689,1,0,0:0:0:0:
479,334,214777,1,8,0:0:0:0:
481,362,214954,1,8,0:0:0:0:
460,349,215130,1,8,0:0:0:0:
460,349,215218,1,0,0:0:0:0:
460,349,215307,1,0,0:0:0:0:
481,362,215483,1,0,0:0:0:0:
481,362,215571,1,0,0:0:0:0:
481,362,215748,1,0,0:0:0:0:
481,362,215836,1,8,0:0:0:0:
481,362,215924,1,8,0:0:0:0:
481,362,216012,1,0,0:0:0:0:
460,349,216101,1,8,0:0:0:0:
460,349,216277,1,8,0:0:0:0:
481,362,216365,1,0,0:0:0:0:
481,362,216542,1,0,0:0:0:0:
481,362,216630,1,0,0:0:0:0:
481,362,216718,1,8,0:0:0:0:
481,362,216895,1,0,0:0:0:0:
481,362,216983,1,8,0:0:0:0:
460,349,217071,1,8,0:0:0:0:
500,369,217248,1,8,0:0:0:0:
481,362,217336,1,8,0:0:0:0:
481,362,217512,1,8,0:0:0:0:
481,362,217601,1,0,0:0:0:0:
481,362,217777,1,8,0:0:0:0:
481,362,217865,1,0,0:0:0:0:
481,362,217954,1,0,0:0:0:0:
481,362,218042,1,8,0:0:0:0:
481,362,218130,1,8,0:0:0:0:
481,362,218307,1,8,0:0:0:0:
481,362,218395,1,0,0:0:0:0:
481,362,218571,1,8,0:0:0:0:
481,362,218660,1,8,0:0:0:0:
481,362,218748,1,0,0:0:0:0:
481,362,218836,1,8,0:0:0:0:
481,362,218924,1,8,0:0:0:0:
467,377,219101,1,8,0:0:0:0:
467,377,219189,1,0,0:0:0:0:
467,377,219277,1,0,0:0:0:0:
467,377,219454,1,0,0:0:0:0:
467,377,219542,1,8,0:0:0:0:
467,377,219718,1,8,0:0:0:0:
467,377,219807,1,0,0:0:0:0:
467,377,219895,1,0,0:0:0:0:
467,377,219983,1,0,0:0:0:0:
467,377,220071,1,8,0:0:0:0:
467,377,220160,1,8,0:0:0:0:
467,377,220248,1,0,0:0:0:0:
467,377,220336,1,0,0:0:0:0:
467,377,220424,1,8,0:0:0:0:
467,377,220601,1,8,0:0:0:0:
467,377,220777,1,0,0:0:0:0:
467,377,220865,1,8,0:0:0:0:
467,377,220954,1,0,0:0:0:0:
467,377,221130,1,0,0:0:0:0:
467,377,221218,1,0,0:0:0:0:
467,377,221307,1,0,0:0:0:0:
467,377,221395,1,8,0:0:0:0:
467,377,221571,1,0,0:0:0:0:
467,377,221660,1,8,0:0:0:0:
467,377,221748,1,8,0:0:0:0:
467,377,221924,1,8,0:0:0:0:
467,377,222012,1,8,0:0:0:0:
467,377,222189,1,0,0:0:0:0:
467,377,222277,1,0,0:0:0:0:
467,377,222365,1,8,0:0:0:0:
467,377,222542,1,0,0:0:0:0:
467,377,222630,1,8,0:0:0:0:
467,377,222718,1,8,0:0:0:0:
467,377,222895,1,8,0:0:0:0:
467,377,222983,1,8,0:0:0:0:
449,350,223071,1,4,0:0:0:0:
506,322,223248,1,0,0:0:0:0:
477,336,223336,1,0,0:0:0:0:
477,336,223424,1,8,0:0:0:0:
470,273,223601,1,4,0:0:0:0:
408,260,223777,1,8,0:0:0:0:
477,336,223954,1,8,0:0:0:0:
477,336,224042,1,0,0:0:0:0:
468,363,224218,1,0,0:0:0:0:
428,313,224395,1,0,0:0:0:0:
459,307,224483,1,8,0:0:0:0:
449,337,224571,1,8,0:0:0:0:
479,345,224660,1,0,0:0:0:0:
421,319,224836,1,8,0:0:0:0:
451,312,224924,1,8,0:0:0:0:
482,313,225012,1,0,0:0:0:0:
482,313,225101,1,0,0:0:0:0:
476,282,225189,1,8,0:0:0:0:
471,261,225248,1,0,0:0:0:0:
467,240,225307,1,0,0:0:0:0:
464,219,225365,1,8,0:0:0:0:
464,250,225454,1,0,0:0:0:0:
468,281,225542,1,0,0:0:0:0:
482,313,225630,1,8,0:0:0:0:
463,338,225718,1,8,0:0:0:0:
444,363,225807,1,0,0:0:0:0:
444,363,225895,1,8,0:0:0:0:
386,336,226071,1,8,0:0:0:0:
356,323,226160,1,8,0:0:0:0:
327,310,226248,1,0,0:0:0:0:
268,287,226424,1,8,0:0:0:0:
208,266,226601,1,0,0:0:0:0:
177,258,226689,1,8,0:0:0:0:
177,258,226777,1,8,0:0:0:0:
444,363,226865,1,8,0:0:0:0:
177,258,226954,1,0,0:0:0:0:
177,258,227130,1,8,0:0:0:0:
444,363,227307,1,8,0:0:0:0:
444,363,227395,1,8,0:0:0:0:
444,363,227483,1,0,0:0:0:0:
444,363,227571,1,0,0:0:0:0:
444,363,227660,1,8,0:0:0:0:
444,363,227836,1,8,0:0:0:0:
444,363,227924,1,0,0:0:0:0:
444,363,228012,1,8,0:0:0:0:
444,363,228101,1,8,0:0:0:0:
444,363,228189,1,0,0:0:0:0:
473,372,228277,1,0,0:0:0:0:
473,372,228365,1,8,0:0:0:0:
473,372,228454,1,0,0:0:0:0:
473,372,228542,1,8,0:0:0:0:
473,372,228630,1,8,0:0:0:0:
473,372,228718,1,0,0:0:0:0:
473,372,228895,1,0,0:0:0:0:
473,372,228983,1,0,0:0:0:0:
473,372,229071,1,8,0:0:0:0:
473,372,229248,1,0,0:0:0:0:
473,372,229424,1,8,0:0:0:0:
473,372,229512,1,0,0:0:0:0:
473,372,229601,1,0,0:0:0:0:
473,372,229689,1,0,0:0:0:0:
473,372,229777,1,8,0:0:0:0:
473,372,229954,1,0,0:0:0:0:
473,372,230130,1,0,0:0:0:0:
473,372,230218,1,0,0:0:0:0:
473,372,230307,1,8,0:0:0:0:
473,372,230395,1,8,0:0:0:0:
473,372,230483,1,0,0:0:0:0:
447,314,230660,1,0,0:0:0:0:
460,342,230748,1,8,0:0:0:0:
460,342,230836,1,0,0:0:0:0:
460,342,230924,1,0,0:0:0:0:
473,372,231012,1,8,0:0:0:0:
473,372,231101,1,0,0:0:0:0:
473,372,231189,1,8,0:0:0:0:
473,372,231277,1,8,0:0:0:0:
473,372,231365,1,8,0:0:0:0:
473,372,231454,1,0,0:0:0:0:
473,372,231542,1,8,0:0:0:0:
420,337,231718,1,0,0:0:0:0:
393,319,231807,1,8,0:0:0:0:
393,319,231895,1,8,0:0:0:0:
393,319,231983,1,0,0:0:0:0:
393,319,232071,1,0,0:0:0:0:
393,319,232248,1,0,0:0:0:0:
393,319,232424,1,0,0:0:0:0:
393,319,232512,1,0,0:0:0:0:
393,319,232601,1,8,0:0:0:0:
473,372,232777,1,0,0:0:0:0:
473,372,232954,1,8,0:0:0:0:
418,341,233130,1,0,0:0:0:0:
390,325,233218,1,8,0:0:0:0:
446,355,233307,1,8,0:0:0:0:
446,355,233395,1,8,0:0:0:0:
446,355,233483,1,0,0:0:0:0:
473,372,233660,1,8,0:0:0:0:
473,372,233836,1,8,0:0:0:0:
473,372,233924,1,8,0:0:0:0:
473,372,234012,1,0,0:0:0:0:
446,355,234101,1,0,0:0:0:0:
413,349,234189,1,8,0:0:0:0:
473,372,234277,1,8,0:0:0:0:
473,372,234365,1,8,0:0:0:0:
473,372,234542,1,8,0:0:0:0:
473,372,234630,1,0,0:0:0:0:
473,372,234718,1,0,0:0:0:0:
473,372,234807,1,8,0:0:0:0:
473,372,234895,1,8,0:0:0:0:
473,372,235071,1,8,0:0:0:0:
473,372,235248,1,8,0:0:0:0:
473,372,235336,1,8,0:0:0:0:
473,372,235424,1,0,0:0:0:0:
473,372,235601,1,0,0:0:0:0:
473,372,235777,1,8,0:0:0:0:
473,372,235954,1,8,0:0:0:0:
473,372,236042,1,0,0:0:0:0:
473,372,236130,1,0,0:0:0:0:
473,372,236218,1,0,0:0:0:0:
473,372,236307,1,8,0:0:0:0:
473,372,236483,1,8,0:0:0:0:
473,372,236660,1,8,0:0:0:0:
473,372,236748,1,0,0:0:0:0:
473,372,236836,1,0,0:0:0:0:
473,372,236924,1,8,0:0:0:0:
473,372,237012,1,0,0:0:0:0:
473,372,237101,1,8,0:0:0:0:
473,372,237189,1,8,0:0:0:0:
473,372,237365,1,0,0:0:0:0:
473,372,237454,1,0,0:0:0:0:
473,372,237542,1,8,0:0:0:0:
473,372,237630,1,0,0:0:0:0:
473,372,237718,1,8,0:0:0:0:
473,372,237807,1,8,0:0:0:0:
473,372,237895,1,0,0:0:0:0:
473,372,237983,1,8,0:0:0:0:
473,372,238071,1,8,0:0:0:0:
473,372,238160,1,8,0:0:0:0:
473,372,238248,1,0,0:0:0:0:
473,372,238336,1,0,0:0:0:0:
473,372,238424,1,8,0:0:0:0:
473,372,238512,1,0,0:0:0:0:
473,372,238601,1,8,0:0:0:0:
444,315,238777,1,0,0:0:0:0:
473,372,238865,1,0,0:0:0:0:
473,372,238954,1,8,0:0:0:0:
473,372,239042,1,8,0:0:0:0:
473,372,239130,1,0,0:0:0:0:
473,372,239218,1,8,0:0:0:0:
473,372,239307,1,0,0:0:0:0:
473,372,239395,1,0,0:0:0:0:
473,372,239483,1,8,0:0:0:0:
473,372,239571,1,0,0:0:0:0:
473,372,239660,1,8,0:0:0:0:
473,372,239748,1,8,0:0:0:0:
473,372,239836,1,8,0:0:0:0:
473,372,239924,1,0,0:0:0:0:
473,372,240012,1,8,0:0:0:0:
426,328,240189,1,8,0:0:0:0:
448,349,240277,1,8,0:0:0:0:
448,349,240365,1,0,0:0:0:0:
448,349,240454,1,8,0:0:0:0:
448,349,240542,1,8,0:0:0:0:
448,349,240630,1,0,0:0:0:0:
448,349,240718,1,8,0:0:0:0:
448,349,240807,1,8,0:0:0:0:
473,372,240895,1,0,0:0:0:0:
460,343,240983,1,0,0:0:0:0:
460,343,241071,1,8,0:0:0:0:
460,343,241160,1,0,0:0:0:0:
473,372,241248,1,0,0:0:0:0:
448,349,241336,1,0,0:0:0:0:
473,372,241424,1,8,0:0:0:0:
460,343,241601,1,0,0:0:0:0:
430,331,241689,1,0,0:0:0:0:
460,343,241777,1,8,0:0:0:0:
460,343,241865,1,0,0:0:0:0:
460,343,241954,1,0,0:0:0:0:
460,343,242042,1,8,0:0:0:0:
460,343,242130,1,0,0:0:0:0:
448,349,242218,1,0,0:0:0:0:
448,349,242307,1,8,0:0:0:0:
460,343,242395,1,8,0:0:0:0:
460,343,242483,1,0,0:0:0:0:
460,343,242571,1,0,0:0:0:0:
460,343,242660,1,8,0:0:0:0:
460,343,242748,1,0,0:0:0:0:
460,343,242836,1,8,0:0:0:0:
460,343,243012,1,0,0:0:0:0:
460,343,243101,1,8,0:0:0:0:
464,374,243189,1,0,0:0:0:0:
460,343,243277,1,0,0:0:0:0:
460,343,243365,1,8,0:0:0:0:
464,374,243454,1,8,0:0:0:0:
464,374,243542,1,8,0:0:0:0:
464,374,243630,1,0,0:0:0:0:
464,374,243718,1,8,0:0:0:0:
464,374,243807,1,8,0:0:0:0:
464,374,243895,1,0,0:0:0:0:
464,374,243983,1,0,0:0:0:0:
441,352,244071,1,0,0:0:0:0:
441,352,244160,1,8,0:0:0:0:
464,374,244248,1,0,0:0:0:0:
441,352,244336,1,0,0:0:0:0:
441,352,244424,1,8,0:0:0:0:
464,374,244512,1,0,0:0:0:0:
456,343,244601,1,8,0:0:0:0:
456,343,244689,1,8,0:0:0:0:
456,343,244777,1,0,0:0:0:0:
456,343,244865,1,8,0:0:0:0:
456,343,244954,1,8,0:0:0:0:
456,343,245042,1,8,0:0:0:0:
456,343,245130,1,0,0:0:0:0:
456,343,245218,1,8,0:0:0:0:
456,343,245307,1,8,0:0:0:0:
400,313,245483,1,0,0:0:0:0:
381,303,245542,1,0,0:0:0:0:
362,293,245601,1,0,0:0:0:0:
343,283,245660,1,8,0:0:0:0:
374,242,245748,1,0,0:0:0:0:
394,218,245836,1,0,0:0:0:0:
415,195,245924,1,8,0:0:0:0:
424,224,246012,1,0,0:0:0:0:
433,254,246101,1,0,0:0:0:0:
446,284,246189,1,8,0:0:0:0:
464,309,246277,1,0,0:0:0:0:
476,337,246365,1,0,0:0:0:0:
476,337,246454,1,8,0:0:0:0:
476,337,246542,1,0,0:0:0:0:
476,337,246630,1,0,0:0:0:0:
476,337,246718,1,8,0:0:0:0:
469,274,246895,1,0,0:0:0:0:
462,253,246954,1,0,0:0:0:0:
455,233,247012,1,0,0:0:0:0:
448,212,247071,1,8,0:0:0:0:
422,193,247160,1,0,0:0:0:0:
394,177,247248,1,8,0:0:0:0:
362,173,247336,1,8,0:0:0:0:
330,173,247424,1,0,0:0:0:0:
330,173,247512,1,0,0:0:0:0:
330,173,247601,1,8,0:0:0:0:
330,173,247689,1,8,0:0:0:0:
348,198,247777,1,0,0:0:0:0:
366,223,247865,1,0,0:0:0:0:
383,249,247954,1,8,0:0:0:0:
400,274,248042,1,0,0:0:0:0:
417,299,248130,1,8,0:0:0:0:
434,325,248218,1,8,0:0:0:0:
434,325,248307,1,8,0:0:0:0:
434,325,248395,1,8,0:0:0:0:
452,350,248483,1,0,0:0:0:0:
467,370,248660,1,8,0:0:0:0:
467,370,248748,1,0,0:0:0:0:
467,370,248836,1,8,0:0:0:0:
467,370,248924,1,8,0:0:0:0:
467,370,249012,1,0,0:0:0:0:
467,370,249189,1,8,0:0:0:0:
467,370,249277,1,0,0:0:0:0:
467,370,249365,1,8,0:0:0:0:
467,370,249454,1,0,0:0:0:0:
467,370,249542,1,0,0:0:0:0:
467,370,249718,1,8,0:0:0:0:
467,370,249807,1,0,0:0:0:0:
467,370,249895,1,0,0:0:0:0:
467,370,250071,1,0,0:0:0:0:
467,370,250160,1,8,0:0:0:0:
467,370,250248,1,8,0:0:0:0:
467,370,250336,1,8,0:0:0:0:
467,370,250424,1,0,0:0:0:0:
467,370,250601,1,8,0:0:0:0:
467,370,250689,1,0,0:0:0:0:
467,370,250777,1,0,0:0:0:0:
467,370,250865,1,8,0:0:0:0:
467,370,250954,1,8,0:0:0:0:
467,370,251042,1,0,0:0:0:0:
467,370,251130,1,8,0:0:0:0:
467,370,251218,1,8,0:0:0:0:
467,370,251307,1,0,0:0:0:0:
467,370,251483,1,8,0:0:0:0:
467,370,251571,1,8,0:0:0:0:
467,370,251660,1,0,0:0:0:0:
467,370,251748,1,8,0:0:0:0:
467,370,251836,1,0,0:0:0:0:
467,370,252012,1,0,0:0:0:0:
467,370,252101,1,8,0:0:0:0:
467,370,252189,1,0,0:0:0:0:
467,370,252277,1,8,0:0:0:0:
467,370,252365,1,0,0:0:0:0:
482,308,252542,1,0,0:0:0:0:
467,370,252718,1,8,0:0:0:0:
467,370,252807,1,0,0:0:0:0:
467,370,252895,1,0,0:0:0:0:
467,370,252983,1,8,0:0:0:0:
467,370,253071,1,0,0:0:0:0:
467,370,253160,1,8,0:0:0:0:
467,370,253248,1,8,0:0:0:0:
467,370,253424,1,0,0:0:0:0:
467,370,253601,1,0,0:0:0:0:
467,370,253777,1,0,0:0:0:0:
467,370,253865,1,0,0:0:0:0:
467,370,253954,1,8,0:0:0:0:
467,370,254042,1,0,0:0:0:0:
467,370,254130,1,0,0:0:0:0:
487,366,254307,1,0,0:0:0:0:
487,366,254395,1,8,0:0:0:0:
487,366,254483,1,8,0:0:0:0:
487,366,254660,1,0,0:0:0:0:
467,370,254836,1,8,0:0:0:0:
467,370,254924,1,0,0:0:0:0:
467,370,255012,1,8,0:0:0:0:
467,370,255101,1,8,0:0:0:0:
487,366,255189,1,0,0:0:0:0:
467,370,255365,1,8,0:0:0:0:
467,370,255454,1,8,0:0:0:0:
467,370,255542,1,0,0:0:0:0:
467,370,255718,1,0,0:0:0:0:
467,370,255807,1,8,0:0:0:0:
467,370,255895,1,0,0:0:0:0:
467,370,256071,1,0,0:0:0:0:
467,370,256248,1,8,0:0:0:0:
467,370,256336,1,0,0:0:0:0:
467,370,256424,1,0,0:0:0:0:
467,370,256512,1,8,0:0:0:0:
467,370,256601,1,0,0:0:0:0:
467,370,256777,1,0,0:0:0:0:
467,370,256865,1,0,0:0:0:0:
467,370,256954,1,8,0:0:0:0:
406,355,257130,1,8,0:0:0:0:
406,355,257218,1,0,0:0:0:0:
406,355,257307,1,8,0:0:0:0:
467,370,257395,1,0,0:0:0:0:
406,355,257483,1,0,0:0:0:0:
469,353,257660,1,0,0:0:0:0:
469,353,257748,1,8,0:0:0:0:
469,353,257836,1,8,0:0:0:0:
469,353,257924,1,8,0:0:0:0:
469,353,258012,1,0,0:0:0:0:
467,370,258189,1,0,0:0:0:0:
467,370,258365,1,8,0:0:0:0:
467,370,258542,1,0,0:0:0:0:
469,353,258630,1,0,0:0:0:0:
469,353,258718,1,0,0:0:0:0:
467,370,258807,1,0,0:0:0:0:
469,353,258895,1,8,0:0:0:0:
467,370,259071,1,0,0:0:0:0:
467,370,259160,1,8,0:0:0:0:
467,370,259248,1,0,0:0:0:0:
467,370,259336,1,8,0:0:0:0:
467,370,259424,1,0,0:0:0:0:
467,370,259512,1,8,0:0:0:0:
469,353,259601,1,8,0:0:0:0:
467,370,259689,1,8,0:0:0:0:
467,370,259777,1,0,0:0:0:0:
467,370,259954,1,0,0:0:0:0:
467,370,260042,1,0,0:0:0:0:
467,370,260130,1,8,0:0:0:0:
467,370,260218,1,8,0:0:0:0:
467,370,260307,1,0,0:0:0:0:
467,370,260483,1,0,0:0:0:0:
467,370,260571,1,8,0:0:0:0:
467,370,260660,1,8,0:0:0:0:
467,370,260748,1,0,0:0:0:0:
467,370,260836,1,0,0:0:0:0:
467,370,261012,1,0,0:0:0:0:
467,370,261189,1,8,0:0:0:0:
467,370,261365,1,0,0:0:0:0:
467,370,261454,1,0,0:0:0:0:
467,370,261542,1,8,0:0:0:0:
467,370,261630,1,0,0:0:0:0:
467,370,261718,1,0,0:0:0:0:
467,370,261895,1,0,0:0:0:0:
467,370,261983,1,8,0:0:0:0:
467,370,262071,1,0,0:0:0:0:
467,370,262160,1,0,0:0:0:0:
467,370,262248,1,8,0:0:0:0:
467,370,262424,1,8,0:0:0:0:
493,365,262601,1,8,0:0:0:0:
467,370,262777,1,8,0:0:0:0:
467,370,262865,1,8,0:0:0:0:
467,370,262954,1,0,0:0:0:0:
467,370,263042,1,0,0:0:0:0:
467,370,263130,1,8,0:0:0:0:
467,370,263307,1,8,0:0:0:0:
467,370,263395,1,0,0:0:0:0:
493,365,263483,1,0,0:0:0:0:
493,365,263571,1,8,0:0:0:0:
467,370,263660,1,8,0:0:0:0:
493,365,263836,1,8,0:0:0:0:
493,365,264012,1,0,0:0:0:0:
455,314,264189,1,8,0:0:0:0:
475,338,264277,1,8,0:0:0:0:
475,338,264365,1,0,0:0:0:0:
475,338,264454,1,8,0:0:0:0:
475,338,264542,1,8,0:0:0:0:
474,375,264718,1,8,0:0:0:0:
474,375,264807,1,0,0:0:0:0:
474,375,264895,1,8,0:0:0:0:
474,375,264983,1,8,0:0:0:0:
474,375,265071,1,0,0:0:0:0:
474,375,265248,1,0,0:0:0:0:
474,375,265424,1,0,0:0:0:0:
500,316,265601,1,0,0:0:0:0:
487,344,265689,1,0,0:0:0:0:
487,344,265777,1,8,0:0:0:0:
474,375,265954,1,0,0:0:0:0:
474,375,266130,1,8,0:0:0:0:
474,375,266218,1,8,0:0:0:0:
474,375,266307,1,8,0:0:0:0:
474,375,266483,1,0,0:0:0:0:
474,375,266571,1,8,0:0:0:0:
474,375,266660,1,0,0:0:0:0:
474,375,266748,1,0,0:0:0:0:
474,375,266836,1,8,0:0:0:0:
474,375,267012,1,0,0:0:0:0:
474,375,267101,1,0,0:0:0:0:
474,375,267189,1,8,0:0:0:0:
474,375,267365,1,0,0:0:0:0:
418,345,267542,1,8,0:0:0:0:
445,359,267630,1,8,0:0:0:0:
445,359,267718,1,0,0:0:0:0:
474,375,267895,1,0,0:0:0:0:
474,375,267983,1,0,0:0:0:0:
474,375,268071,1,8,0:0:0:0:
474,375,268160,1,8,0:0:0:0:
474,375,268248,1,8,0:0:0:0:
474,375,268424,1,8,0:0:0:0:
474,375,268512,1,0,0:0:0:0:
474,375,268601,1,8,0:0:0:0:
474,375,268777,1,8,0:0:0:0:
474,375,268954,1,8,0:0:0:0:
474,375,269042,1,0,0:0:0:0:
474,375,269130,1,8,0:0:0:0:
474,375,269218,1,0,0:0:0:0:
474,375,269307,1,8,0:0:0:0:
474,375,269395,1,0,0:0:0:0:
474,375,269483,1,0,0:0:0:0:
474,375,269571,1,0,0:0:0:0:
462,345,269660,1,12,0:0:0:0:
256,192,269748,12,0,270718,0:0:0:0:
204,227,270895,5,8,0:0:0:0:
232,241,270983,1,8,0:0:0:0:
249,254,271071,1,4,0:0:0:0:
361,310,271424,1,8,0:0:0:0:
475,363,271777,1,0,0:0:0:0:
475,363,272130,1,8,0:0:0:0:
475,363,272483,1,0,0:0:0:0:
475,363,272836,1,8,0:0:0:0:
475,363,273189,1,0,0:0:0:0:
475,363,273542,1,8,0:0:0:0:
475,363,273895,1,0,0:0:0:0:
475,363,274248,1,8,0:0:0:0:
475,363,274601,1,0,0:0:0:0:
475,363,274954,1,8,0:0:0:0:
475,363,275307,1,0,0:0:0:0:
475,363,275660,1,8,0:0:0:0:
407,256,276012,1,8,0:0:0:0:
475,363,276366,1,8,0:0:0:0:
475,363,276718,1,0,0:0:0:0:
475,363,277071,1,8,0:0:0:0:
475,363,277424,1,0,0:0:0:0:
475,363,277777,1,8,0:0:0:0:
475,363,278130,1,0,0:0:0:0:
475,363,278483,1,8,0:0:0:0:
475,363,278836,1,0,0:0:0:0:
475,363,279189,1,8,0:0:0:0:
475,363,279542,1,0,0:0:0:0:
475,363,279895,1,8,0:0:0:0:
475,363,280248,1,0,0:0:0:0:
475,363,280601,1,8,0:0:0:0:
475,363,280954,1,0,0:0:0:0:
475,363,281307,1,8,0:0:0:0:
475,363,281660,1,0,0:0:0:0:
494,365,281836,1,0,0:0:0:0:
494,365,281924,1,0,0:0:0:0:
475,363,282013,1,8,0:0:0:0:
489,335,282101,1,8,0:0:0:0:
489,335,282189,1,0,0:0:0:0:
494,365,282277,1,0,0:0:0:0:
475,363,282365,1,8,0:0:0:0:
475,363,282630,1,8,0:0:0:0:
494,365,282718,1,8,0:0:0:0:
475,363,282895,1,8,0:0:0:0:
475,363,283071,1,8,0:0:0:0:
475,363,283160,1,8,0:0:0:0:
475,363,283424,1,8,0:0:0:0:
475,363,283777,1,8,0:0:0:0:
475,363,284042,1,8,0:0:0:0:
475,363,284130,1,8,0:0:0:0:
475,363,284307,1,8,0:0:0:0:
475,363,284483,1,0,0:0:0:0:
475,363,284571,1,8,0:0:0:0:
475,363,284836,1,8,0:0:0:0:
153,154,285012,1,0,0:0:0:0:
153,154,285071,1,0,0:0:0:0:
153,154,285130,1,0,0:0:0:0:
153,154,285189,1,8,0:0:0:0:
475,363,285454,1,8,0:0:0:0:
475,363,285718,1,8,0:0:0:0:
475,363,285983,1,8,0:0:0:0:
495,356,286248,1,8,0:0:0:0:
473,382,286601,1,8,0:0:0:0:
473,382,286865,1,8,0:0:0:0:
473,382,287130,1,8,0:0:0:0:
473,382,287395,1,8,0:0:0:0:
473,382,287660,1,8,0:0:0:0:
477,319,287836,1,0,0:0:0:0:
185,38,287895,1,0,0:0:0:0:
187,44,287954,1,0,0:0:0:0:
188,57,288012,1,8,0:0:0:0:
473,382,288277,1,0,0:0:0:0:
473,382,288365,1,8,0:0:0:0:
475,350,288542,1,8,0:0:0:0:
475,350,288718,1,8,0:0:0:0:
473,382,288983,1,0,0:0:0:0:
473,382,289071,1,8,0:0:0:0:
473,382,289248,1,0,0:0:0:0:
473,382,289336,1,0,0:0:0:0:
473,382,289424,1,0,0:0:0:0:
473,382,289689,1,0,0:0:0:0:
473,382,289777,1,8,0:0:0:0:
486,320,289954,1,8,0:0:0:0:
473,381,290130,1,8,0:0:0:0:
473,382,290395,1,0,0:0:0:0:
473,382,290483,1,8,0:0:0:0:
452,322,290660,1,0,0:0:0:0:
444,302,290718,1,0,0:0:0:0:
435,282,290777,1,0,0:0:0:0:
422,265,290836,1,8,0:0:0:0:
388,212,291012,1,8,0:0:0:0:
360,155,291189,1,8,0:0:0:0:
393,207,291365,1,8,0:0:0:0:
410,233,291454,1,8,0:0:0:0:
426,259,291542,1,8,0:0:0:0:
466,306,291718,1,8,0:0:0:0:
503,356,291895,1,8,0:0:0:0:
471,353,291983,1,8,0:0:0:0:
470,321,292071,1,8,0:0:0:0:
470,299,292130,1,8,0:0:0:0:
470,277,292189,1,8,0:0:0:0:
470,255,292248,1,8,0:0:0:0:
491,348,292954,1,0,0:0:0:0:
491,348,293042,1,0,0:0:0:0:
491,348,293130,1,8,0:0:0:0:
486,373,293307,1,8,0:0:0:0:
491,348,293483,1,8,0:0:0:0:
491,348,293571,1,0,0:0:0:0:
