osu file format v14

[General]
AudioFilename: 12 farewell to today.mp3
AudioLeadIn: 0
PreviewTime: 89023
Countdown: 0
SampleSet: Soft
StackLeniency: 0.2
Mode: 0
LetterboxInBreaks: 0
WidescreenStoryboard: 0

[Editor]
DistanceSpacing: 2
BeatDivisor: 4
GridSize: 4
TimelineZoom: 2.599999

[Metadata]
Title:farewell to today
TitleUnicode:farewell to today
Artist:Camellia
ArtistUnicode:かめりあ
Creator:Alumetorz
Version:valediction feat. Avena
Source:
Tags:avena electronic instrumental drumstep featured artist priti sudden shower CTCD-009 asaya ooya 大箭将也 cametek かめるかめりあ kamelcamellia
BeatmapID:813005
BeatmapSetID:371016

[Difficulty]
HPDrainRate:6.6
CircleSize:4.2
OverallDifficulty:8.3
ApproachRate:9.5
SliderMultiplier:1.6
SliderTickRate:1

[Events]
//Background and Video events
0,0,"bg.jpg",0,0
//Break Periods
//Storyboard Layer 0 (Background)
//Storyboard Layer 1 (Fail)
//Storyboard Layer 2 (Pass)
//Storyboard Layer 3 (Foreground)
//Storyboard Layer 4 (Overlay)
//Storyboard Sound Samples

[TimingPoints]
92,352.941176470588,4,2,1,85,1,0
4680,-66.6666666666667,4,2,1,85,0,0
5033,-100,4,2,1,85,0,0
8562,-66.6666666666667,4,2,1,85,0,0
9268,-100,4,2,1,85,0,0
11386,-83.3333333333333,4,2,1,85,0,0
15974,-66.6666666666667,4,2,1,85,0,0
16327,-83.3333333333333,4,2,1,85,0,0
19856,-200,4,2,1,85,0,0
21974,-100,4,2,1,85,0,0
22680,-50,4,2,1,85,0,0
22944,-66.6666666666667,4,2,1,85,0,0
23739,-45.4545454545455,4,2,1,85,0,0
24091,-100,4,2,1,85,0,0
24268,-80,4,2,1,85,0,0
24444,-66.6666666666667,4,2,1,85,0,0
24621,-57.1428571428571,4,2,1,85,0,0
24797,-50,4,2,1,85,0,0
25150,-66.6666666666667,4,2,1,85,0,0
25503,-50,4,2,1,85,0,0
25768,-66.6666666666667,4,2,1,85,0,0
26562,-50,4,2,1,85,0,0
26915,-66.6666666666667,4,2,1,85,0,0
27091,-57.1428571428571,4,2,1,85,0,0
27444,-50,4,2,1,85,0,0
27797,-66.6666666666667,4,2,1,85,0,0
27974,-44.4444444444445,4,2,1,85,0,0
28327,-55.5555555555556,4,2,1,85,0,0
29033,-66.6666666666667,4,2,1,85,0,0
29386,-50,4,2,1,85,0,0
29739,-66.6666666666667,4,2,1,85,0,0
29915,-50,4,2,1,85,0,0
30180,-66.6666666666667,4,2,1,85,0,0
30533,-50,4,2,1,85,0,0
31150,-66.6666666666667,4,2,1,85,0,0
31680,-45.4545454545455,4,2,1,85,0,0
32209,-33.3333333333333,4,2,1,85,0,0
32562,-50,4,2,1,85,0,0
33444,-66.6666666666667,4,2,1,85,0,0
33974,-45.4545454545455,4,2,1,85,0,0
34327,-66.6666666666667,4,2,1,85,0,0
34768,-50,4,2,1,85,0,0
35739,-66.6666666666667,4,2,1,85,0,0
36180,-50,4,2,1,85,0,0
36709,-100,4,2,1,85,0,0
36797,-45.4545454545455,4,2,1,85,0,0
37062,-66.6666666666667,4,2,1,85,0,0
37591,-50,4,2,1,85,0,0
38562,-66.6666666666667,4,2,1,85,0,0
39003,-50,4,2,1,85,0,0
39533,-100,4,2,1,85,0,0
39621,-45.4545454545455,4,2,1,85,0,0
39974,-66.6666666666667,4,2,1,85,0,0
40327,-50,4,2,1,85,0,0
40680,-66.6666666666667,4,2,1,85,0,0
41033,-50,4,2,1,85,0,0
41297,-66.6666666666667,4,2,1,85,0,0
41739,-50,4,2,1,85,0,0
42091,-66.6666666666667,4,2,1,85,0,0
42268,-100,4,2,1,85,0,0
42444,-66.6666666666667,4,2,1,85,0,0
43150,-50,4,2,1,85,0,0
43856,-100,4,2,1,85,0,0
44739,-66.6666666666667,4,2,1,85,0,0
44915,-50,4,2,1,85,0,0
45091,-40,4,2,1,85,0,0
45268,-200,4,2,2,85,0,0
79150,-100,4,2,1,85,0,0
86209,-66.6666666666667,4,2,1,85,0,0
89033,-100,4,2,1,85,0,0
89739,-50,4,2,1,85,0,0
90444,-66.6666666666667,4,2,1,85,0,0
90974,-50,4,2,1,85,0,0
91327,-66.6666666666667,4,2,1,85,0,0
91503,-50,4,2,1,85,0,0
91856,-66.6666666666667,4,2,1,85,0,0
92386,-50,4,2,1,85,0,0
92562,-66.6666666666667,4,2,1,85,0,0
94062,-50,4,2,1,85,0,0
94944,-66.6666666666667,4,2,1,85,0,0
96091,-50,4,2,1,85,0,0
96621,-66.6666666666667,4,2,1,85,0,0
97150,-50,4,2,1,85,0,0
98915,-66.6666666666667,4,2,1,85,0,0
100327,-100,4,2,1,85,0,0
100680,-80,4,2,1,85,0,0
101033,-66.6666666666667,4,2,1,85,0,0
101386,-50,4,2,1,85,0,0
102091,-66.6666666666667,4,2,1,85,0,0
102797,-50,4,2,1,85,0,0
103856,-66.6666666666667,4,2,1,85,0,0
104562,-50,4,2,1,85,0,0
105091,-66.6666666666667,4,2,1,85,0,0
105974,-50,4,2,1,85,0,0
106239,-66.6666666666667,4,2,1,85,0,0
106680,-50,4,2,1,85,0,0
107739,-66.6666666666667,4,2,1,85,0,0
108444,-50,4,2,1,85,0,0
109503,-66.6666666666667,4,2,1,85,0,0
112327,-100,4,2,1,85,0,0
113033,-50,4,2,1,85,0,0
113915,-66.6666666666667,4,2,1,85,0,0
114091,-50,4,2,1,85,0,0
114444,-66.6666666666667,4,2,1,85,0,0
114974,-50,4,2,1,85,0,0
115150,-66.6666666666667,4,2,1,85,0,0
117268,-50,4,2,1,85,0,0
117533,-66.6666666666667,4,2,1,85,0,0
117974,-50,4,2,1,85,0,0
119033,-66.6666666666667,4,2,1,85,0,0
119739,-50,4,2,1,85,0,0
120797,-66.6666666666667,4,2,1,85,0,0
121503,-50,4,2,1,85,0,0
122562,-66.6666666666667,4,2,1,85,0,0
122915,-100,4,2,1,85,0,0
123268,-80,4,2,1,85,0,0
123621,-66.6666666666667,4,2,1,85,0,0
123974,-50,4,2,1,85,0,0
124327,-200,4,2,1,85,0,0
124680,-50,4,2,1,85,0,0
125739,-44.4444444444445,4,2,1,85,0,0
126091,-50,4,2,1,85,0,0
132621,-100,4,2,1,85,0,0
132797,-50,4,2,1,85,0,0
136503,-66.6666666666667,4,2,1,85,0,0
136680,-50,4,2,1,85,0,0
137033,-66.6666666666667,4,2,1,85,0,0
137562,-50,4,2,1,85,0,0
137739,-66.6666666666667,4,2,1,85,0,0
138444,-50,4,2,1,85,0,0
138974,-66.6666666666667,4,2,1,85,0,0
139856,-50,4,2,1,85,0,0
140121,-66.6666666666667,4,2,1,85,0,0
140562,-50,4,2,1,85,0,0
141621,-66.6666666666667,4,2,1,85,0,0
142327,-50,4,2,1,85,0,0
143386,-66.6666666666667,4,2,1,85,0,0
144091,-50,4,2,1,85,0,0
145150,-66.6666666666667,4,2,1,85,0,0
145503,-100,4,2,1,85,0,0
145856,-80,4,2,1,85,0,0
146209,-66.6666666666667,4,2,1,85,0,0
146562,-50,4,2,1,85,0,0
146915,-200,4,2,1,85,0,0
147268,-50,4,2,1,85,0,0
155209,-100,4,2,1,85,0,0
155386,-50,4,2,1,85,0,0
158209,-200,4,2,2,55,0,0
179650,-133.333333333333,4,2,2,55,0,0
179915,-100,4,2,2,55,0,0
180091,-100,4,2,1,55,0,0
180797,-200,4,2,2,55,0,0
214680,-100,4,2,1,85,0,0
225268,-50,4,2,1,85,0,0
225974,-50,4,2,1,85,0,1
245739,-66.6666666666667,4,2,1,85,0,1
247150,-66.6666666666667,4,2,1,55,0,1
247856,-50,4,2,1,85,0,1
271150,-50,4,2,1,85,0,0
280680,-33.3333333333333,4,2,1,85,0,0
281033,-50,4,2,1,85,0,0
293739,-100,4,2,1,85,0,0

[Colours]
Combo1 : 231,228,141
Combo2 : 145,247,177
Combo3 : 177,231,241
Combo4 : 220,116,118

[HitObjects]
144,88,92,6,0,P|181:57|156:29,1,80,6|0,1:2|0:0,0:0:0:0:
72,188,444,2,0,L|64:280,1,80,8|2,1:0|0:2,0:0:0:0:
344,320,797,1,0,1:0:0:0:
328,200,974,1,0,0:0:0:0:
312,80,1150,2,0,L|324:168,1,80,8|0,1:0|0:0,0:0:0:0:
72,188,1503,6,0,P|32:172|56:132,1,80,0|0,1:0|0:0,0:0:0:0:
196,264,1856,2,0,L|191:344,1,80,8|0,1:0|0:0,0:0:0:0:
312,80,2209,1,0,1:0:0:0:
200,36,2386,1,2,0:2:0:0:
392,136,2562,2,0,P|412:88|404:48,1,80,8|0,1:0|0:0,0:0:0:0:
264,176,2915,6,0,L|180:188,1,80,2|0,1:0|0:0,0:0:0:0:
112,200,3180,1,2,0:1:0:0:
112,200,3268,1,8,1:0:0:0:
144,320,3444,1,2,0:1:0:0:
24,208,3621,2,0,P|44:144|132:116,1,160,2|8,1:0|1:0,0:0:0:0:
408,296,4327,6,0,P|456:284|484:252,1,80,0|0,1:0|0:0,0:0:0:0:
232,256,4680,2,0,P|231:331|298:297,1,180.000006866455,10|0,1:0|0:0,0:0:0:0:
180,192,5033,6,0,P|160:216|156:228,5,26.6666666666667,0|0|0|0|0|0,1:0|0:0|0:0|0:0|0:0|0:0,0:0:0:0:
136,288,5386,2,0,P|138:319|144:330,5,26.6666666666667,8|0|0|0|0|0,1:0|0:0|0:0|0:0|0:0|0:0,0:0:0:0:
232,256,5739,6,0,L|224:160,1,80,2|0,1:2|0:0,0:0:0:0:
389,179,6091,1,8,1:0:0:0:
288,316,6268,2,0,P|236:340|192:324,1,80,2|0,0:2|1:0,0:0:0:0:
225,176,6621,1,0,0:0:0:0:
356,260,6797,2,0,P|376:304|372:352,1,80,8|0,1:0|0:0,0:0:0:0:
225,176,7150,6,0,L|233:76,1,80,0|0,1:0|0:0,0:0:0:0:
56,140,7503,1,8,1:0:0:0:
144,230,7680,1,0,0:0:0:0:
120,84,7856,2,0,P|84:56|40:56,1,80,0|2,1:0|0:2,0:0:0:0:
272,164,8209,2,0,L|360:144,1,80,8|0,1:0|0:0,0:0:0:0:
476,304,8562,6,0,P|448:352|420:304,1,120.000004577637,2|0,1:0|0:0,0:0:0:0:
408,240,8827,1,2,0:1:0:0:
408,240,8915,1,8,1:0:0:0:
492,168,9091,1,0,0:0:0:0:
328,264,9268,2,0,P|304:268|272:264,1,40,2|0,1:0|0:0,0:0:0:0:
180,248,9444,2,0,P|157:239|131:220,1,40,2|0,0:1|0:0,0:0:0:0:
68,148,9621,2,0,P|48:104|44:60,1,80,8|0,1:0|0:0,0:0:0:0:
376,124,9974,6,0,P|404:92|372:72,1,80,0|0,1:0|0:0,0:0:0:0:
328,264,10327,2,0,L|344:360,1,80,8|0,1:0|0:0,0:0:0:0:
180,248,10680,6,0,L|184:208,5,26.6666666666667,0|0|0|0|0|0,1:0|0:0|0:0|0:0|0:0|0:0,0:0:0:0:
104,272,11033,2,0,L|64:252,2,26.6666666666667,8|0|0,1:0|0:0|0:0,0:0:0:0:
168,328,11209,1,0,1:0:0:0:
194,127,11386,6,0,L|207:32,1,95.9999970703126,6|0,1:2|0:0,0:0:0:0:
380,144,11739,1,8,1:0:0:0:
267,231,11915,1,2,0:2:0:0:
462,160,12091,2,0,P|455:107|425:71,1,95.9999970703126,0|0,1:0|0:0,0:0:0:0:
184,215,12444,2,0,P|190:267|220:303,1,95.9999970703126,8|0,1:0|0:0,0:0:0:0:
128,40,12797,6,0,L|24:56,1,95.9999970703126,0|0,1:0|0:0,0:0:0:0:
184,215,13150,2,0,L|288:231,1,95.9999970703126,8|0,1:0|0:0,0:0:0:0:
408,80,13503,1,0,1:0:0:0:
468,200,13680,1,2,0:2:0:0:
324,104,13856,2,0,P|332:40|360:8,1,95.9999970703126,8|0,1:0|0:0,0:0:0:0:
176,96,14209,6,0,L|56:76,1,95.9999970703126,2|0,1:0|0:0,0:0:0:0:
32,148,14474,1,2,0:1:0:0:
32,148,14562,1,8,1:0:0:0:
100,264,14739,1,2,0:1:0:0:
232,72,14915,2,0,L|40:40,1,191.999994140625,2|8,1:0|1:0,0:0:0:0:
228,288,15621,6,0,P|276:280|320:308,1,95.9999970703126,0|0,1:0|0:0,0:0:0:0:
48,225,15974,2,0,P|35:296|100:264,1,180.000006866455,10|0,1:0|0:0,0:0:0:0:
92,160,16327,6,0,L|80:124,5,31.9999990234375,0|0|0|0|0|0,1:0|0:0|0:0|0:0|0:0|0:0,0:0:0:0:
124,60,16680,2,0,L|112:24,5,31.9999990234375,8|0|0|0|0|0,1:0|0:0|0:0|0:0|0:0|0:0,0:0:0:0:
224,48,17033,6,0,L|320:28,1,95.9999970703126,2|0,1:2|0:0,0:0:0:0:
452,280,17386,1,8,1:0:0:0:
408,152,17562,1,2,0:2:0:0:
392,332,17739,2,0,P|440:360|488:352,1,95.9999970703126,0|0,1:0|0:0,0:0:0:0:
432,76,18091,2,0,P|376:75|338:106,1,95.9999970703126,8|0,1:0|0:0,0:0:0:0:
176,308,18444,6,0,L|56:280,1,95.9999970703126,0|0,1:0|0:0,0:0:0:0:
82,97,18797,2,0,L|176:76,1,95.9999970703126,8|0,1:0|0:0,0:0:0:0:
262,62,19062,1,0,0:0:0:0:
289,94,19150,5,0,1:0:0:0:
331,103,19239,1,0,0:0:0:0:
372,90,19327,2,0,L|393:43,1,47.9999985351563,2|0,0:2|0:0,0:0:0:0:
504,159,19503,1,8,1:0:0:0:
462,150,19592,1,0,0:0:0:0:
421,163,19680,2,0,L|400:210,1,47.9999985351563,0|0,1:0|0:0,0:0:0:0:
255,268,19856,6,0,P|124:160|291:190,1,460,4|0,1:2|0:0,0:0:0:0:
364,220,21974,6,0,P|376:220|392:224,2,20,0|0|0,0:0|0:0|0:0,0:0:0:0:
444,164,22150,2,0,P|460:168|476:168,2,26.6666666666667,0|0|0,0:0|0:0|0:0,0:0:0:0:
396,76,22327,1,0,0:0:0:0:
396,76,22415,1,0,0:0:0:0:
396,76,22503,2,0,L|388:28,1,40,2|0,0:2|0:0,0:0:0:0:
240,96,22680,6,0,B|180:96|180:96|140:84|140:84|56:84,1,160,4|0,1:2|0:0,0:0:0:0:
26,178,22944,2,0,P|14:226|18:263,1,60.0000022888184,2|8,0:1|1:0,0:0:0:0:
156,322,23121,1,2,0:1:0:0:
165,310,23209,2,0,P|177:262|173:225,1,60.0000022888184,2|0,0:1|0:0,0:0:0:0:
284,160,23386,1,0,1:0:0:0:
288,188,23474,1,0,0:0:0:0:
292,216,23562,2,0,L|300:300,1,60.0000022888184,2|0,0:1|0:0,0:0:0:0:
279,372,23739,6,0,P|251:321|328:370,1,264.000008056641,10|0,1:0|0:0,0:0:0:0:
455,229,24091,6,0,L|463:169,1,40,2|0,1:0|0:0,0:0:0:0:
374,224,24268,2,0,L|384:156,1,50,2|0,0:1|0:0,0:0:0:0:
292,216,24444,2,0,L|301:148,1,60.0000022888184,10|0,1:0|0:0,0:0:0:0:
206,208,24621,2,0,L|215:135,1,70.000000667572,2|0,0:1|0:0,0:0:0:0:
213,111,24797,1,0,1:0:0:0:
210,83,24886,2,0,L|188:248,1,160,2|0,0:1|0:0,0:0:0:0:
80,320,25150,6,0,P|44:319|1:304,1,60.0000022888184,10|0,1:0|0:0,0:0:0:0:
100,240,25327,2,0,P|55:232|34:222,1,60.0000022888184,2|0,0:1|0:0,0:0:0:0:
95,83,25503,6,0,P|61:140|128:139,1,160,2|0,1:0|0:0,0:0:0:0:
210,83,25768,2,0,P|239:74|279:72,1,60.0000022888184,2|8,0:1|1:0,0:0:0:0:
366,137,25944,1,0,0:0:0:0:
379,139,26033,2,0,P|395:83|366:89,1,120.000004577637,2|0,0:1|1:0,0:0:0:0:
289,170,26297,2,0,P|304:193|345:218,1,60.0000022888184,2|0,0:1|0:0,0:0:0:0:
460,171,26474,1,0,0:0:0:0:
468,159,26562,6,0,P|469:64|336:29,1,240,10|0,1:0|0:0,0:0:0:0:
261,132,26915,6,0,L|195:121,1,60.0000022888184,2|0,1:0|0:0,0:0:0:0:
106,212,27091,2,0,B|181:193|181:193|248:204,1,140.000001335144,2|8,0:1|1:0,0:0:0:0:
361,279,27356,1,0,0:0:0:0:
351,296,27444,2,0,L|181:269,1,160,2|0,0:1|1:0,0:0:0:0:
173,287,27709,1,0,0:0:0:0:
155,304,27797,2,0,L|231:318,1,60.0000022888184,2|0,0:1|0:0,0:0:0:0:
456,372,27974,6,0,P|476:328|465:265,1,90.0000034332277,10|0,1:0|0:0,0:0:0:0:
403,220,28150,2,0,P|383:176|396:113,1,90.0000034332277,2|0,0:1|0:0,0:0:0:0:
498,18,28327,6,0,L|462:186,1,143.999995605469,2|0,1:1|0:0,0:0:0:0:
481,184,28591,1,0,0:0:0:0:
495,209,28680,2,0,L|514:129,1,71.9999978027344,8|0,1:0|0:0,0:0:0:0:
453,53,28856,2,0,L|434:133,1,71.9999978027344,2|0,0:1|0:0,0:0:0:0:
361,263,29033,2,0,L|339:140,1,120.000004577637,0|0,1:0|0:0,0:0:0:0:
261,81,29297,1,0,0:0:0:0:
279,75,29386,6,0,P|341:105|245:129,1,240,10|0,1:0|0:0,0:0:0:0:
102,73,29739,6,0,B|90:105|90:105|98:144,1,60.0000022888184,2|0,1:0|0:0,0:0:0:0:
201,273,29915,2,0,L|167:111,1,160,2|8,0:1|1:0,0:0:0:0:
179,88,30180,1,0,0:0:0:0:
190,60,30268,2,0,L|212:138,1,60.0000022888184,2|0,0:1|0:0,0:0:0:0:
277,264,30444,5,0,1:0:0:0:
275,288,30533,2,0,P|221:346|139:315,1,160,2|0,0:1|0:0,0:0:0:0:
68,242,30797,6,0,P|101:220|139:210,1,80,10|0,1:1|0:0,0:0:0:0:
103,114,30974,2,0,P|142:107|181:113,1,80,2|0,0:1|0:0,0:0:0:0:
368,145,31150,6,0,L|384:208,1,60.0000022888184,2|0,1:0|0:0,0:0:0:0:
416,324,31327,1,0,0:0:0:0:
410,301,31415,2,0,L|394:238,1,60.0000022888184,0|8,0:0|1:0,0:0:0:0:
439,89,31591,5,0,0:0:0:0:
415,74,31680,2,0,B|368:54|324:75|324:75|284:94|234:75,1,176.000005371094,2|0,0:1|1:0,0:0:0:0:
176,52,31944,2,0,P|220:117|175:108,1,176.000005371094,2|0,0:1|0:0,0:0:0:0:
21,78,32209,6,0,P|180:139|377:137,1,360.000013732911,10|0,1:0|0:0,0:0:0:0:
415,74,32562,6,0,L|495:54,1,80,2|0,1:1|0:0,0:0:0:0:
432,192,32739,1,0,0:0:0:0:
432,192,32827,1,0,0:0:0:0:
432,192,32915,2,0,L|514:192,1,80,10|0,1:0|0:0,0:0:0:0:
415,310,33091,2,0,L|495:330,1,80,2|0,0:1|0:0,0:0:0:0:
346,177,33268,5,0,1:0:0:0:
347,157,33356,1,0,0:0:0:0:
348,136,33444,2,0,L|351:63,1,60.0000022888184,2|0,0:1|0:0,0:0:0:0:
471,164,33621,1,10,1:0:0:0:
476,181,33709,1,2,0:2:0:0:
478,198,33797,1,2,0:1:0:0:
478,216,33886,1,2,0:2:0:0:
484,299,33974,6,0,B|438:281|399:295|399:295|351:312|290:286,1,176.000005371094,14|0,1:2|0:0,0:0:0:0:
283,222,34239,1,8,0:2:0:0:
298,215,34327,2,0,P|337:219|361:228,1,60.0000022888184,8|0,1:0|0:0,0:0:0:0:
339,373,34503,2,0,P|300:369|276:360,1,60.0000022888184,10|0,0:2|0:0,0:0:0:0:
166,248,34680,5,0,1:0:0:0:
153,228,34768,2,0,P|88:234|131:283,1,160,8|0,0:2|0:0,0:0:0:0:
238,163,35033,1,8,1:0:0:0:
246,140,35121,1,2,0:2:0:0:
254,117,35209,1,2,0:2:0:0:
262,94,35297,1,2,0:2:0:0:
338,71,35386,6,0,B|261:93|261:93|174:64,1,160,10|0,1:2|0:0,0:0:0:0:
170,86,35650,1,8,0:2:0:0:
155,105,35739,2,0,L|158:182,1,60.0000022888184,8|0,1:0|0:0,0:0:0:0:
162,265,35915,2,0,L|159:188,1,60.0000022888184,10|0,0:2|0:0,0:0:0:0:
74,53,36091,5,0,1:0:0:0:
64,78,36180,2,0,L|70:245,1,160,8|0,0:2|0:0,0:0:0:0:
56,306,36444,2,0,P|88:235|124:295,1,160,8|0,1:0|0:0,0:0:0:0:
243,351,36709,2,0,L|216:372,1,20,8|8,0:2|0:2,0:0:0:0:
259,339,36797,6,0,B|306:322|346:335|346:335|387:347|439:324,1,176.000005371094,10|0,1:2|0:0,0:0:0:0:
476,261,37062,1,8,0:2:0:0:
456,245,37150,2,0,P|416:247|381:256,1,60.0000022888184,8|0,1:0|0:0,0:0:0:0:
455,163,37327,2,0,P|415:158|379:161,1,60.0000022888184,10|0,0:2|0:0,0:0:0:0:
257,187,37503,5,0,1:0:0:0:
244,204,37591,2,0,P|182:184|235:146,1,160,8|0,0:2|0:0,0:0:0:0:
310,271,37856,1,8,1:0:0:0:
305,286,37944,1,2,0:2:0:0:
300,301,38033,1,2,0:2:0:0:
295,316,38121,1,2,0:2:0:0:
220,330,38209,6,0,B|267:336|297:314|297:314|338:315|372:353,1,160,10|0,1:2|0:0,0:0:0:0:
235,245,38474,1,8,0:2:0:0:
219,245,38562,2,0,P|180:252|146:269,1,60.0000022888184,8|0,1:0|0:0,0:0:0:0:
126,164,38739,2,0,P|155:157|185:158,1,60.0000022888184,10|0,0:2|0:0,0:0:0:0:
280,78,38915,5,0,1:0:0:0:
263,65,39003,2,0,B|222:48|182:60|182:60|145:71|105:59,1,160,8|0,0:2|0:0,0:0:0:0:
63,8,39268,2,0,P|108:50|39:73,1,160,8|0,1:0|0:0,0:0:0:0:
23,257,39533,2,0,L|6:248,1,20,8|8,0:2|0:2,0:0:0:0:
42,266,39621,6,0,B|105:266|105:266|154:298|154:298|234:298,1,176.000005371094,10|0,1:2|0:0,0:0:0:0:
258,228,39886,1,8,0:2:0:0:
240,228,39974,2,0,L|180:228,1,60.0000022888184,8|0,1:0|0:0,0:0:0:0:
136,368,40150,2,0,L|196:368,1,60.0000022888184,10|0,0:2|0:0,0:0:0:0:
408,362,40327,6,0,B|431:285|431:285|407:192,1,160,8|0,1:2|0:0,0:0:0:0:
469,144,40591,1,8,0:2:0:0:
477,169,40680,2,0,L|496:244,1,60.0000022888184,8|0,1:0|0:0,0:0:0:0:
351,283,40856,1,10,0:2:0:0:
343,253,40944,1,10,0:2:0:0:
335,221,41033,6,0,B|312:144|312:144|336:51,1,160,10|0,1:2|0:0,0:0:0:0:
267,14,41297,1,8,0:2:0:0:
259,39,41386,2,0,L|239:114,1,60.0000022888184,8|0,1:0|0:0,0:0:0:0:
184,223,41562,1,10,0:2:0:0:
192,245,41650,1,8,0:2:0:0:
240,302,41739,6,0,B|224:278|193:277|193:277|133:304|79:278,1,160,8|0,1:2|0:0,0:0:0:0:
43,212,42003,1,8,0:2:0:0:
64,203,42091,2,0,P|96:201|130:210,1,60.0000022888184,8|0,1:0|0:0,0:0:0:0:
301,190,42268,2,0,L|300:161,1,20,8|8,0:2|0:2,0:0:0:0:
312,198,42356,2,0,L|311:169,1,20,8|8,0:2|0:2,0:0:0:0:
322,208,42444,6,0,L|409:195,1,60.0000022888184,8|0,1:2|0:0,0:0:0:0:
467,306,42621,2,0,L|380:293,1,60.0000022888184,8|0,0:2|0:0,0:0:0:0:
476,118,42797,2,0,L|389:105,1,60.0000022888184,8|0,1:2|0:0,0:0:0:0:
237,147,42974,1,8,0:2:0:0:
204,155,43062,1,8,0:2:0:0:
168,165,43150,6,0,L|80:151,1,80,8|0,1:2|0:0,0:0:0:0:
12,295,43327,2,0,L|100:281,1,80,8|0,0:2|0:0,0:0:0:0:
288,349,43503,1,8,1:2:0:0:
307,325,43591,1,8,0:2:0:0:
333,311,43680,1,8,0:2:0:0:
362,306,43768,1,8,0:2:0:0:
407,311,43856,6,0,L|421:353,1,40,12|8,1:2|0:2,0:0:0:0:
465,215,44033,2,0,L|507:201,1,40,8|8,0:2|0:2,0:0:0:0:
374,144,44209,2,0,L|360:102,1,40,8|8,0:2|0:2,0:0:0:0:
316,240,44386,2,0,L|273:254,1,40,8|8,0:2|0:2,0:0:0:0:
154,352,44562,5,8,0:2:0:0:
97,296,44650,1,8,0:2:0:0:
43,238,44739,2,0,L|50:167,1,60.0000022888184,8|8,0:2|0:2,0:0:0:0:
270,40,44915,2,0,L|261:123,1,80,8|8,1:2|0:2,0:0:0:0:
407,311,45091,2,0,L|418:209,1,100,8|8,1:2|0:2,0:0:0:0:
76,38,45268,5,6,1:2:0:0:
436,38,45797,1,2,0:2:0:0:
92,148,46327,5,0,0:0:0:0:
87,167,46415,1,0,0:0:0:0:
82,186,46503,1,0,0:0:0:0:
77,205,46591,1,0,0:0:0:0:
72,224,46680,6,0,B|54:248|54:248|38:154,1,120,2|2,0:2|0:2,0:0:0:0:
295,206,47562,5,0,0:0:0:0:
314,203,47650,1,0,0:0:0:0:
334,201,47739,1,2,0:2:0:0:
353,199,47827,1,0,0:0:0:0:
372,197,47915,1,0,0:0:0:0:
391,195,48003,1,0,0:0:0:0:
410,192,48091,6,0,B|437:203|437:203|404:114,1,120,2|2,0:2|0:2,0:0:0:0:
137,268,49150,5,0,0:0:0:0:
145,286,49239,1,0,0:0:0:0:
153,304,49327,1,0,0:0:0:0:
161,321,49415,1,0,0:0:0:0:
169,338,49503,6,0,B|139:334|139:334|212:273,1,120,2|2,0:2|0:2,0:0:0:0:
203,81,50386,5,0,0:0:0:0:
222,77,50474,1,0,0:0:0:0:
241,73,50562,1,2,0:2:0:0:
260,69,50650,1,0,0:0:0:0:
279,65,50739,1,0,0:0:0:0:
298,62,50827,1,0,0:0:0:0:
317,59,50915,6,0,B|344:113|344:113|323:185,1,120,2|2,0:2|0:2,0:0:0:0:
139,242,51974,5,0,0:0:0:0:
122,252,52062,1,0,0:0:0:0:
105,262,52150,1,0,0:0:0:0:
87,272,52239,1,0,0:0:0:0:
70,282,52327,6,0,B|53:224|53:224|80:170,1,120,2|2,0:2|0:2,0:0:0:0:
316,234,53209,5,0,0:0:0:0:
332,245,53297,1,0,0:0:0:0:
348,256,53386,1,2,0:2:0:0:
364,267,53474,1,0,0:0:0:0:
380,278,53562,1,0,0:0:0:0:
396,289,53650,1,0,0:0:0:0:
411,302,53739,6,0,B|427:244|427:244|400:190,1,120,2|2,0:2|0:2,0:0:0:0:
246,68,54797,5,0,0:0:0:0:
226,71,54886,1,0,0:0:0:0:
206,74,54974,1,0,0:0:0:0:
186,77,55062,1,0,0:0:0:0:
166,81,55150,6,0,L|156:148,2,60,2|2|2,0:2|0:2|0:2,0:0:0:0:
228,303,56033,5,0,0:0:0:0:
247,302,56121,1,0,0:0:0:0:
266,301,56209,1,2,0:2:0:0:
285,300,56297,1,0,0:0:0:0:
305,299,56386,1,0,0:0:0:0:
324,298,56474,1,0,0:0:0:0:
343,298,56562,6,0,B|378:304|402:293|402:293|430:282|461:291,1,120,2|2,0:2|0:2,0:0:0:0:
166,219,57621,5,0,0:0:0:0:
160,199,57709,1,0,0:0:0:0:
154,179,57797,1,0,0:0:0:0:
148,159,57886,1,0,0:0:0:0:
142,139,57974,6,0,P|187:150|255:122,1,120,2|2,0:2|0:2,0:0:0:0:
457,36,58856,5,0,0:0:0:0:
454,55,58944,1,0,0:0:0:0:
451,75,59033,1,2,0:2:0:0:
448,94,59121,1,0,0:0:0:0:
445,113,59209,1,0,0:0:0:0:
442,132,59297,1,0,0:0:0:0:
440,152,59386,6,0,L|448:288,1,120,2|2,0:2|0:2,0:0:0:0:
152,327,60444,5,0,0:0:0:0:
149,307,60533,1,0,0:0:0:0:
146,287,60621,1,0,0:0:0:0:
143,267,60709,1,0,0:0:0:0:
140,247,60797,6,0,B|145:187|145:187|129:117,1,120,2|2,0:2|0:2,0:0:0:0:
329,86,61680,5,0,0:0:0:0:
348,82,61768,1,0,0:0:0:0:
367,78,61856,1,2,0:2:0:0:
386,74,61944,1,0,0:0:0:0:
405,70,62033,1,0,0:0:0:0:
424,66,62121,1,0,0:0:0:0:
443,62,62209,6,0,P|460:121|449:185,1,120,2|2,0:2|0:2,0:0:0:0:
273,297,63268,5,0,0:0:0:0:
249,299,63356,1,0,0:0:0:0:
225,302,63444,1,0,0:0:0:0:
200,305,63533,1,0,0:0:0:0:
176,308,63621,6,0,L|54:276,1,120,2|2,0:2|0:2,0:0:0:0:
189,75,64503,5,0,0:0:0:0:
212,89,64591,1,0,0:0:0:0:
236,103,64680,1,2,0:2:0:0:
259,117,64768,1,0,0:0:0:0:
282,131,64856,1,0,0:0:0:0:
305,145,64944,1,0,0:0:0:0:
328,160,65033,6,0,B|388:159|388:159|416:102,1,120,2|2,0:2|0:2,0:0:0:0:
216,131,66091,5,0,0:0:0:0:
209,154,66180,1,0,0:0:0:0:
202,177,66268,1,0,0:0:0:0:
196,199,66356,1,0,0:0:0:0:
188,222,66444,6,0,L|179:252,2,20,2|0|0,0:2|0:0|0:0,0:0:0:0:
116,192,66709,2,0,L|107:162,2,20,2|0|0,0:2|0:0|0:0,0:0:0:0:
45,226,66974,2,0,L|36:256,3,20,2|0|0|0,0:2|0:0|0:0|0:0,0:0:0:0:
86,315,67327,5,0,0:0:0:0:
110,327,67415,1,0,0:0:0:0:
137,334,67503,1,0,0:0:0:0:
164,336,67591,1,0,0:0:0:0:
192,332,67680,1,0,0:0:0:0:
218,322,67768,1,0,0:0:0:0:
242,308,67856,6,0,P|274:297|304:298,1,60,12|8,1:2|0:0,0:0:0:0:
127,247,68386,2,0,P|95:236|65:237,1,60,8|8,0:0|0:0,0:0:0:0:
420,148,69268,6,0,L|430:80,1,60,8|8,0:0|0:0,0:0:0:0:
308,237,69797,2,0,L|298:305,1,60,8|8,0:0|0:0,0:0:0:0:
35,68,70591,2,0,L|36:53,1,10,0|8,0:0|0:0,0:0:0:0:
46,85,70680,6,0,L|113:100,1,60,8|8,0:0|0:0,0:0:0:0:
308,237,71209,2,0,L|241:252,1,60,8|8,0:0|0:0,0:0:0:0:
409,53,72091,6,0,P|414:86|428:112,1,60,8|8,0:0|0:0,0:0:0:0:
214,129,72621,2,0,P|209:162|195:188,2,60,8|8|8,0:0|0:0|0:0,0:0:0:0:
33,46,73415,2,0,L|42:31,1,10,0|8,0:0|0:0,0:0:0:0:
43,72,73503,6,0,L|36:141,1,60,8|8,0:0|0:0,0:0:0:0:
153,268,74033,2,0,L|160:337,1,60,8|8,0:0|0:0,0:0:0:0:
359,168,74915,6,0,B|389:174|389:174|417:167,1,60,8|8,0:0|0:0,0:0:0:0:
199,70,75444,2,0,B|169:64|169:64|141:71,1,60,8|8,0:0|0:0,0:0:0:0:
92,296,76239,2,0,L|88:310,1,10,0|8,0:0|0:0,0:0:0:0:
97,274,76327,6,0,P|91:251|97:204,1,60,8|8,0:0|0:0,0:0:0:0:
342,284,76856,2,0,P|344:313|338:342,1,60,8|8,0:0|0:0,0:0:0:0:
172,68,77739,6,0,P|197:61|234:66,1,60,8|8,0:0|0:0,0:0:0:0:
438,196,78268,2,0,P|413:203|376:198,2,60,8|8|8,0:0|0:0|0:0,0:0:0:0:
182,241,79062,2,0,L|185:256,1,10,0|8,0:0|0:0,0:0:0:0:
175,221,79150,6,0,L|186:131,1,80,14|0,1:2|0:0,0:0:0:0:
116,100,79415,1,8,0:0:0:0:
110,88,79503,2,0,L|104:142,1,40,0|0,1:0|0:0,0:0:0:0:
45,187,79680,2,0,L|51:241,1,40,10|0,0:0|0:0,0:0:0:0:
124,318,79856,6,0,P|161:334|219:325,1,80,8|0,1:2|0:0,0:0:0:0:
287,263,80121,1,8,0:0:0:0:
294,252,80209,2,0,L|302:207,1,40,0|0,1:0|0:0,0:0:0:0:
205,105,80386,1,8,0:0:0:0:
205,105,80474,1,8,0:0:0:0:
217,121,80562,6,0,L|223:209,1,80,10|0,1:2|0:0,0:0:0:0:
126,240,80827,1,8,0:0:0:0:
117,248,80915,2,0,P|83:250|66:248,1,40,0|0,1:0|0:0,0:0:0:0:
122,142,81091,2,0,P|89:132|74:124,1,40,10|0,0:0|0:0,0:0:0:0:
172,49,81268,6,0,P|222:36|263:50,1,80,8|0,1:2|0:0,0:0:0:0:
349,105,81533,1,8,0:0:0:0:
353,116,81621,2,0,L|344:181,1,40,8|0,1:2|0:0,0:0:0:0:
467,257,81797,2,0,L|469:276,3,20,8|8|8|8,0:0|0:0|0:0|0:0,0:0:0:0:
456,304,81974,6,0,L|377:315,1,80,10|0,1:2|0:0,0:0:0:0:
291,275,82239,1,8,0:0:0:0:
285,264,82327,2,0,L|292:214,1,40,8|0,1:2|0:0,0:0:0:0:
235,148,82503,2,0,L|228:98,1,40,10|0,0:0|0:0,0:0:0:0:
163,216,82680,6,0,L|152:305,1,80,8|0,1:2|0:0,0:0:0:0:
74,343,82944,1,8,0:0:0:0:
62,351,83033,2,0,P|40:352|13:349,1,40,8|0,1:2|0:0,0:0:0:0:
34,223,83209,1,8,0:0:0:0:
34,223,83297,1,8,0:0:0:0:
23,204,83386,6,0,L|38:112,1,80,10|0,1:2|0:0,0:0:0:0:
116,55,83650,1,8,0:0:0:0:
122,44,83739,2,0,L|171:53,1,40,8|0,1:2|0:0,0:0:0:0:
255,92,83915,2,0,L|304:83,1,40,10|0,0:0|0:0,0:0:0:0:
386,31,84091,6,0,L|478:50,1,80,8|0,1:2|0:0,0:0:0:0:
442,155,84356,1,8,0:0:0:0:
435,173,84444,2,0,L|438:221,1,40,8|0,1:2|0:0,0:0:0:0:
380,346,84621,2,0,L|398:349,3,20,8|8|8|8,0:0|0:0|0:0|0:0,0:0:0:0:
341,340,84797,6,0,L|340:290,1,40,10|0,1:2|0:0,0:0:0:0:
337,139,84974,2,0,L|336:89,1,40,8|0,1:2|0:0,0:0:0:0:
333,220,85150,6,0,P|307:213|283:213,1,40,8|0,1:2|0:0,0:0:0:0:
131,225,85327,2,0,P|104:231|84:243,1,40,10|0,1:2|0:0,0:0:0:0:
213,219,85503,6,0,L|228:274,1,40,8|0,1:2|0:0,0:0:0:0:
159,24,85680,2,0,L|174:79,1,40,8|0,1:2|0:0,0:0:0:0:
100,148,85856,6,0,P|130:149|151:145,1,40,8|0,1:2|0:0,0:0:0:0:
283,94,86033,1,8,1:2:0:0:
309,85,86121,1,8,0:0:0:0:
335,75,86209,6,0,L|350:137,1,60.0000022888184,10|0,1:2|0:0,0:0:0:0:
349,250,86386,2,0,L|335:309,1,60.0000022888184,8|0,1:2|0:0,0:0:0:0:
177,309,86562,6,0,L|162:250,1,60.0000022888184,8|0,1:2|0:0,0:0:0:0:
162,133,86739,2,0,L|177:75,1,60.0000022888184,10|0,1:2|0:0,0:0:0:0:
400,44,86915,6,0,L|415:102,1,60.0000022888184,8|0,1:2|0:0,0:0:0:0:
415,282,87091,2,0,L|400:340,1,60.0000022888184,8|0,1:2|0:0,0:0:0:0:
112,340,87268,6,0,L|97:282,1,60.0000022888184,8|0,1:2|0:0,0:0:0:0:
97,102,87444,2,0,L|96:73,3,30.0000011444092,8|8|8|8,1:2|0:0|0:0|0:0,0:0:0:0:
136,59,87621,5,8,1:2:0:0:
175,44,87709,1,8,1:2:0:0:
216,52,87797,1,8,1:2:0:0:
251,75,87886,1,8,1:2:0:0:
277,107,87974,1,8,1:2:0:0:
297,150,88062,1,8,1:2:0:0:
339,172,88150,1,8,1:2:0:0:
387,173,88239,1,8,1:2:0:0:
430,152,88327,5,8,1:2:0:0:
456,205,88415,1,8,1:2:0:0:
455,264,88503,1,8,1:2:0:0:
427,317,88591,1,8,1:2:0:0:
379,352,88679,1,8,1:2:0:0:
320,360,88768,1,8,1:2:0:0:
264,342,88856,1,8,1:2:0:0:
222,300,88944,1,8,1:2:0:0:
204,243,89033,6,0,L|155:254,1,40,10|0,0:2|0:0,0:0:0:0:
27,173,89209,1,0,0:0:0:0:
27,173,89297,1,0,0:0:0:0:
27,173,89386,2,0,L|76:183,1,40,2|0,0:2|0:0,0:0:0:0:
208,113,89562,1,0,0:0:0:0:
208,113,89650,1,0,0:0:0:0:
208,113,89739,6,0,P|156:117|231:65,1,240,2|0,0:1|0:0,0:0:0:0:
323,87,90091,5,0,1:0:0:0:
355,84,90180,1,0,1:0:0:0:
386,108,90268,5,0,1:0:0:0:
417,104,90357,1,0,1:0:0:0:
448,129,90444,6,0,L|436:277,1,120.000004577637,4|0,1:2|0:0,0:0:0:0:
423,259,90709,1,0,0:0:0:0:
409,270,90797,2,0,L|417:193,1,60.0000022888184,8|0,1:0|0:0,0:0:0:0:
296,115,90974,2,0,B|338:183|338:183|330:264,1,160,2|0,3:0|1:0,0:0:0:0:
234,337,91239,1,0,0:0:0:0:
237,311,91327,2,0,L|244:243,1,60.0000022888184
178,99,91503,6,0,P|148:86|90:85,1,80,10|0,1:0|0:0,0:0:0:0:
116,214,91680,2,0,P|84:223|39:259,1,80,2|0,0:1|0:0,0:0:0:0:
237,311,91856,6,0,B|250:186|250:186|282:212|319:195,1,180.000006866455,0|0,1:0|0:0,0:0:0:0:
383,187,92209,1,8,1:0:0:0:
170,178,92386,6,0,L|179:88,1,80,2|0,0:1|0:0,0:0:0:0:
301,127,92562,2,0,L|313:8,1,120.000004577637,0|0,1:0|0:0,0:0:0:0:
446,84,92827,1,0,0:0:0:0:
461,83,92915,2,0,P|489:97|513:120,1,60.0000022888184,8|0,1:0|0:0,0:0:0:0:
383,187,93091,2,0,P|404:210|419:239,1,60.0000022888184
237,311,93268,6,0,B|111:319|111:319|146:310|171:283,1,180.000006866455,0|2,1:0|0:0,0:0:0:0:
218,229,93621,1,8,1:0:0:0:
44,283,93797,2,0,P|33:329|44:365,1,60.0000022888184,2|0,0:0|0:0,0:0:0:0:
103,236,93974,1,0,1:0:0:0:
89,211,94062,2,0,B|56:137|56:137|79:55,1,160,2|0,0:0|0:0,0:0:0:0:
252,107,94327,1,8,1:0:0:0:
280,114,94415,1,0,0:0:0:0:
309,114,94503,1,0,0:0:0:0:
337,105,94591,1,0,0:0:0:0:
369,42,94680,6,0,L|349:211,1,160,0|0,1:0|0:0,0:0:0:0:
447,218,94944,2,0,P|477:228|517:231,1,60.0000022888184,2|8,0:0|1:0,0:0:0:0:
405,306,95121,1,0,0:0:0:0:
416,325,95209,2,0,P|436:348|470:371,1,60.0000022888184,2|0,0:0|0:0,0:0:0:0:
331,267,95386,6,0,B|279:284|240:266|240:266|195:244|135:258,1,180.000006866455,2|0,1:0|0:0,0:0:0:0:
84,232,95739,2,0,P|156:253|138:181,1,180.000006866455,10|0,1:0|0:0,0:0:0:0:
11,217,96091,6,0,P|48:305|184:318,1,240,0|0,1:0|0:0,0:0:0:0:
255,271,96444,1,8,1:0:0:0:
441,298,96621,6,0,P|446:322|442:365,1,60.0000022888184,2|0,3:3|0:0,0:0:0:0:
345,198,96797,1,0,1:0:0:0:
345,198,96886,1,0,0:0:0:0:
345,198,96974,2,0,P|340:174|344:131,1,60.0000022888184
228,52,97150,6,0,P|180:39|131:44,1,80,10|0,1:0|0:0,0:0:0:0:
121,176,97327,2,0,P|72:188|32:217,1,80,2|0,0:1|0:0,0:0:0:0:
250,341,97503,6,0,P|329:338|246:280,1,240,0|0,1:0|0:0,0:0:0:0:
178,303,97856,1,8,1:0:0:0:
370,309,98033,2,0,L|456:311,1,80,2|0,0:1|0:0,0:0:0:0:
298,184,98209,2,0,P|255:188|208:215,1,80,0|0,1:0|0:0,0:0:0:0:
82,340,98386,1,0,0:0:0:0:
82,340,98474,1,0,0:0:0:0:
82,340,98562,2,0,L|101:230,1,80,8|0,1:0|0:0,0:0:0:0:
44,134,98739,2,0,L|25:24,1,80
224,115,98915,6,0,B|267:122|308:93|308:93|293:219,1,180.000006866455,0|2,1:0|0:0,0:0:0:0:
290,266,99268,1,8,1:0:0:0:
391,143,99444,2,0,L|399:71,1,60.0000022888184,2|0,0:0|0:0,0:0:0:0:
237,34,99621,1,0,1:0:0:0:
216,29,99709,2,0,P|155:56|138:126,1,120.000004577637,2|0,0:0|0:0,0:0:0:0:
82,218,99974,6,0,P|20:206|88:172,1,180.000006866455,8|0,1:0|0:0,0:0:0:0:
194,315,100327,6,2,P|223:315|241:310,1,40,4|0,1:2|0:0,0:1:0:0:
208,241,100503,2,2,P|222:215|227:197,1,40,0|0,0:0|0:0,0:1:0:0:
150,191,100680,2,2,P|135:165|118:151,1,50,0|0,0:1|0:1,0:1:0:0:
82,218,100856,2,2,P|52:217|31:225,1,50,0|0,0:1|0:1,0:1:0:0:
64,356,101033,6,2,L|67:289,1,60.0000022888184,0|0,0:0|0:0,0:1:0:0:
288,361,101209,2,2,L|285:294,1,60.0000022888184,0|0,0:1|0:1,0:1:0:0:
44,351,101386,6,2,L|48:268,1,80,0|0,0:1|0:1,0:1:0:0:
310,352,101562,2,2,L|306:269,1,80,0|0,0:1|0:1,0:1:0:0:
144,51,101739,6,0,P|77:30|135:117,1,240,4|0,1:2|0:0,0:0:0:0:
204,113,102091,1,8,1:0:0:0:
440,83,102268,6,0,L|446:18,1,60.0000022888184,2|0,3:0|0:0,0:0:0:0:
322,175,102444,1,0,1:0:0:0:
322,175,102533,1,0,0:0:0:0:
322,175,102621,2,0,L|316:240,1,60.0000022888184
446,321,102797,6,0,P|412:339|351:334,1,80,10|0,1:0|0:0,0:0:0:0:
236,284,102974,2,0,P|196:285|161:303,1,80,2|0,0:1|0:0,0:0:0:0:
244,373,103150,6,0,L|272:114,1,240,0|0,1:0|0:0,0:0:0:0:
280,34,103503,1,8,1:0:0:0:
92,183,103680,2,0,P|51:182|10:160,1,80,2|0,0:1|0:0,0:0:0:0:
99,49,103856,6,0,L|176:45,1,60.0000022888184,0|0,1:0|0:0,0:0:0:0:
250,109,104033,1,0,0:0:0:0:
266,119,104121,2,0,L|343:123,1,60.0000022888184,0|8,0:0|1:0,0:0:0:0:
412,48,104297,1,0,0:0:0:0:
428,38,104385,2,0,L|505:34,1,60.0000022888184
433,270,104562,6,0,P|349:251|434:197,1,240,0|2,1:0|0:0,0:0:0:0:
503,325,104915,1,8,1:0:0:0:
283,277,105091,6,0,P|275:241|287:195,1,60.0000022888184,2|0,0:0|0:0,0:0:0:0:
366,96,105268,1,0,0:0:0:0:
362,123,105356,2,0,L|345:259,1,120.000004577637,2|0,0:0|0:0,0:0:0:0:
199,339,105621,5,8,1:0:0:0:
207,304,105709,1,0,0:0:0:0:
215,269,105797,1,0,0:0:0:0:
223,233,105886,1,0,0:0:0:0:
278,185,105974,6,0,L|109:194,1,160,0|0,1:0|0:0,0:0:0:0:
34,157,106239,2,0,P|22:126|19:97,1,60.0000022888184,2|8,0:0|1:0,0:0:0:0:
224,23,106415,1,0,0:0:0:0:
229,44,106503,2,0,P|225:73|213:101,1,60.0000022888184,2|0,0:0|0:0,0:0:0:0:
114,351,106680,6,0,P|70:363|119:276,1,240,2|0,1:0|0:0,0:0:0:0:
223,320,107033,2,0,B|280:357|348:331|348:331|416:304|474:341,1,240,10|0,1:0|0:0,0:0:0:0:
410,217,107386,6,0,B|385:140|385:140|411:53,1,160,0|0,1:0|0:0,0:0:0:0:
429,53,107650,1,0,0:0:0:0:
445,45,107739,2,0,L|423:121,1,60.0000022888184,8|0,1:0|0:0,0:0:0:0:
391,261,107915,2,0,L|351:133,1,120.000004577637,2|0,3:0|1:0,0:0:0:0:
271,90,108180,1,0,0:0:0:0:
242,85,108268,2,0,P|206:91|170:110,1,60.0000022888184
114,351,108444,6,0,P|74:350|35:341,1,80,10|0,1:0|0:0,0:0:0:0:
73,246,108621,2,0,P|34:234|-1:214,1,80,2|0,0:1|0:0,0:0:0:0:
131,162,108797,6,0,P|80:98|185:113,1,240,0|0,1:0|0:0,0:0:0:0:
210,178,109150,1,8,1:0:0:0:
362,92,109327,2,0,P|372:56|364:9,1,80,2|0,0:1|0:0,0:0:0:0:
276,224,109503,6,0,L|291:300,1,60.0000022888184,0|0,1:0|0:0,0:0:0:0:
441,351,109680,1,0,0:0:0:0:
441,351,109768,1,0,0:0:0:0:
441,351,109856,2,0,L|456:275,1,60.0000022888184,8|0,1:0|0:0,0:0:0:0:
494,182,110033,2,0,L|479:106,1,60.0000022888184
261,165,110209,6,0,P|213:233|333:235,1,240.000009155274,4|8,1:2|1:0,0:0:0:0:
241,47,110739,2,0,L|280:247,1,180.000006866455,4|2,1:2|0:0,0:0:0:0:
287,282,111091,1,2,0:0:0:0:
116,316,111268,2,0,B|86:293|50:289|50:289|100:249|173:263,1,180.000006866455,0|0,1:0|0:0,0:0:0:0:
287,282,111621,5,4,1:2:0:0:
354,358,112327,6,0,L|365:322,2,20
287,282,112503,2,0,L|281:255,2,26.6666666666667
373,196,112680,1,0,0:0:0:0:
373,196,112768,1,0,0:0:0:0:
373,196,112856,2,0,L|381:148,1,40
498,95,113033,6,0,B|426:159|335:117|335:117|363:83|447:81,1,240,4|0,1:2|0:0,0:0:0:0:
451,37,113386,1,8,1:0:0:0:
263,64,113562,2,0,L|55:34,1,160,2|0,3:0|1:0,0:0:0:0:
40,114,113827,1,0,0:0:0:0:
21,135,113915,2,0,P|12:182|22:226,1,60.0000022888184
144,267,114091,6,0,L|245:250,1,80,10|0,1:0|0:0,0:0:0:0:
350,314,114268,2,0,L|428:327,1,80,2|0,0:1|0:0,0:0:0:0:
475,142,114444,6,0,P|490:99|415:135,1,180.000006866455,0|0,1:0|0:0,0:0:0:0:
413,197,114797,1,8,1:0:0:0:
195,113,114974,2,0,P|183:81|185:26,1,80,2|0,0:1|0:0,0:0:0:0:
277,233,115150,6,0,L|260:314,1,60.0000022888184,0|0,1:0|0:0,0:0:0:0:
104,359,115327,1,0,0:0:0:0:
101,339,115415,2,0,L|91:261,1,60.0000022888184,0|8,0:0|1:0,0:0:0:0:
184,192,115591,1,0,0:0:0:0:
187,172,115679,2,0,L|197:94,1,60.0000022888184
465,72,115856,6,0,P|472:140|397:98,1,180.000006866455,0|2,1:0|0:0,0:0:0:0:
388,31,116209,1,8,1:0:0:0:
287,174,116386,2,0,P|277:207|278:240,1,60.0000022888184,2|0,0:0|0:0,0:0:0:0:
361,327,116562,1,0,1:0:0:0:
394,332,116650,2,0,L|518:351,1,120.000004577637,2|0,0:0|0:0,0:0:0:0:
457,217,116915,1,8,1:0:0:0:
462,175,117003,1,0,0:0:0:0:
467,133,117091,1,0,0:0:0:0:
473,91,117180,1,0,0:0:0:0:
389,80,117268,6,0,P|305:102|252:53,1,160,0|0,1:0|0:0,0:0:0:0:
172,105,117533,2,0,P|141:89|97:87,1,60.0000022888184,2|8,0:0|1:0,0:0:0:0:
29,228,117709,1,0,0:0:0:0:
48,203,117797,2,0,P|79:187|123:185,1,60.0000022888184,2|0,0:0|0:0,0:0:0:0:
205,377,117974,6,0,L|234:127,1,240,2|0,1:0|0:0,0:0:0:0:
172,105,118327,2,0,P|192:196|303:137,1,240,10|0,1:0|0:0,0:0:0:0:
206,32,118680,6,0,P|122:40|94:117,1,160,0|0,1:0|0:0,0:0:0:0:
28,195,118944,1,0,0:0:0:0:
48,203,119033,2,0,P|71:235|79:273,1,60.0000022888184,8|0,1:0|0:0,0:0:0:0:
101,348,119209,2,0,L|123:191,1,120.000004577637,2|0,3:0|1:0,0:0:0:0:
199,155,119474,1,0,0:0:0:0:
221,143,119562,2,0,P|260:146|287:159,1,60.0000022888184
479,188,119739,6,0,L|467:303,1,80,10|0,1:0|0:0,0:0:0:0:
352,279,119915,2,0,L|364:394,1,80,2|0,0:1|0:0,0:0:0:0:
215,293,120091,6,0,P|126:319|176:229,1,240,0|0,1:0|0:0,0:0:0:0:
247,216,120444,1,8,1:0:0:0:
43,235,120621,2,0,P|34:275|40:317,1,80,2|0,0:1|0:0,0:0:0:0:
125,137,120797,6,0,L|110:70,1,60.0000022888184,0|0,1:0|0:0,0:0:0:0:
260,30,120974,1,0,0:0:0:0:
253,58,121062,2,0,L|239:116,1,60.0000022888184,0|8,0:0|1:0,0:0:0:0:
380,186,121239,1,0,0:0:0:0:
373,158,121327,2,0,L|359:99,1,60.0000022888184
271,320,121503,6,0,P|365:340|321:254,1,240,0|2,1:0|0:0,0:0:0:0:
238,242,121856,1,8,1:0:0:0:
444,354,122033,2,0,P|453:310|446:268,1,80,2|0,0:0|0:0,0:0:0:0:
303,72,122209,1,0,1:0:0:0:
306,95,122297,2,0,L|322:267,1,160,2|0,0:0|0:0,0:0:0:0:
101,307,122562,6,0,P|22:303|66:248,1,180.000006866455,8|0,1:0|0:0,0:0:0:0:
192,286,122915,6,2,P|186:305|183:336,1,40,4|2,1:2|0:0,0:1:0:0:
264,320,123091,2,2,P|274:336|296:359,1,40,0|0,0:1|0:1,0:1:0:0:
348,296,123268,2,2,P|380:299|413:291,1,50,0|0,0:1|0:1,0:1:0:0:
372,220,123444,2,2,P|401:206|425:183,1,50,0|0,0:1|0:1,0:1:0:0:
175,201,123621,6,2,L|102:215,1,60.0000022888184,0|0,0:1|0:1,0:1:0:0:
127,60,123797,2,2,L|54:74,1,60.0000022888184,0|0,0:1|0:1,0:1:0:0:
62,258,123974,6,2,L|158:239,1,80,0|0,0:1|0:1,0:1:0:0:
0,50,124150,2,2,L|78:34,1,80,0|0,0:1|0:1,0:1:0:0:
446,118,124327,6,0,P|472:100|453:96,1,60,0|0,1:0|0:0,0:0:0:0:
422,141,124680,6,0,L|412:238,1,80,12|0,1:2|0:0,0:0:0:0:
450,320,124856,2,0,L|441:240,1,80,8|0,0:0|0:0,0:0:0:0:
234,206,125033,1,8,1:2:0:0:
219,220,125121,2,0,P|226:283|293:232,1,160,8|0,0:0|0:0,0:0:0:0:
142,201,125386,1,8,1:0:0:0:
133,223,125474,1,0,0:0:0:0:
128,246,125562,1,0,0:0:0:0:
128,269,125650,1,0,0:0:0:0:
124,359,125739,6,0,B|170:341|213:358|213:358|258:375|310:352,1,180.000006866455,8|0,1:2|0:0,0:0:0:0:
379,288,126003,1,8,0:0:0:0:
389,271,126091,2,0,P|398:229|385:181,1,80,8|0,1:0|0:0,0:0:0:0:
304,117,126268,2,0,P|295:75|308:27,1,80,8|0,0:0|0:0,0:0:0:0:
419,30,126444,1,8,1:2:0:0:
445,35,126533,6,0,P|452:114|398:100,1,160,8|0,0:2|0:0,0:0:0:0:
219,18,126797,2,0,P|197:40|239:58,1,80,8|0,1:0|0:0,0:0:0:0:
295,164,126974,2,0,P|325:145|303:116,1,80
53,117,127150,6,0,L|234:142,1,160,8|0,1:2|0:0,0:0:0:0:
290,244,127415,1,8,0:2:0:0:
305,263,127503,2,0,P|313:308|301:344,1,80,8|0,1:0|0:0,0:0:0:0:
78,327,127680,2,0,P|70:282|82:246,1,80,8|0,0:2|0:0,0:0:0:0:
215,113,127856,1,8,1:2:0:0:
211,138,127944,2,0,L|186:306,1,160,8|0,0:2|0:0,0:0:0:0:
386,311,128209,1,8,1:0:0:0:
395,288,128297,1,0,0:0:0:0:
395,263,128386,1,0,0:0:0:0:
386,240,128474,1,0,0:0:0:0:
362,163,128562,6,0,P|419:131|404:173,1,160,8|0,1:2|0:0,0:0:0:0:
280,170,128827,1,8,0:0:0:0:
275,136,128915,2,0,P|291:78|322:51,1,80,8|0,1:0|0:0,0:0:0:0:
503,144,129091,2,0,P|487:202|456:229,1,80,8|0,0:2|0:0,0:0:0:0:
343,309,129268,6,0,B|286:335|225:308|225:308|167:283|98:318,1,240,2|0,1:0|0:0,0:0:0:0:
13,315,129621,2,0,P|112:308|53:229,1,240,10|0,1:0|0:0,0:0:0:0:
39,126,129974,6,0,L|60:285,1,160,8|0,1:2|0:0,0:0:0:0:
191,333,130239,1,8,0:0:0:0:
212,348,130327,2,0,P|259:352|308:320,1,80,8|0,1:0|0:0,0:0:0:0:
377,245,130503,2,0,P|414:231|453:236,1,80,8|0,0:2|0:0,0:0:0:0:
502,320,130680,6,0,L|483:139,1,160,8|0,1:2|0:0,0:0:0:0:
367,72,130944,1,8,0:2:0:0:
341,51,131033,2,0,P|292:41|250:54,1,80,8|0,1:0|0:0,0:0:0:0:
206,182,131209,1,8,0:0:0:0:
195,209,131297,1,8,0:0:0:0:
134,158,131386,6,0,L|291:131,1,160,0|0,1:0|0:0,0:0:0:0:
416,275,131650,1,8,0:0:0:0:
389,269,131739,2,0,L|304:253,1,80,8|0,1:0|0:0,0:0:0:0:
166,343,131915,2,0,L|244:328,1,80,8|0,0:0|0:0,0:0:0:0:
459,339,132091,6,0,P|490:269|447:205,1,160,8|0,1:2|0:0,0:0:0:0:
317,124,132356,1,8,0:0:0:0:
291,131,132445,2,0,L|206:159,1,80,8|0,1:0|0:0,0:0:0:0:
66,302,132621,2,0,L|65:282,1,20,8|8,0:0|0:0,0:0:0:0:
82,305,132709,2,0,L|81:285,1,20,8|8,0:0|0:0,0:0:0:0:
102,308,132797,6,0,L|279:282,1,160,4|0,1:2|0:0,0:0:0:0:
438,200,133062,2,0,P|355:232|313:188,1,160,4|0,1:2|0:0,0:0:0:0:
488,121,133327,2,0,L|473:290,1,160,4|0,1:2|0:0,0:0:0:0:
215,180,133591,2,0,L|200:20,1,160,4|0,1:2|0:0,0:0:0:0:
177,270,133856,6,0,P|271:266|295:184,1,160,4|0,1:2|0:0,0:0:0:0:
114,184,134121,2,0,L|149:350,1,160,4|0,1:2|0:0,0:0:0:0:
423,323,134386,2,0,P|477:268|461:193,1,160,4|0,1:2|0:0,0:0:0:0:
265,139,134650,2,0,P|210:193|226:268,1,160,4|0,1:2|0:0,0:0:0:0:
372,104,134915,2,0,P|345:56|307:36,1,80,4|0,1:2|0:0,0:0:0:0:
108,141,135091,5,4,1:2:0:0:
67,148,135179,1,0,0:0:0:0:
35,122,135267,1,0,0:0:0:0:
38,79,135355,1,0,0:0:0:0:
73,56,135443,1,4,1:2:0:0:
113,70,135532,1,0,0:0:0:0:
185,145,135621,6,0,P|273:130|193:74,1,240,4|0,1:2|0:0,0:0:0:0:
110,96,135974,1,8,1:0:0:0:
299,209,136150,2,0,P|345:131|330:52,1,160,2|0,3:0|1:0,0:0:0:0:
109,20,136415,1,0,0:0:0:0:
82,26,136503,2,0,P|43:61|35:77,1,60.0000022888184
46,313,136680,6,0,L|163:329,1,80,10|0,1:0|0:0,0:0:0:0:
184,204,136856,2,0,L|301:188,1,80,2|0,0:1|0:0,0:0:0:0:
414,317,137033,6,0,P|476:266|411:252,1,180.000006866455,0|0,1:0|0:0,0:0:0:0:
346,278,137386,1,8,1:0:0:0:
171,277,137562,2,0,L|69:277,1,80,2|0,0:1|0:0,0:0:0:0:
263,193,137739,6,0,L|273:120,1,60.0000022888184,0|0,1:0|0:0,0:0:0:0:
117,38,137915,1,0,0:0:0:0:
122,64,138003,2,0,L|132:137,1,60.0000022888184,0|8,0:0|1:0,0:0:0:0:
12,200,138180,1,0,0:0:0:0:
8,226,138268,2,0,L|-2:299,1,60.0000022888184
173,307,138444,6,0,B|237:285|327:315|327:315|280:293|277:246,1,240,0|2,1:0|0:2,0:0:0:0:
199,222,138797,1,8,1:0:0:0:
355,242,138974,6,0,P|395:272|416:315,1,60.0000022888184,2|0,0:2|0:0,0:0:0:0:
459,364,139150,1,0,1:0:0:0:
455,334,139239,2,0,L|435:176,1,120.000004577637,2|0,0:2|0:0,0:0:0:0:
430,56,139503,5,8,1:0:0:0:
402,87,139591,1,0,0:0:0:0:
361,100,139680,1,0,0:0:0:0:
320,90,139768,1,0,0:0:0:0:
261,153,139856,6,0,P|203:132|120:228,1,160,2|0,1:2|0:0,0:0:0:0:
19,136,140121,2,0,P|10:103|15:62,1,60.0000022888184,2|8,0:2|1:0,0:0:0:0:
209,229,140297,1,0,0:0:0:0:
214,255,140386,2,0,P|214:284|206:313,1,60.0000022888184,2|0,0:0|0:0,0:0:0:0:
81,342,140562,6,0,B|139:313|194:338|194:338|246:363|316:331,1,240,2|0,1:0|0:0,0:0:0:0:
344,246,140915,2,0,P|316:337|404:299,1,240,10|0,1:0|0:0,0:0:0:0:
417,202,141268,6,0,L|246:217,1,160,0|0,1:0|2:0,2:0:0:0:
151,162,141532,1,0,0:0:0:0:
136,140,141621,2,0,P|128:108|132:60,1,60.0000022888184,8|0,1:0|0:0,0:0:0:0:
274,40,141797,2,0,P|327:23|395:85,1,120.000004577637,2|0,3:0|1:0,0:0:0:0:
418,171,142062,1,0,0:0:0:0:
417,202,142150,2,0,L|414:269,1,60.0000022888184
242,327,142327,6,0,P|200:318|142:332,1,80,10|0,1:0|0:0,0:0:0:0:
288,212,142503,2,0,P|256:188|218:176,1,80,2|0,0:1|0:0,0:0:0:0:
67,72,142680,6,0,P|62:167|128:99,1,240,0|0,1:0|0:0,0:0:0:0:
132,28,143033,1,8,1:0:0:0:
42,193,143209,2,0,L|1:275,1,80,2|0,0:1|0:0,0:0:0:0:
217,235,143386,6,0,P|258:227|295:232,1,60.0000022888184,0|0,1:0|0:0,0:0:0:0:
374,315,143562,1,0,0:0:0:0:
374,315,143650,1,0,0:0:0:0:
374,315,143739,2,0,P|403:315|432:307,1,60.0000022888184,8|0,1:0|0:0,0:0:0:0:
475,166,143915,2,0,L|481:106,1,60.0000022888184
217,235,144091,6,0,P|128:264|176:179,1,240,0|2,1:0|0:2,0:0:0:0:
248,165,144444,1,8,1:0:0:0:
200,352,144621,2,0,P|137:353|103:338,1,80,2|0,0:2|0:0,0:0:0:0:
36,230,144797,1,0,1:0:0:0:
41,201,144886,2,0,P|92:124|172:105,1,160,2|0,0:2|0:0,0:0:0:0:
366,190,145150,6,0,P|433:174|365:152,1,180.000006866455,8|0,1:0|0:0,0:0:0:0:
283,201,145503,6,2,P|287:230|285:252,1,40,4|0,1:2|0:1,0:1:0:0:
202,233,145680,2,2,P|186:257|170:273,1,40,0|0,0:1|0:1,0:1:0:0:
126,205,145856,2,2,P|98:213|74:215,1,50,0|0,0:1|0:1,0:1:0:0:
85,135,146033,2,2,P|57:123|38:109,1,50,0|0,0:1|0:1,0:1:0:0:
181,22,146209,6,2,L|178:97,1,60.0000022888184,0|0,0:1|0:1,0:1:0:0:
331,22,146386,2,2,L|334:97,1,60.0000022888184,0|0,0:1|0:1,0:1:0:0:
156,15,146562,6,2,L|151:109,1,80,0|0,0:1|0:1,0:1:0:0:
356,15,146739,2,2,L|361:109,1,80,0|0,0:1|0:1,0:1:0:0:
262,322,146915,6,0,P|236:316|246:292,1,60,0|0,1:0|0:0,0:0:0:0:
260,258,147268,6,0,L|353:268,1,80,4|0,1:2|0:0,0:0:0:0:
455,228,147444,2,0,L|362:238,1,80,8|0,0:0|0:0,0:0:0:0:
203,130,147621,1,8,1:2:0:0:
188,113,147709,2,0,P|177:66|282:57,1,160,8|0,0:0|0:0,0:0:0:0:
292,162,147974,1,8,1:0:0:0:
277,180,148062,1,0,0:0:0:0:
260,196,148150,1,0,0:0:0:0:
240,208,148238,1,0,0:0:0:0:
161,196,148327,6,0,B|241:208|241:208|269:284,1,160,8|0,1:2|0:0,0:0:0:0:
378,332,148591,1,8,0:0:0:0:
367,307,148680,2,0,L|336:222,1,80,8|0,1:0|0:0,0:0:0:0:
170,272,148856,2,0,L|201:357,1,80,8|0,0:2|0:0,0:0:0:0:
445,206,149033,1,8,1:2:0:0:
463,191,149121,6,0,P|468:144|387:173,1,160,8|0,0:0|0:0,0:0:0:0:
195,202,149386,2,0,P|153:204|109:180,1,80,8|0,1:0|0:0,0:0:0:0:
147,28,149562,2,0,P|189:26|233:50,1,80
170,118,149739,6,0,L|-18:69,1,160,8|0,1:2|0:0,0:0:0:0:
174,208,150003,1,8,0:0:0:0:
195,202,150091,2,0,P|243:144|245:120,1,80,8|0,1:0|0:0,0:0:0:0:
60,290,150268,2,0,P|76:325|108:349,1,80,8|0,0:0|0:0,0:0:0:0:
175,94,150444,1,8,1:2:0:0:
170,118,150533,2,0,L|133:309,1,160,8|0,0:2|0:0,0:0:0:0:
296,302,150797,1,8,1:0:0:0:
317,291,150886,1,0,0:0:0:0:
340,286,150974,1,0,0:0:0:0:
363,287,151062,1,0,0:0:0:0:
431,243,151150,6,0,P|410:280|409:220,1,160,8|0,1:2|0:0,0:0:0:0:
491,308,151415,1,8,0:0:0:0:
473,328,151503,2,0,P|425:354|385:349,1,80,8|0,1:0|0:0,0:0:0:0:
391,146,151680,2,0,P|430:149|463:171,1,80,8|0,0:0|0:0,0:0:0:0:
280,227,151856,6,0,P|191:232|255:154,1,240,2|0,1:0|0:0,0:0:0:0:
317,291,152209,2,0,P|227:324|114:218,1,240,10|0,1:0|0:0,0:0:0:0:
80,175,152562,6,0,B|121:245|121:245|76:341,1,160,8|0,1:2|0:0,0:0:0:0:
2,143,152827,1,8,0:0:0:0:
17,120,152915,2,0,P|57:98|110:99,1,80,8|0,1:0|0:0,0:0:0:0:
233,111,153091,2,0,P|272:134|297:181,1,80,8|0,0:2|0:0,0:0:0:0:
251,345,153268,6,0,L|214:185,1,160,8|0,1:2|0:0,0:0:0:0:
296,57,153533,1,8,0:0:0:0:
319,41,153621,2,0,P|360:35|411:42,1,80,8|0,1:0|0:0,0:0:0:0:
467,192,153797,1,8,0:0:0:0:
474,214,153886,1,8,0:0:0:0:
481,236,153974,6,0,P|375:203|330:235,1,160,8|0,1:2|0:0,0:0:0:0:
270,132,154239,1,8,0:0:0:0:
259,159,154327,2,0,P|225:182|175:188,1,80,8|0,1:0|0:0,0:0:0:0:
283,13,154503,2,0,P|322:20|354:43,1,80,8|0,0:2|0:0,0:0:0:0:
192,105,154680,6,0,L|27:90,1,160,8|0,1:2|0:0,0:0:0:0:
265,62,154944,1,8,0:0:0:0:
273,82,155033,2,0,P|273:128|248:170,1,80,8|0,1:0|0:0,0:0:0:0:
90,295,155209,2,0,L|109:303,1,20,8|8,0:0|0:0,0:0:0:0:
97,273,155297,2,0,L|116:281,1,20,8|8,0:0|0:0,0:0:0:0:
101,251,155386,6,0,B|85:171|85:171|122:70,1,160,4|0,1:2|0:0,0:0:0:0:
342,277,155650,2,0,P|274:327|211:274,1,160,4|0,1:2|0:0,0:0:0:0:
432,181,155915,2,0,L|453:354,1,160,4|0,1:2|0:0,0:0:0:0:
336,137,156180,2,0,P|402:78|491:102,1,160,4|0,1:2|0:0,0:0:0:0:
275,283,156444,6,0,B|219:222|219:222|233:122,1,160,4|0,1:2|0:0,0:0:0:0:
67,26,156709,2,0,B|122:86|122:86|109:187,1,160,4|0,1:2|0:0,0:0:0:0:
209,338,156974,2,0,P|315:358|366:291,1,160,4|0,1:2|0:0,0:0:0:0:
163,235,157239,2,0,L|-8:201,1,160,4|0,1:2|0:0,0:0:0:0:
222,171,157503,2,0,P|247:201|254:240,1,80,4|0,1:2|0:0,0:0:0:0:
56,94,157680,5,0,0:0:0:0:
79,72,157768,1,0,0:0:0:0:
108,60,157856,1,0,0:0:0:0:
139,55,157944,1,0,0:0:0:0:
171,57,158033,1,0,0:0:0:0:
200,68,158121,1,0,0:0:0:0:
208,105,158209,6,0,B|204:166|204:166|238:115,1,120,6|2,1:2|0:0,0:0:0:0:
381,306,159268,5,0,0:0:0:0:
386,286,159356,1,0,0:0:0:0:
391,266,159444,1,0,0:0:0:0:
396,246,159533,1,0,0:0:0:0:
401,226,159621,6,0,L|396:103,1,120,2|2,0:0|0:0,0:0:0:0:
85,207,160503,5,0,0:0:0:0:
99,220,160591,1,0,0:0:0:0:
113,233,160680,1,2,0:0:0:0:
127,246,160768,1,0,0:0:0:0:
141,259,160856,1,0,0:0:0:0:
155,272,160944,1,0,0:0:0:0:
170,285,161033,6,0,B|218:248|218:248|198:308,1,120,2|2,0:0|0:0,0:0:0:0:
413,95,162091,5,0,0:0:0:0:
392,92,162180,1,0,0:0:0:0:
372,89,162268,1,0,0:0:0:0:
352,86,162356,1,0,0:0:0:0:
332,83,162444,6,0,L|213:101,1,120,2|2,0:0|0:0,0:0:0:0:
32,298,163327,5,0,0:0:0:0:
31,278,163415,1,0,0:0:0:0:
30,258,163503,1,2,0:0:0:0:
29,238,163591,1,0,0:0:0:0:
28,217,163680,1,0,0:0:0:0:
27,197,163768,1,0,0:0:0:0:
27,177,163856,6,0,B|39:117|39:117|102:103,1,120,2|2,0:0|0:0,0:0:0:0:
330,271,164915,5,0,0:0:0:0:
348,264,165003,1,0,0:0:0:0:
366,257,165091,1,0,0:0:0:0:
385,250,165180,1,0,0:0:0:0:
404,244,165268,6,0,L|387:366,1,120,2|2,0:0|0:0,0:0:0:0:
219,200,166150,5,0,0:0:0:0:
224,180,166239,1,0,0:0:0:0:
229,160,166327,1,2,0:0:0:0:
234,140,166415,1,0,0:0:0:0:
239,120,166503,1,0,0:0:0:0:
245,101,166591,1,0,0:0:0:0:
251,81,166680,6,0,P|192:81|145:42,1,120,2|2,0:0|0:0,0:0:0:0:
366,36,167739,5,0,0:0:0:0:
377,52,167827,1,0,0:0:0:0:
385,70,167915,1,0,0:0:0:0:
390,89,168003,1,0,0:0:0:0:
392,108,168091,6,0,P|391:147|377:184,2,60,2|2|2,0:0|0:0|0:0,0:0:0:0:
327,341,168974,5,0,0:0:0:0:
307,338,169062,1,0,0:0:0:0:
287,335,169150,1,2,0:0:0:0:
266,332,169239,1,0,0:0:0:0:
246,329,169327,1,0,0:0:0:0:
226,326,169415,1,0,0:0:0:0:
206,323,169503,6,0,B|187:266|187:266|171:327,1,120,2|2,0:0|0:0,0:0:0:0:
51,182,170562,5,0,0:0:0:0:
57,163,170650,1,0,0:0:0:0:
63,143,170739,1,0,0:0:0:0:
69,124,170827,1,0,0:0:0:0:
75,105,170915,6,0,P|113:132|183:115,1,120,2|2,0:0|0:0,0:0:0:0:
445,332,171797,5,0,0:0:0:0:
442,312,171886,1,0,0:0:0:0:
439,292,171974,1,2,0:0:0:0:
436,272,172062,1,0,0:0:0:0:
433,252,172150,1,0,0:0:0:0:
430,232,172239,1,0,0:0:0:0:
427,212,172327,6,0,L|445:78,1,120,2|2,0:0|0:0,0:0:0:0:
198,297,173386,5,0,0:0:0:0:
178,301,173474,1,0,0:0:0:0:
158,303,173562,1,0,0:0:0:0:
138,302,173650,1,0,0:0:0:0:
118,297,173739,6,0,P|69:263|47:201,1,120,2|2,0:0|0:0,0:0:0:0:
271,57,174621,5,0,0:0:0:0:
290,60,174709,1,0,0:0:0:0:
309,63,174797,1,2,0:0:0:0:
328,66,174886,1,0,0:0:0:0:
347,69,174974,1,0,0:0:0:0:
366,72,175062,1,0,0:0:0:0:
385,75,175150,6,0,B|406:131|406:131|394:200,1,120,2|2,0:0|0:0,0:0:0:0:
172,270,176209,5,0,0:0:0:0:
153,263,176297,1,0,0:0:0:0:
133,259,176386,1,0,0:0:0:0:
113,259,176474,1,0,0:0:0:0:
93,263,176562,6,0,L|107:130,1,120,2|2,0:0|0:0,0:0:0:0:
419,318,177444,5,0,0:0:0:0:
421,297,177533,1,0,0:0:0:0:
423,277,177621,1,2,0:0:0:0:
425,257,177709,1,0,0:0:0:0:
427,237,177797,1,0,0:0:0:0:
429,216,177886,1,0,0:0:0:0:
431,196,177974,6,0,P|363:207|308:177,1,120,2|2,0:0|0:0,0:0:0:0:
62,251,179033,5,0,0:0:0:0:
66,231,179121,1,0,0:0:0:0:
70,211,179209,1,0,0:0:0:0:
74,191,179297,1,0,0:0:0:0:
79,171,179386,6,0,L|86:138,2,20,2|0|0,0:0|0:0|0:0,0:0:0:0:
171,122,179650,2,0,L|163:158,2,30.0000011444092,2|0|0,0:0|0:0|0:0,0:0:0:0:
235,209,179915,2,0,L|245:167,1,40,2|0,0:0|0:0,0:0:0:0:
324,107,180091,6,0,L|333:135,2,20
392,40,180268,2,0,L|398:0,2,26.6666666666667
452,118,180444,1,0,0:0:0:0:
452,118,180533,1,0,0:0:0:0:
452,118,180621,2,0,L|444:179,1,40
356,328,180797,6,0,L|305:322,2,40,6|0|0,1:2|0:0|0:0,0:0:0:0:
79,221,181503,6,0,L|134:216,2,40
348,79,182209,6,0,L|301:87,2,40,2|0|0,0:0|0:0|0:0,0:0:0:0:
92,109,182915,6,0,P|86:133|87:153,2,40
332,325,183621,6,0,P|332:305|327:286,2,40,2|0|0,0:0|0:0|0:0,0:0:0:0:
376,102,184327,6,0,L|430:92,2,40
104,207,185033,6,0,L|50:197,2,40,2|0|0,0:0|0:0|0:0,0:0:0:0:
456,232,185739,6,0,P|462:262|463:280,2,40
169,70,186444,6,0,L|123:75,1,40,2|0,0:0|0:0,0:0:0:0:
129,74,186797,1,0,0:0:0:0:
296,289,187150,6,0,L|301:237,1,40,2|0,0:0|0:0,0:0:0:0:
299,249,187503,1,0,0:0:0:0:
102,158,187856,6,0,P|101:126|103:110,1,40,2|0,0:0|0:0,0:0:0:0:
101,118,188209,1,0,0:0:0:0:
410,118,188562,6,0,P|411:138|410:158,1,40,2|0,0:0|0:0,0:0:0:0:
410,157,188915,1,0,0:0:0:0:
144,292,189268,6,0,L|102:287,1,40,2|0,0:0|0:0,0:0:0:0:
104,287,189621,1,0,0:0:0:0:
368,292,189974,6,0,L|410:287,1,40,2|0,0:0|0:0,0:0:0:0:
407,287,190327,1,0,0:0:0:0:
332,123,190680,6,0,P|329:106|326:73,1,40,2|0,0:0|0:0,0:0:0:0:
326,83,191033,1,2,0:0:0:0:
180,261,191386,6,0,P|183:278|186:311,1,40,2|0,0:0|0:0,0:0:0:0:
185,300,191739,1,2,0:0:0:0:
320,56,192091,5,2,0:0:0:0:
370,123,192268,1,2,0:0:0:0:
419,190,192444,2,0,L|485:200,2,60,2|2|2,0:0|0:0|0:0,0:0:0:0:
339,253,193150,6,0,L|273:263,1,60,2|2,0:0|0:0,0:0:0:0:
157,172,193680,1,2,0:0:0:0:
157,172,193856,2,0,L|148:248,2,60,2|2|2,0:0|0:0|0:0,0:0:0:0:
102,107,194562,6,0,P|94:78|96:42,1,60,2|2,0:0|0:0,0:0:0:0:
252,32,195091,1,2,0:0:0:0:
242,115,195268,2,0,L|233:191,2,60,2|2|2,0:0|0:0|0:0,0:0:0:0:
430,294,196327,5,2,0:0:0:0:
347,308,196503,1,2,0:0:0:0:
263,321,196680,2,0,L|253:247,2,60,2|2|2,0:0|0:0|0:0,0:0:0:0:
161,343,197386,6,0,P|136:337|101:342,1,60,2|2,0:0|0:0,0:0:0:0:
45,207,197915,1,2,0:0:0:0:
115,251,198091,2,0,L|188:244,1,60,2|2,0:0|0:0,0:0:0:0:
467,177,198621,1,2,0:0:0:0:
397,133,198797,2,0,L|324:140,1,60,2|2,0:0|0:0,0:0:0:0:
51,85,199327,1,2,0:0:0:0:
121,41,199503,2,0,L|194:48,2,60,2|2|2,0:0|0:0|0:0,0:0:0:0:
51,85,200209,2,0,P|45:109|51:156,1,60,2|0,0:0|0:0,0:0:0:0:
117,210,200562,6,0,L|117:235,3,20
201,186,200915,2,0,L|201:161,3,20
267,242,201268,5,0,0:0:0:0:
283,253,201356,1,0,0:0:0:0:
301,260,201444,1,0,0:0:0:0:
320,264,201533,1,0,0:0:0:0:
339,265,201621,1,0,0:0:0:0:
358,263,201709,1,0,0:0:0:0:
377,257,201797,1,0,0:0:0:0:
394,247,201886,1,0,0:0:0:0:
445,301,201974,5,0,1:0:0:0:
318,126,203386,6,0,L|333:63,1,60,14|8,1:2|0:0,0:0:0:0:
127,247,203915,2,0,L|140:305,1,60,10|8,0:0|0:0,0:0:0:0:
385,233,204797,6,0,P|420:241|452:239,1,60,10|8,0:0|0:0,0:0:0:0:
135,132,205327,2,0,P|100:124|68:126,1,60,10|8,0:0|0:0,0:0:0:0:
367,275,206121,2,0,L|370:259,1,10,0|8,0:0|0:0,0:0:0:0:
370,296,206209,6,0,L|377:355,1,60,10|8,0:0|0:0,0:0:0:0:
134,355,206739,2,0,L|142:296,1,60,10|8,0:0|0:0,0:0:0:0:
113,103,207621,6,0,B|83:109|83:109|52:101,1,60,10|8,0:0|0:0,0:0:0:0:
399,281,208150,2,0,B|429:275|429:275|460:283,2,60,10|8|8,0:0|0:0|0:0,0:0:0:0:
261,81,208944,2,0,L|257:67,1,10,0|8,0:0|0:0,0:0:0:0:
263,96,209033,6,0,L|259:159,1,60,10|8,0:0|0:0,0:0:0:0:
457,282,209562,2,0,L|461:345,1,60,10|8,0:0|0:0,0:0:0:0:
144,252,210444,6,0,P|111:246|76:259,1,60,10|8,0:0|0:0,0:0:0:0:
372,115,210974,2,0,P|400:122|430:115,1,60,8|8,0:0|0:0,0:0:0:0:
121,211,211768,2,0,L|108:214,1,10,0|8,0:0|0:0,0:0:0:0:
131,194,211856,6,0,L|139:134,1,60,10|8,0:0|0:0,0:0:0:0:
275,275,212386,2,0,L|283:335,1,60,10|8,0:0|0:0,0:0:0:0:
349,86,213268,6,0,P|381:64|404:57,1,60,10|8,0:0|0:0,0:0:0:0:
400,326,213797,2,0,P|372:316|349:298,2,60,10|8|10,0:0|0:0|0:0,0:0:0:0:
212,129,214591,2,0,L|203:115,1,10,0|8,0:0|0:0,0:0:0:0:
214,143,214680,6,0,L|203:231,1,80,14|0,1:2|0:0,0:0:0:0:
100,309,214944,1,8,0:0:0:0:
98,288,215033,2,0,L|96:242,1,40,8|0,1:2|0:0,0:0:0:0:
29,175,215209,2,0,L|31:129,1,40,10|0,0:0|0:0,0:0:0:0:
162,48,215386,6,0,P|207:34|254:45,1,80,10|0,1:2|0:0,0:0:0:0:
376,113,215650,1,8,0:0:0:0:
379,132,215739,2,0,L|390:201,1,40,8|0,1:2|0:0,0:0:0:0:
329,313,215915,1,10,0:0:0:0:
329,313,216003,1,8,0:0:0:0:
309,348,216091,6,0,L|316:259,1,80,10|0,1:2|0:0,0:0:0:0:
232,200,216356,1,8,0:0:0:0:
214,208,216444,2,0,P|179:212|158:210,1,40,8|0,1:2|0:0,0:0:0:0:
156,125,216621,2,0,P|120:122|100:117,1,40,10|0,0:0|0:0,0:0:0:0:
27,192,216797,6,0,L|17:287,1,80,10|0,1:2|0:0,0:0:0:0:
106,339,217062,1,8,0:0:0:0:
124,346,217150,2,0,P|150:348|174:344,1,40,8|0,1:2|0:0,0:0:0:0:
274,234,217327,2,0,L|243:237,3,20,8|8|8|8,0:0|0:0|0:0|0:0,0:0:0:0:
289,252,217503,6,0,L|304:147,1,80,10|0,1:2|0:0,0:0:0:0:
378,68,217768,1,8,0:0:0:0:
396,60,217856,2,0,P|426:57|447:61,1,40,8|0,1:2|0:0,0:0:0:0:
440,176,218033,2,0,P|410:179|389:175,1,40,10|0,0:0|0:0,0:0:0:0:
245,111,218209,6,0,P|200:102|151:119,1,80,10|0,1:2|0:0,0:0:0:0:
87,197,218474,1,8,0:0:0:0:
88,216,218562,2,0,L|92:279,1,40,8|0,1:2|0:0,0:0:0:0:
228,334,218739,1,10,0:0:0:0:
228,334,218827,1,8,0:0:0:0:
215,315,218915,6,0,L|314:324,1,80,10|0,1:2|0:0,0:0:0:0:
397,278,219180,1,8,0:0:0:0:
402,258,219268,2,0,P|405:230|402:209,1,40,8|0,1:2|0:0,0:0:0:0:
264,162,219444,2,0,P|262:181|265:201,1,40,10|0,0:0|0:0,0:0:0:0:
306,77,219621,6,0,P|263:64|219:76,1,80,10|0,1:2|0:0,0:0:0:0:
138,132,219886,1,8,0:0:0:0:
118,136,219974,2,0,P|93:138|66:132,1,40,8|0,1:2|0:0,0:0:0:0:
50,276,220150,2,0,L|48:252,3,20,8|8|8|8,0:0|0:0|0:0|0:0,0:0:0:0:
61,298,220327,6,0,P|80:316|101:328,1,40,10|0,1:2|0:0,0:0:0:0:
129,259,220503,2,0,P|155:260|179:256,1,40,8|0,1:2|0:0,0:0:0:0:
153,185,220680,2,0,P|174:168|189:150,1,40,10|0,1:2|0:0,0:0:0:0:
127,110,220856,2,0,P|133:83|133:59,1,40,8|0,1:2|0:0,0:0:0:0:
253,45,221033,6,0,L|220:82,1,40,10|0,1:2|0:0,0:0:0:0:
296,118,221209,2,0,L|295:167,1,40,8|0,1:2|0:0,0:0:0:0:
375,143,221386,2,0,L|406:181,1,40,10|0,1:2|0:0,0:0:0:0:
500,257,221562,1,8,1:2:0:0:
491,279,221650,1,8,0:0:0:0:
471,294,221739,6,0,L|413:286,1,40,10|0,1:2|0:0,0:0:0:0:
337,326,221915,2,0,L|279:318,1,40,8|0,1:2|0:0,0:0:0:0:
230,251,222091,2,0,L|172:243,1,40,8|0,1:2|0:0,0:0:0:0:
31,162,222268,1,8,1:2:0:0:
40,140,222356,1,8,0:0:0:0:
60,125,222445,6,0,L|118:133,1,40,8|0,1:2|0:0,0:0:0:0:
194,93,222621,2,0,L|252:101,1,40,8|0,1:2|0:0,0:0:0:0:
301,168,222797,2,0,L|359:176,1,40,8|0,1:2|0:0,0:0:0:0:
467,72,222974,2,0,L|459:100,3,20,8|8|8|8,1:2|0:0|0:0|0:0,0:0:0:0:
474,119,223150,5,8,1:2:0:0:
443,145,223239,1,8,1:2:0:0:
403,150,223327,1,8,1:2:0:0:
364,140,223415,1,8,1:2:0:0:
329,120,223503,1,8,1:2:0:0:
290,110,223591,1,8,1:2:0:0:
250,115,223679,1,8,1:2:0:0:
219,141,223768,1,8,1:2:0:0:
201,176,223856,5,8,1:2:0:0:
228,220,223944,1,8,1:2:0:0:
223,272,224032,1,8,1:2:0:0:
188,309,224120,1,8,1:2:0:0:
136,316,224208,1,8,1:2:0:0:
92,292,224297,1,8,1:2:0:0:
71,244,224385,1,8,1:2:0:0:
83,194,224473,1,8,1:2:0:0:
124,163,224562,6,0,L|127:117,1,40,10|0,3:2|0:0,0:0:0:0:
285,39,224739,1,0,0:0:0:0:
285,39,224827,1,0,3:0:0:0:
285,39,224915,2,0,L|288:85,1,40,2|0,0:2|0:0,0:0:0:0:
420,170,225091,1,0,3:0:0:0:
440,204,225180,1,0,0:0:0:0:
458,239,225268,6,0,P|381:323|409:205,1,320,2|8,0:1|1:0,0:0:0:0:
244,350,225797,1,8,0:0:0:0:
55,207,225974,6,0,L|65:99,1,80,4|2,1:0|0:1,0:0:0:0:
132,32,226150,1,2,0:0:0:0:
293,229,226327,1,10,1:0:0:0:
238,204,226415,1,2,0:0:0:0:
179,212,226503,1,2,0:0:0:0:
133,248,226591,1,0,0:1:0:0:
111,303,226680,6,0,L|327:323,1,160,2|0,1:0|0:1,0:0:0:0:
386,138,226944,1,2,0:1:0:0:
369,126,227033,2,0,P|329:127|295:147,1,80,8|0,1:0|0:0,0:0:0:0:
383,331,227209,2,0,L|360:226,1,80,2|2,0:1|0:0,0:0:0:0:
163,183,227386,5,0,1:0:0:0:
97,222,227474,1,2,0:1:0:0:
96,299,227562,1,0,0:0:0:0:
160,341,227650,1,2,0:0:0:0:
230,309,227739,2,0,P|300:301|387:334,1,160,10|2,1:0|0:0,0:0:0:0:
446,378,228003,1,2,0:0:0:0:
502,271,228091,6,0,L|493:180,1,80,2|0,1:0|0:0,1:1:0:0:
292,60,228268,1,2,0:0:0:0:
324,168,228357,1,2,0:0:0:0:
360,98,228445,2,0,L|448:106,1,80,10|0,1:0|0:0,1:1:0:0:
498,231,228621,1,2,0:1:0:0:
500,251,228709,1,0,0:0:0:0:
502,271,228797,6,0,B|443:258|443:258|346:281,1,160,0|2,1:0|0:1,0:0:0:0:
226,301,229062,1,0,0:0:0:0:
158,201,229150,2,0,B|149:85|149:85|189:137,1,160,10|2,1:0|0:0,0:0:0:0:
201,294,229415,1,0,0:0:0:0:
175,285,229503,6,0,L|84:265,1,80,2|0,1:0|0:0,0:0:0:0:
1,71,229680,1,2,0:0:0:0:
73,103,229768,1,2,0:0:0:0:
107,30,229856,2,0,P|154:15|201:38,1,80,8|2,1:0|0:1,0:0:0:0:
233,194,230033,2,0,P|186:209|139:186,1,80,2|0,0:0|0:1,0:0:0:0:
356,64,230209,5,0,1:0:0:0:
412,120,230297,2,0,L|396:291,1,160,2|0,0:1|0:0,0:0:0:0:
249,325,230562,1,8,1:0:0:0:
211,280,230650,1,2,0:1:0:0:
213,221,230738,1,2,0:0:0:0:
254,180,230826,1,2,0:0:0:0:
313,177,230915,6,0,L|306:87,1,80,2|0,1:0|0:0,0:0:0:0:
146,8,231091,1,2,0:0:0:0:
126,14,231180,1,2,0:1:0:0:
107,20,231268,2,0,L|93:113,1,80,8|0,1:0|0:0,0:0:0:0:
213,221,231444,2,0,P|234:183|230:134,1,80,2|2,0:1|0:0,0:0:0:0:
56,263,231621,6,0,L|76:351,1,80,0|2,1:0|0:1,0:0:0:0:
190,367,231797,1,2,0:0:0:0:
372,210,231974,2,0,L|213:221,1,160,10|2,1:0|0:0,0:0:0:0:
197,141,232239,1,2,0:1:0:0:
181,62,232327,6,0,L|279:73,1,80,0|0,1:0|0:0,0:0:0:0:
442,157,232503,1,2,0:0:0:0:
427,78,232591,1,2,0:1:0:0:
367,130,232680,2,0,L|374:228,1,80,8|2,1:0|0:0,0:0:0:0:
385,329,232856,1,2,0:1:0:0:
103,195,233033,5,0,1:0:0:0:
131,166,233121,2,0,L|300:176,1,160,2|2,0:1|0:0,0:0:0:0:
225,64,233386,2,0,P|210:101|210:141,1,80,10|0,1:0|0:0,0:0:0:0:
287,255,233562,1,2,0:0:0:0:
207,250,233650,1,0,0:0:0:0:
127,246,233739,6,0,L|131:166,1,80,2|0,1:0|0:0,0:0:0:0:
321,76,233915,1,0,0:0:0:0:
321,76,234003,1,2,0:0:0:0:
321,76,234091,2,0,L|329:156,1,80,10|0,1:0|0:0,0:0:0:0:
469,216,234268,1,0,0:0:0:0:
472,196,234356,1,2,0:1:0:0:
475,176,234444,6,0,P|496:260|433:308,1,160,2|2,1:2|0:1,0:0:0:0:
367,298,234709,1,0,0:0:0:0:
306,350,234797,2,0,P|266:348|229:333,1,80,10|0,1:0|0:0,0:0:0:0:
156,182,234974,2,0,P|192:166|232:165,1,80,0|2,0:0|0:0,0:0:0:0:
367,298,235150,5,2,1:0:0:0:
370,258,235238,1,0,0:0:0:0:
373,218,235326,1,2,0:0:0:0:
376,178,235414,1,2,0:1:0:0:
379,138,235503,2,0,L|366:42,1,80,8|2,1:0|0:1,0:0:0:0:
216,4,235680,2,0,P|198:36|205:91,1,80,2|0,0:0|0:0,0:0:0:0:
280,208,235856,5,2,1:2:0:0:
289,190,235944,2,0,L|117:203,1,160,2|0,0:1|0:0,0:0:0:0:
24,312,236209,1,8,1:0:0:0:
79,290,236297,1,2,0:1:0:0:
139,290,236385,1,2,0:0:0:0:
194,312,236473,1,2,0:0:0:0:
238,352,236561,5,0,1:0:0:0:
291,377,236650,1,2,0:0:0:0:
350,370,236738,1,2,0:1:0:0:
396,333,236826,1,0,0:0:0:0:
416,277,236915,5,8,1:0:0:0:
362,219,237003,1,2,0:0:0:0:
352,141,237091,1,2,0:1:0:0:
389,72,237179,1,0,0:0:0:0:
459,36,237268,6,0,L|466:120,1,80,4|2,1:0|0:1,0:0:0:0:
476,220,237444,1,0,0:0:0:0:
352,141,237621,1,10,1:0:0:0:
312,134,237709,1,2,0:0:0:0:
272,137,237797,1,2,0:0:0:0:
235,149,237885,1,0,0:0:0:0:
201,171,237974,6,0,B|90:179|90:179|54:135,1,160,2|0,1:0|0:0,0:0:0:0:
30,65,238239,1,2,0:0:0:0:
93,17,238327,2,0,L|180:23,1,80,10|2,1:0|0:0,0:0:0:0:
292,33,238503,1,0,0:0:0:0:
180,222,238680,5,0,1:0:0:0:
197,211,238768,2,0,P|289:215|333:270,1,160,2|2,0:1|0:0,0:0:0:0:
243,380,239033,2,0,L|240:301,1,80,10|0,1:0|0:0,0:0:0:0:
215,52,239209,1,2,0:0:0:0:
206,131,239297,1,2,0:0:0:0:
197,211,239386,6,0,P|105:207|61:152,1,160,2|2,1:0|0:0,0:0:0:0:
194,49,239650,1,2,0:0:0:0:
215,52,239739,2,0,L|382:61,1,160,10|2,1:0|0:0,0:0:0:0:
330,262,240003,1,2,0:1:0:0:
309,230,240091,6,0,P|296:185|294:136,1,80,0|0,1:0|0:0,0:0:0:0:
486,212,240268,2,0,P|482:251|470:289,1,80,2|2,0:1|0:0,0:0:0:0:
327,361,240444,1,10,1:0:0:0:
282,320,240532,1,2,0:0:0:0:
226,300,240620,1,2,0:0:0:0:
166,306,240708,1,2,0:0:0:0:
115,336,240798,6,0,L|9:328,1,80,2|0,1:0|0:0,0:0:0:0:
0,184,240974,1,2,0:0:0:0:
26,108,241062,1,2,0:0:0:0:
104,119,241150,2,0,P|123:167|123:204,1,80,8|2,1:0|0:1,0:0:0:0:
252,262,241327,2,0,P|255:222|272:186,1,80,2|2,0:0|0:0,0:0:0:0:
402,68,241503,5,0,1:0:0:0:
416,81,241591,2,0,L|218:66,1,160,2|0,0:1|0:0,0:0:0:0:
105,20,241856,1,10,1:0:0:0:
49,41,241944,1,2,0:0:0:0:
17,90,242032,1,2,0:0:0:0:
21,149,242120,1,0,0:0:0:0:
58,195,242208,5,2,1:0:0:0:
114,216,242298,1,0,0:0:0:0:
146,265,242386,1,2,0:0:0:0:
142,324,242474,1,2,0:0:0:0:
105,370,242562,2,0,L|14:361,1,80,8|0,1:0|0:0,0:0:0:0:
0,153,242739,2,0,L|79:145,1,80,2|2,0:1|0:0,0:0:0:0:
256,233,242915,6,0,P|269:172|284:146,1,80,0|2,1:0|0:1,0:0:0:0:
372,223,243091,1,2,0:0:0:0:
275,43,243268,2,0,L|434:35,1,160,10|2,1:0|0:0,0:0:0:0:
448,122,243533,1,2,0:0:0:0:
462,208,243621,6,0,P|449:269|434:295,1,80,2|0,1:0|0:0,0:0:0:0:
280,344,243797,1,0,0:1:0:0:
240,337,243886,1,2,0:1:0:0:
200,330,243974,2,0,L|190:233,1,80,8|0,1:0|0:0,0:0:0:0:
179,131,244150,1,2,0:1:0:0:
0,200,244327,5,0,1:0:0:0:
28,228,244415,2,0,L|47:55,1,160,2|2,0:1|0:0,0:0:0:0:
158,22,244680,1,10,1:0:0:0:
190,45,244768,1,2,0:0:0:0:
227,59,244856,1,2,0:0:0:0:
267,62,244944,1,0,0:0:0:0:
306,55,245032,6,0,L|413:62,1,80,2|0,1:0|0:0,0:0:0:0:
476,172,245209,1,2,0:0:0:0:
469,190,245297,1,2,0:0:0:0:
462,208,245386,2,0,L|355:215,1,80,10|0,1:0|0:0,0:0:0:0:
227,158,245562,1,2,0:1:0:0:
218,237,245650,1,0,0:0:0:0:
209,317,245739,6,0,P|103:331|42:253,1,180.000006866455,4|0,1:0|0:0,0:0:0:0:
38,216,246091,1,8,1:0:0:0:
181,112,246268,2,0,L|420:122,1,240.000009155274,4|0,1:0|0:0,0:0:0:0:
506,6,246797,1,8,1:0:0:0:
279,74,246974,1,0,0:0:0:0:
421,123,247150,5,0,1:0:0:0:
423,153,247238,1,0,1:0:0:0:
424,183,247327,1,0,1:0:0:0:
426,213,247415,1,0,1:0:0:0:
428,243,247503,1,0,1:0:0:0:
430,273,247591,1,0,1:0:0:0:
432,303,247679,1,0,1:0:0:0:
434,333,247768,1,0,1:0:0:0:
436,363,247856,6,0,L|389:361,1,40,0|0,1:0|0:0,0:0:0:0:
393,358,247944,2,0,L|346:356,1,40
350,353,248033,2,0,L|303:351,1,40
307,348,248121,2,0,L|260:346,1,40
264,343,248209,5,2,0:1:0:0:
267,335,248297,1,0,0:0:0:0:
202,291,248386,5,2,0:1:0:0:
205,299,248474,1,0,0:0:0:0:
133,323,248562,6,0,P|53:286|149:260,1,240,6|0,1:2|0:0,0:0:0:0:
205,299,248915,1,8,1:0:0:0:
376,75,249091,2,0,B|330:61|330:61|182:90,1,160,2|0,0:1|1:0,0:0:0:0:
331,154,249356,1,0,0:0:0:0:
368,158,249444,2,0,P|441:129|462:100,1,80
94,100,249621,1,8,1:0:0:0:
63,155,249709,1,0,0:0:0:0:
73,218,249797,1,0,0:0:0:0:
125,255,249886,1,0,0:0:0:0:
188,263,249974,6,0,B|251:242|251:242|356:255|356:255|423:230,1,240,2|0,1:1|0:0,0:0:0:0:
359,142,250327,2,0,P|337:162|367:157,1,80,8|0,1:0|0:0,0:0:0:0:
439,341,250503,2,0,L|255:319,1,160,2|0,0:1|1:0,0:0:0:0:
146,342,250768,1,0,0:0:0:0:
119,312,250856,2,0,P|104:258|111:226,1,80
215,52,251033,1,8,1:0:0:0:
263,94,251121,1,0,0:0:0:0:
325,107,251209,1,0,0:0:0:0:
387,95,251297,1,0,0:0:0:0:
436,53,251386,6,0,L|414:312,1,240,2|0,1:1|0:0,0:0:0:0:
486,356,251739,1,8,1:0:0:0:
176,303,251915,2,0,P|153:253|211:283,1,160,2|0,0:1|1:0,0:0:0:0:
86,323,252180,1,0,0:0:0:0:
74,296,252268,2,0,P|74:245|96:205,1,80
367,76,252444,1,8,1:0:0:0:
422,108,252533,1,0,0:0:0:0:
455,162,252621,1,0,0:0:0:0:
465,224,252709,1,0,0:0:0:0:
444,282,252797,6,0,B|384:295|384:295|337:283|337:283|271:314|199:263,1,240,2|0,1:1|0:0,0:0:0:0:
295,190,253150,2,0,P|267:204|286:183,1,80,8|0,1:0|0:0,0:0:0:0:
107,105,253327,2,0,P|40:150|138:142,1,240,2|0,0:1|0:0,0:0:0:0:
148,44,253680,2,0,P|97:27|53:31,1,80
9,250,253856,1,8,1:0:0:0:
62,284,253944,1,0,0:0:0:0:
126,283,254033,1,0,0:0:0:0:
179,248,254121,1,0,0:0:0:0:
209,192,254209,6,0,B|251:127|251:127|423:81,1,240,2|0,1:1|0:0,0:0:0:0:
475,134,254562,1,8,1:0:0:0:
257,260,254739,2,0,P|171:263|152:132,1,240,2|0,0:1|0:0,0:0:0:0:
197,75,255091,1,0,0:0:0:0:
395,297,255268,1,8,1:0:0:0:
438,249,255356,1,0,0:0:0:0:
453,187,255444,1,0,0:0:0:0:
439,123,255533,1,0,0:0:0:0:
388,83,255621,6,0,B|318:95|318:95|219:68|219:68|153:76,1,240,2|0,1:1|0:0,0:0:0:0:
64,193,255974,2,0,L|168:182,1,80,8|0,1:0|0:0,0:0:0:0:
232,162,256150,2,0,P|187:202|236:189,1,160,2|0,0:1|1:0,0:0:0:0:
365,194,256415,1,0,0:0:0:0:
371,161,256503,2,0,L|390:68,1,80
89,74,256680,1,8,1:0:0:0:
84,137,256768,1,0,0:0:0:0:
79,200,256856,1,0,0:0:0:0:
74,263,256944,1,0,0:0:0:0:
69,327,257033,6,0,P|163:357|224:230,1,240,2|0,1:1|0:0,0:0:0:0:
213,169,257386,1,8,1:0:0:0:
418,158,257562,2,0,P|431:236|404:203,1,240,2|0,0:1|0:0,0:0:0:0:
387,82,257915,2,0,P|445:66|474:69,1,80
481,322,258091,1,8,1:0:0:0:
418,339,258180,1,0,0:0:0:0:
354,337,258268,1,0,0:0:0:0:
293,315,258356,1,0,0:0:0:0:
245,272,258444,6,0,B|257:224|257:224|248:188|248:188|275:139|268:72,1,160,2|0,1:1|0:0,0:0:0:0:
126,141,258709,2,0,P|194:125|148:84,1,160,2|0,0:1|0:0,0:0:0:0:
34,52,258974,2,0,B|150:84|150:84|278:45,1,240,2|0,0:1|0:0,0:0:0:0:
351,24,259327,1,0,0:0:0:0:
357,230,259503,1,8,1:0:0:0:
402,274,259591,1,0,0:0:0:0:
458,242,259680,1,0,0:0:0:0:
443,179,259768,1,0,0:0:0:0:
380,167,259856,6,0,P|325:187|366:142,1,160,14|0,1:2|0:0,0:0:0:0:
300,262,260121,1,8,0:0:0:0:
272,247,260209,2,0,P|247:210|241:164,1,80,8|0,1:0|0:0,0:0:0:0:
402,274,260386,2,0,P|393:312|370:345,1,80,10|0,0:0|0:0,0:0:0:0:
200,290,260562,1,8,1:2:0:0:
191,322,260650,2,0,L|24:348,1,160,8|0,0:0|0:0,0:0:0:0:
93,231,260915,2,0,L|2:219,1,80,8|0,1:0|0:0,0:0:0:0:
161,146,261091,2,0,L|79:103,1,80
316,148,261268,6,0,P|357:157|310:123,1,160,10|0,1:2|0:0,0:0:0:0:
214,216,261533,1,8,0:0:0:0:
212,243,261621,2,0,L|207:334,1,80,8|0,1:0|0:0,0:0:0:0:
341,356,261797,2,0,L|336:276,1,80,10|0,0:0|0:0,0:0:0:0:
287,173,261974,1,8,1:2:0:0:
267,147,262062,2,0,P|171:140|129:217,1,160,8|0,0:0|0:0,0:0:0:0:
81,301,262327,2,0,P|52:313|-2:299,1,80,8|0,1:0|0:0,0:0:0:0:
11,61,262503,2,0,P|12:35|15:18,1,40,8|8,0:0|0:0,0:0:0:0:
31,66,262591,2,0,P|40:41|49:26,1,40,8|8,0:0|0:0,0:0:0:0:
51,76,262680,6,0,L|40:249,1,160,10|0,1:2|0:0,0:0:0:0:
162,318,262944,1,8,0:0:0:0:
194,332,263033,2,0,P|237:336|284:323,1,80,8|0,1:0|0:0,0:0:0:0:
362,239,263209,2,0,P|400:230|440:234,1,80,10|0,0:0|0:0,0:0:0:0:
234,242,263386,1,8,1:2:0:0:
213,222,263474,2,0,P|220:167|251:226,1,160,8|0,0:0|0:0,0:0:0:0:
124,227,263739,2,0,P|126:166|141:131,1,80,8|0,1:0|0:0,0:0:0:0:
336,148,263915,2,0,P|345:186|343:226,1,80
274,89,264091,6,0,P|361:66|417:122,1,160,10|0,1:2|0:0,0:0:0:0:
467,230,264356,1,8,0:0:0:0:
463,266,264444,2,0,L|455:355,1,80,8|0,1:0|0:0,0:0:0:0:
268,370,264621,2,0,L|260:290,1,80,10|0,0:2|0:0,0:0:0:0:
117,183,264797,1,8,1:2:0:0:
103,154,264886,2,0,P|43:163|108:172,1,160,8|0,0:0|0:0,0:0:0:0:
131,82,265150,2,0,P|74:64|46:69,1,80,8|0,1:0|0:0,0:0:0:0:
27,304,265327,2,0,P|18:312|5:337,1,40,8|8,0:0|0:0,0:0:0:0:
45,312,265415,2,0,P|43:323|49:351,1,40,8|8,0:0|0:0,0:0:0:0:
60,304,265503,6,0,L|231:300,1,160,10|0,1:2|0:0,0:0:0:0:
286,180,265768,1,8,0:0:0:0:
308,162,265856,2,0,P|317:122|296:127,1,80,8|0,1:0|0:0,0:0:0:0:
162,57,266033,2,0,P|129:68|152:93,1,80,10|0,0:0|0:0,0:0:0:0:
344,231,266209,1,8,1:2:0:0:
375,216,266297,2,0,P|407:121|370:67,1,160,8|0,0:0|0:0,0:0:0:0:
267,234,266562,2,0,P|285:281|323:309,1,80,8|0,1:0|0:0,0:0:0:0:
305,92,266739,1,8,0:0:0:0:
264,151,266827,1,8,0:0:0:0:
220,93,266915,6,0,L|416:70,1,160,10|0,1:2|0:0,0:0:0:0:
182,173,267180,1,8,0:0:0:0:
156,159,267268,2,0,P|131:121|125:76,1,80,8|0,1:0|0:0,0:0:0:0:
267,234,267444,2,0,P|258:272|235:305,1,80,10|0,0:0|0:0,0:0:0:0:
21,226,267621,6,0,L|208:246,1,160,8|0,1:2|0:0,0:0:0:0:
264,151,267886,1,8,0:0:0:0:
276,121,267974,2,0,P|284:75|275:35,1,80,8|0,1:0|0:0,0:0:0:0:
92,28,268150,2,0,P|68:27|42:33,1,40,8|8,0:0|0:0,0:0:0:0:
85,48,268239,2,0,P|63:59|44:77,1,40,8|8,0:0|0:0,0:0:0:0:
84,72,268327,6,0,L|115:249,1,160,6|0,1:2|0:0,0:0:0:0:
22,340,268591,2,0,P|17:300|48:348,1,160,4|0,1:2|0:0,0:0:0:0:
141,371,268856,2,0,P|155:295|112:230,1,160,6|0,1:2|0:0,0:0:0:0:
26,203,269121,2,0,L|233:186,1,160,4|0,1:2|0:0,0:0:0:0:
386,127,269386,6,0,P|372:43|288:47,1,160,4|0,1:2|0:0,0:0:0:0:
316,240,269650,2,0,B|395:261|395:261|489:226,1,160,4|0,1:2|0:0,0:0:0:0:
258,182,269915,2,0,P|239:273|312:329,1,160,4|0,1:2|0:0,0:0:0:0:
342,147,270180,2,0,L|156:141,1,160,4|0,1:2|0:0,0:0:0:0:
402,82,270444,2,0,P|423:125|426:161,1,80,4|0,1:2|0:0,0:0:0:0:
360,295,270621,5,0,1:0:0:0:
380,337,270709,1,0,1:0:0:0:
425,352,270797,1,0,1:0:0:0:
466,327,270885,1,0,1:0:0:0:
475,281,270973,1,0,1:0:0:0:
448,243,271062,1,0,1:0:0:0:
363,215,271150,6,0,L|179:245,1,160,4|0,1:2|0:0,0:0:0:0:
149,118,271415,2,0,P|131:79|151:75,1,80,0|8,0:0|1:0,0:0:0:0:
353,90,271591,1,0,0:0:0:0:
369,88,271680,2,0,P|395:111|367:131,1,80,2|0,0:1|0:0,0:0:0:0:
205,240,271856,1,0,1:0:0:0:
173,245,271944,2,0,L|85:259,1,80,2|0,0:1|0:0,0:0:0:0:
30,360,272121,1,0,0:0:0:0:
75,360,272209,2,0,P|111:280|-2:284,1,240,10|0,1:0|0:0,0:0:0:0:
188,365,272562,6,0,P|229:365|271:352,1,80,0|0,1:0|0:0,0:0:0:0:
215,260,272739,2,0,P|250:239|280:207,1,80,2|0,0:1|0:0,0:0:0:0:
187,161,272915,2,0,P|207:125|217:82,1,80,10|0,1:0|0:0,0:0:0:0:
120,88,273091,2,0,P|120:47|106:4,1,80,2|0,0:1|0:0,0:0:0:0:
29,125,273268,1,0,1:0:0:0:
49,153,273356,2,0,P|137:190|198:142,1,160,2|0,0:1|0:0,0:0:0:0:
275,59,273621,2,0,P|306:47|357:43,1,80,10|0,1:0|0:0,0:0:0:0:
429,203,273797,2,0,P|389:200|351:186,1,80,2|0,0:1|0:0,0:0:0:0:
119,287,273974,6,0,L|283:322,1,160,0|0,1:0|0:0,0:0:0:0:
81,219,274239,2,0,P|45:257|38:298,1,80,2|8,0:1|1:0,0:0:0:0:
206,221,274415,1,0,0:0:0:0:
221,211,274503,2,0,P|218:162|178:218,1,160,2|0,0:1|1:0,0:0:0:0:
273,275,274768,2,0,P|303:229|311:190,1,80,2|0,0:1|0:0,0:0:0:0:
240,85,274944,1,0,0:0:0:0:
221,77,275033,2,0,P|110:108|80:218,1,240,10|0,1:0|0:0,0:0:0:0:
293,149,275386,6,0,P|316:111|321:67,1,80,2|0,1:0|0:0,0:0:0:0:
192,186,275562,2,0,L|205:373,1,160,2|8,0:1|1:0,0:0:0:0:
275,196,275826,1,0,0:0:0:0:
277,172,275915,2,0,P|220:100|137:119,1,160,2|0,0:1|1:0,0:0:0:0:
95,33,276179,1,0,0:0:0:0:
80,61,276268,2,0,P|38:87|-4:87,1,80,2|0,0:1|0:0,0:0:0:0:
14,211,276444,6,0,L|116:226,1,80,10|0,1:0|0:0,0:0:0:0:
210,278,276621,2,0,L|130:289,1,80,2|0,0:1|0:0,0:0:0:0:
264,346,276797,6,0,P|299:265|255:205,1,160,2|0,1:0|0:0,0:0:0:0:
111,129,277062,1,0,0:0:0:0:
141,123,277150,2,0,L|242:106,1,80,8|0,1:0|0:0,0:0:0:0:
338,54,277327,2,0,L|236:37,1,80,2|0,0:1|0:0,0:0:0:0:
55,65,277503,6,0,P|30:152|83:209,1,160,0|2,1:0|0:1,0:0:0:0:
165,312,277768,1,0,0:0:0:0:
188,334,277856,2,0,P|263:303|171:284,1,240,10|0,1:0|0:0,0:0:0:0:
340,278,278209,6,0,L|431:260,1,80,2|0,1:0|0:0,0:0:0:0:
512,234,278386,2,0,L|344:221,1,160,2|10,0:1|1:0,0:0:0:0:
227,116,278650,1,0,0:0:0:0:
213,90,278739,2,0,P|207:44|215:6,1,80,2|0,0:1|0:0,0:0:0:0:
316,118,278914,1,0,1:0:0:0:
311,143,279003,2,0,P|241:205|167:168,1,160,2|0,0:1|0:0,0:0:0:0:
9,256,279268,6,0,P|37:208|74:186,1,80,10|0,1:0|0:0,0:0:0:0:
17,79,279444,2,0,P|71:69|112:83,1,80,2|0,0:1|0:0,0:0:0:0:
115,289,279621,6,0,L|137:382,1,80,2|0,1:0|0:0,0:0:0:0:
283,276,279797,1,0,0:0:0:0:
292,245,279886,2,0,L|310:167,1,80,0|8,0:0|1:0,0:0:0:0:
437,148,280062,5,0,0:0:0:0:
410,133,280150,2,0,B|369:120|332:129|332:129|291:138|251:119,1,160,2|0,0:1|1:0,0:0:0:0:
195,86,280415,2,0,P|239:144|181:134,1,160,2|0,0:1|0:0,0:0:0:0:
139,200,280680,2,0,P|234:226|274:25,1,360.000013732911,10|0,1:0|0:0,0:0:0:0:
62,152,281033,6,0,P|49:201|54:244,1,80,2|0,1:0|0:0,0:0:0:0:
139,200,281209,2,0,P|152:248|178:283,1,80,2|0,0:1|0:0,0:0:0:0:
310,266,281386,2,0,L|400:250,1,80,10|0,1:0|0:0,0:0:0:0:
507,342,281562,2,0,L|431:314,1,80,2|0,0:1|0:0,0:0:0:0:
293,133,281739,5,0,1:0:0:0:
283,110,281827,1,0,0:0:0:0:
274,87,281915,2,0,L|193:69,1,80,2|0,0:1|0:0,0:0:0:0:
59,210,282091,1,10,1:0:0:0:
69,233,282179,1,0,0:0:0:0:
78,256,282267,2,0,L|159:274,1,80,2|0,0:1|0:0,0:0:0:0:
407,275,282444,6,0,L|426:101,1,160,2|0,1:0|0:0,0:0:0:0:
339,321,282709,2,0,P|373:350|416:356,1,80,0|8,0:0|1:0,0:0:0:0:
331,148,282885,1,0,0:0:0:0:
295,140,282974,2,0,P|256:149|227:175,1,80,2|0,0:1|0:0,0:0:0:0:
97,298,283150,1,0,1:0:0:0:
128,305,283239,2,0,L|228:321,1,80,2|0,0:1|0:0,0:0:0:0:
95,212,283415,1,0,0:0:0:0:
72,218,283503,2,0,P|12:291|102:383,1,240,10|0,1:0|0:0,0:0:0:0:
167,175,283856,6,0,L|178:82,1,80,2|0,1:0|0:0,0:0:0:0:
263,144,284033,2,0,L|289:54,1,80,2|0,0:1|0:0,0:0:0:0:
394,190,284209,2,0,P|444:186|492:193,1,80,10|0,1:0|0:0,0:0:0:0:
420,304,284386,2,0,P|468:317|511:340,1,80,2|0,0:1|0:0,0:0:0:0:
334,240,284562,1,0,1:0:0:0:
315,218,284650,2,0,P|332:133|418:113,1,160,2|0,0:1|0:0,0:0:0:0:
268,49,284915,6,0,L|176:32,1,80,10|0,1:0|0:0,0:0:0:0:
61,122,285091,2,0,L|139:107,1,80,2|0,0:1|0:0,0:0:0:0:
182,278,285268,6,0,P|222:218|182:222,1,160,2|0,1:0|0:0,0:0:0:0:
183,356,285533,2,0,P|242:353|274:335,1,80,2|8,0:1|1:0,0:0:0:0:
309,205,285709,1,0,0:0:0:0:
297,184,285797,2,0,P|216:141|134:166,1,160,2|0,0:1|1:0,0:0:0:0:
335,298,286062,2,0,P|376:275|398:234,1,80,2|0,0:1|0:0,0:0:0:0:
378,149,286239,1,0,0:0:0:0:
369,132,286327,2,0,P|301:67|128:70,1,240,10|0,1:0|0:0,0:0:0:0:
55,206,286680,6,0,L|52:309,1,80,2|0,1:0|0:0,0:0:0:0:
215,308,286856,2,0,P|255:261|194:280,1,160,2|8,0:1|1:0,0:0:0:0:
317,336,287120,1,0,0:0:0:0:
328,307,287209,2,0,P|319:221|250:175,1,160,2|0,0:1|1:0,0:0:0:0:
384,63,287473,1,2,0:1:0:0:
408,63,287562,2,0,L|493:67,1,80,2|0,0:1|0:0,0:0:0:0:
319,113,287739,6,0,P|304:43|311:20,1,80,10|0,1:0|0:0,0:0:0:0:
455,172,287915,2,0,P|456:211|441:248,1,80,2|0,0:1|0:0,0:0:0:0:
317,336,288091,6,0,L|138:319,1,160,2|0,1:1|0:0,0:0:0:0:
358,261,288356,1,0,0:0:0:0:
379,277,288444,2,0,P|401:330|398:372,1,80,10|2,1:0|0:1,0:0:0:0:
264,236,288621,2,0,P|282:200|311:173,1,80,2|0,0:1|0:0,0:0:0:0:
455,172,288797,2,0,P|492:205|436:183,1,160,0|2,1:1|0:1,0:0:0:0:
188,190,289062,1,0,0:0:0:0:
180,218,289150,2,0,P|222:310|341:261,1,240,10|0,1:0|0:0,0:0:0:0:
227,116,289503,6,0,P|177:110|136:127,1,80,2|0,1:0|0:0,0:0:0:0:
115,332,289680,2,0,L|190:184,1,160,2|8,0:1|1:0,0:0:0:0:
346,114,289944,1,2,0:1:0:0:
374,109,290033,2,0,P|418:124|448:150,1,80,2|0,0:1|0:0,0:0:0:0:
289,177,290209,1,0,1:0:0:0:
271,159,290297,2,0,P|271:72|343:31,1,160,2|0,0:1|0:0,0:0:0:0:
443,145,290562,6,0,L|433:234,1,80,10|0,1:0|0:0,0:0:0:0:
495,359,290739,2,0,L|486:279,1,80,2|0,0:1|0:0,0:0:0:0:
335,226,290915,6,0,P|277:220|235:236,1,80,2|0,1:0|0:0,0:0:0:0:
145,304,291091,1,2,0:1:0:0:
122,320,291180,2,0,P|82:326|43:319,1,80,2|8,0:1|1:0,0:0:0:0:
150,211,291356,5,2,0:1:0:0:
124,205,291444,2,0,P|147:141|163:177,1,160,2|0,0:1|1:0,0:0:0:0:
37,226,291709,2,0,P|33:125|80:76,1,160,2|2,0:1|0:1,0:0:0:0:
336,199,291974,2,0,P|411:168|338:178,1,240,10|0,1:0|0:0,0:0:0:0:
396,307,292327,6,0,P|459:277|475:257,1,80,4|0,1:2|0:0,0:0:0:0:
465,113,292503,2,0,P|434:88|396:77,1,80
224,283,292680,2,0,L|331:299,1,80
303,89,292856,2,0,L|224:101,1,80
101,203,293033,6,0,L|96:242,2,40
42,105,293209,2,0,L|31:36,2,53.3333333333333
5,185,293386,1,0,0:0:0:0:
9,224,293474,1,0,0:0:0:0:
13,263,293562,2,0,L|23:376,1,80
209,334,293739,6,0,P|246:328|295:337,1,80,6|0,1:2|0:0,0:0:0:0:
485,238,294091,2,0,L|387:259,1,80,8|2,1:0|0:0,0:0:0:0:
173,156,294444,1,0,1:0:0:0:
287,224,294621,1,0,0:0:0:0:
211,76,294797,2,0,P|152:72|108:93,1,80,8|0,1:0|0:0,0:0:0:0:
33,313,295150,6,0,L|58:209,1,80,0|0,1:0|0:0,0:0:0:0:
173,156,295503,2,0,L|198:260,1,80,8|0,1:0|0:0,0:0:0:0:
407,300,295856,1,0,1:0:0:0:
290,330,296033,1,2,0:0:0:0:
473,245,296209,2,0,P|490:284|489:327,1,80,8|0,1:0|0:0,0:0:0:0:
334,187,296562,6,0,L|350:100,1,80,2|0,1:0|0:0,0:0:0:0:
364,35,296827,1,2,0:1:0:0:
364,35,296915,1,8,1:0:0:0:
482,136,297091,1,2,0:1:0:0:
382,253,297268,2,0,P|305:265|252:184,1,160,2|8,1:1|1:0,0:0:0:0:
456,205,297974,6,0,P|471:254|464:292,1,80,0|0,1:0|0:0,0:0:0:0:
231,86,298327,2,0,L|41:74,2,160,8|0|8,1:0|1:0|1:0,0:0:0:0:
136,275,299386,6,0,P|96:285|50:278,1,80,2|0,1:2|0:0,0:0:0:0:
15,144,299738,1,8,1:0:0:0:
211,226,299915,2,0,P|225:275|219:319,1,80,2|0,0:0|1:0,0:0:0:0:
64,355,300268,1,0,0:0:0:0:
162,157,300444,2,0,P|209:143|248:150,1,80,8|0,1:0|0:0,0:0:0:0:
426,224,300797,6,0,L|337:235,1,80,0|0,1:0|0:0,0:0:0:0:
219,76,301150,1,8,1:0:0:0:
342,50,301327,1,0,0:0:0:0:
148,122,301503,2,0,P|136:64|146:32,1,80,0|2,1:0|0:2,0:0:0:0:
422,16,301856,2,0,P|426:55|414:93,1,80,8|0,1:0|0:0,0:0:0:0:
304,250,302209,6,0,L|297:160,1,80,2|0,1:0|0:0,0:0:0:0:
291,89,302474,1,2,0:1:0:0:
291,89,302562,1,8,1:0:0:0:
167,164,302738,1,0,0:0:0:0:
284,323,302915,6,0,P|322:325|329:324,1,40,2|0,1:0|0:0,0:0:0:0:
419,286,303091,2,0,P|452:268|458:264,1,40,2|0,0:1|0:0,0:0:0:0:
236,247,303268,2,0,L|149:268,1,80,8|0,1:0|0:0,0:0:0:0:
14,190,303621,6,0,P|8:157|47:158,1,80,0|0,1:0|0:0,0:0:0:0:
232,104,303974,2,0,L|144:91,1,80,8|0,1:0|0:0,0:0:0:0:
310,212,304327,1,0,1:0:0:0:
388,103,304503,1,0,0:0:0:0:
406,111,304591,1,0,0:0:0:0:
423,120,304680,2,0,L|464:139,1,40,8|0,1:0|0:0,0:0:0:0:
459,247,304856,2,0,L|423:264,1,40
373,354,305033,6,0,L|386:260,1,80,14|0,1:2|0:0,0:0:0:0:
334,212,305297,1,8,0:0:0:0:
315,221,305386,2,0,P|286:225|255:221,1,40,8|0,1:0|0:0,0:0:0:0:
163,119,305562,2,0,P|192:115|223:119,1,40,10|0,0:2|0:0,0:0:0:0:
291,145,305739,1,0,1:0:0:0:
287,125,305827,2,0,L|276:21,1,80,8|0,0:0|0:0,0:0:0:0:
180,33,306091,2,0,P|138:34|70:107,1,120,8|0,1:0|0:0,0:0:0:0:
87,170,306444,6,0,L|99:258,1,80,8|0,1:2|0:0,0:0:0:0:
161,309,306709,1,8,0:0:0:0:
177,320,306797,2,0,P|201:322|221:319,1,40,8|0,1:0|0:0,0:0:0:0:
307,259,306974,2,0,P|326:256|346:259,1,40,8|0,0:0|0:0,0:0:0:0:
441,328,307150,1,0,1:0:0:0:
451,345,307239,2,0,L|461:233,1,80,8|0,0:0|0:0,0:0:0:0:
394,203,307503,2,0,L|384:91,1,80,8|0,1:0|0:0,0:0:0:0:
325,42,307768,2,0,L|332:22,1,20,8|8,0:0|0:0,0:0:0:0:
316,57,307856,6,0,P|269:44|228:54,1,80,8|0,1:2|0:0,0:0:0:0:
186,122,308121,1,8,0:0:0:0:
181,141,308209,2,0,L|171:193,1,40,8|0,1:0|0:0,0:0:0:0:
76,108,308386,2,0,L|68:68,1,40,8|0,0:0|0:0,0:0:0:0:
23,182,308562,1,0,1:0:0:0:
38,199,308650,2,0,P|51:249|38:286,1,80,8|0,0:0|0:0,0:0:0:0:
119,329,308915,2,0,L|255:303,1,120,8|0,1:0|0:0,0:0:0:0:
264,219,309268,6,0,P|263:169|244:131,1,80,8|0,1:2|0:0,0:0:0:0:
170,77,309533,1,8,0:0:0:0:
150,80,309621,2,0,L|99:89,1,40,8|0,1:0|0:0,0:0:0:0:
32,175,309797,2,0,L|83:184,1,40,8|0,0:0|0:0,0:0:0:0:
160,240,309974,1,0,1:0:0:0:
170,256,310062,2,0,P|182:293|172:343,1,80,8|0,0:0|0:0,0:0:0:0:
283,350,310327,2,0,L|376:340,1,80,8|0,1:0|0:0,0:0:0:0:
468,330,310591,2,0,L|484:362,1,20,8|8,0:0|0:0,0:0:0:0:
463,315,310680,6,0,P|474:269|465:220,1,80,10|0,1:2|0:0,0:0:0:0:
418,159,310944,1,8,0:0:0:0:
397,159,311033,2,0,L|329:156,1,40,8|0,1:0|0:0,0:0:0:0:
297,244,311209,2,0,L|365:241,1,40,10|0,0:0|0:0,0:0:0:0:
212,204,311386,2,0,P|199:255|210:295,1,80,8|0,1:2|0:0,0:0:0:0:
284,329,311650,1,8,0:0:0:0:
302,336,311739,2,0,L|361:356,1,40,8|0,1:0|0:0,0:0:0:0:
454,244,311915,1,8,0:0:0:0:
434,245,312003,1,8,0:0:0:0:
414,248,312091,6,0,L|404:157,1,80,8|0,1:2|0:0,0:0:0:0:
343,112,312356,1,8,0:0:0:0:
326,101,312444,2,0,P|293:99|278:100,1,40,8|0,1:0|0:0,0:0:0:0:
200,154,312621,2,0,P|180:154|160:152,1,40,8|0,0:0|0:0,0:0:0:0:
55,112,312797,2,0,L|68:218,1,80,8|2,1:2|0:0,0:0:0:0:
117,259,313062,1,8,0:0:0:0:
132,271,313150,2,0,P|161:276|185:274,1,40,8|0,1:0|0:0,0:0:0:0:
322,296,313327,2,0,L|322:273,1,20,8|8,0:0|0:0,0:0:0:0:
336,298,313415,2,0,L|335:271,1,20,8|8,0:0|0:0,0:0:0:0:
353,301,313503,6,0,L|396:309,1,40,8|0,0:0|0:0,0:0:0:0:
473,323,313680,2,0,L|516:331,1,40,8|0,0:0|0:0,0:0:0:0:
474,163,313856,2,0,L|434:173,1,40,8|0,0:0|0:0,0:0:0:0:
345,197,314033,1,8,0:0:0:0:
325,203,314121,1,8,0:0:0:0:
305,209,314209,6,0,L|265:219,1,40,8|0,0:0|0:0,0:0:0:0:
70,300,314386,2,0,L|118:306,1,40,8|0,0:0|0:0,0:0:0:0:
206,316,314562,1,8,0:0:0:0:
225,318,314650,1,8,0:0:0:0:
245,320,314739,1,8,0:0:0:0:
264,322,314827,1,8,0:0:0:0:
