osu file format v14

[General]
AudioFilename: audio.mp3
AudioLeadIn: 0
PreviewTime: 174687
Countdown: 0
SampleSet: Normal
StackLeniency: 0.7
Mode: 1
LetterboxInBreaks: 0
WidescreenStoryboard: 0

[Editor]
DistanceSpacing: 1.4
BeatDivisor: 4
GridSize: 32
TimelineZoom: 3

[Metadata]
Title:epimerization
TitleUnicode:epimerization
Artist:Camellia
ArtistUnicode:かめりあ
Creator:Sansheng
Version:diastereomeric oni
Source:
Tags:GALAXY BURST エグジットチューンズ株式会社 EXIT TUNES Inc. EDP EXITTUNES Dance Production Cametek 大箭将也 Masaya Oya QWCE-90016 Dubcore Drumstep Speedcore
BeatmapID:1605935
BeatmapSetID:763756

[Difficulty]
HPDrainRate:4.5
CircleSize:2
OverallDifficulty:6.5
ApproachRate:6.5
SliderMultiplier:1.4
SliderTickRate:1

[Events]
//Background and Video events
0,0,"BG.jpg",0,0
//Break Periods
//Storyboard Layer 0 (Background)
//Storyboard Layer 1 (Fail)
//Storyboard Layer 2 (Pass)
//Storyboard Layer 3 (Foreground)
//Storyboard Sound Samples

[TimingPoints]
136,294.117647058824,4,2,0,5,1,0
136,-166.666666666667,4,2,0,5,0,0
1312,-153.846153846154,4,2,0,10,0,0
2488,-142.857142857143,4,1,0,15,0,0
11900,-133.333333333333,4,1,0,25,0,0
21116,-129.87012987013,4,1,0,30,0,0
26018,-125,4,1,0,35,0,0
27194,-117.647058823529,4,1,0,40,0,0
28371,-111.111111111111,4,1,0,50,0,0
29547,-108.695652173913,4,1,0,60,0,0
29694,-106.382978723404,4,1,0,60,0,0
29841,-104.166666666667,4,1,0,60,0,0
29988,-102.040816326531,4,1,0,65,0,0
30062,-100,4,1,0,65,0,0
30136,-98.0392156862745,4,1,0,65,0,0
30283,-96.1538461538461,4,1,0,65,0,0
30724,-100,4,1,0,70,0,0
31606,-96.1538461538461,4,1,0,75,0,0
32488,-100,4,1,0,70,0,0
33959,-96.1538461538461,4,1,0,75,0,0
35037,-100,4,1,0,70,0,0
36312,-96.1538461538461,4,1,0,75,0,0
37194,-100,4,1,0,70,0,0
38665,-96.1538461538461,4,1,0,75,0,0
39253,-98.0392156862745,4,1,0,70,0,0
40136,-95.2380952380952,4,1,0,80,0,0
40283,-99.009900990099,4,1,0,70,0,0
40430,-103.092783505155,4,1,0,70,0,0
40503,-107.52688172043,4,1,0,70,0,0
40577,-112.359550561798,4,1,0,70,0,0
40724,-117.647058823529,4,1,0,70,0,0
41018,-125,4,1,0,70,0,0
42194,-117.647058823529,4,1,0,75,0,0
44547,-111.111111111111,4,1,0,80,0,0
47047,-108.695652173913,4,1,0,80,0,0
47194,-105.263157894737,4,1,0,85,0,0
48371,-100,4,1,0,90,0,0
49253,-86.9565217391304,4,1,0,95,0,0
49547,-95.2380952380952,4,1,0,90,0,1
67194,-90.9090909090909,4,1,0,95,0,1
68371,-90.9090909090909,4,1,0,85,0,0
68665,-100,4,1,0,80,0,0
73077,-100,4,1,0,85,0,0
75724,-105.263157894737,4,1,0,75,0,0
76753,-100,4,1,0,75,0,0
76900,-95.2380952380952,4,1,0,75,0,0
77047,-90.9090909090909,4,1,0,75,0,0
77194,-86.9565217391304,4,1,0,75,0,0
77341,-85.4700854700855,4,1,0,85,0,0
77415,-86.9565217391304,4,1,0,85,0,0
77488,-88.4955752212389,4,1,0,85,0,0
77562,-90.0900900900901,4,1,0,85,0,0
77636,-91.743119266055,4,1,0,85,0,0
77709,-93.4579439252336,4,1,0,85,0,0
77783,-95.2380952380952,4,1,0,85,0,0
77930,-90.9090909090909,4,1,0,65,0,0
78518,-100,4,1,0,80,0,0
82783,-95.2380952380952,4,1,0,85,0,0
85136,-105.263157894737,4,1,0,80,0,0
87194,-105.263157894737,4,1,0,75,0,0
88224,-103.092783505155,4,1,0,75,0,0
88371,-100,4,1,0,70,0,0
88959,-93.4579439252336,4,1,0,75,0,0
89033,-95.2380952380952,4,1,0,75,0,0
89106,-97.0873786407767,4,1,0,75,0,0
89180,-99.009900990099,4,1,0,75,0,0
89253,-101.010101010101,4,1,0,75,0,0
89327,-103.092783505155,4,1,0,75,0,0
89400,-105.263157894737,4,1,0,75,0,0
89547,-100,4,1,0,70,0,0
90430,-96.1538461538461,4,1,0,75,0,0
91312,-100,4,1,0,70,0,0
92783,-96.1538461538461,4,1,0,75,0,0
93861,-100,4,1,0,70,0,0
95136,-96.1538461538461,4,1,0,75,0,0
96018,-100,4,1,0,70,0,0
96606,-96.1538461538461,4,1,0,80,0,0
97047,-92.5925925925926,4,1,0,85,0,0
97783,-100,4,1,0,90,0,0
98665,-86.9565217391304,4,1,0,95,0,0
98959,-95.2380952380952,4,1,0,90,0,1
116165,-90.9090909090909,4,1,0,95,0,1
117782,300,4,1,0,85,1,0
117782,-80.6451612903226,4,1,0,85,0,0
117932,-74.6268656716418,4,1,0,75,0,0
118382,311.688311688312,4,1,0,70,1,8
119006,324.324324324324,4,1,0,65,1,0
120299,333.333333333333,4,1,0,60,1,0
120299,-106.382978723404,4,1,0,60,0,0
121632,368.098159509202,4,1,0,50,1,0
122368,372.670807453416,4,1,0,45,1,8
123111,394.736842105263,4,1,0,40,1,0
123900,410.958904109589,4,1,0,40,1,8
124721,431.654676258993,4,1,0,40,1,0
125152,437.956204379562,4,1,0,40,1,8
125589,461.538461538462,4,1,0,40,1,8
126050,476.190476190476,4,1,0,40,1,8
126526,491.803278688525,4,1,0,40,1,0
127017,508.474576271186,4,1,0,30,1,8
127525,517.241379310345,4,1,0,30,1,8
128040,566.037735849057,4,1,0,30,1,8
128040,-95.2380952380952,4,1,0,30,0,0
128608,568.720379146919,4,1,0,30,1,0
129176,603.015075376884,4,1,0,30,1,8
129779,645.161290322581,4,1,0,30,1,8
130424,693.64161849711,4,1,0,30,1,8
131116,357.142857142857,4,1,0,60,1,0
131116,-125,4,1,0,60,0,0
136116,-117.647058823529,4,1,0,65,0,0
142366,-114.942528735632,4,1,0,65,0,0
142544,-111.111111111111,4,1,0,75,0,0
143794,-100,4,1,0,75,0,0
143854,-102.040816326531,4,1,0,75,0,0
143913,-104.166666666667,4,1,0,75,0,0
143973,-106.382978723404,4,1,0,75,0,0
144151,-111.111111111111,4,1,0,75,0,0
146651,-99.9999999999999,4,1,0,75,0,0
146711,-102.040816326531,4,1,0,75,0,0
146770,-104.166666666667,4,1,0,75,0,0
146830,-106.382978723404,4,1,0,75,0,0
147008,-111.111111111111,4,1,0,75,0,0
147723,-100,4,1,0,75,0,0
147812,-102.040816326531,4,1,0,75,0,0
147901,-104.166666666667,4,1,0,75,0,0
147991,-106.382978723404,4,1,0,75,0,0
148080,-108.695652173913,4,1,0,75,0,0
148258,-105.263157894737,4,1,0,80,0,0
149508,-103.092783505155,4,1,0,80,0,0
149687,-100,4,1,0,85,0,0
149776,-98.0392156862745,4,1,0,85,0,0
149866,-96.1538461538461,4,1,0,85,0,0
149955,-94.3396226415094,4,1,0,85,0,0
150044,-92.5925925925926,4,1,0,85,0,0
150133,-90.9090909090909,4,1,0,85,0,0
150223,-89.2857142857143,4,1,0,85,0,0
150312,-87.719298245614,4,1,0,85,0,0
150401,-86.2068965517241,4,1,0,90,0,0
150491,-84.7457627118644,4,1,0,90,0,0
150580,-83.3333333333333,4,1,0,90,0,0
150669,-81.9672131147541,4,1,0,90,0,0
150758,-80.6451612903226,4,1,0,95,0,0
150818,-79.3650793650794,4,1,0,95,0,0
150877,-78.125,4,1,0,95,0,0
150937,-76.9230769230769,4,1,0,95,0,0
150996,-75.7575757575758,4,1,0,95,0,0
151056,-74.6268656716418,4,1,0,95,0,0
151116,-74.6268656716418,4,1,0,100,0,0
151294,-38.4615384615385,4,1,0,75,0,0
152544,-76.9230769230769,4,1,0,85,0,0
153258,-80,4,1,0,90,0,0
153437,-83.3333333333333,4,1,0,90,0,0
153526,-86.9565217391304,4,1,0,90,0,0
153616,-90.9090909090909,4,1,0,90,0,0
153794,-95.2380952380952,4,1,0,90,0,0
153973,-90.9090909090909,4,1,0,95,0,0
154866,-89.2857142857143,4,1,0,95,0,0
154955,-87.719298245614,4,1,0,95,0,0
155044,-86.2068965517241,4,1,0,95,0,0
155133,-84.7457627118644,4,1,0,95,0,0
155223,-83.3333333333333,4,1,0,95,0,0
155312,-81.9672131147541,4,1,0,95,0,0
155401,-80.6451612903226,4,1,0,95,0,0
155491,-79.3650793650794,4,1,0,95,0,0
155580,-78.125,4,1,0,95,0,0
155669,-76.9230769230769,4,1,0,95,0,0
155758,-74.0740740740741,4,1,0,95,0,0
155937,-71.4285714285714,4,1,0,100,0,0
156116,-55.5555555555556,4,1,0,100,0,0
156830,-100,4,1,0,90,0,0
157544,-74.6268656716418,4,1,0,95,0,0
157633,-75.7575757575758,4,1,0,95,0,0
157723,-76.9230769230769,4,1,0,95,0,0
157812,-78.125,4,1,0,95,0,0
157901,-79.3650793650794,4,1,0,95,0,0
157991,-80.6451612903226,4,1,0,95,0,0
158080,-81.9672131147541,4,1,0,95,0,0
158169,-83.3333333333333,4,1,0,95,0,0
158258,-84.7457627118644,4,1,0,95,0,0
158348,-86.2068965517241,4,1,0,95,0,0
158437,-87.719298245614,4,1,0,95,0,0
158526,-89.2857142857143,4,1,0,95,0,0
158616,-90.9090909090909,4,1,0,95,0,0
160580,-89.2857142857143,4,1,0,95,0,0
160669,-87.719298245614,4,1,0,95,0,0
160758,-86.2068965517241,4,1,0,95,0,0
160848,-84.7457627118644,4,1,0,95,0,0
160937,-83.3333333333333,4,1,0,95,0,0
161026,-81.9672131147541,4,1,0,95,0,0
161115,-80.6451612903226,4,1,0,95,0,0
161205,-79.3650793650794,4,1,0,95,0,0
161294,-78.125,4,1,0,95,0,0
161383,-76.9230769230769,4,1,0,95,0,0
161473,-74.0740740740741,4,1,0,95,0,0
161651,-71.4285714285714,4,1,0,100,0,0
161830,-55.5555555555556,4,1,0,100,0,0
162544,-100,4,1,0,90,0,0
163258,-63.2911392405063,4,1,0,95,0,0
163348,-64.5161290322581,4,1,0,95,0,0
163437,-65.7894736842105,4,1,0,95,0,0
163526,-67.1140939597315,4,1,0,95,0,0
163616,-68.4931506849315,4,1,0,95,0,0
163705,-69.9300699300699,4,1,0,95,0,0
163794,-71.4285714285714,4,1,0,95,0,0
163973,-72.992700729927,4,1,0,95,0,0
164151,-74.6268656716418,4,1,0,95,0,0
164241,-76.3358778625954,4,1,0,95,0,0
164330,-78.125,4,1,0,95,0,0
164419,-80,4,1,0,95,0,0
164508,-81.9672131147541,4,1,0,95,0,0
164598,-84.0336134453781,4,1,0,95,0,0
164687,-86.2068965517241,4,1,0,95,0,0
164776,-88.4955752212389,4,1,0,95,0,0
164866,-90.9090909090909,4,1,0,95,0,0
165044,-91.743119266055,4,1,0,95,0,0
165223,-87.719298245614,4,1,0,95,0,0
165312,-89.2857142857143,4,1,0,95,0,0
165401,-90.9090909090909,4,1,0,95,0,0
166294,-89.2857142857143,4,1,0,95,0,0
166383,-87.719298245614,4,1,0,95,0,0
166473,-86.2068965517241,4,1,0,95,0,0
166562,-84.7457627118644,4,1,0,95,0,0
166651,-83.3333333333333,4,1,0,95,0,0
166741,-81.9672131147541,4,1,0,95,0,0
166830,-80.6451612903226,4,1,0,95,0,0
166919,-79.3650793650794,4,1,0,95,0,0
167008,-78.125,4,1,0,95,0,0
167098,-76.9230769230769,4,1,0,95,0,0
167187,-74.0740740740741,4,1,0,95,0,0
167366,-71.4285714285714,4,1,0,100,0,0
167544,-55.5555555555556,4,1,0,100,0,0
168258,-100,4,1,0,90,0,0
168973,-63.2911392405063,4,1,0,95,0,0
169062,-64.9350649350649,4,1,0,95,0,0
169151,-66.6666666666667,4,1,0,95,0,0
169241,-68.4931506849315,4,1,0,95,0,0
169330,-70.4225352112676,4,1,0,95,0,0
169419,-72.463768115942,4,1,0,95,0,0
169508,-74.6268656716418,4,1,0,95,0,0
169598,-76.9230769230769,4,1,0,95,0,0
169687,-79.3650793650794,4,1,0,95,0,0
169776,-81.9672131147541,4,1,0,95,0,0
169866,-84.7457627118644,4,1,0,95,0,0
169955,-87.719298245614,4,1,0,95,0,0
170044,-90.9090909090909,4,1,0,95,0,0
172008,-89.2857142857143,4,1,0,95,0,0
172098,-87.719298245614,4,1,0,95,0,0
172187,-86.2068965517241,4,1,0,95,0,0
172276,-84.7457627118644,4,1,0,95,0,0
172366,-83.3333333333333,4,1,0,95,0,0
172455,-81.9672131147541,4,1,0,95,0,0
172544,-80.6451612903226,4,1,0,95,0,0
172633,-79.3650793650794,4,1,0,95,0,0
172723,-78.125,4,1,0,95,0,0
172812,-76.9230769230769,4,1,0,95,0,0
172901,-74.0740740740741,4,1,0,95,0,0
173080,-71.4285714285714,4,1,0,100,0,0
173258,-55.5555555555556,4,1,0,100,0,0
173973,-100,4,1,0,90,0,0
174687,-76.9230769230769,4,1,0,100,0,0
175223,-83.3333333333333,4,1,0,85,0,0
175758,-90.9090909090909,4,1,0,85,0,0
176294,-98.0392156862745,4,1,0,85,0,0
176830,348.837209302326,4,1,0,95,1,0
177876,-96.1538461538461,4,1,0,95,0,0
178225,337.078651685393,4,1,0,95,1,0
178730,-66.6666666666667,4,1,0,100,0,0
178899,-55.5555555555556,4,1,0,100,0,0
179573,319.148936170213,4,1,0,95,1,0
179573,-111.111111111111,4,1,0,95,0,0
180849,306.122448979592,4,1,0,95,1,0
180849,-111.111111111111,4,1,0,95,0,0
182073,294.117647058824,4,1,0,95,1,0
182955,-98.0392156862745,4,1,0,95,0,0
183249,288.461538461538,4,1,0,95,1,0
183681,-71.4285714285714,4,1,0,100,0,0
183825,-58.8235294117647,4,1,0,100,0,0
184402,283.018867924528,4,1,0,95,1,0
184402,-111.111111111111,4,1,0,95,0,0
185534,267.857142857143,4,1,0,95,1,0
185534,-111.111111111111,4,1,0,95,0,0
186605,263.157894736842,4,1,0,95,1,0
187394,-98.0392156862745,4,1,0,95,0,0
187657,256.410256410256,4,1,0,95,1,0
188041,-76.9230769230769,4,1,0,100,0,0
188169,-62.5,4,1,0,100,0,0
188682,250,4,1,0,95,1,0
188682,-111.111111111111,4,1,0,95,0,0
189682,241.935483870968,4,1,0,95,1,0
189682,-114.942528735632,4,1,0,95,0,0
190649,238.095238095238,4,1,0,95,1,0
191363,-98.0392156862745,4,1,0,95,0,0
191601,234.375,4,1,0,95,1,0
191952,-83.3333333333333,4,1,0,100,0,0
192069,-66.6666666666667,4,1,0,100,0,0
192538,229.007633587786,4,1,0,95,1,0
192538,-111.111111111111,4,1,0,95,0,0
193454,222.222222222222,4,1,0,95,1,0
193454,-114.942528735632,4,1,0,95,0,0
193676,-111.111111111111,4,1,0,95,0,0
193787,-108.695652173913,4,1,0,95,0,0
193898,-105.263157894737,4,1,0,95,0,0
194009,-100,4,1,0,96,0,0
194065,-99.009900990099,4,1,0,97,0,0
194120,-98.0392156862745,4,1,0,98,0,0
194176,-97.0873786407767,4,1,0,99,0,0
194231,-96.1538461538461,4,1,0,100,0,0
194342,220.588235294118,4,1,0,100,1,0
195224,215.827338129496,4,1,0,100,1,0
196087,212.765957446809,4,1,0,100,1,0
196938,209.79020979021,4,1,0,100,1,0
197777,206.896551724138,4,1,0,100,1,0
198604,201.342281879195,4,1,0,100,1,0
199409,200,4,1,0,100,1,0
200995,294.117647058824,4,1,0,90,1,0
200995,-55.5555555555556,4,1,0,90,0,0
202171,-125,4,1,0,40,0,0
205995,-117.647058823529,4,1,0,45,0,0
207906,-114.942528735632,4,1,0,50,0,0
208053,-111.111111111111,4,1,0,55,0,0
209230,-108.695652173913,4,1,0,60,0,0
209377,-106.382978723404,4,1,0,60,0,0
209524,-104.166666666667,4,1,0,60,0,0
209671,-102.040816326531,4,1,0,65,0,0
209745,-100,4,1,0,65,0,0
209818,-98.0392156862745,4,1,0,65,0,0
209892,-96.1538461538461,4,1,0,65,0,0
210039,-94.3396226415094,4,1,0,65,0,0
210112,-90.9090909090909,4,1,0,65,0,0
210406,-100,4,1,0,70,0,0
211289,-96.1538461538461,4,1,0,75,0,0
212171,-100,4,1,0,70,0,0
213642,-96.1538461538461,4,1,0,75,0,0
214720,-100,4,1,0,70,0,0
215995,-96.1538461538461,4,1,0,75,0,0
216877,-100,4,1,0,70,0,0
218347,-96.1538461538461,4,1,0,75,0,0
218936,-98.0392156862745,4,1,0,75,0,0
219818,-95.2380952380952,4,1,0,80,0,0
219965,-99.009900990099,4,1,0,70,0,0
220112,-103.092783505155,4,1,0,70,0,0
220186,-107.52688172043,4,1,0,70,0,0
220259,-112.359550561798,4,1,0,70,0,0
220406,-117.647058823529,4,1,0,70,0,0
220700,-125,4,1,0,70,0,0
221877,-117.647058823529,4,1,0,75,0,0
224230,-111.111111111111,4,1,0,80,0,0
226730,-108.695652173913,4,1,0,80,0,0
226877,-105.263157894737,4,1,0,85,0,0
228053,-100,4,1,0,90,0,0
228936,-76.9230769230769,4,1,0,100,0,0
229230,-83.3333333333333,4,1,0,95,0,1
245847,-86.9565217391304,4,1,0,90,0,1
248053,-79.3650793650794,4,1,0,85,0,0
248127,-80.6451612903226,4,1,0,85,0,0
248200,-81.9672131147541,4,1,0,85,0,0
248274,-83.3333333333333,4,1,0,85,0,0
248347,-84.7457627118644,4,1,0,85,0,0
248421,-86.2068965517241,4,1,0,85,0,0
248495,-87.719298245614,4,1,0,85,0,0
248568,-89.2857142857143,4,1,0,85,0,0
248642,-90.9090909090909,4,1,0,85,0,0
252024,-79.3650793650794,4,1,0,90,0,0
252097,-80.6451612903226,4,1,0,90,0,0
252171,-81.9672131147541,4,1,0,90,0,0
252245,-83.3333333333333,4,1,0,90,0,0
252318,-84.7457627118644,4,1,0,90,0,0
252392,-86.2068965517241,4,1,0,90,0,0
252465,-87.719298245614,4,1,0,90,0,0
252539,-89.2857142857143,4,1,0,90,0,0
252612,-90.9090909090909,4,1,0,90,0,0
252759,-83.3333333333333,4,1,0,95,0,1
257465,-79.3650793650794,4,1,0,85,0,0
257539,-80.6451612903226,4,1,0,85,0,0
257612,-81.9672131147541,4,1,0,85,0,0
257686,-83.3333333333333,4,1,0,85,0,0
257759,-84.7457627118644,4,1,0,85,0,0
257833,-86.2068965517241,4,1,0,85,0,0
257906,-87.719298245614,4,1,0,85,0,0
257980,-89.2857142857143,4,1,0,85,0,0
258053,-90.9090909090909,4,1,0,85,0,0
261289,-76.9230769230769,4,1,0,90,0,0
261362,-78.125,4,1,0,90,0,0
261436,-79.3650793650794,4,1,0,90,0,0
261509,-80.6451612903226,4,1,0,90,0,0
261583,-81.9672131147541,4,1,0,90,0,0
261656,-83.3333333333333,4,1,0,90,0,0
261730,-84.7457627118644,4,1,0,90,0,0
261803,-86.2068965517241,4,1,0,90,0,0
261877,-87.719298245614,4,1,0,90,0,0
261950,-89.2857142857143,4,1,0,90,0,0
262024,-90.9090909090909,4,1,0,90,0,0
262171,-86.9565217391304,4,1,0,95,0,0
263936,-76.3358778625954,4,1,0,95,0,0
263985,-77.5193798449612,4,1,0,95,0,0
264034,-78.7401574803149,4,1,0,95,0,0
264083,-80,4,1,0,95,0,0
264230,-81.3008130081301,4,1,0,95,0,0
264303,-82.6446280991736,4,1,0,95,0,0
264377,-84.0336134453781,4,1,0,95,0,0
264450,-85.4700854700855,4,1,0,95,0,0
264524,-86.9565217391304,4,1,0,95,0,0
264671,-80,4,1,0,85,0,0
266583,-86.9565217391304,4,1,0,90,0,0
268053,-83.3333333333333,4,1,0,95,0,0
268936,-74.0740740740741,4,1,0,100,0,0
269230,-80,4,1,0,95,0,1
286877,-76.9230769230769,4,1,0,100,0,1
291583,-71.4285714285714,4,1,0,90,0,0
291730,-66.6666666666667,4,1,0,80,0,0
292171,-80,4,1,0,75,0,0
292759,-83.3333333333333,4,1,0,70,0,0
293347,-90.9090909090909,4,1,0,60,0,0
293936,-100,4,1,0,50,0,0
294524,-111.111111111111,4,1,0,40,0,0
295112,-125,4,1,0,30,0,0
300798,-129.87012987013,4,1,0,25,0,0
310259,-133.333333333333,4,1,0,20,0,0
310553,-117.647058823529,4,2,0,10,0,0
315112,-142.857142857143,4,1,0,15,0,0
319818,-153.846153846154,4,2,0,10,0,0
320995,-166.666666666667,4,2,0,10,0,0
322171,-181.818181818182,4,2,0,10,0,0
323347,-200,4,2,0,5,0,0
324524,-222.222222222222,4,2,0,5,0,0
325700,-250,4,2,0,5,0,0

[HitObjects]
256,192,1312,12,0,2341,0:0:0:0:
128,192,2488,5,8,0:0:0:0:
128,192,7194,1,8,0:0:0:0:
128,192,9547,1,0,0:0:0:0:
128,192,10724,1,0,0:0:0:0:
128,192,11900,1,8,0:0:0:0:
128,192,12194,1,0,0:0:0:0:
128,192,12341,1,8,0:0:0:0:
128,192,13469,1,8,0:0:0:0:
128,192,13567,1,8,0:0:0:0:
128,192,13665,1,0,0:0:0:0:
128,192,14253,1,8,0:0:0:0:
128,192,14400,1,0,0:0:0:0:
128,192,14694,1,8,0:0:0:0:
128,192,15871,1,0,0:0:0:0:
128,192,15944,1,0,0:0:0:0:
128,192,16018,1,8,0:0:0:0:
128,192,16312,1,8,0:0:0:0:
128,192,16459,1,0,0:0:0:0:
128,192,16606,1,8,0:0:0:0:
128,192,17047,1,8,0:0:0:0:
128,192,18175,1,8,0:0:0:0:
128,192,18273,1,0,0:0:0:0:
128,192,18371,1,8,0:0:0:0:
128,192,18518,1,0,0:0:0:0:
128,192,18665,1,0,0:0:0:0:
128,192,18959,1,8,0:0:0:0:
128,192,19106,1,8,0:0:0:0:
128,192,19253,1,0,0:0:0:0:
128,192,19400,1,8,0:0:0:0:
128,192,20136,1,8,0:0:0:0:
128,192,20283,1,0,0:0:0:0:
128,192,20430,1,8,0:0:0:0:
128,192,20577,1,8,0:0:0:0:
128,192,21116,1,0,0:0:0:0:
128,192,21214,1,8,0:0:0:0:
128,192,21312,1,8,0:0:0:0:
128,192,21606,1,0,0:0:0:0:
128,192,21753,1,8,0:0:0:0:
128,192,22881,1,8,0:0:0:0:
128,192,22979,1,8,0:0:0:0:
128,192,23077,1,0,0:0:0:0:
128,192,23665,1,8,0:0:0:0:
128,192,23812,1,0,0:0:0:0:
128,192,24106,1,8,0:0:0:0:
128,192,25234,1,8,0:0:0:0:
128,192,25332,1,0,0:0:0:0:
128,192,25430,1,0,0:0:0:0:
128,192,25577,1,0,0:0:0:0:
128,192,25724,1,8,0:0:0:0:
128,192,26018,1,8,0:0:0:0:
128,192,26459,1,8,0:0:0:0:
128,192,26606,1,0,0:0:0:0:
128,192,26900,1,8,0:0:0:0:
128,192,27194,1,8,0:0:0:0:
128,192,27488,1,0,0:0:0:0:
128,192,27636,1,8,0:0:0:0:
128,192,27783,1,0,0:0:0:0:
128,192,28077,1,8,0:0:0:0:
128,192,28371,1,8,0:0:0:0:
128,192,28518,1,0,0:0:0:0:
128,192,28665,1,8,0:0:0:0:
128,192,28812,1,8,0:0:0:0:
128,192,28959,1,0,0:0:0:0:
128,192,29106,1,8,0:0:0:0:
128,192,29253,1,0,0:0:0:0:
128,192,29400,1,8,0:0:0:0:
128,192,29547,1,0,0:0:0:0:
128,192,29694,1,0,0:0:0:0:
128,192,29841,1,0,0:0:0:0:
128,192,29988,1,0,0:0:0:0:
128,192,30062,1,0,0:0:0:0:
128,192,30136,1,8,0:0:0:0:
128,192,30283,2,0,L|164:192,3,36.399999777832
128,192,30724,1,4,0:0:0:0:
128,192,30871,1,4,0:0:0:0:
128,192,31018,1,4,0:0:0:0:
128,192,31165,1,4,0:0:0:0:
128,192,31312,1,8,0:0:0:0:
128,192,31386,1,0,0:0:0:0:
128,192,31606,1,12,0:0:0:0:
128,192,31753,1,12,0:0:0:0:
128,192,31900,1,12,0:0:0:0:
128,192,32047,1,12,0:0:0:0:
128,192,32194,1,0,0:0:0:0:
128,192,32268,1,8,0:0:0:0:
128,192,32488,1,8,0:0:0:0:
128,192,32636,1,0,0:0:0:0:
128,192,32783,1,8,0:0:0:0:
128,192,32930,1,8,0:0:0:0:
128,192,33077,1,4,0:0:0:0:
128,192,33224,1,4,0:0:0:0:
128,192,33371,1,4,0:0:0:0:
128,192,33518,1,4,0:0:0:0:
128,192,33665,1,8,0:0:0:0:
128,192,33738,1,0,0:0:0:0:
128,192,33959,1,12,0:0:0:0:
128,192,34106,1,12,0:0:0:0:
128,192,34253,1,12,0:0:0:0:
128,192,34400,1,12,0:0:0:0:
128,192,34547,1,0,0:0:0:0:
128,192,34621,5,8,0:0:0:0:
128,192,34694,1,8,0:0:0:0:
128,192,34768,1,8,0:0:0:0:
128,192,35037,1,8,0:0:0:0:
128,192,35136,1,0,0:0:0:0:
128,192,35234,1,8,0:0:0:0:
128,192,35430,1,4,0:0:0:0:
128,192,35577,1,4,0:0:0:0:
128,192,35724,1,4,0:0:0:0:
128,192,35871,1,4,0:0:0:0:
128,192,36018,1,8,0:0:0:0:
128,192,36091,1,0,0:0:0:0:
128,192,36312,1,12,0:0:0:0:
128,192,36459,1,12,0:0:0:0:
128,192,36606,1,12,0:0:0:0:
128,192,36753,1,12,0:0:0:0:
128,192,36900,1,0,0:0:0:0:
128,192,36974,1,8,0:0:0:0:
128,192,37194,1,8,0:0:0:0:
128,192,37268,1,8,0:0:0:0:
128,192,37341,1,0,0:0:0:0:
128,192,37488,1,8,0:0:0:0:
128,192,37636,1,8,0:0:0:0:
128,192,37783,1,4,0:0:0:0:
128,192,37930,1,4,0:0:0:0:
128,192,38077,1,4,0:0:0:0:
128,192,38224,1,4,0:0:0:0:
128,192,38371,1,8,0:0:0:0:
128,192,38444,1,0,0:0:0:0:
128,192,38665,1,12,0:0:0:0:
128,192,38812,1,12,0:0:0:0:
128,192,38959,1,12,0:0:0:0:
128,192,39106,1,12,0:0:0:0:
128,192,39253,1,0,0:0:0:0:
128,192,39327,1,0,0:0:0:0:
128,192,39400,1,8,0:0:0:0:
128,192,39474,1,8,0:0:0:0:
128,192,39547,1,8,0:0:0:0:
128,192,39645,1,0,0:0:0:0:
128,192,39743,1,8,0:0:0:0:
128,192,39841,1,0,0:0:0:0:
128,192,39988,1,8,0:0:0:0:
128,192,40136,1,4,0:0:0:0:
128,192,40283,1,0,0:0:0:0:
128,192,40430,1,0,0:0:0:0:
128,192,40503,1,0,0:0:0:0:
128,192,40577,1,0,0:0:0:0:
128,192,40724,1,8,0:0:0:0:
128,192,41018,1,0,0:0:0:0:
128,192,41165,1,8,0:0:0:0:
128,192,41312,1,8,0:0:0:0:
128,192,41386,1,0,0:0:0:0:
128,192,41459,1,0,0:0:0:0:
128,192,41606,1,8,0:0:0:0:
128,192,41753,1,0,0:0:0:0:
128,192,41900,1,8,0:0:0:0:
128,192,42194,1,0,0:0:0:0:
128,192,42341,1,8,0:0:0:0:
128,192,42488,1,0,0:0:0:0:
128,192,42562,1,0,0:0:0:0:
128,192,42636,1,8,0:0:0:0:
128,192,42783,1,0,0:0:0:0:
128,192,42930,1,0,0:0:0:0:
128,192,43077,1,8,0:0:0:0:
128,192,43371,1,8,0:0:0:0:
128,192,43518,1,8,0:0:0:0:
128,192,43591,1,8,0:0:0:0:
128,192,43665,1,0,0:0:0:0:
128,192,43812,1,8,0:0:0:0:
128,192,43959,1,0,0:0:0:0:
128,192,44106,1,0,0:0:0:0:
128,192,44253,1,8,0:0:0:0:
128,192,44547,1,0,0:0:0:0:
128,192,44694,1,8,0:0:0:0:
128,192,44841,1,8,0:0:0:0:
128,192,44988,1,0,0:0:0:0:
128,192,45136,1,8,0:0:0:0:
128,192,45283,1,0,0:0:0:0:
128,192,45430,1,8,0:0:0:0:
128,192,45577,1,0,0:0:0:0:
128,192,45724,1,0,0:0:0:0:
128,192,45871,1,8,0:0:0:0:
128,192,46018,1,8,0:0:0:0:
128,192,46165,1,0,0:0:0:0:
128,192,46312,1,8,0:0:0:0:
128,192,46459,1,0,0:0:0:0:
128,192,46606,1,8,0:0:0:0:
128,192,46753,1,0,0:0:0:0:
128,192,46900,1,0,0:0:0:0:
128,192,47047,1,8,0:0:0:0:
128,192,47194,1,8,0:0:0:0:
128,192,47268,1,8,0:0:0:0:
128,192,47341,1,0,0:0:0:0:
128,192,47415,1,0,0:0:0:0:
128,192,47488,1,8,0:0:0:0:
128,192,47562,1,8,0:0:0:0:
128,192,47636,1,0,0:0:0:0:
128,192,47709,1,0,0:0:0:0:
128,192,47783,1,8,0:0:0:0:
128,192,47856,1,0,0:0:0:0:
128,192,47930,5,8,0:0:0:0:
128,192,48003,1,8,0:0:0:0:
128,192,48077,1,8,0:0:0:0:
128,192,48150,1,8,0:0:0:0:
128,192,48224,1,0,0:0:0:0:
128,192,48371,1,8,0:0:0:0:
128,192,48444,1,0,0:0:0:0:
128,192,48518,1,0,0:0:0:0:
128,192,48665,1,8,0:0:0:0:
128,192,48738,1,8,0:0:0:0:
128,192,48812,1,0,0:0:0:0:
128,192,48959,1,8,0:0:0:0:
128,192,49033,1,8,0:0:0:0:
128,192,49106,1,8,0:0:0:0:
128,192,49253,1,12,0:0:0:0:
128,192,49547,1,4,0:0:0:0:
128,192,49694,1,8,0:0:0:0:
128,192,49743,1,8,0:0:0:0:
128,192,49792,1,0,0:0:0:0:
128,192,49841,1,0,0:0:0:0:
128,192,49915,1,8,0:0:0:0:
128,192,49988,1,0,0:0:0:0:
128,192,50136,1,8,0:0:0:0:
128,192,50209,1,8,0:0:0:0:
128,192,50283,1,0,0:0:0:0:
128,192,50430,1,8,0:0:0:0:
128,192,50503,1,0,0:0:0:0:
128,192,50577,1,0,0:0:0:0:
128,192,50724,1,8,0:0:0:0:
128,192,50797,1,0,0:0:0:0:
128,192,50871,1,0,0:0:0:0:
128,192,51018,1,8,0:0:0:0:
128,192,51091,1,8,0:0:0:0:
128,192,51165,1,0,0:0:0:0:
128,192,51238,1,0,0:0:0:0:
128,192,51312,1,8,0:0:0:0:
128,192,51459,1,0,0:0:0:0:
128,192,51606,1,8,0:0:0:0:
128,192,51680,1,0,0:0:0:0:
128,192,51753,1,8,0:0:0:0:
128,192,51900,1,0,0:0:0:0:
128,192,52047,1,12,0:0:0:0:
128,192,52194,1,12,0:0:0:0:
128,192,52341,1,0,0:0:0:0:
128,192,52488,1,8,0:0:0:0:
128,192,52562,1,8,0:0:0:0:
128,192,52636,1,0,0:0:0:0:
128,192,52783,1,8,0:0:0:0:
128,192,52856,1,0,0:0:0:0:
128,192,52930,1,0,0:0:0:0:
128,192,53077,1,8,0:0:0:0:
128,192,53150,1,0,0:0:0:0:
128,192,53224,1,0,0:0:0:0:
128,192,53371,1,8,0:0:0:0:
128,192,53444,1,8,0:0:0:0:
128,192,53518,1,0,0:0:0:0:
128,192,53591,1,0,0:0:0:0:
128,192,53665,1,8,0:0:0:0:
128,192,53763,1,0,0:0:0:0:
128,192,53861,1,0,0:0:0:0:
128,192,53959,1,8,0:0:0:0:
128,192,54057,1,0,0:0:0:0:
128,192,54253,1,4,0:0:0:0:
128,192,54400,1,8,0:0:0:0:
128,192,54449,1,8,0:0:0:0:
128,192,54498,1,8,0:0:0:0:
128,192,54547,1,0,0:0:0:0:
128,192,54621,1,0,0:0:0:0:
128,192,54694,1,0,0:0:0:0:
128,192,54841,1,0,0:0:0:0:
128,192,54915,1,0,0:0:0:0:
128,192,54988,1,8,0:0:0:0:
128,192,55136,1,0,0:0:0:0:
128,192,55209,1,8,0:0:0:0:
128,192,55283,1,8,0:0:0:0:
128,192,55430,1,0,0:0:0:0:
128,192,55503,1,0,0:0:0:0:
128,192,55577,1,8,0:0:0:0:
128,192,55724,1,0,0:0:0:0:
128,192,55797,1,8,0:0:0:0:
128,192,55871,1,8,0:0:0:0:
128,192,55944,1,0,0:0:0:0:
128,192,56018,1,0,0:0:0:0:
128,192,56165,1,8,0:0:0:0:
128,192,56312,1,8,0:0:0:0:
128,192,56361,1,0,0:0:0:0:
128,192,56410,1,0,0:0:0:0:
128,192,56459,1,0,0:0:0:0:
128,192,56606,1,0,0:0:0:0:
128,192,56680,1,8,0:0:0:0:
128,192,56753,1,8,0:0:0:0:
128,192,56900,1,0,0:0:0:0:
128,192,57047,1,8,0:0:0:0:
128,192,57194,1,0,0:0:0:0:
128,192,57268,1,8,0:0:0:0:
128,192,57415,1,8,0:0:0:0:
128,192,57488,1,0,0:0:0:0:
128,192,57636,1,8,0:0:0:0:
128,192,57709,1,8,0:0:0:0:
128,192,57783,1,0,0:0:0:0:
128,192,57856,5,8,0:0:0:0:
128,192,58003,1,8,0:0:0:0:
128,192,58077,1,0,0:0:0:0:
128,192,58224,1,0,0:0:0:0:
128,192,58297,1,0,0:0:0:0:
128,192,58371,1,8,0:0:0:0:
128,192,58518,1,0,0:0:0:0:
128,192,58591,1,0,0:0:0:0:
128,192,58665,1,8,0:0:0:0:
128,192,58738,1,8,0:0:0:0:
128,192,58812,1,8,0:0:0:0:
128,192,58959,1,4,0:0:0:0:
128,192,59106,1,8,0:0:0:0:
128,192,59155,1,8,0:0:0:0:
128,192,59204,1,0,0:0:0:0:
128,192,59253,1,0,0:0:0:0:
128,192,59327,1,8,0:0:0:0:
128,192,59400,1,0,0:0:0:0:
128,192,59547,1,8,0:0:0:0:
128,192,59621,1,8,0:0:0:0:
128,192,59694,1,0,0:0:0:0:
128,192,59841,1,8,0:0:0:0:
128,192,59915,1,0,0:0:0:0:
128,192,59988,1,0,0:0:0:0:
128,192,60136,1,8,0:0:0:0:
128,192,60209,1,0,0:0:0:0:
128,192,60283,1,0,0:0:0:0:
128,192,60430,1,8,0:0:0:0:
128,192,60503,1,8,0:0:0:0:
128,192,60577,1,0,0:0:0:0:
128,192,60650,1,0,0:0:0:0:
128,192,60724,1,8,0:0:0:0:
128,192,60871,1,0,0:0:0:0:
128,192,60944,1,0,0:0:0:0:
128,192,61091,1,0,0:0:0:0:
128,192,61165,1,0,0:0:0:0:
128,192,61312,1,8,0:0:0:0:
128,192,61459,1,8,0:0:0:0:
128,192,61533,1,0,0:0:0:0:
128,192,61680,1,0,0:0:0:0:
128,192,61753,1,8,0:0:0:0:
128,192,61900,1,12,0:0:0:0:
128,192,62194,1,4,0:0:0:0:
128,192,62341,1,12,0:0:0:0:
128,192,62488,1,8,0:0:0:0:
128,192,62636,1,4,0:0:0:0:
128,192,62783,1,12,0:0:0:0:
128,192,62930,1,0,0:0:0:0:
128,192,63077,1,8,0:0:0:0:
128,192,63150,1,0,0:0:0:0:
128,192,63224,1,0,0:0:0:0:
128,192,63297,1,0,0:0:0:0:
128,192,63371,1,8,0:0:0:0:
128,192,63444,1,8,0:0:0:0:
128,192,63518,1,0,0:0:0:0:
128,192,63665,1,12,0:0:0:0:
128,192,63812,1,0,0:0:0:0:
128,192,63959,1,8,0:0:0:0:
128,192,64033,1,8,0:0:0:0:
128,192,64106,1,0,0:0:0:0:
128,192,64253,1,0,0:0:0:0:
128,192,64400,1,0,0:0:0:0:
128,192,64474,1,8,0:0:0:0:
128,192,64547,1,0,0:0:0:0:
128,192,64621,1,0,0:0:0:0:
128,192,64694,1,8,0:0:0:0:
128,192,64841,1,0,0:0:0:0:
128,192,64988,1,8,0:0:0:0:
128,192,65136,1,8,0:0:0:0:
128,192,65283,1,0,0:0:0:0:
128,192,65430,1,8,0:0:0:0:
128,192,65503,1,0,0:0:0:0:
128,192,65650,1,8,0:0:0:0:
128,192,65724,1,0,0:0:0:0:
128,192,65871,1,0,0:0:0:0:
128,192,65944,1,0,0:0:0:0:
128,192,66018,1,8,0:0:0:0:
128,192,66165,1,0,0:0:0:0:
128,192,66312,1,8,0:0:0:0:
128,192,66386,1,0,0:0:0:0:
128,192,66459,1,8,0:0:0:0:
128,192,66533,1,8,0:0:0:0:
128,192,66606,1,0,0:0:0:0:
128,192,66753,1,0,0:0:0:0:
128,192,66827,1,8,0:0:0:0:
128,192,66900,1,0,0:0:0:0:
128,192,67047,1,8,0:0:0:0:
128,192,67194,1,12,0:0:0:0:
128,192,67415,1,12,0:0:0:0:
128,192,67636,1,4,0:0:0:0:
128,192,67856,1,12,0:0:0:0:
128,192,68077,1,0,0:0:0:0:
128,192,68150,1,0,0:0:0:0:
128,192,68224,1,8,0:0:0:0:
128,192,68297,1,0,0:0:0:0:
128,192,68371,1,8,0:0:0:0:
128,192,68665,1,0,0:0:0:0:
128,192,68812,1,8,0:0:0:0:
128,192,68959,1,8,0:0:0:0:
128,192,69106,1,0,0:0:0:0:
128,192,69253,5,8,0:0:0:0:
128,192,69400,1,0,0:0:0:0:
128,192,69474,1,0,0:0:0:0:
128,192,69547,1,8,0:0:0:0:
128,192,69694,1,0,0:0:0:0:
128,192,69841,1,8,0:0:0:0:
128,192,69988,1,8,0:0:0:0:
128,192,70136,1,8,0:0:0:0:
128,192,70283,1,0,0:0:0:0:
128,192,70430,1,0,0:0:0:0:
128,192,70528,1,8,0:0:0:0:
128,192,70626,1,0,0:0:0:0:
128,192,70724,1,8,0:0:0:0:
128,192,70871,1,0,0:0:0:0:
128,192,71018,1,0,0:0:0:0:
128,192,71116,1,8,0:0:0:0:
128,192,71214,1,8,0:0:0:0:
128,192,71312,1,8,0:0:0:0:
128,192,71459,1,0,0:0:0:0:
128,192,71606,1,8,0:0:0:0:
128,192,71753,1,0,0:0:0:0:
128,192,71827,1,0,0:0:0:0:
128,192,71900,1,0,0:0:0:0:
128,192,72047,1,8,0:0:0:0:
128,192,72194,1,8,0:0:0:0:
128,192,72341,1,0,0:0:0:0:
128,192,72488,1,8,0:0:0:0:
128,192,72636,1,0,0:0:0:0:
128,192,72783,1,8,0:0:0:0:
128,192,72856,1,8,0:0:0:0:
128,192,72930,1,0,0:0:0:0:
128,192,73077,1,8,0:0:0:0:
128,192,73224,1,0,0:0:0:0:
128,192,73371,1,8,0:0:0:0:
128,192,73518,1,8,0:0:0:0:
128,192,73591,1,0,0:0:0:0:
128,192,73665,1,8,0:0:0:0:
128,192,73812,1,0,0:0:0:0:
128,192,73959,1,8,0:0:0:0:
128,192,74253,1,0,0:0:0:0:
128,192,74400,1,0,0:0:0:0:
128,192,74547,1,8,0:0:0:0:
128,192,74694,1,8,0:0:0:0:
128,192,74841,1,0,0:0:0:0:
128,192,74988,1,8,0:0:0:0:
128,192,75136,1,8,0:0:0:0:
128,192,75209,1,8,0:0:0:0:
128,192,75283,1,8,0:0:0:0:
128,192,75356,1,0,0:0:0:0:
128,192,75430,1,0,0:0:0:0:
128,192,75724,1,0,0:0:0:0:
128,192,75871,1,0,0:0:0:0:
128,192,76018,1,8,0:0:0:0:
128,192,76312,1,8,0:0:0:0:
128,192,76459,1,0,0:0:0:0:
128,192,76753,1,0,0:0:0:0:
128,192,76900,1,8,0:0:0:0:
128,192,77047,1,0,0:0:0:0:
128,192,77194,1,8,0:0:0:0:
128,192,77341,1,0,0:0:0:0:
128,192,77415,1,0,0:0:0:0:
128,192,77488,1,8,0:0:0:0:
128,192,77562,1,8,0:0:0:0:
128,192,77636,1,0,0:0:0:0:
128,192,77709,1,8,0:0:0:0:
128,192,77783,1,8,0:0:0:0:
256,192,77930,12,0,78371,0:0:0:0:
128,192,78518,5,4,0:0:0:0:
128,192,78665,1,8,0:0:0:0:
128,192,78812,1,8,0:0:0:0:
128,192,78886,1,8,0:0:0:0:
128,192,78959,1,0,0:0:0:0:
128,192,79106,1,0,0:0:0:0:
128,192,79253,1,8,0:0:0:0:
128,192,79400,1,0,0:0:0:0:
128,192,79547,1,8,0:0:0:0:
128,192,79694,1,0,0:0:0:0:
128,192,79841,1,0,0:0:0:0:
128,192,79939,1,8,0:0:0:0:
128,192,80037,1,8,0:0:0:0:
128,192,80136,1,8,0:0:0:0:
128,192,80283,1,0,0:0:0:0:
128,192,80430,1,0,0:0:0:0:
128,192,80528,1,8,0:0:0:0:
128,192,80626,1,0,0:0:0:0:
128,192,80724,1,8,0:0:0:0:
128,192,80871,1,0,0:0:0:0:
128,192,81018,1,8,0:0:0:0:
128,192,81165,1,0,0:0:0:0:
128,192,81238,1,0,0:0:0:0:
128,192,81312,1,0,0:0:0:0:
128,192,81459,1,0,0:0:0:0:
128,192,81606,1,8,0:0:0:0:
128,192,81753,1,8,0:0:0:0:
128,192,81900,1,8,0:0:0:0:
128,192,82047,1,0,0:0:0:0:
128,192,82194,1,8,0:0:0:0:
128,192,82341,1,0,0:0:0:0:
128,192,82415,1,0,0:0:0:0:
128,192,82488,1,8,0:0:0:0:
128,192,82783,1,8,0:0:0:0:
128,192,82930,1,0,0:0:0:0:
128,192,83003,1,0,0:0:0:0:
128,192,83077,1,0,0:0:0:0:
128,192,83224,1,8,0:0:0:0:
128,192,83371,1,8,0:0:0:0:
128,192,83518,1,0,0:0:0:0:
128,192,83665,1,8,0:0:0:0:
128,192,83812,1,0,0:0:0:0:
128,192,83959,1,8,0:0:0:0:
128,192,84106,1,8,0:0:0:0:
128,192,84180,1,0,0:0:0:0:
128,192,84327,1,8,0:0:0:0:
128,192,84400,1,0,0:0:0:0:
128,192,84547,1,8,0:0:0:0:
128,192,84694,1,0,0:0:0:0:
128,192,84768,1,8,0:0:0:0:
128,192,84841,1,8,0:0:0:0:
128,192,85136,1,8,0:0:0:0:
128,192,85283,1,8,0:0:0:0:
128,192,85356,1,0,0:0:0:0:
128,192,85430,1,0,0:0:0:0:
128,192,85577,1,8,0:0:0:0:
128,192,85650,1,0,0:0:0:0:
128,192,85724,1,0,0:0:0:0:
128,192,85871,1,8,0:0:0:0:
128,192,85944,1,0,0:0:0:0:
128,192,86018,1,0,0:0:0:0:
128,192,86165,1,8,0:0:0:0:
128,192,86238,1,8,0:0:0:0:
128,192,86312,1,0,0:0:0:0:
128,192,86459,1,8,0:0:0:0:
128,192,86533,1,8,0:0:0:0:
128,192,86606,1,0,0:0:0:0:
128,192,86753,1,8,0:0:0:0:
128,192,86827,1,8,0:0:0:0:
128,192,86900,1,0,0:0:0:0:
128,192,87047,1,0,0:0:0:0:
128,192,87194,1,8,0:0:0:0:
128,192,87341,1,0,0:0:0:0:
128,192,87488,1,8,0:0:0:0:
128,192,87636,1,0,0:0:0:0:
128,192,87783,1,8,0:0:0:0:
128,192,87930,1,8,0:0:0:0:
128,192,88077,1,8,0:0:0:0:
128,192,88224,1,0,0:0:0:0:
128,192,88371,2,0,L|162:192,5,35
128,192,88959,1,8,0:0:0:0:
128,192,89033,1,0,0:0:0:0:
128,192,89106,1,8,0:0:0:0:
128,192,89180,1,8,0:0:0:0:
128,192,89253,1,0,0:0:0:0:
128,192,89327,1,0,0:0:0:0:
128,192,89400,1,8,0:0:0:0:
128,192,89547,1,4,0:0:0:0:
128,192,89694,1,4,0:0:0:0:
128,192,89841,1,4,0:0:0:0:
128,192,89988,1,4,0:0:0:0:
128,192,90136,1,8,0:0:0:0:
128,192,90209,1,0,0:0:0:0:
128,192,90430,1,12,0:0:0:0:
128,192,90577,1,12,0:0:0:0:
128,192,90724,1,12,0:0:0:0:
128,192,90871,1,12,0:0:0:0:
128,192,91018,1,0,0:0:0:0:
128,192,91091,1,8,0:0:0:0:
128,192,91312,1,8,0:0:0:0:
128,192,91459,5,0,0:0:0:0:
128,192,91606,1,8,0:0:0:0:
128,192,91753,1,8,0:0:0:0:
128,192,91900,1,4,0:0:0:0:
128,192,92047,1,4,0:0:0:0:
128,192,92194,1,4,0:0:0:0:
128,192,92341,1,4,0:0:0:0:
128,192,92488,1,8,0:0:0:0:
128,192,92562,1,0,0:0:0:0:
128,192,92783,1,12,0:0:0:0:
128,192,92930,1,12,0:0:0:0:
128,192,93077,1,12,0:0:0:0:
128,192,93224,1,12,0:0:0:0:
128,192,93371,1,0,0:0:0:0:
128,192,93444,1,8,0:0:0:0:
128,192,93518,1,8,0:0:0:0:
128,192,93591,1,8,0:0:0:0:
128,192,93861,1,8,0:0:0:0:
128,192,93959,1,0,0:0:0:0:
128,192,94057,1,8,0:0:0:0:
128,192,94253,1,4,0:0:0:0:
128,192,94400,1,4,0:0:0:0:
128,192,94547,1,4,0:0:0:0:
128,192,94694,1,4,0:0:0:0:
128,192,94841,1,8,0:0:0:0:
128,192,94915,1,0,0:0:0:0:
128,192,95136,1,12,0:0:0:0:
128,192,95283,1,12,0:0:0:0:
128,192,95430,1,12,0:0:0:0:
128,192,95577,1,12,0:0:0:0:
128,192,95724,1,0,0:0:0:0:
128,192,95797,1,8,0:0:0:0:
128,192,96018,1,8,0:0:0:0:
128,192,96091,1,8,0:0:0:0:
128,192,96165,1,0,0:0:0:0:
128,192,96312,1,8,0:0:0:0:
128,192,96459,1,0,0:0:0:0:
128,192,96606,1,12,0:0:0:0:
128,192,96753,1,0,0:0:0:0:
128,192,96827,1,0,0:0:0:0:
128,192,96900,1,0,0:0:0:0:
128,192,97047,1,12,0:0:0:0:
128,192,97194,1,0,0:0:0:0:
128,192,97268,1,0,0:0:0:0:
128,192,97341,1,8,0:0:0:0:
128,192,97415,1,8,0:0:0:0:
128,192,97488,1,0,0:0:0:0:
128,192,97783,1,8,0:0:0:0:
128,192,97930,1,0,0:0:0:0:
128,192,98077,1,8,0:0:0:0:
128,192,98371,1,0,0:0:0:0:
128,192,98518,1,0,0:0:0:0:
128,192,98665,1,12,0:0:0:0:
128,192,98959,1,0,0:0:0:0:
128,192,99008,1,8,0:0:0:0:
128,192,99057,1,8,0:0:0:0:
128,192,99106,1,0,0:0:0:0:
128,192,99253,2,0,L|164:192,2,36.749998878479
128,192,99547,1,0,0:0:0:0:
128,192,99621,1,8,0:0:0:0:
128,192,99694,1,8,0:0:0:0:
128,192,99768,1,8,0:0:0:0:
128,192,99841,1,0,0:0:0:0:
128,192,99988,1,8,0:0:0:0:
128,192,100062,1,0,0:0:0:0:
128,192,100136,1,0,0:0:0:0:
128,192,100283,1,8,0:0:0:0:
128,192,100356,1,8,0:0:0:0:
128,192,100430,1,0,0:0:0:0:
128,192,100577,1,8,0:0:0:0:
128,192,100650,1,0,0:0:0:0:
128,192,100724,1,0,0:0:0:0:
128,192,100871,1,8,0:0:0:0:
128,192,100944,1,8,0:0:0:0:
128,192,101018,1,0,0:0:0:0:
128,192,101091,1,0,0:0:0:0:
128,192,101165,1,8,0:0:0:0:
128,192,101312,1,0,0:0:0:0:
128,192,101459,1,12,0:0:0:0:
128,192,101606,1,12,0:0:0:0:
128,192,101753,1,0,0:0:0:0:
128,192,101900,1,8,0:0:0:0:
128,192,101974,1,8,0:0:0:0:
128,192,102047,1,0,0:0:0:0:
128,192,102121,1,0,0:0:0:0:
128,192,102194,1,0,0:0:0:0:
128,192,102341,1,0,0:0:0:0:
128,192,102415,1,0,0:0:0:0:
128,192,102488,1,8,0:0:0:0:
128,192,102636,1,8,0:0:0:0:
128,192,102709,1,0,0:0:0:0:
128,192,102783,1,8,0:0:0:0:
128,192,102930,1,0,0:0:0:0:
128,192,103003,1,0,0:0:0:0:
128,192,103077,1,8,0:0:0:0:
128,192,103224,1,8,0:0:0:0:
128,192,103297,1,0,0:0:0:0:
128,192,103371,1,8,0:0:0:0:
128,192,103518,1,8,0:0:0:0:
128,192,103665,1,0,0:0:0:0:
128,192,103714,5,8,0:0:0:0:
128,192,103763,1,8,0:0:0:0:
128,192,103812,1,8,0:0:0:0:
128,192,103959,2,0,L|164:192,2,36.749998878479
128,192,104253,1,0,0:0:0:0:
128,192,104327,1,8,0:0:0:0:
128,192,104400,1,8,0:0:0:0:
128,192,104474,1,8,0:0:0:0:
128,192,104547,1,0,0:0:0:0:
128,192,104694,1,8,0:0:0:0:
128,192,104768,1,0,0:0:0:0:
128,192,104841,1,0,0:0:0:0:
128,192,104988,1,8,0:0:0:0:
128,192,105062,1,8,0:0:0:0:
128,192,105136,1,0,0:0:0:0:
128,192,105283,1,8,0:0:0:0:
128,192,105356,1,0,0:0:0:0:
128,192,105430,1,0,0:0:0:0:
128,192,105577,1,8,0:0:0:0:
128,192,105650,1,8,0:0:0:0:
128,192,105724,1,0,0:0:0:0:
128,192,105797,1,0,0:0:0:0:
128,192,105871,1,8,0:0:0:0:
128,192,106018,1,0,0:0:0:0:
128,192,106165,1,12,0:0:0:0:
128,192,106312,1,12,0:0:0:0:
128,192,106459,1,0,0:0:0:0:
128,192,106606,1,8,0:0:0:0:
128,192,106680,1,8,0:0:0:0:
128,192,106753,1,0,0:0:0:0:
128,192,106827,1,0,0:0:0:0:
128,192,106900,1,0,0:0:0:0:
128,192,107047,1,8,0:0:0:0:
128,192,107096,1,8,0:0:0:0:
128,192,107145,1,8,0:0:0:0:
128,192,107194,1,0,0:0:0:0:
128,192,107341,1,8,0:0:0:0:
128,192,107415,1,0,0:0:0:0:
128,192,107562,1,0,0:0:0:0:
128,192,107636,1,8,0:0:0:0:
128,192,107783,1,0,0:0:0:0:
128,192,107856,1,8,0:0:0:0:
128,192,107930,1,0,0:0:0:0:
128,192,108077,1,8,0:0:0:0:
128,192,108150,1,0,0:0:0:0:
128,192,108224,1,0,0:0:0:0:
128,192,108297,1,0,0:0:0:0:
128,192,108371,1,8,0:0:0:0:
128,192,108444,1,8,0:0:0:0:
128,192,108518,1,0,0:0:0:0:
128,192,108665,1,0,0:0:0:0:
128,192,108714,1,8,0:0:0:0:
128,192,108763,1,8,0:0:0:0:
128,192,108812,1,0,0:0:0:0:
128,192,108959,1,0,0:0:0:0:
128,192,109033,1,8,0:0:0:0:
128,192,109106,1,8,0:0:0:0:
128,192,109180,1,8,0:0:0:0:
128,192,109253,1,0,0:0:0:0:
128,192,109327,1,0,0:0:0:0:
128,192,109400,1,8,0:0:0:0:
128,192,109547,1,0,0:0:0:0:
128,192,109694,1,8,0:0:0:0:
128,192,109768,1,8,0:0:0:0:
128,192,109841,1,0,0:0:0:0:
128,192,109988,1,8,0:0:0:0:
128,192,110062,1,0,0:0:0:0:
128,192,110136,1,0,0:0:0:0:
128,192,110283,1,8,0:0:0:0:
128,192,110356,1,8,0:0:0:0:
128,192,110430,1,0,0:0:0:0:
128,192,110503,1,0,0:0:0:0:
128,192,110577,1,8,0:0:0:0:
128,192,110724,1,0,0:0:0:0:
128,192,110871,1,12,0:0:0:0:
128,192,111018,1,12,0:0:0:0:
128,192,111165,1,0,0:0:0:0:
128,192,111312,1,8,0:0:0:0:
128,192,111386,1,8,0:0:0:0:
128,192,111459,1,0,0:0:0:0:
128,192,111606,1,0,0:0:0:0:
128,192,111680,1,0,0:0:0:0:
128,192,111753,1,8,0:0:0:0:
128,192,111827,1,0,0:0:0:0:
128,192,112047,1,8,0:0:0:0:
128,192,112121,1,0,0:0:0:0:
128,192,112341,1,8,0:0:0:0:
128,192,112415,1,0,0:0:0:0:
128,192,112636,1,8,0:0:0:0:
128,192,112709,1,0,0:0:0:0:
128,192,112783,1,8,0:0:0:0:
128,192,112856,1,8,0:0:0:0:
128,192,112930,1,0,0:0:0:0:
128,192,113077,1,12,0:0:0:0:
128,192,113224,1,0,0:0:0:0:
128,192,113371,1,8,0:0:0:0:
128,192,113444,1,0,0:0:0:0:
128,192,113518,1,8,0:0:0:0:
128,192,113665,1,0,0:0:0:0:
128,192,113812,1,8,0:0:0:0:
128,192,113959,5,0,0:0:0:0:
128,192,114106,1,8,0:0:0:0:
128,192,114253,1,8,0:0:0:0:
128,192,114400,1,0,0:0:0:0:
128,192,114474,1,0,0:0:0:0:
128,192,114547,1,8,0:0:0:0:
128,192,114694,1,0,0:0:0:0:
128,192,114841,1,8,0:0:0:0:
128,192,114915,1,8,0:0:0:0:
128,192,115062,1,8,0:0:0:0:
128,192,115136,1,8,0:0:0:0:
128,192,115283,1,0,0:0:0:0:
128,192,115430,1,8,0:0:0:0:
128,192,115577,1,0,0:0:0:0:
128,192,115724,1,8,0:0:0:0:
128,192,115871,1,8,0:0:0:0:
128,192,116165,1,8,0:0:0:0:
128,192,116312,1,0,0:0:0:0:
128,192,116459,1,8,0:0:0:0:
128,192,116533,1,8,0:0:0:0:
128,192,116606,1,0,0:0:0:0:
128,192,116753,1,0,0:0:0:0:
128,192,116827,1,8,0:0:0:0:
128,192,116974,1,0,0:0:0:0:
128,192,117047,1,8,0:0:0:0:
128,192,117194,1,8,0:0:0:0:
128,192,117268,1,0,0:0:0:0:
128,192,117415,1,0,0:0:0:0:
128,192,117488,1,8,0:0:0:0:
128,192,117562,1,8,0:0:0:0:
128,192,117636,1,0,0:0:0:0:
128,192,117782,1,4,0:0:0:0:
256,192,117932,12,0,119978,0:0:0:0:
128,192,120299,5,8,0:0:0:0:
128,192,120632,1,0,0:0:0:0:
128,192,120965,1,0,0:0:0:0:
128,192,121299,1,0,0:0:0:0:
128,192,121632,1,8,0:0:0:0:
128,192,122000,1,0,0:0:0:0:
128,192,122368,1,0,0:0:0:0:
128,192,122740,1,0,0:0:0:0:
128,192,123111,1,8,0:0:0:0:
128,192,123505,1,0,0:0:0:0:
128,192,123900,1,0,0:0:0:0:
128,192,124310,1,0,0:0:0:0:
128,192,124721,1,8,0:0:0:0:
128,192,125152,1,0,0:0:0:0:
128,192,125589,1,0,0:0:0:0:
128,192,126050,1,0,0:0:0:0:
128,192,126526,1,8,0:0:0:0:
128,192,127017,1,0,0:0:0:0:
128,192,127525,1,0,0:0:0:0:
128,192,128040,1,8,0:0:0:0:
128,192,128608,1,8,0:0:0:0:
128,192,129176,1,0,0:0:0:0:
128,192,129779,1,0,0:0:0:0:
128,192,130424,1,0,0:0:0:0:
128,192,131116,1,8,0:0:0:0:
128,192,131294,1,0,0:0:0:0:
128,192,131651,1,0,0:0:0:0:
128,192,131830,1,8,0:0:0:0:
128,192,132187,1,0,0:0:0:0:
128,192,132366,1,0,0:0:0:0:
128,192,132544,1,8,0:0:0:0:
128,192,132901,1,0,0:0:0:0:
128,192,133258,1,8,0:0:0:0:
128,192,133437,1,0,0:0:0:0:
128,192,133616,1,0,0:0:0:0:
128,192,133973,1,8,0:0:0:0:
128,192,134330,1,0,0:0:0:0:
128,192,134508,1,0,0:0:0:0:
128,192,134687,1,8,0:0:0:0:
128,192,134866,1,0,0:0:0:0:
128,192,135223,1,0,0:0:0:0:
128,192,135401,1,8,0:0:0:0:
128,192,135758,1,0,0:0:0:0:
128,192,136116,1,8,0:0:0:0:
128,192,136294,1,0,0:0:0:0:
128,192,136473,1,0,0:0:0:0:
128,192,136651,1,0,0:0:0:0:
128,192,136830,1,8,0:0:0:0:
128,192,137187,1,0,0:0:0:0:
128,192,137366,1,8,0:0:0:0:
128,192,137544,1,8,0:0:0:0:
128,192,137901,1,0,0:0:0:0:
128,192,138080,1,0,0:0:0:0:
128,192,138258,1,8,0:0:0:0:
128,192,138437,1,0,0:0:0:0:
128,192,138616,1,8,0:0:0:0:
128,192,138973,1,8,0:0:0:0:
128,192,139151,1,0,0:0:0:0:
128,192,139330,1,0,0:0:0:0:
128,192,139508,1,0,0:0:0:0:
128,192,139598,1,0,0:0:0:0:
128,192,139687,1,8,0:0:0:0:
128,192,139866,1,0,0:0:0:0:
128,192,140223,1,0,0:0:0:0:
128,192,140401,1,8,0:0:0:0:
128,192,140580,1,0,0:0:0:0:
128,192,140758,1,8,0:0:0:0:
128,192,140937,1,0,0:0:0:0:
128,192,141116,1,8,0:0:0:0:
128,192,141205,1,0,0:0:0:0:
128,192,141294,1,0,0:0:0:0:
128,192,141651,1,8,0:0:0:0:
128,192,141830,1,8,0:0:0:0:
128,192,142008,1,0,0:0:0:0:
128,192,142187,1,8,0:0:0:0:
128,192,142366,1,0,0:0:0:0:
128,192,142544,1,4,0:0:0:0:
128,192,142723,1,8,0:0:0:0:
128,192,142812,1,8,0:0:0:0:
128,192,142901,1,8,0:0:0:0:
128,192,142991,1,8,0:0:0:0:
128,192,143080,1,0,0:0:0:0:
128,192,143258,1,8,0:0:0:0:
128,192,143437,1,0,0:0:0:0:
128,192,143526,1,0,0:0:0:0:
128,192,143616,1,8,0:0:0:0:
128,192,143794,1,8,0:0:0:0:
128,192,143854,1,8,0:0:0:0:
128,192,143913,1,0,0:0:0:0:
128,192,143973,1,0,0:0:0:0:
128,192,144151,1,8,0:0:0:0:
128,192,144241,1,0,0:0:0:0:
128,192,144419,1,8,0:0:0:0:
128,192,144508,1,0,0:0:0:0:
128,192,144687,1,8,0:0:0:0:
128,192,144866,1,0,0:0:0:0:
128,192,144955,1,8,0:0:0:0:
128,192,145044,1,8,0:0:0:0:
128,192,145223,1,0,0:0:0:0:
128,192,145401,1,4,0:0:0:0:
128,192,145580,5,8,0:0:0:0:
128,192,145669,1,8,0:0:0:0:
128,192,145758,1,8,0:0:0:0:
128,192,145848,1,8,0:0:0:0:
128,192,145937,1,0,0:0:0:0:
128,192,146116,1,8,0:0:0:0:
128,192,146294,1,0,0:0:0:0:
128,192,146383,1,0,0:0:0:0:
128,192,146473,1,8,0:0:0:0:
128,192,146651,1,8,0:0:0:0:
128,192,146711,1,8,0:0:0:0:
128,192,146770,1,0,0:0:0:0:
128,192,146830,1,0,0:0:0:0:
128,192,147008,1,0,0:0:0:0:
128,192,147098,1,8,0:0:0:0:
128,192,147276,1,0,0:0:0:0:
128,192,147366,1,8,0:0:0:0:
128,192,147544,1,8,0:0:0:0:
128,192,147723,1,0,0:0:0:0:
128,192,147812,1,8,0:0:0:0:
128,192,147901,1,8,0:0:0:0:
128,192,147991,1,0,0:0:0:0:
128,192,148080,1,8,0:0:0:0:
128,192,148258,1,0,0:0:0:0:
128,192,148437,1,0,0:0:0:0:
128,192,148616,1,8,0:0:0:0:
128,192,148794,1,8,0:0:0:0:
128,192,148973,1,0,0:0:0:0:
128,192,149151,1,0,0:0:0:0:
128,192,149330,1,8,0:0:0:0:
128,192,149508,1,8,0:0:0:0:
128,192,149687,1,0,0:0:0:0:
128,192,149776,1,0,0:0:0:0:
128,192,149866,1,8,0:0:0:0:
128,192,149955,1,8,0:0:0:0:
128,192,150044,1,8,0:0:0:0:
128,192,150133,1,8,0:0:0:0:
128,192,150223,1,0,0:0:0:0:
128,192,150312,1,0,0:0:0:0:
128,192,150401,1,0,0:0:0:0:
128,192,150491,1,0,0:0:0:0:
128,192,150580,1,8,0:0:0:0:
128,192,150669,1,0,0:0:0:0:
128,192,150758,1,8,0:0:0:0:
128,192,150818,1,8,0:0:0:0:
128,192,150877,1,8,0:0:0:0:
128,192,150937,1,8,0:0:0:0:
128,192,150996,1,8,0:0:0:0:
128,192,151056,1,8,0:0:0:0:
128,192,151116,1,0,0:0:0:0:
256,192,151294,12,0,152366,0:0:0:0:
128,192,152544,6,0,B|264:192|264:192|128:192,1,272.999987503052
128,192,153258,1,8,0:0:0:0:
128,192,153437,1,8,0:0:0:0:
128,192,153526,1,0,0:0:0:0:
128,192,153616,1,8,0:0:0:0:
128,192,153794,1,0,0:0:0:0:
128,192,153973,1,0,0:0:0:0:
128,192,154032,1,0,0:0:0:0:
128,192,154092,1,0,0:0:0:0:
128,192,154151,1,8,0:0:0:0:
128,192,154241,1,0,0:0:0:0:
128,192,154330,1,8,0:0:0:0:
128,192,154508,1,0,0:0:0:0:
128,192,154687,1,8,0:0:0:0:
128,192,154866,1,8,0:0:0:0:
128,192,154955,1,0,0:0:0:0:
128,192,155044,1,8,0:0:0:0:
128,192,155133,1,0,0:0:0:0:
128,192,155223,1,0,0:0:0:0:
128,192,155312,1,0,0:0:0:0:
128,192,155401,1,8,0:0:0:0:
128,192,155491,1,8,0:0:0:0:
128,192,155580,1,0,0:0:0:0:
128,192,155669,1,0,0:0:0:0:
128,192,155758,1,8,0:0:0:0:
128,192,155937,1,0,0:0:0:0:
128,192,156116,1,12,0:0:0:0:
128,192,157187,1,0,0:0:0:0:
128,192,157246,1,0,0:0:0:0:
128,192,157306,1,0,0:0:0:0:
128,192,157366,1,0,0:0:0:0:
128,192,157544,1,8,0:0:0:0:
128,192,157633,1,0,0:0:0:0:
128,192,157723,1,0,0:0:0:0:
128,192,157812,1,8,0:0:0:0:
128,192,157901,1,0,0:0:0:0:
128,192,157991,1,0,0:0:0:0:
128,192,158080,1,8,0:0:0:0:
128,192,158169,1,0,0:0:0:0:
128,192,158258,1,0,0:0:0:0:
128,192,158348,1,8,0:0:0:0:
128,192,158437,1,8,0:0:0:0:
128,192,158526,1,0,0:0:0:0:
128,192,158616,1,8,0:0:0:0:
128,192,158794,1,0,0:0:0:0:
128,192,158973,1,8,0:0:0:0:
128,192,159151,1,0,0:0:0:0:
128,192,159241,1,8,0:0:0:0:
128,192,159419,1,8,0:0:0:0:
128,192,159508,1,0,0:0:0:0:
128,192,159687,1,0,0:0:0:0:
128,192,159746,1,0,0:0:0:0:
128,192,159806,1,0,0:0:0:0:
128,192,159866,1,8,0:0:0:0:
128,192,159955,1,0,0:0:0:0:
128,192,160044,1,8,0:0:0:0:
128,192,160223,1,0,0:0:0:0:
128,192,160401,1,8,0:0:0:0:
128,192,160580,1,0,0:0:0:0:
128,192,160669,1,0,0:0:0:0:
128,192,160758,1,8,0:0:0:0:
128,192,160848,1,8,0:0:0:0:
128,192,160937,1,8,0:0:0:0:
128,192,161026,1,8,0:0:0:0:
128,192,161116,1,0,0:0:0:0:
128,192,161205,1,8,0:0:0:0:
128,192,161294,1,0,0:0:0:0:
128,192,161383,1,0,0:0:0:0:
128,192,161473,1,8,0:0:0:0:
128,192,161651,1,0,0:0:0:0:
128,192,161830,1,12,0:0:0:0:
128,192,162901,1,8,0:0:0:0:
128,192,162961,1,0,0:0:0:0:
128,192,163020,1,0,0:0:0:0:
128,192,163080,1,0,0:0:0:0:
128,192,163258,1,8,0:0:0:0:
128,192,163348,1,8,0:0:0:0:
128,192,163437,1,0,0:0:0:0:
128,192,163526,1,0,0:0:0:0:
128,192,163616,1,0,0:0:0:0:
128,192,163705,1,0,0:0:0:0:
128,192,163794,1,8,0:0:0:0:
128,192,163973,1,0,0:0:0:0:
128,192,164151,1,0,0:0:0:0:
128,192,164241,1,0,0:0:0:0:
128,192,164330,1,8,0:0:0:0:
128,192,164419,1,8,0:0:0:0:
128,192,164508,1,0,0:0:0:0:
128,192,164598,1,0,0:0:0:0:
128,192,164687,1,0,0:0:0:0:
128,192,164776,1,0,0:0:0:0:
128,192,164866,1,8,0:0:0:0:
128,192,165044,1,0,0:0:0:0:
128,192,165223,1,0,0:0:0:0:
128,192,165312,1,0,0:0:0:0:
128,192,165401,1,8,0:0:0:0:
128,192,165461,1,0,0:0:0:0:
128,192,165520,1,0,0:0:0:0:
128,192,165580,1,8,0:0:0:0:
128,192,165669,1,8,0:0:0:0:
128,192,165758,5,0,0:0:0:0:
128,192,165937,1,0,0:0:0:0:
128,192,166116,1,8,0:0:0:0:
128,192,166294,1,8,0:0:0:0:
128,192,166383,1,0,0:0:0:0:
128,192,166473,1,8,0:0:0:0:
128,192,166562,1,8,0:0:0:0:
128,192,166651,1,0,0:0:0:0:
128,192,166741,1,0,0:0:0:0:
128,192,166830,1,8,0:0:0:0:
128,192,166919,1,0,0:0:0:0:
128,192,167008,1,0,0:0:0:0:
128,192,167098,1,8,0:0:0:0:
128,192,167187,1,0,0:0:0:0:
128,192,167366,1,0,0:0:0:0:
128,192,167544,1,12,0:0:0:0:
128,192,168616,1,0,0:0:0:0:
128,192,168675,1,0,0:0:0:0:
128,192,168735,1,0,0:0:0:0:
128,192,168794,1,0,0:0:0:0:
128,192,168973,1,8,0:0:0:0:
128,192,169062,1,0,0:0:0:0:
128,192,169151,1,0,0:0:0:0:
128,192,169241,1,8,0:0:0:0:
128,192,169330,1,8,0:0:0:0:
128,192,169419,1,0,0:0:0:0:
128,192,169508,1,8,0:0:0:0:
128,192,169598,1,0,0:0:0:0:
128,192,169687,1,0,0:0:0:0:
128,192,169776,1,8,0:0:0:0:
128,192,169866,1,8,0:0:0:0:
128,192,169955,1,0,0:0:0:0:
128,192,170044,1,8,0:0:0:0:
128,192,170223,1,0,0:0:0:0:
128,192,170401,1,8,0:0:0:0:
128,192,170580,1,0,0:0:0:0:
128,192,170669,1,8,0:0:0:0:
128,192,170848,1,8,0:0:0:0:
128,192,170937,1,0,0:0:0:0:
128,192,171116,1,8,0:0:0:0:
128,192,171175,1,0,0:0:0:0:
128,192,171235,1,0,0:0:0:0:
128,192,171294,1,8,0:0:0:0:
128,192,171383,1,8,0:0:0:0:
128,192,171473,1,0,0:0:0:0:
128,192,171651,1,0,0:0:0:0:
128,192,171830,1,8,0:0:0:0:
128,192,172008,1,0,0:0:0:0:
128,192,172098,1,0,0:0:0:0:
128,192,172187,1,8,0:0:0:0:
128,192,172276,1,8,0:0:0:0:
128,192,172366,1,8,0:0:0:0:
128,192,172455,1,0,0:0:0:0:
128,192,172544,1,8,0:0:0:0:
128,192,172633,1,0,0:0:0:0:
128,192,172723,1,0,0:0:0:0:
128,192,172812,1,8,0:0:0:0:
128,192,172901,1,0,0:0:0:0:
128,192,173080,1,0,0:0:0:0:
128,192,173258,1,12,0:0:0:0:
128,192,174330,1,8,0:0:0:0:
128,192,174389,1,0,0:0:0:0:
128,192,174449,1,0,0:0:0:0:
128,192,174508,1,0,0:0:0:0:
128,192,174687,1,12,0:0:0:0:
128,192,175044,1,8,0:0:0:0:
128,192,175223,1,8,0:0:0:0:
128,192,175580,1,8,0:0:0:0:
128,192,175758,1,0,0:0:0:0:
128,192,176115,1,0,0:0:0:0:
128,192,176294,1,8,0:0:0:0:
128,192,176830,1,0,0:0:0:0:
128,192,176888,1,0,0:0:0:0:
128,192,176946,1,0,0:0:0:0:
128,192,177004,1,8,0:0:0:0:
128,192,177091,1,0,0:0:0:0:
128,192,177178,1,8,0:0:0:0:
128,192,177266,1,0,0:0:0:0:
128,192,177353,1,0,0:0:0:0:
128,192,177527,1,8,0:0:0:0:
128,192,177876,1,0,0:0:0:0:
128,192,177963,1,0,0:0:0:0:
128,192,178050,1,8,0:0:0:0:
128,192,178109,1,8,0:0:0:0:
128,192,178167,1,0,0:0:0:0:
128,192,178225,1,0,0:0:0:0:
128,192,178309,1,8,0:0:0:0:
128,192,178393,1,8,0:0:0:0:
128,192,178477,1,0,0:0:0:0:
128,192,178730,1,0,0:0:0:0:
128,192,178899,1,12,0:0:0:0:
128,192,179892,1,4,0:0:0:0:
128,192,180211,1,8,0:0:0:0:
128,192,180370,1,4,0:0:0:0:
128,192,180530,1,8,0:0:0:0:
128,192,180849,1,4,0:0:0:0:
128,192,181155,1,8,0:0:0:0:
128,192,181308,1,0,0:0:0:0:
128,192,181461,1,8,0:0:0:0:
128,192,181767,1,4,0:0:0:0:
128,192,182073,5,0,0:0:0:0:
128,192,182122,1,0,0:0:0:0:
128,192,182171,1,0,0:0:0:0:
128,192,182220,1,8,0:0:0:0:
128,192,182293,1,0,0:0:0:0:
128,192,182367,1,8,0:0:0:0:
128,192,182440,1,0,0:0:0:0:
128,192,182514,1,0,0:0:0:0:
128,192,182661,1,8,0:0:0:0:
128,192,182955,1,8,0:0:0:0:
128,192,183028,1,0,0:0:0:0:
128,192,183102,1,0,0:0:0:0:
128,192,183151,1,8,0:0:0:0:
128,192,183200,1,8,0:0:0:0:
128,192,183249,1,0,0:0:0:0:
128,192,183321,1,0,0:0:0:0:
128,192,183393,1,8,0:0:0:0:
128,192,183465,1,8,0:0:0:0:
128,192,183681,1,0,0:0:0:0:
128,192,183825,1,12,0:0:0:0:
128,192,184685,1,4,0:0:0:0:
128,192,184968,1,8,0:0:0:0:
128,192,185109,1,4,0:0:0:0:
128,192,185251,1,8,0:0:0:0:
128,192,185534,1,4,0:0:0:0:
128,192,185801,1,8,0:0:0:0:
128,192,185935,1,0,0:0:0:0:
128,192,186069,1,8,0:0:0:0:
128,192,186203,1,8,0:0:0:0:
128,192,186337,1,4,0:0:0:0:
128,192,186605,1,8,0:0:0:0:
128,192,186648,1,0,0:0:0:0:
128,192,186692,1,0,0:0:0:0:
128,192,186736,1,8,0:0:0:0:
128,192,186802,1,8,0:0:0:0:
128,192,186868,1,0,0:0:0:0:
128,192,186933,1,0,0:0:0:0:
128,192,186999,1,0,0:0:0:0:
128,192,187131,1,8,0:0:0:0:
128,192,187394,1,0,0:0:0:0:
128,192,187460,1,0,0:0:0:0:
128,192,187526,1,8,0:0:0:0:
128,192,187569,1,8,0:0:0:0:
128,192,187613,1,0,0:0:0:0:
128,192,187657,1,0,0:0:0:0:
128,192,187721,1,8,0:0:0:0:
128,192,187785,1,8,0:0:0:0:
128,192,187849,1,0,0:0:0:0:
128,192,188041,1,0,0:0:0:0:
128,192,188169,1,12,0:0:0:0:
128,192,188932,1,4,0:0:0:0:
128,192,189057,1,8,0:0:0:0:
128,192,189182,1,8,0:0:0:0:
128,192,189307,1,4,0:0:0:0:
128,192,189432,1,8,0:0:0:0:
128,192,189557,1,8,0:0:0:0:
128,192,189682,1,4,0:0:0:0:
128,192,189923,1,8,0:0:0:0:
128,192,190044,1,0,0:0:0:0:
128,192,190165,1,8,0:0:0:0:
128,192,190286,1,8,0:0:0:0:
128,192,190407,1,4,0:0:0:0:
128,192,190649,1,8,0:0:0:0:
128,192,190688,1,0,0:0:0:0:
128,192,190728,1,0,0:0:0:0:
128,192,190768,1,8,0:0:0:0:
128,192,190827,1,8,0:0:0:0:
128,192,190887,1,0,0:0:0:0:
128,192,190946,1,0,0:0:0:0:
128,192,191006,1,0,0:0:0:0:
128,192,191125,1,8,0:0:0:0:
128,192,191363,1,8,0:0:0:0:
128,192,191422,1,0,0:0:0:0:
128,192,191482,1,0,0:0:0:0:
128,192,191522,1,8,0:0:0:0:
128,192,191561,1,8,0:0:0:0:
128,192,191601,1,0,0:0:0:0:
128,192,191659,1,0,0:0:0:0:
128,192,191718,1,8,0:0:0:0:
128,192,191776,1,8,0:0:0:0:
128,192,191952,1,0,0:0:0:0:
128,192,192069,1,12,0:0:0:0:
128,192,192652,1,8,0:0:0:0:
128,192,192767,1,0,0:0:0:0:
128,192,192881,1,8,0:0:0:0:
128,192,192996,1,8,0:0:0:0:
128,192,193110,1,4,0:0:0:0:
128,192,193339,1,8,0:0:0:0:
128,192,193454,1,4,0:0:0:0:
128,192,193676,1,8,0:0:0:0:
128,192,193787,1,0,0:0:0:0:
128,192,193898,1,8,0:0:0:0:
128,192,194009,1,0,0:0:0:0:
128,192,194065,1,0,0:0:0:0:
128,192,194120,1,8,0:0:0:0:
128,192,194176,1,8,0:0:0:0:
128,192,194231,1,8,0:0:0:0:
128,192,194342,1,0,0:0:0:0:
128,192,194452,1,0,0:0:0:0:
128,192,194562,1,8,0:0:0:0:
128,192,194672,5,0,0:0:0:0:
128,192,194783,1,8,0:0:0:0:
128,192,194838,1,8,0:0:0:0:
128,192,194893,1,0,0:0:0:0:
128,192,194948,1,0,0:0:0:0:
128,192,195003,1,0,0:0:0:0:
128,192,195114,1,0,0:0:0:0:
128,192,195224,1,8,0:0:0:0:
128,192,195331,1,0,0:0:0:0:
128,192,195439,1,8,0:0:0:0:
128,192,195493,1,8,0:0:0:0:
128,192,195547,1,8,0:0:0:0:
128,192,195601,1,8,0:0:0:0:
128,192,195655,1,0,0:0:0:0:
128,192,195763,1,8,0:0:0:0:
128,192,195817,1,8,0:0:0:0:
128,192,195871,1,0,0:0:0:0:
128,192,196087,1,0,0:0:0:0:
128,192,196193,1,0,0:0:0:0:
128,192,196299,1,8,0:0:0:0:
128,192,196406,1,0,0:0:0:0:
128,192,196512,1,8,0:0:0:0:
128,192,196565,1,8,0:0:0:0:
128,192,196618,1,0,0:0:0:0:
128,192,196672,1,0,0:0:0:0:
128,192,196725,1,0,0:0:0:0:
128,192,196831,1,0,0:0:0:0:
128,192,196938,1,8,0:0:0:0:
128,192,197042,1,0,0:0:0:0:
128,192,197147,1,8,0:0:0:0:
128,192,197200,1,8,0:0:0:0:
128,192,197252,1,0,0:0:0:0:
128,192,197357,1,8,0:0:0:0:
128,192,197410,1,0,0:0:0:0:
128,192,197462,1,0,0:0:0:0:
128,192,197514,1,0,0:0:0:0:
128,192,197567,1,8,0:0:0:0:
128,192,197777,1,0,0:0:0:0:
128,192,197880,1,8,0:0:0:0:
128,192,197983,1,8,0:0:0:0:
128,192,198087,1,0,0:0:0:0:
128,192,198190,1,8,0:0:0:0:
128,192,198242,1,8,0:0:0:0:
128,192,198294,1,0,0:0:0:0:
128,192,198345,1,0,0:0:0:0:
128,192,198397,1,0,0:0:0:0:
128,192,198501,1,8,0:0:0:0:
128,192,198604,1,8,0:0:0:0:
128,192,198704,1,0,0:0:0:0:
128,192,198805,1,8,0:0:0:0:
128,192,198855,1,8,0:0:0:0:
128,192,198906,1,8,0:0:0:0:
128,192,198956,1,8,0:0:0:0:
128,192,199006,1,0,0:0:0:0:
128,192,199107,1,8,0:0:0:0:
128,192,199157,1,0,0:0:0:0:
128,192,199208,1,0,0:0:0:0:
128,192,199409,1,8,0:0:0:0:
128,192,199459,1,8,0:0:0:0:
128,192,199509,1,0,0:0:0:0:
128,192,199609,1,0,0:0:0:0:
128,192,199709,1,8,0:0:0:0:
128,192,199759,1,8,0:0:0:0:
128,192,199809,1,0,0:0:0:0:
128,192,199909,1,0,0:0:0:0:
128,192,200009,1,8,0:0:0:0:
128,192,200059,1,8,0:0:0:0:
128,192,200109,1,0,0:0:0:0:
128,192,200159,1,0,0:0:0:0:
128,192,200209,1,0,0:0:0:0:
128,192,200309,1,8,0:0:0:0:
128,192,200359,1,8,0:0:0:0:
128,192,200409,1,8,0:0:0:0:
128,192,200509,1,0,0:0:0:0:
128,192,200609,1,8,0:0:0:0:
128,192,200709,1,0,0:0:0:0:
128,192,200809,1,8,0:0:0:0:
128,192,200995,1,4,0:0:0:0:
128,192,205602,1,8,0:0:0:0:
128,192,205651,1,0,0:0:0:0:
128,192,205700,1,0,0:0:0:0:
128,192,205995,1,0,0:0:0:0:
128,192,206142,1,0,0:0:0:0:
128,192,206289,1,8,0:0:0:0:
128,192,206436,1,0,0:0:0:0:
128,192,206583,1,8,0:0:0:0:
128,192,206730,1,8,0:0:0:0:
128,192,206877,1,0,0:0:0:0:
128,192,207024,1,0,0:0:0:0:
128,192,207171,1,8,0:0:0:0:
128,192,207318,1,0,0:0:0:0:
128,192,207465,1,8,0:0:0:0:
128,192,207612,1,8,0:0:0:0:
128,192,207759,1,0,0:0:0:0:
128,192,207906,1,8,0:0:0:0:
128,192,208053,1,8,0:0:0:0:
128,192,208237,1,0,0:0:0:0:
128,192,208347,1,0,0:0:0:0:
128,192,208531,1,0,0:0:0:0:
128,192,208642,1,0,0:0:0:0:
128,192,208825,5,0,0:0:0:0:
128,192,208936,1,0,0:0:0:0:
128,192,209120,1,0,0:0:0:0:
128,192,209230,1,8,0:0:0:0:
128,192,209377,1,0,0:0:0:0:
128,192,209524,1,8,0:0:0:0:
128,192,209671,1,0,0:0:0:0:
128,192,209745,1,0,0:0:0:0:
128,192,209818,1,8,0:0:0:0:
128,192,209892,1,0,0:0:0:0:
128,192,210039,1,8,0:0:0:0:
128,192,210112,1,8,0:0:0:0:
128,192,210406,1,4,0:0:0:0:
128,192,210553,1,4,0:0:0:0:
128,192,210700,1,4,0:0:0:0:
128,192,210847,1,4,0:0:0:0:
128,192,210995,1,8,0:0:0:0:
128,192,211068,1,0,0:0:0:0:
128,192,211289,1,12,0:0:0:0:
128,192,211436,1,12,0:0:0:0:
128,192,211583,1,12,0:0:0:0:
128,192,211730,1,12,0:0:0:0:
128,192,211877,1,0,0:0:0:0:
128,192,211950,1,8,0:0:0:0:
128,192,212171,1,8,0:0:0:0:
128,192,212318,1,0,0:0:0:0:
128,192,212465,1,8,0:0:0:0:
128,192,212612,1,8,0:0:0:0:
128,192,212759,1,4,0:0:0:0:
128,192,212906,1,4,0:0:0:0:
128,192,213053,1,4,0:0:0:0:
128,192,213200,1,4,0:0:0:0:
128,192,213347,1,8,0:0:0:0:
128,192,213421,1,0,0:0:0:0:
128,192,213642,1,12,0:0:0:0:
128,192,213789,1,12,0:0:0:0:
128,192,213936,1,12,0:0:0:0:
128,192,214083,1,12,0:0:0:0:
128,192,214230,1,0,0:0:0:0:
128,192,214303,1,8,0:0:0:0:
128,192,214377,1,8,0:0:0:0:
128,192,214450,1,8,0:0:0:0:
128,192,214720,1,8,0:0:0:0:
128,192,214818,1,0,0:0:0:0:
128,192,214916,1,8,0:0:0:0:
128,192,215112,1,4,0:0:0:0:
128,192,215259,1,4,0:0:0:0:
128,192,215406,1,4,0:0:0:0:
128,192,215553,1,4,0:0:0:0:
128,192,215700,1,8,0:0:0:0:
128,192,215774,1,0,0:0:0:0:
128,192,215995,1,12,0:0:0:0:
128,192,216142,1,12,0:0:0:0:
128,192,216289,1,12,0:0:0:0:
128,192,216436,1,12,0:0:0:0:
128,192,216583,1,0,0:0:0:0:
128,192,216656,1,8,0:0:0:0:
128,192,216877,1,8,0:0:0:0:
128,192,216950,1,8,0:0:0:0:
128,192,217024,1,0,0:0:0:0:
128,192,217171,1,0,0:0:0:0:
128,192,217318,1,8,0:0:0:0:
128,192,217465,1,4,0:0:0:0:
128,192,217612,1,4,0:0:0:0:
128,192,217759,1,4,0:0:0:0:
128,192,217906,1,4,0:0:0:0:
128,192,218053,1,8,0:0:0:0:
128,192,218127,1,0,0:0:0:0:
128,192,218347,1,12,0:0:0:0:
128,192,218495,1,12,0:0:0:0:
128,192,218642,1,12,0:0:0:0:
128,192,218789,1,12,0:0:0:0:
128,192,218936,1,0,0:0:0:0:
128,192,219009,1,8,0:0:0:0:
128,192,219083,1,8,0:0:0:0:
128,192,219156,1,8,0:0:0:0:
128,192,219230,1,8,0:0:0:0:
128,192,219328,1,0,0:0:0:0:
128,192,219426,1,8,0:0:0:0:
128,192,219524,1,0,0:0:0:0:
128,192,219671,1,8,0:0:0:0:
128,192,219818,1,4,0:0:0:0:
128,192,219965,1,0,0:0:0:0:
128,192,220112,1,0,0:0:0:0:
128,192,220186,1,0,0:0:0:0:
128,192,220259,1,0,0:0:0:0:
128,192,220406,1,8,0:0:0:0:
128,192,220700,1,0,0:0:0:0:
128,192,220847,1,8,0:0:0:0:
128,192,220921,1,8,0:0:0:0:
128,192,220995,1,0,0:0:0:0:
128,192,221142,1,8,0:0:0:0:
128,192,221289,1,0,0:0:0:0:
128,192,221436,1,0,0:0:0:0:
128,192,221583,1,8,0:0:0:0:
128,192,221877,1,0,0:0:0:0:
128,192,222024,1,8,0:0:0:0:
128,192,222171,1,8,0:0:0:0:
128,192,222245,1,0,0:0:0:0:
128,192,222318,1,8,0:0:0:0:
128,192,222465,5,0,0:0:0:0:
128,192,222612,1,0,0:0:0:0:
128,192,222759,1,8,0:0:0:0:
128,192,223053,1,8,0:0:0:0:
128,192,223200,1,8,0:0:0:0:
128,192,223274,1,8,0:0:0:0:
128,192,223347,1,8,0:0:0:0:
128,192,223495,1,0,0:0:0:0:
128,192,223642,1,0,0:0:0:0:
128,192,223789,1,8,0:0:0:0:
128,192,223936,1,8,0:0:0:0:
128,192,224230,1,8,0:0:0:0:
128,192,224377,1,0,0:0:0:0:
128,192,224524,1,8,0:0:0:0:
128,192,224671,1,0,0:0:0:0:
128,192,224818,1,0,0:0:0:0:
128,192,224965,1,8,0:0:0:0:
128,192,225112,1,8,0:0:0:0:
128,192,225259,1,0,0:0:0:0:
128,192,225406,1,0,0:0:0:0:
128,192,225553,1,8,0:0:0:0:
128,192,225700,1,8,0:0:0:0:
128,192,225847,1,0,0:0:0:0:
128,192,225995,1,0,0:0:0:0:
128,192,226142,1,8,0:0:0:0:
128,192,226289,1,8,0:0:0:0:
128,192,226436,1,0,0:0:0:0:
128,192,226583,1,8,0:0:0:0:
128,192,226730,1,0,0:0:0:0:
128,192,226877,1,8,0:0:0:0:
128,192,226950,1,8,0:0:0:0:
128,192,227024,1,0,0:0:0:0:
128,192,227097,1,0,0:0:0:0:
128,192,227171,1,8,0:0:0:0:
128,192,227245,1,0,0:0:0:0:
128,192,227318,1,8,0:0:0:0:
128,192,227392,1,8,0:0:0:0:
128,192,227465,1,0,0:0:0:0:
128,192,227539,1,0,0:0:0:0:
128,192,227612,1,8,0:0:0:0:
128,192,227686,1,8,0:0:0:0:
128,192,227759,1,8,0:0:0:0:
128,192,227833,1,8,0:0:0:0:
128,192,227906,1,0,0:0:0:0:
128,192,228053,1,8,0:0:0:0:
128,192,228127,1,0,0:0:0:0:
128,192,228200,1,0,0:0:0:0:
128,192,228347,1,8,0:0:0:0:
128,192,228421,1,8,0:0:0:0:
128,192,228495,1,0,0:0:0:0:
128,192,228642,1,8,0:0:0:0:
128,192,228715,1,8,0:0:0:0:
128,192,228789,1,8,0:0:0:0:
128,192,228936,1,12,0:0:0:0:
128,192,229230,1,8,0:0:0:0:
128,192,229303,1,8,0:0:0:0:
128,192,229377,1,0,0:0:0:0:
128,192,229450,1,0,0:0:0:0:
128,192,229524,1,0,0:0:0:0:
128,192,229671,1,8,0:0:0:0:
128,192,229818,1,0,0:0:0:0:
128,192,229965,1,8,0:0:0:0:
128,192,230112,1,0,0:0:0:0:
128,192,230259,1,8,0:0:0:0:
128,192,230333,1,8,0:0:0:0:
128,192,230406,1,8,0:0:0:0:
128,192,230480,1,8,0:0:0:0:
128,192,230553,1,0,0:0:0:0:
128,192,230700,1,8,0:0:0:0:
128,192,230847,1,8,0:0:0:0:
128,192,230995,1,0,0:0:0:0:
128,192,231068,1,0,0:0:0:0:
128,192,231142,1,8,0:0:0:0:
128,192,231215,1,0,0:0:0:0:
128,192,231289,1,8,0:0:0:0:
128,192,231362,1,8,0:0:0:0:
128,192,231436,1,0,0:0:0:0:
128,192,231583,1,8,0:0:0:0:
128,192,231656,1,0,0:0:0:0:
128,192,231730,1,8,0:0:0:0:
128,192,231877,1,0,0:0:0:0:
128,192,232024,1,8,0:0:0:0:
128,192,232171,1,0,0:0:0:0:
128,192,232245,1,0,0:0:0:0:
128,192,232318,1,8,0:0:0:0:
128,192,232465,1,0,0:0:0:0:
128,192,232612,1,8,0:0:0:0:
128,192,232686,1,8,0:0:0:0:
128,192,232759,1,0,0:0:0:0:
128,192,232833,1,8,0:0:0:0:
128,192,232906,1,8,0:0:0:0:
128,192,233053,1,0,0:0:0:0:
128,192,233200,1,8,0:0:0:0:
128,192,233347,1,0,0:0:0:0:
128,192,233495,1,8,0:0:0:0:
128,192,233642,1,8,0:0:0:0:
128,192,233715,1,0,0:0:0:0:
128,192,233789,1,0,0:0:0:0:
128,192,233862,1,8,0:0:0:0:
128,192,233936,1,8,0:0:0:0:
128,192,234083,5,8,0:0:0:0:
128,192,234230,1,0,0:0:0:0:
128,192,234377,1,0,0:0:0:0:
128,192,234450,1,8,0:0:0:0:
128,192,234524,1,0,0:0:0:0:
128,192,234671,1,8,0:0:0:0:
128,192,234818,1,0,0:0:0:0:
128,192,234965,1,8,0:0:0:0:
128,192,235039,1,0,0:0:0:0:
128,192,235112,1,8,0:0:0:0:
128,192,235186,1,8,0:0:0:0:
128,192,235259,1,0,0:0:0:0:
128,192,235333,1,0,0:0:0:0:
128,192,235406,1,8,0:0:0:0:
128,192,235553,1,8,0:0:0:0:
128,192,235700,1,0,0:0:0:0:
128,192,235847,1,0,0:0:0:0:
128,192,235995,1,8,0:0:0:0:
128,192,236068,1,8,0:0:0:0:
128,192,236142,1,0,0:0:0:0:
128,192,236289,1,8,0:0:0:0:
128,192,236436,1,0,0:0:0:0:
128,192,236583,1,8,0:0:0:0:
128,192,236656,1,0,0:0:0:0:
128,192,236730,1,0,0:0:0:0:
128,192,236877,1,0,0:0:0:0:
128,192,237024,1,0,0:0:0:0:
128,192,237097,1,8,0:0:0:0:
128,192,237171,1,8,0:0:0:0:
128,192,237318,1,8,0:0:0:0:
128,192,237392,1,0,0:0:0:0:
128,192,237465,1,8,0:0:0:0:
128,192,237612,1,8,0:0:0:0:
128,192,237759,1,0,0:0:0:0:
128,192,237906,1,8,0:0:0:0:
128,192,238053,1,8,0:0:0:0:
128,192,238200,1,0,0:0:0:0:
128,192,238274,1,0,0:0:0:0:
128,192,238347,1,8,0:0:0:0:
128,192,238421,1,8,0:0:0:0:
128,192,238495,1,0,0:0:0:0:
128,192,238568,1,0,0:0:0:0:
128,192,238642,1,8,0:0:0:0:
128,192,238789,1,0,0:0:0:0:
128,192,238936,1,8,0:0:0:0:
128,192,239083,1,8,0:0:0:0:
128,192,239230,1,0,0:0:0:0:
128,192,239377,1,8,0:0:0:0:
128,192,239450,1,0,0:0:0:0:
128,192,239524,1,0,0:0:0:0:
128,192,239671,1,8,0:0:0:0:
128,192,239818,1,8,0:0:0:0:
128,192,239892,1,8,0:0:0:0:
128,192,239965,1,0,0:0:0:0:
128,192,240039,1,8,0:0:0:0:
128,192,240112,1,0,0:0:0:0:
128,192,240259,1,8,0:0:0:0:
128,192,240406,1,0,0:0:0:0:
128,192,240480,1,0,0:0:0:0:
128,192,240553,1,8,0:0:0:0:
128,192,240627,1,0,0:0:0:0:
128,192,240700,1,8,0:0:0:0:
128,192,240774,1,8,0:0:0:0:
128,192,240847,1,8,0:0:0:0:
128,192,240995,1,4,0:0:0:0:
128,192,241142,1,4,0:0:0:0:
128,192,241289,1,8,0:0:0:0:
128,192,241436,1,0,0:0:0:0:
128,192,241509,1,8,0:0:0:0:
128,192,241583,1,0,0:0:0:0:
128,192,241730,1,8,0:0:0:0:
128,192,241877,1,0,0:0:0:0:
128,192,241950,1,0,0:0:0:0:
128,192,242024,1,8,0:0:0:0:
128,192,242097,1,8,0:0:0:0:
128,192,242171,1,8,0:0:0:0:
128,192,242318,1,0,0:0:0:0:
128,192,242465,1,0,0:0:0:0:
128,192,242612,1,8,0:0:0:0:
128,192,242759,1,0,0:0:0:0:
128,192,242906,1,8,0:0:0:0:
128,192,242980,1,0,0:0:0:0:
128,192,243053,1,8,0:0:0:0:
128,192,243200,1,8,0:0:0:0:
128,192,243347,1,0,0:0:0:0:
128,192,243421,1,8,0:0:0:0:
128,192,243495,1,8,0:0:0:0:
128,192,243568,1,8,0:0:0:0:
128,192,243642,1,0,0:0:0:0:
128,192,243789,1,0,0:0:0:0:
128,192,243936,1,8,0:0:0:0:
128,192,244009,1,0,0:0:0:0:
128,192,244156,1,8,0:0:0:0:
128,192,244230,1,0,0:0:0:0:
128,192,244377,1,8,0:0:0:0:
128,192,244450,1,0,0:0:0:0:
128,192,244524,1,8,0:0:0:0:
128,192,244671,1,8,0:0:0:0:
128,192,244818,1,0,0:0:0:0:
128,192,244965,1,0,0:0:0:0:
128,192,245039,5,8,0:0:0:0:
128,192,245112,1,8,0:0:0:0:
128,192,245186,1,0,0:0:0:0:
128,192,245333,1,8,0:0:0:0:
128,192,245407,1,0,0:0:0:0:
128,192,245553,1,8,0:0:0:0:
128,192,245700,1,0,0:0:0:0:
128,192,245847,1,0,0:0:0:0:
128,192,245921,1,0,0:0:0:0:
128,192,245995,1,8,0:0:0:0:
128,192,246068,1,0,0:0:0:0:
128,192,246142,1,8,0:0:0:0:
128,192,246289,1,0,0:0:0:0:
128,192,246436,1,8,0:0:0:0:
128,192,246509,1,0,0:0:0:0:
128,192,246583,1,0,0:0:0:0:
128,192,246730,1,8,0:0:0:0:
128,192,246803,1,0,0:0:0:0:
128,192,246877,1,0,0:0:0:0:
128,192,247024,1,0,0:0:0:0:
128,192,247097,1,0,0:0:0:0:
128,192,247171,1,0,0:0:0:0:
128,192,247318,1,0,0:0:0:0:
128,192,247392,1,0,0:0:0:0:
128,192,247465,1,0,0:0:0:0:
128,192,247612,1,0,0:0:0:0:
128,192,247686,1,0,0:0:0:0:
128,192,247759,1,0,0:0:0:0:
128,192,247906,1,8,0:0:0:0:
128,192,248053,1,0,0:0:0:0:
128,192,248127,1,0,0:0:0:0:
128,192,248200,1,0,0:0:0:0:
128,192,248274,1,0,0:0:0:0:
128,192,248347,1,0,0:0:0:0:
128,192,248421,1,0,0:0:0:0:
128,192,248495,1,0,0:0:0:0:
128,192,248568,1,0,0:0:0:0:
128,192,248642,1,8,0:0:0:0:
128,192,248789,1,0,0:0:0:0:
128,192,249083,1,0,0:0:0:0:
128,192,249156,1,0,0:0:0:0:
128,192,249230,1,0,0:0:0:0:
128,192,249377,1,8,0:0:0:0:
128,192,249671,1,0,0:0:0:0:
128,192,249818,1,8,0:0:0:0:
128,192,249965,1,0,0:0:0:0:
128,192,250039,1,8,0:0:0:0:
128,192,250112,1,8,0:0:0:0:
128,192,250186,1,0,0:0:0:0:
128,192,250259,1,8,0:0:0:0:
128,192,250406,1,0,0:0:0:0:
128,192,250553,1,0,0:0:0:0:
128,192,250847,1,0,0:0:0:0:
128,192,250995,1,8,0:0:0:0:
128,192,251142,1,8,0:0:0:0:
128,192,251215,1,8,0:0:0:0:
128,192,251289,1,0,0:0:0:0:
128,192,251436,1,0,0:0:0:0:
128,192,251583,1,8,0:0:0:0:
128,192,251730,1,8,0:0:0:0:
128,192,251877,1,0,0:0:0:0:
128,192,252024,1,0,0:0:0:0:
128,192,252097,1,0,0:0:0:0:
128,192,252171,1,8,0:0:0:0:
128,192,252245,1,8,0:0:0:0:
128,192,252318,1,8,0:0:0:0:
128,192,252392,1,8,0:0:0:0:
128,192,252465,1,0,0:0:0:0:
128,192,252539,1,0,0:0:0:0:
128,192,252612,1,8,0:0:0:0:
128,192,252759,1,8,0:0:0:0:
128,192,252906,1,8,0:0:0:0:
128,192,253053,1,0,0:0:0:0:
128,192,253200,1,8,0:0:0:0:
128,192,253274,1,8,0:0:0:0:
128,192,253347,1,0,0:0:0:0:
128,192,253495,1,8,0:0:0:0:
128,192,253642,1,0,0:0:0:0:
128,192,253789,1,0,0:0:0:0:
128,192,253862,1,0,0:0:0:0:
128,192,253936,1,8,0:0:0:0:
128,192,254009,1,0,0:0:0:0:
128,192,254083,1,8,0:0:0:0:
128,192,254230,1,8,0:0:0:0:
128,192,254377,1,8,0:0:0:0:
128,192,254524,1,0,0:0:0:0:
128,192,254597,1,0,0:0:0:0:
128,192,254671,1,0,0:0:0:0:
128,192,254818,1,8,0:0:0:0:
128,192,254965,1,0,0:0:0:0:
128,192,255112,1,8,0:0:0:0:
128,192,255186,1,0,0:0:0:0:
128,192,255259,1,0,0:0:0:0:
128,192,255333,1,0,0:0:0:0:
128,192,255406,1,8,0:0:0:0:
128,192,255553,1,8,0:0:0:0:
128,192,255700,1,0,0:0:0:0:
128,192,255847,1,8,0:0:0:0:
128,192,255995,1,0,0:0:0:0:
128,192,256068,1,8,0:0:0:0:
128,192,256142,5,0,0:0:0:0:
128,192,256215,1,0,0:0:0:0:
128,192,256289,1,8,0:0:0:0:
128,192,256436,1,0,0:0:0:0:
128,192,256509,1,8,0:0:0:0:
128,192,256656,1,0,0:0:0:0:
128,192,256730,1,8,0:0:0:0:
128,192,256877,1,0,0:0:0:0:
128,192,256950,1,8,0:0:0:0:
128,192,257024,1,0,0:0:0:0:
128,192,257171,1,8,0:0:0:0:
128,192,257318,1,0,0:0:0:0:
128,192,257465,1,0,0:0:0:0:
128,192,257539,1,0,0:0:0:0:
128,192,257612,1,0,0:0:0:0:
128,192,257686,1,0,0:0:0:0:
128,192,257759,1,0,0:0:0:0:
128,192,257833,1,0,0:0:0:0:
128,192,257906,1,0,0:0:0:0:
128,192,257980,1,0,0:0:0:0:
128,192,258053,1,8,0:0:0:0:
128,192,258200,1,0,0:0:0:0:
128,192,258495,1,8,0:0:0:0:
128,192,258642,1,0,0:0:0:0:
128,192,258789,1,0,0:0:0:0:
128,192,258862,1,8,0:0:0:0:
128,192,258936,1,0,0:0:0:0:
128,192,259083,1,0,0:0:0:0:
128,192,259230,1,8,0:0:0:0:
128,192,259524,1,8,0:0:0:0:
128,192,259597,1,8,0:0:0:0:
128,192,259671,1,0,0:0:0:0:
128,192,259745,1,0,0:0:0:0:
128,192,259818,1,0,0:0:0:0:
128,192,260112,1,0,0:0:0:0:
128,192,260186,1,0,0:0:0:0:
128,192,260259,1,0,0:0:0:0:
128,192,260406,1,8,0:0:0:0:
128,192,260553,1,8,0:0:0:0:
128,192,260700,1,0,0:0:0:0:
128,192,260847,1,8,0:0:0:0:
128,192,260921,1,0,0:0:0:0:
128,192,260995,1,0,0:0:0:0:
128,192,261142,1,8,0:0:0:0:
128,192,261289,1,0,0:0:0:0:
128,192,261362,1,0,0:0:0:0:
128,192,261436,1,8,0:0:0:0:
128,192,261509,1,0,0:0:0:0:
128,192,261583,1,8,0:0:0:0:
128,192,261656,1,0,0:0:0:0:
128,192,261730,1,0,0:0:0:0:
128,192,261803,1,8,0:0:0:0:
128,192,261877,1,8,0:0:0:0:
128,192,261950,1,0,0:0:0:0:
128,192,262024,1,0,0:0:0:0:
128,192,262171,1,12,0:0:0:0:
128,192,262465,1,8,0:0:0:0:
128,192,262612,1,0,0:0:0:0:
128,192,262686,1,0,0:0:0:0:
128,192,262759,1,8,0:0:0:0:
128,192,262906,1,8,0:0:0:0:
128,192,262980,1,8,0:0:0:0:
128,192,263053,1,8,0:0:0:0:
128,192,263200,1,0,0:0:0:0:
128,192,263274,1,8,0:0:0:0:
128,192,263347,1,8,0:0:0:0:
128,192,263495,1,0,0:0:0:0:
128,192,263642,1,8,0:0:0:0:
128,192,263789,1,0,0:0:0:0:
128,192,263936,1,8,0:0:0:0:
128,192,263985,1,8,0:0:0:0:
128,192,264034,1,0,0:0:0:0:
128,192,264083,1,8,0:0:0:0:
128,192,264230,1,8,0:0:0:0:
128,192,264303,1,8,0:0:0:0:
128,192,264377,1,0,0:0:0:0:
128,192,264450,1,8,0:0:0:0:
128,192,264524,1,8,0:0:0:0:
256,192,264671,12,0,266436,0:0:0:0:
128,192,266583,5,8,0:0:0:0:
128,192,266730,1,8,0:0:0:0:
128,192,266877,1,0,0:0:0:0:
128,192,266950,1,0,0:0:0:0:
128,192,267024,1,8,0:0:0:0:
128,192,267097,1,8,0:0:0:0:
128,192,267171,1,0,0:0:0:0:
128,192,267245,1,0,0:0:0:0:
128,192,267318,1,8,0:0:0:0:
128,192,267392,1,8,0:0:0:0:
128,192,267465,1,0,0:0:0:0:
128,192,267539,1,0,0:0:0:0:
128,192,267612,1,8,0:0:0:0:
128,192,267686,1,8,0:0:0:0:
128,192,267759,1,8,0:0:0:0:
128,192,267833,1,8,0:0:0:0:
128,192,267906,1,0,0:0:0:0:
128,192,268053,2,4,L|169:192,10,41.9999987182618,0|0|0|0|0|0|0|0|0|0|0,0:0|0:0|0:0|0:0|0:0|0:0|0:0|0:0|0:0|0:0|0:0,0:0:0:0:
128,192,268936,1,12,0:0:0:0:
128,192,269230,1,4,0:0:0:0:
128,192,269377,1,8,0:0:0:0:
128,192,269426,1,8,0:0:0:0:
128,192,269475,1,0,0:0:0:0:
128,192,269524,1,0,0:0:0:0:
128,192,269671,1,0,0:0:0:0:
128,192,269745,1,0,0:0:0:0:
128,192,269818,1,8,0:0:0:0:
128,192,269892,1,8,0:0:0:0:
128,192,269965,1,8,0:0:0:0:
128,192,270112,1,0,0:0:0:0:
128,192,270186,1,0,0:0:0:0:
128,192,270259,1,8,0:0:0:0:
128,192,270333,1,8,0:0:0:0:
128,192,270406,1,0,0:0:0:0:
128,192,270553,1,0,0:0:0:0:
128,192,270627,1,0,0:0:0:0:
128,192,270700,1,8,0:0:0:0:
128,192,270774,1,8,0:0:0:0:
128,192,270847,1,8,0:0:0:0:
128,192,270995,1,0,0:0:0:0:
128,192,271068,1,0,0:0:0:0:
128,192,271142,1,8,0:0:0:0:
128,192,271215,1,8,0:0:0:0:
128,192,271289,1,0,0:0:0:0:
128,192,271436,1,8,0:0:0:0:
128,192,271583,1,0,0:0:0:0:
128,192,271730,1,12,0:0:0:0:
128,192,271877,1,12,0:0:0:0:
128,192,272024,1,0,0:0:0:0:
128,192,272097,1,0,0:0:0:0:
128,192,272171,1,8,0:0:0:0:
128,192,272245,1,0,0:0:0:0:
128,192,272318,1,8,0:0:0:0:
128,192,272465,1,0,0:0:0:0:
128,192,272539,1,0,0:0:0:0:
128,192,272612,1,8,0:0:0:0:
128,192,272686,1,8,0:0:0:0:
128,192,272759,1,0,0:0:0:0:
128,192,272906,1,0,0:0:0:0:
128,192,272980,1,0,0:0:0:0:
128,192,273053,1,8,0:0:0:0:
128,192,273127,1,0,0:0:0:0:
128,192,273200,1,8,0:0:0:0:
128,192,273347,1,0,0:0:0:0:
128,192,273421,1,0,0:0:0:0:
128,192,273495,1,8,0:0:0:0:
128,192,273568,1,8,0:0:0:0:
128,192,273715,1,0,0:0:0:0:
128,192,273936,1,4,0:0:0:0:
128,192,274083,1,8,0:0:0:0:
128,192,274132,1,8,0:0:0:0:
128,192,274181,1,8,0:0:0:0:
128,192,274230,1,0,0:0:0:0:
128,192,274303,1,0,0:0:0:0:
128,192,274377,1,0,0:0:0:0:
128,192,274524,1,0,0:0:0:0:
128,192,274597,1,0,0:0:0:0:
128,192,274671,1,8,0:0:0:0:
128,192,274818,1,0,0:0:0:0:
128,192,274892,1,8,0:0:0:0:
128,192,274965,1,8,0:0:0:0:
128,192,275112,1,0,0:0:0:0:
128,192,275186,1,0,0:0:0:0:
128,192,275259,1,8,0:0:0:0:
128,192,275406,1,0,0:0:0:0:
128,192,275480,1,8,0:0:0:0:
128,192,275553,1,8,0:0:0:0:
128,192,275627,1,0,0:0:0:0:
128,192,275700,1,0,0:0:0:0:
128,192,275847,1,8,0:0:0:0:
128,192,275995,1,8,0:0:0:0:
128,192,276044,1,0,0:0:0:0:
128,192,276093,1,0,0:0:0:0:
128,192,276142,1,0,0:0:0:0:
128,192,276289,1,0,0:0:0:0:
128,192,276362,1,8,0:0:0:0:
128,192,276436,1,8,0:0:0:0:
128,192,276583,1,0,0:0:0:0:
128,192,276730,1,8,0:0:0:0:
128,192,276877,1,0,0:0:0:0:
128,192,276950,5,8,0:0:0:0:
128,192,277097,1,8,0:0:0:0:
128,192,277171,1,0,0:0:0:0:
128,192,277318,1,8,0:0:0:0:
128,192,277392,1,0,0:0:0:0:
128,192,277465,1,8,0:0:0:0:
128,192,277539,1,8,0:0:0:0:
128,192,277686,1,0,0:0:0:0:
128,192,277759,1,8,0:0:0:0:
128,192,277906,1,8,0:0:0:0:
128,192,278053,1,8,0:0:0:0:
128,192,278127,1,0,0:0:0:0:
128,192,278200,1,0,0:0:0:0:
128,192,278274,1,8,0:0:0:0:
128,192,278347,1,0,0:0:0:0:
128,192,278421,1,8,0:0:0:0:
128,192,278495,1,8,0:0:0:0:
128,192,278642,1,4,0:0:0:0:
128,192,278789,1,8,0:0:0:0:
128,192,278838,1,8,0:0:0:0:
128,192,278887,1,0,0:0:0:0:
128,192,278936,1,0,0:0:0:0:
128,192,279083,1,0,0:0:0:0:
128,192,279156,1,0,0:0:0:0:
128,192,279230,1,8,0:0:0:0:
128,192,279303,1,8,0:0:0:0:
128,192,279377,1,8,0:0:0:0:
128,192,279524,1,0,0:0:0:0:
128,192,279597,1,0,0:0:0:0:
128,192,279671,1,8,0:0:0:0:
128,192,279745,1,8,0:0:0:0:
128,192,279818,1,0,0:0:0:0:
128,192,279965,1,0,0:0:0:0:
128,192,280039,1,0,0:0:0:0:
128,192,280112,1,8,0:0:0:0:
128,192,280186,1,8,0:0:0:0:
128,192,280259,1,8,0:0:0:0:
128,192,280406,1,0,0:0:0:0:
128,192,280480,1,0,0:0:0:0:
128,192,280553,1,8,0:0:0:0:
128,192,280627,1,8,0:0:0:0:
128,192,280700,1,0,0:0:0:0:
128,192,280847,1,8,0:0:0:0:
128,192,280995,1,0,0:0:0:0:
128,192,281068,1,8,0:0:0:0:
128,192,281215,1,8,0:0:0:0:
128,192,281289,1,8,0:0:0:0:
128,192,281436,1,0,0:0:0:0:
128,192,281509,1,0,0:0:0:0:
128,192,281583,1,12,0:0:0:0:
128,192,281730,1,0,0:0:0:0:
128,192,281877,1,0,0:0:0:0:
128,192,281950,1,0,0:0:0:0:
128,192,282024,1,12,0:0:0:0:
128,192,282318,1,0,0:0:0:0:
128,192,282392,1,0,0:0:0:0:
128,192,282465,1,12,0:0:0:0:
128,192,282612,1,0,0:0:0:0:
128,192,282759,1,0,0:0:0:0:
128,192,282833,1,0,0:0:0:0:
128,192,282906,1,12,0:0:0:0:
128,192,283127,1,0,0:0:0:0:
128,192,283200,1,0,0:0:0:0:
128,192,283274,1,0,0:0:0:0:
128,192,283347,1,12,0:0:0:0:
128,192,283495,1,0,0:0:0:0:
128,192,283642,1,8,0:0:0:0:
128,192,283715,1,8,0:0:0:0:
128,192,283789,1,8,0:0:0:0:
128,192,283936,1,0,0:0:0:0:
128,192,284083,1,0,0:0:0:0:
128,192,284156,1,8,0:0:0:0:
128,192,284230,1,8,0:0:0:0:
128,192,284303,1,0,0:0:0:0:
128,192,284377,1,8,0:0:0:0:
128,192,284524,1,0,0:0:0:0:
128,192,284597,1,0,0:0:0:0:
128,192,284671,1,8,0:0:0:0:
128,192,284818,1,0,0:0:0:0:
128,192,284965,1,8,0:0:0:0:
128,192,285112,1,8,0:0:0:0:
128,192,285186,1,0,0:0:0:0:
128,192,285333,1,8,0:0:0:0:
128,192,285406,1,0,0:0:0:0:
128,192,285553,1,0,0:0:0:0:
128,192,285627,1,0,0:0:0:0:
128,192,285700,1,8,0:0:0:0:
128,192,285847,1,0,0:0:0:0:
128,192,285995,1,8,0:0:0:0:
128,192,286142,1,8,0:0:0:0:
128,192,286289,1,0,0:0:0:0:
128,192,286436,1,0,0:0:0:0:
128,192,286509,1,8,0:0:0:0:
128,192,286583,1,0,0:0:0:0:
128,192,286730,1,8,0:0:0:0:
128,192,286877,1,12,0:0:0:0:
128,192,287097,1,12,0:0:0:0:
128,192,287318,1,4,0:0:0:0:
128,192,287539,1,12,0:0:0:0:
128,192,287759,1,8,0:0:0:0:
128,192,287833,5,8,0:0:0:0:
128,192,287906,1,0,0:0:0:0:
128,192,288053,1,4,0:0:0:0:
128,192,288274,1,4,0:0:0:0:
128,192,288495,1,12,0:0:0:0:
128,192,288715,1,4,0:0:0:0:
128,192,288936,1,8,0:0:0:0:
128,192,289009,1,0,0:0:0:0:
128,192,289083,1,0,0:0:0:0:
128,192,289156,1,0,0:0:0:0:
128,192,289230,1,12,0:0:0:0:
128,192,289450,1,4,0:0:0:0:
128,192,289671,1,12,0:0:0:0:
128,192,289892,1,4,0:0:0:0:
128,192,290112,1,8,0:0:0:0:
128,192,290259,1,0,0:0:0:0:
128,192,290406,1,12,0:0:0:0:
128,192,290627,1,4,0:0:0:0:
128,192,290847,1,0,0:0:0:0:
128,192,290921,1,0,0:0:0:0:
128,192,290995,1,12,0:0:0:0:
128,192,291215,1,8,0:0:0:0:
128,192,291289,1,0,0:0:0:0:
128,192,291362,1,0,0:0:0:0:
128,192,291436,1,8,0:0:0:0:
128,192,291509,1,8,0:0:0:0:
128,192,291583,1,4,0:0:0:0:
256,192,291730,12,0,295112,0:0:0:0:
128,192,295553,5,0,0:0:0:0:
128,192,295627,1,0,0:0:0:0:
128,192,295700,1,8,0:0:0:0:
128,192,295995,1,8,0:0:0:0:
128,192,296142,1,0,0:0:0:0:
128,192,296289,1,8,0:0:0:0:
128,192,296730,1,8,0:0:0:0:
128,192,297857,1,8,0:0:0:0:
128,192,297955,1,0,0:0:0:0:
128,192,298053,1,8,0:0:0:0:
128,192,298200,1,0,0:0:0:0:
128,192,298347,1,0,0:0:0:0:
128,192,298642,1,8,0:0:0:0:
128,192,298789,1,8,0:0:0:0:
128,192,298936,1,0,0:0:0:0:
128,192,299083,1,8,0:0:0:0:
128,192,299818,1,8,0:0:0:0:
128,192,299965,1,0,0:0:0:0:
128,192,300112,1,8,0:0:0:0:
128,192,300259,1,8,0:0:0:0:
128,192,300798,1,0,0:0:0:0:
128,192,300896,1,8,0:0:0:0:
128,192,300995,1,8,0:0:0:0:
128,192,301289,1,0,0:0:0:0:
128,192,301436,1,8,0:0:0:0:
128,192,302563,1,8,0:0:0:0:
128,192,302661,1,8,0:0:0:0:
128,192,302759,1,0,0:0:0:0:
128,192,303347,1,8,0:0:0:0:
128,192,303495,1,0,0:0:0:0:
128,192,303789,1,8,0:0:0:0:
128,192,304916,1,8,0:0:0:0:
128,192,305014,1,0,0:0:0:0:
128,192,305112,1,0,0:0:0:0:
128,192,305406,1,8,0:0:0:0:
128,192,305553,1,0,0:0:0:0:
128,192,305700,1,8,0:0:0:0:
128,192,305995,1,0,0:0:0:0:
128,192,306142,1,8,0:0:0:0:
128,192,306436,1,0,0:0:0:0:
128,192,306583,1,8,0:0:0:0:
128,192,306877,1,8,0:0:0:0:
128,192,307171,1,0,0:0:0:0:
128,192,307318,1,8,0:0:0:0:
128,192,307465,1,0,0:0:0:0:
128,192,307612,1,0,0:0:0:0:
128,192,307759,1,8,0:0:0:0:
128,192,308053,1,0,0:0:0:0:
128,192,308200,1,0,0:0:0:0:
128,192,308347,1,8,0:0:0:0:
128,192,308495,1,0,0:0:0:0:
128,192,308789,1,8,0:0:0:0:
128,192,308936,1,8,0:0:0:0:
128,192,309083,1,0,0:0:0:0:
128,192,309377,1,0,0:0:0:0:
128,192,309524,1,8,0:0:0:0:
128,192,309671,1,8,0:0:0:0:
128,192,310259,1,0,0:0:0:0:
128,192,310333,1,0,0:0:0:0:
128,192,310406,1,0,0:0:0:0:
256,192,310553,12,0,313936,0:0:0:0:
128,192,315112,5,8,0:0:0:0:
128,192,317465,1,0,0:0:0:0:
128,192,318642,5,0,0:0:0:0:
256,192,319818,12,0,325700,0:0:0:0:
