osu file format v14

[General]
AudioFilename: audio.mp3
AudioLeadIn: 0
PreviewTime: -1
Countdown: 1
SampleSet: Soft
StackLeniency: 0.7
Mode: 3
LetterboxInBreaks: 0
SpecialStyle: 0
WidescreenStoryboard: 0

[Editor]
Bookmarks: 136,49547,49621,49694,49768,49841,49915,50062,50209,50356,50503,50650,50797,50944,51018,51165,51312,51459,51606,51753,51900,52047,52194,52341,52488,52636,52783,52930,53077,53224,53371,53518,53665,53812,53959,54106,54253,54400,54547,54694,54841,54988,55136,55283,55430,55577,55724,55944,56091,56165,56386,56533,56680,56827,56974,57121,57268,57415,57562,57709,57856,58003,58150,58297,58444,58591,58738,58886,59033,59180,59327,59400,59621,59768,59915,59988,60209,60356,60503,60650,60797,60944,61091,61238,61386,61533,61680,61827,61974,62121,62268,62415,62562,62709,62856,63003,63150,63297,63444,63591,63738,63886,64033,64180,64327,64474,64621,64768,64915,65062,65209,65356,65503,65650,65797,65944,66091,66238,66386,66533,66680,66827,66974,67121,67268,67415,67562,67709,67856,68077,68224,68371,89547,89621,89768,89915,90062,90209,90356,90503,90650,90797,90871,91018,91165,91312,91459,91606,91753,91900,92047,92194,92341,92488,92636,92783,92930,93077,93224,93371,93518,93665,93812,93959,94180,94327,94474,94621,94768,94915,95062,95209,95356,95503,95650,95797,95944,96091,96238,96386,96533,96680,96827,97047,97194,97341,97488,97636,97783,97930,98077,98224,98444,98591,98665,117782,117932,118157,118382,118537,118771,118927,119087,119249,119411,119573,119735,119897,120060,120222,120382,120549,120715,120799,120965,121132,121299,121465,121632,121816,121908,122092,122276,122461,122647,122740,122927,123113,123209,123407,123505,123703,123801,124002,124208,124310,124516,124619,124828,124936,125152,125370,125589,125704,125819,125935,126050,126169,126288,126526,126648,126771,126894,127017,127144,127271,127398,127525,127654,127783,127912,128040,128181,128323,128464,128606,128608,128750,128892,129034,129176,129477,129628,129779,130101,130262,130424,130770,130944,131205,131383,131562,131830,132008,132098,132276,132366,132455,132544,132723,132812,132901,132991,133080,133348,133437,133526,133794,133973,134241,134330,134419,134508,134598,134687,134866,135044,135133,135223,135312,135401,135491,135669,135758,135848,135937,136026,136205,136294,136383,136562,136651,136741,136830,137008,137098,137276,137366,137455,137723,137901,137991,138169,138348,138616,138794,138973,139241,139419,139687,139866,140133,140312,140580,140758,141026,141205,141383,141651,141741,141830,141919,142008,142098,142276,142366,142455,142544,142723,142991,143080,143169,143348,143437,143616,143705,143794,143883,143973,144241,144419,144508,144687,144866,145044,145133,145223,145312,145401,145491,145580,145848,146026,146205,146383,146562,146741,146830,146919,147098,147187,147276,147455,147544,147633,147723,147812,147991,148080,148258,148437,148526,148616,148705,148794,149062,149241,149330,149419,149598,149687,149776,149866,150133,150312,150491,150758,150848,151026,151116,151294,151383,151562,151651,151919,152008,152098,152187,152366,152455,152633,152812,153080,153258,153526,153705,153883,153973,200995,201068,201215,201362,201509,201656,201803,201877,201950,202024,202097,202245,202392,202612,202759,202906,202980,203053,203200,203347,203495,203642,203715,203789,203936,204083,204156,204303,204377,204450,204524,204597,204671,204745,204892,204965,205039,205112,205186,205333,205480,205553,205700,205774,205847,205921,205995,206142,206215,206289,206436,206509,206583,206656,206730,206803,206877,206950,207024,207097,207245,207318,207392,207465,207539,207612,207686,207759,207833,207906,207980,208053,208200,208274,208347,208421,208495,208568,208642,208715,208789,208862,208936,209009,209083,209156,209230,209303,209377,209450,209524,209597,209671,209745,209818,209892,209965,210039,210112,210186,210259,210333,210406,210480,210553,210627,210700,210774,210921,210995,211068,211142,211215,211289,211362,211436,211509,211583,211656,211730,211803,211877,211950,212024,212097,212171,212245,212392,212465,212539,212612,212686,212759,212833,212906,212980,213053,213127,213200,213274,213421,213495,213568,213642,213715,213789,213862,213936,214083,214156,214230,214303,214377,214450,214524,214597,214671,214745,214892,214965,215039,215112,215186,215259,215333,215406,215480,215553,215700,215774,215921,215995,216068,216142,216215,216289,216362,216436,216583,216656,216730,216803,216877,216950,217024,217097,217245,217318,217392,217465,217612,217686,217759,217833,217906,218053,218127,218200,218274,218347,218421,218495,218642,218715,218789,218862,218936,219009,219083,219156,219303,219377,219524,219597,219745,219818,219892,220039,220112,220186,220259,220333,220406,220480,220553,220627,220700,220774,220847,220921,220995,221068,221142,221215,221289,221362,221436,221509,221583,221730,221803,221877,221950,222024,222097,222171,222245,222318,222392,222465,222539,222612,222686,222759,222833,222906,222980,223053,223127,223274,223347,223421,223495,223568,223642,223715,223789,223862,223936,224009,224083,224156,224230,224303,224377,224450,224524,224597,224671,224745,224818,224892,224965,225039,225112,225186,225259,225333,225406,225480,225553,225627,225700,225774,225847,225921,226068,226142,226289,226362,226436,226509,226583,226656,226730,226877,226950,227024,227097,227171,227318,227392,227539,227612,227686,227833,227906,227980,228127,228200,228347,228421,228568,228642,228789,228862,228936,229083,229156,229230,248053,248127,248200,248347,248421,248495,248568,248642,248715,248789,248862,248936,249009,249083,249156,249303,249450,249524,249597,249671,249745,249892,249965,250039,250112,250259,250333,250406,250480,250627,250774,250847,251068,251215,251362,251436,251509,251583,251656,251730,251803,251950,252097,252171,252245,252318,252392,252465,252539,252612,252686,252759,252906,252980,253053,253127,253200,253274,253347,253421,253495,253568,253715,253789,253862,253936,254009,254156,254303,254377,254450,254597,254671,254745,254818,254965,255112,255186,255333,255480,255627,255774,255921,256068,256215,256289,256436,256583,256730,256877,257024,257171,257245,257318,257392,257465,257612,257759,257833,257906,258053,258127,258200,258274,258421,258495,258642,258715,258862,259009,259083,259156,259303,259450,259524,259597,259745,259818,259892,259965,260039,260112,260186,260259,260333,260406,260480,260627,260774,260995,261068,261142,261289,261436,261583,261656,261730,261877,261950,262024,262097,262171,262245,262392,262465,262539,262686,262759,262906,263053,263200,263347,263421,263495,263642,263715,263862,263936,264009,264156,264303,264377,264450,264524,264671,264818,264892,265039,265112,265186,265333,265480,265553,265700,265774,265847,265995,266142,266215,266362,266509,266656,266803,266877,267024,267171,267245,267318,267392,267539,267612,267686,267833,267906,268053,268127,268200,268347,268421,268568,268715,268862,268936,269009,269230,278642,278715,278789,278862,278936,279009,279083,279156,279230,279303,279377,279450,279597,279671,279745,279818,279892,280039,280112,280186,280259,280406,280480,280553,280627,280700,280774,280847,280921,280995,281068,281142,281215,281289,281362,281436,281509,281583,281656,281730,281803,281877,281950,282024,282097,282171,282245,282318,282392,282465,282539,282612,282686,282759,282833,282906,282980,283053,283127,283200,283274,283347,283421,283495,283568,283642,283715,283789,283862,283936,284009,284083,284156,284230,284303,284377,284450,284524,284597,284671,284745,284818,284892,284965,285039,285112,285186,285259,285333,285406,285480,285553,285627,285700,285774,285847,285921,285995,286068,286142,286215,286289,286362,286436,286509,286583,286656,286730,286803,286877,289230,289303,289377,289450,289524,289597,289671,289745,289818,289892,289965,290039,290112,290186,290259,290333,290406,290480,290553,290627,290700,290774,290847,290921,290995,291068,291142,291215,291289,291362,291436,291509,291583
DistanceSpacing: 1.4
BeatDivisor: 4
GridSize: 32
TimelineZoom: 2.2

[Metadata]
Title:epimerization
TitleUnicode:epimerization
Artist:Camellia
ArtistUnicode:かめりあ
Creator:DoNotMess
Version:DnM x ArZ
Source:
Tags:love product
BeatmapID:1662870
BeatmapSetID:792818

[Difficulty]
HPDrainRate:8
CircleSize:4
OverallDifficulty:8
ApproachRate:5
SliderMultiplier:1.4
SliderTickRate:1

[Events]
//Background and Video events
0,0,"wallhaven-505925.png",0,0
//Break Periods
2,31365,67171
2,89747,149916
//Storyboard Layer 0 (Background)
//Storyboard Layer 1 (Fail)
//Storyboard Layer 2 (Pass)
//Storyboard Layer 3 (Foreground)
//Storyboard Sound Samples

[TimingPoints]
136,294.117647058824,4,2,0,50,1,0
117782,300,4,1,0,50,1,0
118382,311.688311688312,4,1,0,50,1,8
119006,324.324324324324,4,1,0,50,1,0
120299,333.333333333333,4,1,0,50,1,0
121632,368.098159509202,4,1,0,50,1,0
122368,372.670807453416,4,1,0,50,1,8
123111,394.736842105263,4,1,0,50,1,0
123900,410.958904109589,4,1,0,50,1,8
124721,431.654676258993,4,1,0,50,1,0
125152,437.956204379562,4,1,0,50,1,8
125589,461.538461538462,4,1,0,50,1,8
126050,476.190476190476,4,1,0,50,1,8
126526,491.803278688525,4,1,0,50,1,0
127017,508.474576271186,4,1,0,50,1,8
127525,517.241379310345,4,1,0,50,1,8
128040,566.037735849057,4,1,0,50,1,8
128608,568.720379146919,4,1,0,50,1,0
129176,603.015075376884,4,1,0,50,1,8
129779,645.161290322581,4,1,0,50,1,8
130424,693.64161849711,4,1,0,50,1,8
131116,357.142857142857,4,1,0,50,1,0
131116,-82.6446280991736,4,1,0,50,0,0
154508,-277.777777777778,4,1,0,50,0,0
154642,-27.7777777777778,4,1,0,50,0,0
154687,-82.6446280991736,4,1,0,50,0,0
155937,-277.777777777778,4,1,0,50,0,0
156071,-27.7777777777778,4,1,0,50,0,0
156116,-142.857142857143,4,1,0,15,0,0
156160.625,-143.337066069429,4,1,0,15,0,0
156205.25,-144.796380090498,4,1,0,15,0,0
156249.875,-147.295742232451,4,1,0,15,0,0
156294.5,-150.943396226415,4,1,0,15,0,0
156339.125,-155.907429963459,4,1,0,15,0,0
156383.75,-162.43654822335,4,1,0,15,0,0
156428.375,-170.894526034713,4,1,0,15,0,0
156473,-181.818181818182,4,1,0,15,0,0
156517.625,-196.018376722818,4,1,0,15,0,0
156562.25,-214.765100671141,4,1,0,15,0,0
156606.875,-240.15009380863,4,1,0,15,0,0
156651.5,-275.862068965517,4,1,0,15,0,0
156696.125,-329.048843187661,4,1,0,15,0,0
156740.75,-415.584415584416,4,1,0,15,0,0
156785.375,-579.185520361991,4,1,0,15,0,0
156830,-1000,4,1,0,15,0,0
156874.625,-285.714285714286,4,1,0,15,0,0
156919.25,-166.666666666667,4,1,0,15,0,0
156963.875,-117.647058823529,4,1,0,15,0,0
157008.5,-90.9090909090909,4,1,0,15,0,0
157053.125,-74.0740740740741,4,1,0,15,0,0
157097.75,-62.5,4,1,0,15,0,0
157142.375,-54.054054054054,4,1,0,15,0,0
157187,-82.6446280991736,4,1,0,15,0,0
157455,-416.666666666667,4,1,0,15,0,0
157522,-24.330900243309,4,1,0,15,0,0
157544,-82.6446280991736,4,1,0,15,0,0
158794,-277.777777777778,4,1,0,15,0,0
158928,-27.7777777777778,4,1,0,15,0,0
158973,-87.719298245614,4,1,0,15,0,0
159687,-82.6446280991736,4,1,0,15,0,0
160491,-41.8410041841004,4,1,0,15,0,0
160520,-1000,4,1,0,15,0,0
160550,-41.8410041841004,4,1,0,15,0,0
160580,-1000,4,1,0,15,0,0
160610,-41.8410041841004,4,1,0,15,0,0
160639,-1000,4,1,0,15,0,0
160669,-41.8410041841004,4,1,0,15,0,0
160699,-1000,4,1,0,15,0,0
160729,-41.8410041841004,4,1,0,15,0,0
160758,-1000,4,1,0,15,0,0
160788,-41.8410041841004,4,1,0,15,0,0
160818,-1000,4,1,0,15,0,0
160848,-41.8410041841004,4,1,0,15,0,0
160877,-1000,4,1,0,15,0,0
160907,-41.8410041841004,4,1,0,15,0,0
160937,-1000,4,1,0,15,0,0
160967,-41.8410041841004,4,1,0,15,0,0
160996,-1000,4,1,0,15,0,0
161026,-41.8410041841004,4,1,0,15,0,0
161056,-1000,4,1,0,15,0,0
161086,-41.8410041841004,4,1,0,15,0,0
161116,-1000,4,1,0,15,0,0
161145,-41.8410041841004,4,1,0,15,0,0
161175,-1000,4,1,0,15,0,0
161205,-41.8410041841004,4,1,0,15,0,0
161235,-1000,4,1,0,15,0,0
161264,-41.8410041841004,4,1,0,15,0,0
161294,-1000,4,1,0,15,0,0
161324,-41.8410041841004,4,1,0,15,0,0
161354,-1000,4,1,0,15,0,0
161383,-41.8410041841004,4,1,0,15,0,0
161413,-1000,4,1,0,15,0,0
161443,-41.8410041841004,4,1,0,15,0,0
161473,-1000,4,1,0,15,0,0
161502,-41.8410041841004,4,1,0,15,0,0
161532,-1000,4,1,0,15,0,0
161562,-41.8410041841004,4,1,0,15,0,0
161592,-1000,4,1,0,15,0,0
161621,-41.8410041841004,4,1,0,15,0,0
161651,-277.777777777778,4,1,0,15,0,0
161785,-27.7777777777778,4,1,0,15,0,0
161830,-250,4,1,0,15,0,0
161874.625,-262.295081967213,4,1,0,15,0,0
161919.25,-275.862068965517,4,1,0,15,0,0
161963.875,-290.909090909091,4,1,0,15,0,0
162008.5,-307.692307692308,4,1,0,15,0,0
162053.125,-326.530612244898,4,1,0,15,0,0
162097.75,-347.826086956522,4,1,0,15,0,0
162142.375,-372.093023255814,4,1,0,15,0,0
162187,-400,4,1,0,15,0,0
162231.625,-432.432432432432,4,1,0,15,0,0
162276.25,-470.588235294118,4,1,0,15,0,0
162320.875,-516.129032258065,4,1,0,15,0,0
162365.5,-571.428571428571,4,1,0,15,0,0
162410.125,-640,4,1,0,15,0,0
162454.75,-727.272727272727,4,1,0,15,0,0
162499.375,-842.105263157895,4,1,0,15,0,0
162544,-1000,4,1,0,15,0,0
162588.625,-688.172043010753,4,1,0,15,0,0
162633.25,-355.555555555556,4,1,0,15,0,0
162677.875,-196.923076923077,4,1,0,15,0,0
162722.5,-121.212121212121,4,1,0,15,0,0
162767.125,-81.1153358681876,4,1,0,15,0,0
162811.75,-57.7617328519856,4,1,0,15,0,0
162856.375,-43.0976430976431,4,1,0,15,0,0
162901,-33.3333333333333,4,1,0,15,0,0
162946,-71.4285714285714,4,1,0,15,0,0
162991,-142.857142857143,4,1,0,15,0,0
163035,-250,4,1,0,15,0,0
163080,-333.333333333333,4,1,0,15,0,0
163124,-500,4,1,0,15,0,0
163169,-416.666666666667,4,1,0,15,0,0
163236,-24.330900243309,4,1,0,15,0,0
163258,-82.6446280991736,4,1,0,15,0,0
163437,-90.9090909090909,4,1,0,15,0,0
163705,-416.666666666667,4,1,0,15,0,0
163772,-24.330900243309,4,1,0,15,0,0
163794,-82.6446280991736,4,1,0,15,0,0
164151,-277.777777777778,4,1,0,15,0,0
164218,-27.7777777777778,4,1,0,15,0,0
164241,-277.777777777778,4,1,0,15,0,0
164307,-27.7777777777778,4,1,0,15,0,0
164330,-82.6446280991736,4,1,0,15,0,0
164776,-416.666666666667,4,1,0,15,0,0
164843,-24.330900243309,4,1,0,15,0,0
164866,-82.6446280991736,4,1,0,15,0,0
165223,-277.777777777778,4,1,0,15,0,0
165290,-27.7777777777778,4,1,0,15,0,0
165312,-277.777777777778,4,1,0,15,0,0
165379,-27.7777777777778,4,1,0,15,0,0
165401,-82.6446280991736,4,1,0,15,0,0
165937,-277.777777777778,4,1,0,15,0,0
166071,-27.7777777777778,4,1,0,15,0,0
166116,-82.6446280991736,4,1,0,15,0,0
167366,-277.777777777778,4,1,0,15,0,0
167499,-27.7777777777778,4,1,0,15,0,0
167544,-142.857142857143,4,1,0,15,0,0
167588.625,-150.943396226415,4,1,0,15,0,0
167633.25,-160,4,1,0,15,0,0
167677.875,-170.212765957447,4,1,0,15,0,0
167722.5,-181.818181818182,4,1,0,15,0,0
167767.125,-195.121951219512,4,1,0,15,0,0
167811.75,-210.526315789474,4,1,0,15,0,0
167856.375,-228.571428571429,4,1,0,15,0,0
167901,-250,4,1,0,15,0,0
167945.625,-275.862068965517,4,1,0,15,0,0
167990.25,-307.692307692308,4,1,0,15,0,0
168034.875,-347.826086956522,4,1,0,15,0,0
168079.5,-400,4,1,0,15,0,0
168124.125,-470.588235294118,4,1,0,15,0,0
168168.75,-571.428571428572,4,1,0,15,0,0
168213.375,-727.272727272727,4,1,0,15,0,0
168258,-1000,4,1,0,15,0,0
168302.75,-285.714285714286,4,1,0,15,0,0
168347.5,-166.666666666667,4,1,0,15,0,0
168392.25,-117.647058823529,4,1,0,15,0,0
168437,-90.9090909090909,4,1,0,15,0,0
168481.75,-74.0740740740741,4,1,0,15,0,0
168526.5,-62.5,4,1,0,15,0,0
168571.25,-54.054054054054,4,1,0,15,0,0
168616,-82.6446280991736,4,1,0,15,0,0
170223,-277.777777777778,4,1,0,15,0,0
170357,-27.7777777777778,4,1,0,15,0,0
170401,-86.9565217391304,4,1,0,15,0,0
171116,-82.6446280991736,4,1,0,15,0,0
171651,-277.777777777778,4,1,0,15,0,0
171785,-27.7777777777778,4,1,0,15,0,0
171830,-82.6446280991736,4,1,0,15,0,0
173080,-277.777777777778,4,1,0,15,0,0
173214,-27.7777777777778,4,1,0,15,0,0
173258,-250,4,1,0,15,0,0
173302.6875,-262.295081967213,4,1,0,15,0,0
173347.375,-275.862068965517,4,1,0,15,0,0
173392.0625,-290.909090909091,4,1,0,15,0,0
173436.75,-307.692307692308,4,1,0,15,0,0
173481.4375,-326.530612244898,4,1,0,15,0,0
173526.125,-347.826086956522,4,1,0,15,0,0
173570.8125,-372.093023255814,4,1,0,15,0,0
173615.5,-400,4,1,0,15,0,0
173660.1875,-432.432432432432,4,1,0,15,0,0
173704.875,-470.588235294118,4,1,0,15,0,0
173749.5625,-516.129032258065,4,1,0,15,0,0
173794.25,-571.428571428571,4,1,0,15,0,0
173838.9375,-640,4,1,0,15,0,0
173883.625,-727.272727272727,4,1,0,15,0,0
173928.3125,-842.105263157895,4,1,0,15,0,0
173973,-1000,4,1,0,15,0,0
174017.625,-688.172043010753,4,1,0,15,0,0
174062.25,-355.555555555556,4,1,0,15,0,0
174106.875,-196.923076923077,4,1,0,15,0,0
174151.5,-121.212121212121,4,1,0,15,0,0
174196.125,-81.1153358681876,4,1,0,15,0,0
174240.75,-57.7617328519856,4,1,0,15,0,0
174285.375,-43.0976430976431,4,1,0,15,0,0
174330,-33.3333333333333,4,1,0,15,0,0
174374,-71.4285714285714,4,1,0,15,0,0
174419,-142.857142857143,4,1,0,15,0,0
174464,-250,4,1,0,15,0,0
174508,-333.333333333333,4,1,0,15,0,0
174553,-500,4,1,0,15,0,0
174598,-416.666666666667,4,1,0,15,0,0
174642,-24.330900243309,4,1,0,15,0,0
174687,-82.6446280991736,4,1,0,15,0,0
174776,-84.7457627118644,4,1,0,15,0,0
174866,-86.9565217391304,4,1,0,15,0,0
174955,-89.2857142857143,4,1,0,15,0,0
175044,-90.9090909090909,4,1,0,15,0,0
175133,-92.5925925925926,4,1,0,15,0,0
175223,-94.3396226415094,4,1,0,15,0,0
175401,-96.1538461538461,4,1,0,15,0,0
176473,-277.777777777778,4,1,0,15,0,0
176517.714285714,-253.400217200186,4,1,0,15,0,0
176562.428571429,-200.589487473391,4,1,0,15,0,0
176607.142857143,-148.877343299,4,1,0,15,0,0
176651.857142857,-109.394534738346,4,1,0,15,0,0
176696.571428571,-81.5782901856322,4,1,0,15,0,0
176741.285714286,-62.2364476959813,4,1,0,15,0,0
176786,-48.6144871171609,4,1,0,15,0,0
176830,348.837209302326,4,1,0,50,1,0
176830,-84.313725490196,4,1,0,50,0,0
177353,-277.777777777778,4,1,0,50,0,0
177484,-27.10027100271,4,1,0,50,0,0
177527,-84.313725490196,4,1,0,50,0,0
178225,337.078651685393,4,1,0,50,1,0
178225,-87.2549019607844,4,1,0,50,0,0
178730,-285.714285714286,4,1,0,50,0,0
178857,-28.0112044817927,4,1,0,50,0,0
178899,-87.2549019607844,4,1,0,50,0,0
179573,319.148936170213,4,1,0,50,1,0
179573,-92.156862745098,4,1,0,50,0,0
179892,-32.7868852459016,4,1,0,50,0,0
179932,-227.272727272727,4,1,0,50,0,0
180051,-92.156862745098,4,1,0,50,0,0
180370,-32.7868852459016,4,1,0,50,0,0
180410,-227.272727272727,4,1,0,50,0,0
180530,-92.156862745098,4,1,0,50,0,0
180849,306.122448979592,4,1,0,50,1,0
180849,-34.3642611683849,4,1,0,50,0,0
180887,-238.095238095238,4,1,0,50,0,0
181002,-96.078431372549,4,1,0,50,0,0
181308,-322.58064516129,4,1,0,50,0,0
181422,-31.055900621118,4,1,0,50,0,0
181461,-96.078431372549,4,1,0,50,0,0
181767,-34.3642611683849,4,1,0,50,0,0
181805,-238.095238095238,4,1,0,50,0,0
181920,-96.078431372549,4,1,0,50,0,0
182073,294.117647058824,4,1,0,50,1,0
182073,-99.9999999999998,4,1,0,50,0,0
182514,-333.333333333333,4,1,0,50,0,0
182624,-32.258064516129,4,1,0,50,0,0
182661,-99.9999999999998,4,1,0,50,0,0
183249,288.461538461538,4,1,0,50,1,0
183249,-101.960784313726,4,1,0,50,0,0
183681,-344.827586206897,4,1,0,50,0,0
183789,-32.8947368421053,4,1,0,50,0,0
183825,-102.040816326531,4,1,0,50,0,0
184402,283.018867924528,4,1,0,50,1,0
184402,-103.921568627451,4,1,0,50,0,0
184543,-263.157894736842,4,1,0,50,0,0
184578,-129.87012987013,4,1,0,50,0,0
184614,-86.9565217391304,4,1,0,50,0,0
184649,-64.9350649350649,4,1,0,50,0,0
184685,-347.222222222222,4,1,0,50,0,0
184897,-33.5570469798658,4,1,0,50,0,0
184968,-104.166666666667,4,1,0,50,0,0
185109,-37.1747211895911,4,1,0,50,0,0
185144,-263.157894736842,4,1,0,50,0,0
185251,-104.166666666667,4,1,0,50,0,0
185534,267.857142857143,4,1,0,50,1,0
185534,-39.2156862745098,4,1,0,50,0,0
185567,-277.777777777778,4,1,0,50,0,0
185667,-109.803921568627,4,1,0,50,0,0
185935,-370.37037037037,4,1,0,50,0,0
186036,-35.4609929078014,4,1,0,50,0,0
186069,-109.803921568627,4,1,0,50,0,0
186337,-39.2156862745098,4,1,0,50,0,0
186371,-277.777777777778,4,1,0,50,0,0
186471,-109.803921568627,4,1,0,50,0,0
186605,263.157894736842,4,1,0,50,1,0
186605,-111.764705882353,4,1,0,50,0,0
186999,-370.37037037037,4,1,0,50,0,0
187098,-36.231884057971,4,1,0,50,0,0
187131,-111.764705882353,4,1,0,50,0,0
187657,256.410256410256,4,1,0,50,1,0
187657,-114.705882352941,4,1,0,50,0,0
188041,-384.615384615385,4,1,0,50,0,0
188137,-37.037037037037,4,1,0,50,0,0
188169,-114.705882352941,4,1,0,50,0,0
188682,250,4,1,0,50,1,0
188682,-117.647058823529,4,1,0,50,0,0
189057,-294.117647058824,4,1,0,50,0,0
189088,-147.058823529412,4,1,0,50,0,0
189119,-98.0392156862745,4,1,0,50,0,0
189150,-73.5294117647059,4,1,0,50,0,0
189182,-117.647058823529,4,1,0,50,0,0
189307,-41.6666666666667,4,1,0,50,0,0
189338,-294.117647058824,4,1,0,50,0,0
189432,-117.647058823529,4,1,0,50,0,0
189682,241.935483870968,4,1,0,50,1,0
189682,-42.0168067226891,4,1,0,50,0,0
189712,-303.030303030303,4,1,0,50,0,0
189802,-121.56862745098,4,1,0,50,0,0
190044,-400,4,1,0,50,0,0
190135,-39.3700787401575,4,1,0,50,0,0
190165,-121.56862745098,4,1,0,50,0,0
190407,-43.4782608695652,4,1,0,50,0,0
190438,-303.030303030303,4,1,0,50,0,0
190528,-121.56862745098,4,1,0,50,0,0
190649,238.095238095238,4,1,0,50,1,0
190649,-123.529411764706,4,1,0,50,0,0
191006,-416.666666666667,4,1,0,50,0,0
191095,-40,4,1,0,50,0,0
191125,-123.529411764706,4,1,0,50,0,0
191601,234.375,4,1,0,50,1,0
191601,-125.490196078431,4,1,0,50,0,0
191952,-416.666666666667,4,1,0,50,0,0
192040,-40.3225806451613,4,1,0,50,0,0
192069,-125.490196078431,4,1,0,50,0,0
192538,229.007633587786,4,1,0,50,1,0
192538,-128.43137254902,4,1,0,50,0,0
192767,-434.782608695652,4,1,0,50,0,0
192938,-41.3223140495868,4,1,0,50,0,0
192996,-128.43137254902,4,1,0,50,0,0
193110,-45.8715596330275,4,1,0,50,0,0
193139,-322.58064516129,4,1,0,50,0,0
193225,-128.43137254902,4,1,0,50,0,0
193454,222.222222222222,4,1,0,50,1,0
193454,-46.9483568075117,4,1,0,50,0,0
193481,-333.333333333333,4,1,0,50,0,0
193565,-132.352941176471,4,1,0,50,0,0
193787,-434.782608695652,4,1,0,50,0,0
193870,-42.3728813559322,4,1,0,50,0,0
193898,-132.352941176471,4,1,0,50,0,0
194009,-33.3333333333333,4,1,0,50,0,0
194023,-1000,4,1,0,50,0,0
194037,-38.4615384615385,4,1,0,50,0,0
194051,-1000,4,1,0,50,0,0
194065,-43.4782608695652,4,1,0,50,0,0
194079,-1000,4,1,0,50,0,0
194092,-50,4,1,0,50,0,0
194106,-1000,4,1,0,50,0,0
194120,-57.1428571428571,4,1,0,50,0,0
194134,-1000,4,1,0,50,0,0
194148,-66.6666666666667,4,1,0,50,0,0
194162,-1000,4,1,0,50,0,0
194176,-76.9230769230769,4,1,0,50,0,0
194190,-1000,4,1,0,50,0,0
194204,-90.9090909090909,4,1,0,50,0,0
194217,-1000,4,1,0,50,0,0
194231,-100,4,1,0,50,0,0
194245,-1000,4,1,0,50,0,0
194259,-111.111111111111,4,1,0,50,0,0
194273,-1000,4,1,0,50,0,0
194287,-117.647058823529,4,1,0,50,0,0
194301,-1000,4,1,0,50,0,0
194315,-125,4,1,0,50,0,0
194329,-1000,4,1,0,50,0,0
194342,220.588235294118,4,1,0,50,1,0
194342,-133.333333333333,4,1,0,50,0,0
195224,215.827338129496,4,1,0,50,1,0
195224,-136.274509803922,4,1,0,50,0,0
196087,212.765957446809,4,1,0,50,1,0
196087,-138.235294117647,4,1,0,50,0,0
196938,209.79020979021,4,1,0,50,1,0
196938,-140.196078431372,4,1,0,50,0,0
197777,206.896551724138,4,1,0,50,1,0
197777,-142.156862745098,4,1,0,50,0,0
198604,201.342281879195,4,1,0,50,1,0
198604,-146.078431372549,4,1,0,50,0,0
199409,200,4,1,0,50,1,0
199409,-147.058823529412,4,1,0,50,0,0
200995,294.117647058824,4,1,0,50,1,0
200995,-99.9999999999998,4,1,0,50,0,0

[HitObjects]
64,192,30724,5,0,0:0:0:0:
192,192,30724,1,0,0:0:0:0:
320,192,30724,1,0,0:0:0:0:
64,192,30871,1,0,0:0:0:0:
320,192,30871,1,0,0:0:0:0:
192,192,30871,1,0,0:0:0:0:
64,192,31018,1,0,0:0:0:0:
192,192,31018,1,0,0:0:0:0:
320,192,31018,1,0,0:0:0:0:
64,192,31165,1,0,0:0:0:0:
192,192,31165,1,0,0:0:0:0:
320,192,31165,1,0,0:0:0:0:
192,192,68371,5,0,0:0:0:0:
448,192,68371,128,0,68665:0:0:0:0:
64,192,68371,128,0,68518:0:0:0:0:
320,192,68518,128,0,68665:0:0:0:0:
64,192,68665,1,0,0:0:0:0:
192,192,68665,1,0,0:0:0:0:
320,192,68812,128,0,68959:0:0:0:0:
64,192,68959,1,0,0:0:0:0:
192,192,68959,1,0,0:0:0:0:
320,192,69106,128,0,69253:0:0:0:0:
64,192,69253,1,0,0:0:0:0:
192,192,69253,1,0,0:0:0:0:
320,192,69400,128,0,69547:0:0:0:0:
448,192,69400,128,0,69474:0:0:0:0:
192,192,69474,128,0,69547:0:0:0:0:
64,192,69547,1,0,0:0:0:0:
448,192,69547,1,0,0:0:0:0:
192,192,69694,128,0,69841:0:0:0:0:
320,192,69841,1,0,0:0:0:0:
448,192,69841,1,0,0:0:0:0:
192,192,69988,128,0,70136:0:0:0:0:
320,192,70136,1,0,0:0:0:0:
448,192,70136,1,0,0:0:0:0:
192,192,70283,128,0,70430:0:0:0:0:
448,192,70430,1,0,0:0:0:0:
320,192,70430,1,0,0:0:0:0:
192,192,70577,128,0,70724:0:0:0:0:
64,192,70577,128,0,70724:0:0:0:0:
320,192,70724,1,0,0:0:0:0:
448,192,70724,128,0,71018:0:0:0:0:
64,192,70871,128,0,71018:0:0:0:0:
192,192,71018,1,0,0:0:0:0:
320,192,71018,1,0,0:0:0:0:
320,192,71165,128,0,71312:0:0:0:0:
448,192,71165,128,0,71312:0:0:0:0:
192,192,71312,1,0,0:0:0:0:
64,192,71312,128,0,71606:0:0:0:0:
448,192,71459,128,0,71606:0:0:0:0:
192,192,71606,1,0,0:0:0:0:
320,192,71606,1,0,0:0:0:0:
448,192,71753,128,0,71900:0:0:0:0:
64,192,71900,1,0,0:0:0:0:
192,192,71900,1,0,0:0:0:0:
448,192,72047,128,0,72194:0:0:0:0:
64,192,72194,128,0,72488:0:0:0:0:
192,192,72194,128,0,72341:0:0:0:0:
320,192,72341,128,0,72488:0:0:0:0:
448,192,72488,128,0,72783:0:0:0:0:
192,192,72488,1,0,0:0:0:0:
64,192,72636,128,0,72783:0:0:0:0:
320,192,72783,128,0,73077:0:0:0:0:
192,192,72783,128,0,72930:0:0:0:0:
64,192,72930,128,0,73077:0:0:0:0:
192,192,73077,128,0,73224:0:0:0:0:
448,192,73077,128,0,73224:0:0:0:0:
64,192,73224,128,0,73371:0:0:0:0:
320,192,73224,128,0,73371:0:0:0:0:
448,192,73371,128,0,73518:0:0:0:0:
192,192,73371,128,0,73812:0:0:0:0:
64,192,73518,128,0,73665:0:0:0:0:
320,192,73665,128,0,73959:0:0:0:0:
448,192,73665,128,0,73812:0:0:0:0:
64,192,73812,128,0,74106:0:0:0:0:
192,192,73959,128,0,74106:0:0:0:0:
448,192,73959,128,0,74253:0:0:0:0:
320,192,74106,128,0,74400:0:0:0:0:
64,192,74253,128,0,74547:0:0:0:0:
192,192,74253,128,0,74400:0:0:0:0:
448,192,74400,128,0,74694:0:0:0:0:
320,192,74547,128,0,74841:0:0:0:0:
192,192,74547,128,0,74694:0:0:0:0:
64,192,74694,128,0,74988:0:0:0:0:
448,192,74841,128,0,74988:0:0:0:0:
192,192,74841,128,0,75136:0:0:0:0:
320,192,74988,128,0,75283:0:0:0:0:
448,192,75136,128,0,75283:0:0:0:0:
64,192,75136,128,0,75430:0:0:0:0:
192,192,75283,128,0,75430:0:0:0:0:
320,192,75430,1,0,0:0:0:0:
448,192,75430,128,0,76018:0:0:0:0:
64,192,75724,128,0,75871:0:0:0:0:
192,192,75871,128,0,76018:0:0:0:0:
320,192,76018,128,0,76165:0:0:0:0:
64,192,76018,128,0,76459:0:0:0:0:
448,192,76165,128,0,76312:0:0:0:0:
320,192,76312,128,0,76459:0:0:0:0:
192,192,76459,128,0,76606:0:0:0:0:
448,192,76459,1,0,0:0:0:0:
448,192,76606,128,0,76753:0:0:0:0:
64,192,76606,128,0,77709:0:0:0:0:
320,192,76753,128,0,76900:0:0:0:0:
192,192,76753,1,0,0:0:0:0:
192,192,76900,128,0,77047:0:0:0:0:
320,192,77047,128,0,77194:0:0:0:0:
448,192,77194,128,0,77709:0:0:0:0:
192,192,77341,128,0,77709:0:0:0:0:
320,192,77488,128,0,77709:0:0:0:0:
64,192,77783,1,0,0:0:0:0:
192,192,77783,1,0,0:0:0:0:
448,192,77783,1,0,0:0:0:0:
320,192,77783,1,0,0:0:0:0:
64,192,78518,1,0,0:0:0:0:
448,192,78518,1,0,0:0:0:0:
64,192,78665,1,0,0:0:0:0:
192,192,78665,1,0,0:0:0:0:
320,192,78665,1,0,0:0:0:0:
448,192,78665,1,0,0:0:0:0:
320,192,78812,128,0,78959:0:0:0:0:
192,192,78886,128,0,78959:0:0:0:0:
64,192,78959,1,0,0:0:0:0:
448,192,78959,1,0,0:0:0:0:
192,192,79106,128,0,79253:0:0:0:0:
320,192,79253,1,0,0:0:0:0:
448,192,79253,1,0,0:0:0:0:
192,192,79400,128,0,79547:0:0:0:0:
320,192,79547,1,0,0:0:0:0:
448,192,79547,1,0,0:0:0:0:
192,192,79694,128,0,79841:0:0:0:0:
320,192,79841,1,0,0:0:0:0:
448,192,79841,1,0,0:0:0:0:
64,192,79988,128,0,80283:0:0:0:0:
192,192,79988,128,0,80136:0:0:0:0:
320,192,80136,1,0,0:0:0:0:
448,192,80136,128,0,80430:0:0:0:0:
320,192,80283,128,0,80430:0:0:0:0:
64,192,80430,1,0,0:0:0:0:
192,192,80430,1,0,0:0:0:0:
320,192,80577,128,0,80724:0:0:0:0:
448,192,80577,128,0,80871:0:0:0:0:
64,192,80724,128,0,81018:0:0:0:0:
192,192,80724,1,0,0:0:0:0:
192,192,80871,128,0,81018:0:0:0:0:
320,192,81018,1,0,0:0:0:0:
448,192,81018,1,0,0:0:0:0:
320,192,81165,128,0,81312:0:0:0:0:
64,192,81312,1,0,0:0:0:0:
192,192,81312,1,0,0:0:0:0:
320,192,81459,128,0,81606:0:0:0:0:
192,192,81606,1,0,0:0:0:0:
64,192,81606,128,0,81753:0:0:0:0:
320,192,81753,128,0,81900:0:0:0:0:
448,192,81753,128,0,82047:0:0:0:0:
192,192,81900,1,0,0:0:0:0:
64,192,81900,128,0,82194:0:0:0:0:
320,192,82047,128,0,82194:0:0:0:0:
192,192,82194,1,0,0:0:0:0:
448,192,82194,128,0,82488:0:0:0:0:
192,192,82341,128,0,82488:0:0:0:0:
320,192,82488,128,0,82636:0:0:0:0:
64,192,82488,128,0,82783:0:0:0:0:
192,192,82636,128,0,82930:0:0:0:0:
320,192,82783,128,0,83077:0:0:0:0:
448,192,82783,128,0,82930:0:0:0:0:
64,192,82930,128,0,83224:0:0:0:0:
448,192,83077,128,0,83371:0:0:0:0:
192,192,83077,128,0,83224:0:0:0:0:
320,192,83224,128,0,83518:0:0:0:0:
192,192,83371,128,0,83518:0:0:0:0:
64,192,83371,128,0,83665:0:0:0:0:
448,192,83518,128,0,83812:0:0:0:0:
320,192,83665,128,0,83959:0:0:0:0:
192,192,83665,128,0,83812:0:0:0:0:
64,192,83812,128,0,84106:0:0:0:0:
192,192,83959,128,0,84106:0:0:0:0:
448,192,83959,128,0,84180:0:0:0:0:
320,192,84106,128,0,84180:0:0:0:0:
64,192,84180,1,0,0:0:0:0:
192,192,84180,1,0,0:0:0:0:
320,192,84327,1,0,0:0:0:0:
448,192,84327,1,0,0:0:0:0:
192,192,84400,1,0,0:0:0:0:
64,192,84400,1,0,0:0:0:0:
448,192,84547,1,0,0:0:0:0:
320,192,84547,128,0,84841:0:0:0:0:
64,192,84694,1,0,0:0:0:0:
192,192,84694,1,0,0:0:0:0:
64,192,84841,1,0,0:0:0:0:
448,192,84841,1,0,0:0:0:0:
192,192,84841,1,0,0:0:0:0:
320,192,84988,1,0,0:0:0:0:
192,192,85062,1,0,0:0:0:0:
64,192,85136,1,0,0:0:0:0:
320,192,85283,1,0,0:0:0:0:
448,192,85283,1,0,0:0:0:0:
192,192,85356,1,0,0:0:0:0:
64,192,85430,1,0,0:0:0:0:
320,192,85577,1,0,0:0:0:0:
192,192,85650,1,0,0:0:0:0:
64,192,85724,1,0,0:0:0:0:
448,192,85724,1,0,0:0:0:0:
192,192,85871,1,0,0:0:0:0:
64,192,85871,1,0,0:0:0:0:
320,192,85944,1,0,0:0:0:0:
448,192,86018,1,0,0:0:0:0:
64,192,86165,1,0,0:0:0:0:
192,192,86165,1,0,0:0:0:0:
320,192,86238,1,0,0:0:0:0:
448,192,86312,1,0,0:0:0:0:
64,192,86312,1,0,0:0:0:0:
192,192,86459,1,0,0:0:0:0:
320,192,86459,1,0,0:0:0:0:
64,192,86533,1,0,0:0:0:0:
320,192,86606,1,0,0:0:0:0:
448,192,86753,1,0,0:0:0:0:
192,192,86827,1,0,0:0:0:0:
320,192,86900,1,0,0:0:0:0:
64,192,87047,1,0,0:0:0:0:
192,192,87121,1,0,0:0:0:0:
320,192,87194,128,0,87783:0:0:0:0:
64,192,87194,1,0,0:0:0:0:
448,192,87341,128,0,87562:0:0:0:0:
192,192,87488,128,0,87709:0:0:0:0:
64,192,87488,1,0,0:0:0:0:
448,192,87636,128,0,87856:0:0:0:0:
192,192,87783,128,0,88003:0:0:0:0:
64,192,87783,1,0,0:0:0:0:
320,192,87930,128,0,88150:0:0:0:0:
448,192,87930,1,0,0:0:0:0:
64,192,88077,128,0,88297:0:0:0:0:
192,192,88077,1,0,0:0:0:0:
320,192,88224,128,0,88444:0:0:0:0:
448,192,88224,1,0,0:0:0:0:
192,192,88371,1,0,0:0:0:0:
64,192,88371,128,0,88959:0:0:0:0:
320,192,88518,1,0,0:0:0:0:
448,192,88665,1,0,0:0:0:0:
192,192,88665,128,0,88959:0:0:0:0:
320,192,88812,128,0,88959:0:0:0:0:
448,192,88959,128,0,89033:0:0:0:0:
320,192,89033,128,0,89106:0:0:0:0:
192,192,89106,128,0,89180:0:0:0:0:
64,192,89180,128,0,89253:0:0:0:0:
448,192,89253,128,0,89327:0:0:0:0:
320,192,89327,128,0,89400:0:0:0:0:
192,192,89400,128,0,89474:0:0:0:0:
64,192,89474,128,0,89547:0:0:0:0:
64,192,151116,5,0,0:0:0:0:
64,192,151473,1,0,0:0:0:0:
320,192,151830,1,0,0:0:0:0:
320,192,152187,1,0,0:0:0:0:
192,192,152544,1,0,0:0:0:0:
192,192,152901,5,0,0:0:0:0:
448,192,153258,1,0,0:0:0:0:
448,192,153616,1,0,0:0:0:0:
64,192,153973,5,0,0:0:0:0:
448,192,153973,1,0,0:0:0:0:
320,192,154017,1,0,0:0:0:0:
192,192,154062,1,0,0:0:0:0:
448,192,154107,1,0,0:0:0:0:
320,192,154151,1,0,0:0:0:0:
64,192,154196,1,0,0:0:0:0:
192,192,154241,1,0,0:0:0:0:
320,192,154285,1,0,0:0:0:0:
64,192,154330,1,0,0:0:0:0:
192,192,154374,1,0,0:0:0:0:
448,192,154419,1,0,0:0:0:0:
320,192,154464,1,0,0:0:0:0:
192,192,154508,1,0,0:0:0:0:
64,192,154508,1,0,0:0:0:0:
320,192,154687,1,0,0:0:0:0:
448,192,154687,1,0,0:0:0:0:
192,192,154687,1,0,0:0:0:0:
64,192,154866,1,0,0:0:0:0:
448,192,154910,1,0,0:0:0:0:
320,192,154955,1,0,0:0:0:0:
192,192,154999,1,0,0:0:0:0:
448,192,155044,1,0,0:0:0:0:
320,192,155089,1,0,0:0:0:0:
64,192,155133,1,0,0:0:0:0:
192,192,155178,1,0,0:0:0:0:
320,192,155223,1,0,0:0:0:0:
448,192,155267,1,0,0:0:0:0:
64,192,155312,1,0,0:0:0:0:
192,192,155357,1,0,0:0:0:0:
320,192,155401,1,0,0:0:0:0:
64,192,155446,1,0,0:0:0:0:
192,192,155491,1,0,0:0:0:0:
448,192,155535,1,0,0:0:0:0:
320,192,155580,1,0,0:0:0:0:
192,192,155624,1,0,0:0:0:0:
64,192,155669,1,0,0:0:0:0:
448,192,155714,1,0,0:0:0:0:
320,192,155758,1,0,0:0:0:0:
192,192,155803,1,0,0:0:0:0:
448,192,155848,1,0,0:0:0:0:
320,192,155892,1,0,0:0:0:0:
64,192,155937,1,0,0:0:0:0:
192,192,155937,1,0,0:0:0:0:
64,192,156116,1,0,0:0:0:0:
320,192,156116,1,0,0:0:0:0:
448,192,156116,1,0,0:0:0:0:
64,192,157187,1,0,0:0:0:0:
192,192,157187,1,0,0:0:0:0:
448,192,157232,1,0,0:0:0:0:
320,192,157276,1,0,0:0:0:0:
192,192,157321,1,0,0:0:0:0:
448,192,157366,1,0,0:0:0:0:
320,192,157410,1,0,0:0:0:0:
192,192,157455,1,0,0:0:0:0:
320,192,157544,1,0,0:0:0:0:
448,192,157544,1,0,0:0:0:0:
64,192,157544,1,0,0:0:0:0:
192,192,157633,128,0,157767:0:0:0:0:
320,192,157678,128,0,157767:0:0:0:0:
448,192,157723,128,0,157767:0:0:0:0:
64,192,157767,1,0,0:0:0:0:
192,192,157812,1,0,0:0:0:0:
320,192,157857,1,0,0:0:0:0:
448,192,157901,1,0,0:0:0:0:
64,192,157946,128,0,158080:0:0:0:0:
192,192,157991,128,0,158080:0:0:0:0:
320,192,158035,128,0,158080:0:0:0:0:
448,192,158080,1,0,0:0:0:0:
320,192,158124,1,0,0:0:0:0:
192,192,158169,1,0,0:0:0:0:
64,192,158214,1,0,0:0:0:0:
448,192,158258,1,0,0:0:0:0:
320,192,158303,1,0,0:0:0:0:
192,192,158348,1,0,0:0:0:0:
448,192,158392,1,0,0:0:0:0:
320,192,158437,1,0,0:0:0:0:
192,192,158482,1,0,0:0:0:0:
448,192,158526,1,0,0:0:0:0:
320,192,158571,1,0,0:0:0:0:
192,192,158616,1,0,0:0:0:0:
64,192,158660,1,0,0:0:0:0:
448,192,158705,1,0,0:0:0:0:
320,192,158749,1,0,0:0:0:0:
64,192,158794,1,0,0:0:0:0:
192,192,158794,1,0,0:0:0:0:
64,192,158973,1,0,0:0:0:0:
192,192,158973,1,0,0:0:0:0:
448,192,158973,1,0,0:0:0:0:
320,192,159151,1,0,0:0:0:0:
448,192,159241,1,0,0:0:0:0:
192,192,159330,1,0,0:0:0:0:
64,192,159330,1,0,0:0:0:0:
320,192,159419,1,0,0:0:0:0:
64,192,159508,1,0,0:0:0:0:
448,192,159508,1,0,0:0:0:0:
192,192,159598,1,0,0:0:0:0:
320,192,159687,1,0,0:0:0:0:
448,192,159687,1,0,0:0:0:0:
64,192,159732,1,0,0:0:0:0:
192,192,159776,1,0,0:0:0:0:
320,192,159821,1,0,0:0:0:0:
64,192,159866,1,0,0:0:0:0:
192,192,159910,1,0,0:0:0:0:
448,192,159955,1,0,0:0:0:0:
320,192,159999,1,0,0:0:0:0:
64,192,160044,1,0,0:0:0:0:
192,192,160089,1,0,0:0:0:0:
448,192,160133,1,0,0:0:0:0:
320,192,160178,1,0,0:0:0:0:
64,192,160223,1,0,0:0:0:0:
192,192,160223,1,0,0:0:0:0:
192,192,160401,1,0,0:0:0:0:
64,192,160401,1,0,0:0:0:0:
448,192,160401,1,0,0:0:0:0:
320,192,160520,128,0,160758:0:0:0:0:
192,192,160639,128,0,160877:0:0:0:0:
64,192,160758,128,0,160996:0:0:0:0:
320,192,160877,128,0,161116:0:0:0:0:
192,192,160996,128,0,161235:0:0:0:0:
64,192,161116,128,0,161354:0:0:0:0:
320,192,161235,128,0,161413:0:0:0:0:
192,192,161354,128,0,161562:0:0:0:0:
64,192,161473,128,0,161651:0:0:0:0:
448,192,161651,1,0,0:0:0:0:
320,192,161651,1,0,0:0:0:0:
64,192,161830,1,0,0:0:0:0:
320,192,161830,1,0,0:0:0:0:
448,192,161830,1,0,0:0:0:0:
192,192,162901,1,0,0:0:0:0:
64,192,162901,128,0,163169:0:0:0:0:
64,192,163258,1,0,0:0:0:0:
320,192,163258,1,0,0:0:0:0:
448,192,163258,1,0,0:0:0:0:
192,192,163348,1,0,0:0:0:0:
320,192,163392,1,0,0:0:0:0:
448,192,163437,1,0,0:0:0:0:
64,192,163482,1,0,0:0:0:0:
320,192,163526,1,0,0:0:0:0:
192,192,163571,1,0,0:0:0:0:
64,192,163616,1,0,0:0:0:0:
448,192,163660,1,0,0:0:0:0:
320,192,163705,1,0,0:0:0:0:
64,192,163794,1,0,0:0:0:0:
192,192,163794,1,0,0:0:0:0:
448,192,163794,1,0,0:0:0:0:
320,192,163883,1,0,0:0:0:0:
192,192,163928,1,0,0:0:0:0:
448,192,163973,1,0,0:0:0:0:
64,192,164017,1,0,0:0:0:0:
192,192,164062,1,0,0:0:0:0:
320,192,164151,1,0,0:0:0:0:
448,192,164151,1,0,0:0:0:0:
320,192,164241,1,0,0:0:0:0:
448,192,164241,1,0,0:0:0:0:
192,192,164330,1,0,0:0:0:0:
64,192,164330,1,0,0:0:0:0:
448,192,164330,1,0,0:0:0:0:
320,192,164419,1,0,0:0:0:0:
64,192,164464,1,0,0:0:0:0:
192,192,164508,1,0,0:0:0:0:
320,192,164553,1,0,0:0:0:0:
64,192,164598,1,0,0:0:0:0:
192,192,164642,1,0,0:0:0:0:
448,192,164687,1,0,0:0:0:0:
320,192,164732,1,0,0:0:0:0:
192,192,164776,1,0,0:0:0:0:
320,192,164866,1,0,0:0:0:0:
448,192,164866,1,0,0:0:0:0:
64,192,164866,1,0,0:0:0:0:
192,192,164955,1,0,0:0:0:0:
448,192,164999,1,0,0:0:0:0:
320,192,165044,1,0,0:0:0:0:
192,192,165089,1,0,0:0:0:0:
448,192,165133,1,0,0:0:0:0:
320,192,165178,1,0,0:0:0:0:
64,192,165223,1,0,0:0:0:0:
192,192,165223,1,0,0:0:0:0:
64,192,165312,1,0,0:0:0:0:
192,192,165312,1,0,0:0:0:0:
448,192,165401,1,0,0:0:0:0:
320,192,165401,1,0,0:0:0:0:
192,192,165446,1,0,0:0:0:0:
64,192,165491,1,0,0:0:0:0:
448,192,165535,1,0,0:0:0:0:
320,192,165580,1,0,0:0:0:0:
192,192,165624,1,0,0:0:0:0:
448,192,165669,1,0,0:0:0:0:
320,192,165714,1,0,0:0:0:0:
64,192,165758,1,0,0:0:0:0:
192,192,165803,1,0,0:0:0:0:
320,192,165848,1,0,0:0:0:0:
448,192,165892,1,0,0:0:0:0:
64,192,165937,1,0,0:0:0:0:
192,192,165937,1,0,0:0:0:0:
192,192,166116,1,0,0:0:0:0:
320,192,166116,1,0,0:0:0:0:
448,192,166116,1,0,0:0:0:0:
64,192,166294,1,0,0:0:0:0:
320,192,166339,1,0,0:0:0:0:
192,192,166383,1,0,0:0:0:0:
64,192,166428,1,0,0:0:0:0:
448,192,166473,1,0,0:0:0:0:
320,192,166517,1,0,0:0:0:0:
192,192,166562,1,0,0:0:0:0:
64,192,166607,1,0,0:0:0:0:
448,192,166651,1,0,0:0:0:0:
192,192,166696,1,0,0:0:0:0:
320,192,166741,1,0,0:0:0:0:
448,192,166785,1,0,0:0:0:0:
64,192,166830,1,0,0:0:0:0:
192,192,166874,1,0,0:0:0:0:
320,192,166919,1,0,0:0:0:0:
64,192,166964,1,0,0:0:0:0:
448,192,167008,1,0,0:0:0:0:
320,192,167053,1,0,0:0:0:0:
192,192,167098,1,0,0:0:0:0:
64,192,167142,1,0,0:0:0:0:
448,192,167187,1,0,0:0:0:0:
192,192,167232,1,0,0:0:0:0:
320,192,167276,1,0,0:0:0:0:
448,192,167321,1,0,0:0:0:0:
64,192,167366,1,0,0:0:0:0:
192,192,167366,1,0,0:0:0:0:
320,192,167544,1,0,0:0:0:0:
64,192,167544,1,0,0:0:0:0:
448,192,167544,1,0,0:0:0:0:
192,192,167901,1,0,0:0:0:0:
64,192,168616,1,0,0:0:0:0:
192,192,168616,1,0,0:0:0:0:
448,192,168660,1,0,0:0:0:0:
320,192,168705,1,0,0:0:0:0:
192,192,168749,1,0,0:0:0:0:
448,192,168794,1,0,0:0:0:0:
320,192,168839,1,0,0:0:0:0:
192,192,168883,1,0,0:0:0:0:
64,192,168973,1,0,0:0:0:0:
320,192,168973,1,0,0:0:0:0:
448,192,168973,1,0,0:0:0:0:
192,192,169151,1,0,0:0:0:0:
320,192,169196,1,0,0:0:0:0:
448,192,169241,1,0,0:0:0:0:
64,192,169285,1,0,0:0:0:0:
192,192,169330,1,0,0:0:0:0:
320,192,169374,1,0,0:0:0:0:
64,192,169419,1,0,0:0:0:0:
192,192,169464,1,0,0:0:0:0:
448,192,169508,1,0,0:0:0:0:
320,192,169553,1,0,0:0:0:0:
192,192,169598,1,0,0:0:0:0:
64,192,169642,1,0,0:0:0:0:
448,192,169687,1,0,0:0:0:0:
320,192,169732,1,0,0:0:0:0:
64,192,169776,1,0,0:0:0:0:
192,192,169821,1,0,0:0:0:0:
320,192,169866,1,0,0:0:0:0:
64,192,169910,1,0,0:0:0:0:
192,192,169955,1,0,0:0:0:0:
448,192,169999,1,0,0:0:0:0:
320,192,170044,1,0,0:0:0:0:
192,192,170089,1,0,0:0:0:0:
448,192,170133,1,0,0:0:0:0:
320,192,170178,1,0,0:0:0:0:
64,192,170223,1,0,0:0:0:0:
192,192,170223,1,0,0:0:0:0:
64,192,170401,1,0,0:0:0:0:
448,192,170401,1,0,0:0:0:0:
320,192,170401,1,0,0:0:0:0:
192,192,170580,1,0,0:0:0:0:
320,192,170669,1,0,0:0:0:0:
64,192,170758,1,0,0:0:0:0:
448,192,170758,1,0,0:0:0:0:
192,192,170848,1,0,0:0:0:0:
64,192,170937,1,0,0:0:0:0:
320,192,170937,1,0,0:0:0:0:
448,192,171026,1,0,0:0:0:0:
64,192,171116,1,0,0:0:0:0:
192,192,171116,1,0,0:0:0:0:
320,192,171160,1,0,0:0:0:0:
448,192,171205,1,0,0:0:0:0:
64,192,171249,1,0,0:0:0:0:
192,192,171294,1,0,0:0:0:0:
320,192,171339,1,0,0:0:0:0:
64,192,171383,1,0,0:0:0:0:
448,192,171428,1,0,0:0:0:0:
320,192,171473,1,0,0:0:0:0:
192,192,171517,1,0,0:0:0:0:
448,192,171562,1,0,0:0:0:0:
320,192,171607,1,0,0:0:0:0:
64,192,171651,1,0,0:0:0:0:
192,192,171651,1,0,0:0:0:0:
64,192,171830,1,0,0:0:0:0:
320,192,171830,1,0,0:0:0:0:
448,192,171830,1,0,0:0:0:0:
192,192,171919,1,0,0:0:0:0:
320,192,171964,1,0,0:0:0:0:
448,192,172008,1,0,0:0:0:0:
64,192,172053,1,0,0:0:0:0:
320,192,172098,1,0,0:0:0:0:
192,192,172142,1,0,0:0:0:0:
64,192,172187,1,0,0:0:0:0:
448,192,172232,1,0,0:0:0:0:
320,192,172276,1,0,0:0:0:0:
192,192,172321,1,0,0:0:0:0:
448,192,172366,1,0,0:0:0:0:
320,192,172410,1,0,0:0:0:0:
64,192,172455,1,0,0:0:0:0:
192,192,172499,1,0,0:0:0:0:
320,192,172544,1,0,0:0:0:0:
64,192,172589,1,0,0:0:0:0:
192,192,172633,1,0,0:0:0:0:
448,192,172678,1,0,0:0:0:0:
320,192,172723,1,0,0:0:0:0:
192,192,172767,1,0,0:0:0:0:
448,192,172812,1,0,0:0:0:0:
320,192,172857,1,0,0:0:0:0:
64,192,172901,1,0,0:0:0:0:
192,192,172946,1,0,0:0:0:0:
320,192,172991,1,0,0:0:0:0:
448,192,173035,1,0,0:0:0:0:
64,192,173080,1,0,0:0:0:0:
192,192,173080,1,0,0:0:0:0:
64,192,173258,1,0,0:0:0:0:
448,192,173258,1,0,0:0:0:0:
320,192,173258,1,0,0:0:0:0:
192,192,173616,1,0,0:0:0:0:
192,192,174330,1,0,0:0:0:0:
64,192,174330,128,0,174598:0:0:0:0:
448,192,174687,128,0,174776:0:0:0:0:
320,192,174687,128,0,174866:0:0:0:0:
192,192,174687,128,0,174955:0:0:0:0:
64,192,174687,128,0,175044:0:0:0:0:
448,192,174866,128,0,175133:0:0:0:0:
320,192,174955,128,0,175223:0:0:0:0:
192,192,175044,128,0,175223:0:0:0:0:
64,192,175133,128,0,175223:0:0:0:0:
448,192,175223,1,0,0:0:0:0:
64,192,175401,1,0,0:0:0:0:
192,192,175401,1,0,0:0:0:0:
64,192,175758,1,0,0:0:0:0:
192,192,175758,1,0,0:0:0:0:
64,192,176115,1,0,0:0:0:0:
320,192,176115,1,0,0:0:0:0:
448,192,176115,1,0,0:0:0:0:
64,192,176294,1,0,0:0:0:0:
192,192,176294,1,0,0:0:0:0:
320,192,176473,1,0,0:0:0:0:
448,192,176473,1,0,0:0:0:0:
64,192,176830,1,0,0:0:0:0:
192,192,176830,1,0,0:0:0:0:
320,192,176873,1,0,0:0:0:0:
448,192,176917,1,0,0:0:0:0:
64,192,176960,1,0,0:0:0:0:
192,192,177004,1,0,0:0:0:0:
320,192,177048,1,0,0:0:0:0:
64,192,177091,1,0,0:0:0:0:
192,192,177135,1,0,0:0:0:0:
448,192,177178,1,0,0:0:0:0:
320,192,177222,1,0,0:0:0:0:
192,192,177266,1,0,0:0:0:0:
64,192,177309,1,0,0:0:0:0:
320,192,177353,1,0,0:0:0:0:
448,192,177353,1,0,0:0:0:0:
64,192,177527,1,0,0:0:0:0:
192,192,177527,1,0,0:0:0:0:
448,192,177527,1,0,0:0:0:0:
320,192,177643,128,0,177818:0:0:0:0:
192,192,177702,128,0,177876:0:0:0:0:
64,192,177760,128,0,177934:0:0:0:0:
448,192,177818,128,0,177992:0:0:0:0:
320,192,177876,128,0,178050:0:0:0:0:
192,192,177934,128,0,178109:0:0:0:0:
64,192,177992,128,0,178167:0:0:0:0:
448,192,178050,128,0,178167:0:0:0:0:
320,192,178109,128,0,178225:0:0:0:0:
192,192,178167,128,0,178281:0:0:0:0:
64,192,178225,128,0,178337:0:0:0:0:
448,192,178281,128,0,178393:0:0:0:0:
320,192,178337,128,0,178449:0:0:0:0:
192,192,178393,128,0,178505:0:0:0:0:
64,192,178449,128,0,178562:0:0:0:0:
448,192,178505,128,0,178562:0:0:0:0:
320,192,178562,128,0,178618:0:0:0:0:
192,192,178618,128,0,178674:0:0:0:0:
64,192,178674,128,0,178730:0:0:0:0:
320,192,178730,1,0,0:0:0:0:
448,192,178730,1,0,0:0:0:0:
448,192,178899,1,0,0:0:0:0:
64,192,178899,1,0,0:0:0:0:
192,192,178899,1,0,0:0:0:0:
320,192,179067,1,0,0:0:0:0:
64,192,179067,128,0,179109:0:0:0:0:
448,192,179067,128,0,179109:0:0:0:0:
192,192,179236,1,0,0:0:0:0:
64,192,179573,1,0,0:0:0:0:
192,192,179812,1,0,0:0:0:0:
320,192,179892,128,0,180051:0:0:0:0:
448,192,179892,128,0,180051:0:0:0:0:
64,192,180211,1,0,0:0:0:0:
448,192,180211,1,0,0:0:0:0:
320,192,180211,1,0,0:0:0:0:
64,192,180370,128,0,180530:0:0:0:0:
192,192,180370,128,0,180530:0:0:0:0:
320,192,180530,1,0,0:0:0:0:
64,192,180849,128,0,181002:0:0:0:0:
448,192,180849,128,0,181002:0:0:0:0:
192,192,180849,1,0,0:0:0:0:
320,192,181155,1,0,0:0:0:0:
64,192,181308,1,0,0:0:0:0:
192,192,181308,1,0,0:0:0:0:
64,192,181461,1,0,0:0:0:0:
320,192,181461,1,0,0:0:0:0:
448,192,181461,1,0,0:0:0:0:
192,192,181614,1,0,0:0:0:0:
448,192,181767,128,0,181920:0:0:0:0:
320,192,181767,128,0,181920:0:0:0:0:
64,192,181767,1,0,0:0:0:0:
64,192,182073,1,0,0:0:0:0:
192,192,182073,1,0,0:0:0:0:
448,192,182109,1,0,0:0:0:0:
320,192,182146,1,0,0:0:0:0:
192,192,182183,1,0,0:0:0:0:
64,192,182220,1,0,0:0:0:0:
448,192,182256,1,0,0:0:0:0:
320,192,182293,1,0,0:0:0:0:
192,192,182330,1,0,0:0:0:0:
448,192,182367,1,0,0:0:0:0:
320,192,182403,1,0,0:0:0:0:
64,192,182440,1,0,0:0:0:0:
192,192,182477,1,0,0:0:0:0:
448,192,182514,1,0,0:0:0:0:
320,192,182514,1,0,0:0:0:0:
64,192,182661,1,0,0:0:0:0:
448,192,182661,1,0,0:0:0:0:
192,192,182661,128,0,182808:0:0:0:0:
320,192,182710,128,0,182857:0:0:0:0:
448,192,182759,128,0,182906:0:0:0:0:
64,192,182808,128,0,182955:0:0:0:0:
192,192,182857,128,0,183004:0:0:0:0:
320,192,182906,128,0,183053:0:0:0:0:
448,192,182955,128,0,183102:0:0:0:0:
64,192,183004,128,0,183151:0:0:0:0:
192,192,183053,128,0,183200:0:0:0:0:
320,192,183102,128,0,183249:0:0:0:0:
448,192,183151,128,0,183297:0:0:0:0:
64,192,183200,128,0,183297:0:0:0:0:
192,192,183249,128,0,183345:0:0:0:0:
320,192,183297,128,0,183393:0:0:0:0:
448,192,183345,128,0,183441:0:0:0:0:
64,192,183393,128,0,183489:0:0:0:0:
192,192,183441,128,0,183537:0:0:0:0:
320,192,183489,128,0,183585:0:0:0:0:
448,192,183537,128,0,183633:0:0:0:0:
64,192,183585,128,0,183681:0:0:0:0:
192,192,183633,128,0,183681:0:0:0:0:
320,192,183681,1,0,0:0:0:0:
448,192,183681,1,0,0:0:0:0:
64,192,183825,1,0,0:0:0:0:
448,192,183825,1,0,0:0:0:0:
192,192,183825,1,0,0:0:0:0:
320,192,184114,1,0,0:0:0:0:
192,192,184402,1,0,0:0:0:0:
192,192,184543,128,0,184685:0:0:0:0:
448,192,184685,1,0,0:0:0:0:
320,192,184685,1,0,0:0:0:0:
64,192,184968,1,0,0:0:0:0:
448,192,184968,1,0,0:0:0:0:
192,192,184968,1,0,0:0:0:0:
192,192,185109,128,0,185251:0:0:0:0:
320,192,185109,128,0,185251:0:0:0:0:
448,192,185251,1,0,0:0:0:0:
192,192,185534,128,0,185667:0:0:0:0:
320,192,185534,128,0,185667:0:0:0:0:
320,192,185935,1,0,0:0:0:0:
448,192,185935,1,0,0:0:0:0:
64,192,186069,1,0,0:0:0:0:
192,192,186069,1,0,0:0:0:0:
448,192,186069,1,0,0:0:0:0:
192,192,186337,128,0,186471:0:0:0:0:
320,192,186337,128,0,186471:0:0:0:0:
448,192,186605,1,0,0:0:0:0:
320,192,186605,1,0,0:0:0:0:
64,192,186637,1,0,0:0:0:0:
192,192,186670,1,0,0:0:0:0:
448,192,186703,1,0,0:0:0:0:
320,192,186736,1,0,0:0:0:0:
64,192,186769,1,0,0:0:0:0:
192,192,186802,1,0,0:0:0:0:
448,192,186835,1,0,0:0:0:0:
320,192,186868,1,0,0:0:0:0:
64,192,186901,1,0,0:0:0:0:
192,192,186933,1,0,0:0:0:0:
320,192,186999,1,0,0:0:0:0:
448,192,186999,1,0,0:0:0:0:
64,192,187131,1,0,0:0:0:0:
448,192,187131,1,0,0:0:0:0:
192,192,187131,1,0,0:0:0:0:
320,192,187219,128,0,187306:0:0:0:0:
192,192,187262,128,0,187350:0:0:0:0:
64,192,187306,128,0,187394:0:0:0:0:
448,192,187350,128,0,187438:0:0:0:0:
320,192,187394,128,0,187482:0:0:0:0:
192,192,187438,128,0,187526:0:0:0:0:
64,192,187482,128,0,187569:0:0:0:0:
448,192,187526,128,0,187613:0:0:0:0:
320,192,187569,128,0,187657:0:0:0:0:
192,192,187613,128,0,187699:0:0:0:0:
64,192,187657,128,0,187742:0:0:0:0:
448,192,187699,128,0,187785:0:0:0:0:
320,192,187742,128,0,187827:0:0:0:0:
192,192,187785,128,0,187870:0:0:0:0:
64,192,187827,128,0,187913:0:0:0:0:
448,192,187870,128,0,187913:0:0:0:0:
320,192,187913,128,0,187956:0:0:0:0:
192,192,187956,128,0,187998:0:0:0:0:
64,192,187998,128,0,188041:0:0:0:0:
320,192,188041,1,0,0:0:0:0:
448,192,188041,1,0,0:0:0:0:
64,192,188169,1,0,0:0:0:0:
320,192,188169,1,0,0:0:0:0:
448,192,188169,1,0,0:0:0:0:
448,192,188426,128,0,188554:0:0:0:0:
192,192,188426,1,0,0:0:0:0:
448,192,188682,128,0,188807:0:0:0:0:
192,192,188932,1,0,0:0:0:0:
64,192,188932,1,0,0:0:0:0:
448,192,189057,128,0,189182:0:0:0:0:
64,192,189182,1,0,0:0:0:0:
192,192,189182,1,0,0:0:0:0:
320,192,189182,1,0,0:0:0:0:
448,192,189307,128,0,189432:0:0:0:0:
320,192,189307,128,0,189432:0:0:0:0:
64,192,189432,1,0,0:0:0:0:
320,192,189682,128,0,189802:0:0:0:0:
448,192,189682,128,0,189802:0:0:0:0:
320,192,189923,1,0,0:0:0:0:
64,192,190044,1,0,0:0:0:0:
192,192,190044,1,0,0:0:0:0:
64,192,190165,1,0,0:0:0:0:
320,192,190165,1,0,0:0:0:0:
448,192,190165,1,0,0:0:0:0:
64,192,190407,128,0,190528:0:0:0:0:
192,192,190407,128,0,190528:0:0:0:0:
448,192,190407,1,0,0:0:0:0:
320,192,190649,1,0,0:0:0:0:
448,192,190649,1,0,0:0:0:0:
64,192,190678,1,0,0:0:0:0:
192,192,190708,1,0,0:0:0:0:
448,192,190738,1,0,0:0:0:0:
320,192,190768,1,0,0:0:0:0:
64,192,190797,1,0,0:0:0:0:
192,192,190827,1,0,0:0:0:0:
448,192,190857,1,0,0:0:0:0:
320,192,190887,1,0,0:0:0:0:
64,192,190916,1,0,0:0:0:0:
192,192,190946,1,0,0:0:0:0:
320,192,191006,1,0,0:0:0:0:
448,192,191006,1,0,0:0:0:0:
64,192,191125,1,0,0:0:0:0:
192,192,191125,1,0,0:0:0:0:
448,192,191125,128,0,191204:0:0:0:0:
320,192,191164,128,0,191244:0:0:0:0:
64,192,191204,128,0,191283:0:0:0:0:
192,192,191244,128,0,191323:0:0:0:0:
448,192,191283,128,0,191363:0:0:0:0:
320,192,191323,128,0,191402:0:0:0:0:
64,192,191363,128,0,191442:0:0:0:0:
192,192,191402,128,0,191482:0:0:0:0:
448,192,191442,128,0,191522:0:0:0:0:
320,192,191482,128,0,191561:0:0:0:0:
64,192,191522,128,0,191601:0:0:0:0:
192,192,191561,128,0,191640:0:0:0:0:
448,192,191601,128,0,191679:0:0:0:0:
320,192,191640,128,0,191718:0:0:0:0:
64,192,191679,128,0,191757:0:0:0:0:
192,192,191718,128,0,191796:0:0:0:0:
448,192,191757,128,0,191835:0:0:0:0:
320,192,191796,128,0,191874:0:0:0:0:
64,192,191835,128,0,191913:0:0:0:0:
192,192,191874,128,0,191952:0:0:0:0:
320,192,191952,1,0,0:0:0:0:
448,192,191952,1,0,0:0:0:0:
64,192,192069,1,0,0:0:0:0:
448,192,192069,1,0,0:0:0:0:
192,192,192069,1,0,0:0:0:0:
320,192,192304,1,0,0:0:0:0:
320,192,192538,128,0,192767:0:0:0:0:
192,192,192767,128,0,192996:0:0:0:0:
64,192,192767,1,0,0:0:0:0:
64,192,192996,1,0,0:0:0:0:
448,192,192996,1,0,0:0:0:0:
320,192,192996,1,0,0:0:0:0:
192,192,193110,128,0,193225:0:0:0:0:
448,192,193110,128,0,193225:0:0:0:0:
64,192,193454,128,0,193565:0:0:0:0:
320,192,193454,128,0,193565:0:0:0:0:
320,192,193787,1,0,0:0:0:0:
448,192,193787,1,0,0:0:0:0:
64,192,193898,1,0,0:0:0:0:
192,192,193898,1,0,0:0:0:0:
448,192,193898,1,0,0:0:0:0:
320,192,194009,128,0,194342:0:0:0:0:
64,192,194342,1,0,0:0:0:0:
192,192,194342,1,0,0:0:0:0:
64,192,194452,1,0,0:0:0:0:
192,192,194452,1,0,0:0:0:0:
320,192,194562,1,0,0:0:0:0:
448,192,194562,1,0,0:0:0:0:
448,192,194672,1,0,0:0:0:0:
320,192,194672,1,0,0:0:0:0:
64,192,194783,1,0,0:0:0:0:
448,192,194783,1,0,0:0:0:0:
320,192,194783,1,0,0:0:0:0:
192,192,195003,1,0,0:0:0:0:
64,192,195003,1,0,0:0:0:0:
192,192,195114,1,0,0:0:0:0:
64,192,195114,1,0,0:0:0:0:
448,192,195224,1,0,0:0:0:0:
320,192,195224,1,0,0:0:0:0:
448,192,195331,1,0,0:0:0:0:
320,192,195331,1,0,0:0:0:0:
320,192,196087,1,0,0:0:0:0:
448,192,196087,1,0,0:0:0:0:
320,192,196193,1,0,0:0:0:0:
448,192,196193,1,0,0:0:0:0:
64,192,196299,1,0,0:0:0:0:
192,192,196299,1,0,0:0:0:0:
64,192,196406,1,0,0:0:0:0:
192,192,196406,1,0,0:0:0:0:
448,192,196512,1,0,0:0:0:0:
192,192,196512,1,0,0:0:0:0:
64,192,196512,1,0,0:0:0:0:
448,192,196725,1,0,0:0:0:0:
320,192,196725,1,0,0:0:0:0:
448,192,196831,1,0,0:0:0:0:
320,192,196831,1,0,0:0:0:0:
192,192,196938,1,0,0:0:0:0:
64,192,196938,1,0,0:0:0:0:
192,192,197042,1,0,0:0:0:0:
64,192,197042,1,0,0:0:0:0:
64,192,197777,1,0,0:0:0:0:
192,192,197777,1,0,0:0:0:0:
64,192,197880,1,0,0:0:0:0:
192,192,197880,1,0,0:0:0:0:
320,192,197983,1,0,0:0:0:0:
448,192,197983,1,0,0:0:0:0:
320,192,198087,1,0,0:0:0:0:
448,192,198087,1,0,0:0:0:0:
64,192,198190,1,0,0:0:0:0:
448,192,198190,1,0,0:0:0:0:
192,192,198190,1,0,0:0:0:0:
64,192,198397,1,0,0:0:0:0:
192,192,198397,1,0,0:0:0:0:
64,192,198501,1,0,0:0:0:0:
192,192,198501,1,0,0:0:0:0:
320,192,198604,1,0,0:0:0:0:
448,192,198604,1,0,0:0:0:0:
448,192,198704,1,0,0:0:0:0:
320,192,198704,1,0,0:0:0:0:
448,192,199409,1,0,0:0:0:0:
192,192,199409,1,0,0:0:0:0:
64,192,199409,1,0,0:0:0:0:
320,192,199509,1,0,0:0:0:0:
448,192,199509,1,0,0:0:0:0:
192,192,199609,1,0,0:0:0:0:
64,192,199609,1,0,0:0:0:0:
64,192,199709,1,0,0:0:0:0:
448,192,199709,1,0,0:0:0:0:
320,192,199709,1,0,0:0:0:0:
448,192,199809,1,0,0:0:0:0:
192,192,199809,1,0,0:0:0:0:
64,192,199909,1,0,0:0:0:0:
320,192,199909,1,0,0:0:0:0:
64,192,200009,1,0,0:0:0:0:
192,192,200009,1,0,0:0:0:0:
448,192,200009,1,0,0:0:0:0:
320,192,200109,1,0,0:0:0:0:
448,192,200109,1,0,0:0:0:0:
64,192,200209,1,0,0:0:0:0:
192,192,200209,1,0,0:0:0:0:
64,192,200309,1,0,0:0:0:0:
448,192,200309,1,0,0:0:0:0:
320,192,200309,1,0,0:0:0:0:
448,192,200409,1,0,0:0:0:0:
192,192,200409,1,0,0:0:0:0:
64,192,200509,1,0,0:0:0:0:
320,192,200509,1,0,0:0:0:0:
64,192,200609,1,0,0:0:0:0:
192,192,200609,1,0,0:0:0:0:
64,192,200995,1,0,0:0:0:0:
192,192,200995,1,0,0:0:0:0:
320,192,200995,1,0,0:0:0:0:
448,192,200995,1,0,0:0:0:0:
