osu file format v14

[General]
AudioFilename: audio.mp3
AudioLeadIn: 0
PreviewTime: 229132
Countdown: 0
SampleSet: Normal
StackLeniency: 0.2
Mode: 1
LetterboxInBreaks: 0
WidescreenStoryboard: 0

[Editor]
Bookmarks: 30723,48370,68370,89547,131116,153973,176830,219818,245700,269230,291583
DistanceSpacing: 1.2
BeatDivisor: 12
GridSize: 32
TimelineZoom: 2.4

[Metadata]
Title:epimerization
TitleUnicode:epimerization
Artist:Camellia
ArtistUnicode:かめりあ
Creator:Alchyr
Version:Molecular Oni
Source:
Tags:galaxy burst エグジットチューンズ株式会社 exit tunes inc. edp exittunes dance production cametek 大箭将也 masaya oya qwce-90016 dubcore drumstep speedcore
BeatmapID:1587629
BeatmapSetID:754062

[Difficulty]
HPDrainRate:4
CircleSize:2
OverallDifficulty:7
ApproachRate:10
SliderMultiplier:1.4
SliderTickRate:1

[Events]
//Background and Video events
0,0,"bg.jpg",0,0
//Break Periods
//Storyboard Layer 0 (Background)
//Storyboard Layer 1 (Fail)
//Storyboard Layer 2 (Pass)
//Storyboard Layer 3 (Foreground)
//Storyboard Sound Samples

[TimingPoints]
11900,294.117647058824,4,1,0,45,1,0
28517,-97.0873786407767,4,1,0,47,0,0
28664,-94.3396226415094,4,1,0,49,0,0
28811,-91.743119266055,4,1,0,51,0,0
29105,-90.0900900900901,4,1,0,55,0,0
29252,-87.719298245614,4,1,0,57,0,0
29400,-85.4700854700855,4,1,0,59,0,0
29694,-84.0336134453781,4,1,0,63,0,0
29841,-81.9672131147541,4,1,0,65,0,0
29988,-80,4,1,0,70,0,0
30061,-78.4313725490196,4,1,0,75,0,0
30135,-76.9230769230769,4,1,0,80,0,0
30282,-50,4,1,0,35,0,0
30331,-50,4,1,0,37,0,0
30380,-50,4,1,0,39,0,0
30429,-50,4,1,0,41,0,0
30478,-50,4,1,0,43,0,0
30527,-50,4,1,0,45,0,0
30686,-66.6666666666667,4,1,0,90,0,0
30723,-66.6666666666667,4,1,0,90,0,1
31311,-60.6060606060606,4,1,0,90,0,1
31605,-66.6666666666667,4,1,0,90,0,1
32157,-71.4285714285714,4,1,0,80,0,1
32488,-66.6666666666667,4,1,0,70,0,1
32635,-72.992700729927,4,1,0,75,0,1
32782,-80.6451612903226,4,1,0,80,0,1
32929,-90.9090909090909,4,1,0,85,0,1
33076,-66.6666666666667,4,1,0,90,0,1
33664,-62.5,4,1,0,90,0,1
33958,-66.6666666666667,4,1,0,90,0,1
34547,-60.6060606060606,4,1,0,95,0,1
34988,-76.9230769230769,4,1,0,100,0,1
35086,-78.7401574803149,4,1,0,100,0,1
35233,-87.719298245614,4,1,0,100,0,1
35429,-66.6666666666667,4,1,0,90,0,1
36017,-60.6060606060606,4,1,0,90,0,1
36311,-66.6666666666667,4,1,0,90,0,1
36900,-71.4285714285714,4,1,0,80,0,1
37157,-73.5294117647059,4,1,0,75,0,1
37267,-75.187969924812,4,1,0,75,0,1
37341,-76.9230769230769,4,1,0,75,0,1
37488,-80,4,1,0,75,0,1
37635,-83.3333333333333,4,1,0,75,0,1
37733,-66.6666666666667,4,1,0,90,0,1
38370,-60.6060606060606,4,1,0,90,0,1
38664,-66.6666666666667,4,1,0,90,0,1
39252,-50,4,1,0,80,0,0
39350,-50,4,1,0,78,0,0
39449,-50,4,1,0,75,0,0
39547,-60.6060606060606,4,1,0,70,0,0
39645,-60.6060606060606,4,1,0,65,0,0
39743,-60.6060606060606,4,1,0,60,0,0
39841,-60.6060606060606,4,1,0,55,0,0
39939,-60.6060606060606,4,1,0,50,0,0
40098,-100,4,1,0,70,0,0
44988,-99.291087962963,4,1,0,70,0,0
45061,-98.9390432098765,4,1,0,70,0,0
45135,-98.5821759259259,4,1,0,70,0,0
45282,-97.8732638888889,4,1,0,70,0,0
45429,-97.1643518518518,4,1,0,70,0,0
45576,-96.4554398148148,4,1,0,70,0,0
45650,-96.0985725308642,4,1,0,70,0,0
45723,-95.7465277777778,4,1,0,70,0,0
45870,-95.0376157407407,4,1,0,70,0,0
45944,-94.6807484567901,4,1,0,70,0,0
46017,-94.3287037037037,4,1,0,70,0,0
46164,-93.6197916666667,4,1,0,70,0,0
46238,-93.1098696461825,4,1,0,70,0,0
46311,-92.9108796296296,4,1,0,70,0,0
46458,-92.2019675925926,4,1,0,70,0,0
46605,-91.4930555555556,4,1,0,70,0,0
46752,-90.7841435185185,4,1,0,70,0,0
46826,-90.4272762345679,4,1,0,70,0,0
46900,-90.0704089506173,4,1,0,70,0,0
47047,-89.3614969135803,4,1,0,70,0,0
47194,-88.6525848765432,4,1,0,70,0,0
47267,-88.3005401234568,4,1,0,71,0,0
47341,-87.9436728395062,4,1,0,72,0,0
47414,-87.5916280864198,4,1,0,73,0,0
47488,-87.2347608024691,4,1,0,74,0,0
47561,-86.8827160493827,4,1,0,75,0,0
47635,-86.5258487654321,4,1,0,76,0,0
47708,-86.1738040123457,4,1,0,77,0,0
47782,-85.8169367283951,4,1,0,78,0,0
47855,-85.4648919753086,4,1,0,79,0,0
47929,-85.108024691358,4,1,0,80,0,0
48002,-84.7559799382716,4,1,0,81,0,0
48076,-84.399112654321,4,1,0,82,0,0
48150,-84.0422453703704,4,1,0,83,0,0
48223,-83.690200617284,4,1,0,84,0,0
48333,-66.6666666666667,4,1,0,75,0,0
48664,-68.9655172413793,4,1,0,75,0,0
48958,-71.4285714285714,4,1,0,75,0,0
49216,-57.1428571428571,4,1,0,90,0,0
49547,-87.719298245614,4,1,0,85,0,1
61900,-76.9230769230769,4,1,0,90,0,1
62047,-80.6451612903226,4,1,0,80,0,1
62194,-84.7457627118644,4,1,0,70,0,1
62341,-76.9230769230769,4,1,0,90,0,1
62635,-80,4,1,0,80,0,1
62782,-76.9230769230769,4,1,0,90,0,1
63076,-76.9230769230769,4,1,0,90,0,1
63223,-80,4,1,0,80,0,1
63297,-78.7401574803149,4,1,0,85,0,1
63370,-76.9230769230769,4,1,0,90,0,1
63664,-87.719298245614,4,1,0,75,0,1
66973,-86.2068965517241,4,1,0,78,0,1
67047,-84.7457627118644,4,1,0,81,0,1
67120,-83.3333333333333,4,1,0,85,0,1
67194,-81.9672131147541,4,1,0,90,0,1
67341,-84.7457627118644,4,1,0,90,0,1
67414,-86.2068965517241,4,1,0,90,0,1
67561,-89.2857142857143,4,1,0,90,0,1
67635,-90.9090909090909,4,1,0,90,0,1
67782,-97.0873786407767,4,1,0,90,0,1
67855,-100,4,1,0,90,0,0
68039,-100,4,1,0,50,0,0
68333,-100,4,1,0,70,0,0
73076,-100,4,1,0,70,0,0
73223,-99.2327823383363,4,1,0,70,0,0
73370,-98.4655646766726,4,1,0,70,0,0
73517,-97.6983470150088,4,1,0,70,0,0
73664,-96.9311293533451,4,1,0,70,0,0
73811,-96.1639116916814,4,1,0,70,0,0
73885,-95.7776932769663,4,1,0,70,0,0
73958,-95.3966940300177,4,1,0,70,0,0
74105,-94.6294763683539,4,1,0,70,0,0
74252,-93.8622587066902,4,1,0,70,0,0
74400,-93.0898218772601,4,1,0,70,0,0
74547,-92.3226042155964,4,1,0,70,0,0
74694,-91.5553865539326,4,1,0,70,0,0
74841,-90.7881688922689,4,1,0,70,0,0
74988,-90.0209512306052,4,1,0,70,0,0
75135,-89.2537335689415,4,1,0,75,0,0
75184,-88.9979943483869,4,1,0,80,0,0
75233,-88.7422551278323,4,1,0,80,0,0
75282,-88.4865159072778,4,1,0,80,0,0
75331,-88.2307766867232,4,1,0,80,0,0
75380,-87.9750374661686,4,1,0,80,0,0
75429,-87.719298245614,4,1,0,70,0,0
77451,-87.719298245614,4,1,0,80,0,0
77929,-100,4,1,0,35,0,0
78480,-111.111111111111,4,1,0,65,0,0
78627,-105.263157894737,4,1,0,80,0,0
78811,-100,4,1,0,70,0,0
82488,-100,4,1,0,70,0,0
82635,-98.5583052731374,4,1,0,70,0,0
82782,-97.1166105462748,4,1,0,70,0,0
82929,-95.6749158194122,4,1,0,70,0,0
83076,-94.2332210925496,4,1,0,70,0,0
83223,-92.791526365687,4,1,0,70,0,0
83370,-91.3498316388244,4,1,0,70,0,0
83517,-89.9081369119618,4,1,0,70,0,0
83664,-88.4664421850992,4,1,0,70,0,0
83811,-87.0247474582366,4,1,0,70,0,0
83958,-85.583052731374,4,1,0,70,0,0
84105,-84.1413580045114,4,1,0,70,0,0
84179,-83.4156069175194,4,1,0,70,0,0
84326,-81.9739121906568,4,1,0,70,0,0
84400,-81.2481611036647,4,1,0,70,0,0
84547,-79.8064663768021,4,1,0,70,0,0
84694,-78.3647716499395,4,1,0,70,0,0
84767,-77.648828010069,4,1,0,70,0,0
84841,-76.9230769230769,4,1,0,75,0,0
84988,-80,4,1,0,65,0,0
85135,-84.0336134453781,4,1,0,65,0,0
85282,-87.719298245614,4,1,0,65,0,0
85576,-87.719298245614,4,1,0,65,0,0
85650,-87.1807858787503,4,1,0,65,0,0
85723,-86.6495507060334,4,1,0,65,0,0
85870,-85.5798031664527,4,1,0,65,0,0
86017,-84.5100556268721,4,1,0,65,0,0
86164,-83.4403080872914,4,1,0,65,0,0
86238,-82.9017957204277,4,1,0,65,0,0
86311,-82.3705605477107,4,1,0,65,0,0
86458,-81.3008130081301,4,1,0,65,0,0
86752,-80,4,1,0,65,0,0
86826,-79.6469886702445,4,1,0,65,0,0
86900,-79.293977340489,4,1,0,65,0,0
87047,-78.592725104353,4,1,0,65,0,0
87194,-77.8914728682171,4,1,0,65,0,0
87341,-77.1902206320811,4,1,0,65,0,0
87414,-76.8419797257007,4,1,0,65,0,0
87488,-76.4889683959451,4,1,0,65,0,0
87635,-75.7877161598092,4,1,0,65,0,0
87782,-75.0864639236732,4,1,0,65,0,0
87929,-74.3852116875373,4,1,0,65,0,0
88076,-73.6839594514013,4,1,0,65,0,0
88223,-72.9827072152654,4,1,0,65,0,0
88297,-72.6296958855098,4,1,0,65,0,0
88370,-72.2814549791294,4,1,0,65,0,0
88517,-71.5802027429935,4,1,0,65,0,0
88664,-70.8789505068575,4,1,0,65,0,0
88811,-70.1776982707215,4,1,0,65,0,0
88958,-69.4764460345856,4,1,0,65,0,0
89032,-69.1234347048301,4,1,0,65,0,0
89105,-68.7751937984496,4,1,0,65,0,0
89179,-68.4221824686941,4,1,0,65,0,0
89252,-68.0739415623137,4,1,0,65,0,0
89326,-67.7209302325581,4,1,0,65,0,0
89400,-67.3679189028026,4,1,0,65,0,0
89473,-67.0196779964222,4,1,0,65,0,0
89547,-66.6666666666667,4,1,0,90,0,1
90135,-60.6060606060606,4,1,0,90,0,1
90429,-66.6666666666667,4,1,0,90,0,1
91017,-71.4285714285714,4,1,0,80,0,1
91311,-66.6666666666667,4,1,0,70,0,1
91458,-72.992700729927,4,1,0,75,0,1
91605,-80.6451612903226,4,1,0,80,0,1
91752,-90.9090909090909,4,1,0,85,0,1
91900,-66.6666666666667,4,1,0,90,0,1
92488,-60.6060606060606,4,1,0,90,0,1
92782,-66.6666666666667,4,1,0,90,0,1
93370,-60.6060606060606,4,1,0,95,0,1
93811,-76.9230769230769,4,1,0,100,0,1
93909,-78.7401574803149,4,1,0,100,0,1
94056,-87.719298245614,4,1,0,100,0,1
94216,-66.6666666666667,4,1,0,90,0,1
94841,-60.6060606060606,4,1,0,90,0,1
95135,-66.6666666666667,4,1,0,90,0,1
95723,-71.4285714285714,4,1,0,80,0,1
95980,-73.5294117647059,4,1,0,75,0,1
96091,-75.187969924812,4,1,0,75,0,1
96164,-76.9230769230769,4,1,0,75,0,1
96311,-80,4,1,0,75,0,1
96458,-83.3333333333333,4,1,0,75,0,1
96605,-66.6666666666667,4,1,0,95,0,1
96752,-62.5,4,1,0,95,0,1
96900,-58.8235294117647,4,1,0,95,0,1
97047,-55.5555555555556,4,1,0,95,0,1
97194,-52.6315789473684,4,1,0,95,0,1
97341,-50,4,1,0,95,0,1
97488,-47.6190476190476,4,1,0,65,0,0
97782,-58.8235294117647,4,1,0,68,0,0
97929,-58.8235294117647,4,1,0,72,0,0
98076,-58.8235294117647,4,1,0,75,0,0
98223,-58.8235294117647,4,1,0,78,0,0
98370,-58.8235294117647,4,1,0,81,0,0
98627,-66.6666666666667,4,1,0,75,0,0
98922,-66.6666666666667,4,1,0,85,0,0
98958,-87.719298245614,4,1,0,85,0,1
107341,-84.7457627118644,4,1,0,85,0,1
107561,-81.9672131147541,4,1,0,85,0,1
107782,-79.3650793650794,4,1,0,85,0,1
107855,-78.125,4,1,0,85,0,1
107929,-76.9230769230769,4,1,0,85,0,1
108076,-74.6268656716418,4,1,0,85,0,1
108150,-76.0456273764259,4,1,0,85,0,1
108223,-77.5193798449612,4,1,0,85,0,1
108297,-79.0513833992095,4,1,0,85,0,1
108370,-80.6451612903226,4,1,0,85,0,1
108444,-82.3045267489712,4,1,0,85,0,1
108517,-84.0336134453781,4,1,0,85,0,1
108591,-85.8369098712446,4,1,0,85,0,1
108664,-87.719298245614,4,1,0,85,0,1
113076,-87.719298245614,4,1,0,85,0,1
113370,-86.2387808780065,4,1,0,85,0,1
113517,-85.4985221942027,4,1,0,85,0,1
113664,-84.7582635103989,4,1,0,85,0,1
113811,-84.0180048265951,4,1,0,85,0,1
113885,-83.6453575980136,4,1,0,85,0,1
113958,-83.2777461427913,4,1,0,85,0,1
114105,-82.5374874589875,4,1,0,85,0,1
114252,-81.7972287751837,4,1,0,85,0,1
114400,-81.0519343180207,4,1,0,85,0,1
114473,-80.6843228627984,4,1,0,85,0,1
114547,-80.3116756342169,4,1,0,85,0,1
114694,-79.5714169504131,4,1,0,85,0,1
114841,-78.8311582666093,4,1,0,85,0,1
114988,-78.0908995828055,4,1,0,85,0,1
115061,-77.7232881275833,4,1,0,85,0,1
115208,-76.9830294437795,4,1,0,85,0,1
115282,-76.610382215198,4,1,0,85,0,1
115429,-75.8701235313942,4,1,0,85,0,1
115723,-74.3896061637866,4,1,0,85,0,1
115797,-74.0169589352051,4,1,0,85,0,1
115870,-73.6493474799828,4,1,0,85,0,1
116164,-72.1688301123752,4,1,0,85,0,1
116238,-71.7961828837937,4,1,0,85,0,1
116311,-71.4285714285714,4,1,0,85,0,1
116458,-69.4444444444444,4,1,0,85,0,1
116532,-68.0272108843537,4,1,0,85,0,1
116605,-66.6666666666667,4,1,0,85,0,1
116752,-71.4285714285714,4,1,0,85,0,1
116826,-72.992700729927,4,1,0,85,0,1
116973,-76.9230769230769,4,1,0,85,0,1
117047,-78.7401574803149,4,1,0,85,0,1
117194,-83.3333333333333,4,1,0,85,0,1
117267,-85.4700854700855,4,1,0,85,0,1
117414,-90.9090909090909,4,1,0,85,0,1
117488,-92.1658986175115,4,1,0,85,0,1
117561,-93.4579439252336,4,1,0,85,0,1
117635,-94.7867298578199,4,1,0,85,0,1
117782,300,4,1,0,85,1,0
117857,-100,4,1,0,70,0,0
118382,315.789473684211,4,1,0,60,1,8
119013,322.58064516129,4,1,0,50,1,0
119614,-100,4,1,0,40,0,0
119978,-102.040816326531,4,1,0,40,0,0
120299,333.333333333333,4,1,0,40,1,0
121104,-104.166666666667,4,1,0,40,0,0
121549,-110.429447853438,4,1,0,40,0,0
121632,368.098159509202,4,1,0,40,1,0
122061,-101.010101010101,4,1,0,40,0,0
122368,372.670807453416,4,1,0,40,1,8
122430,-101.010101010101,4,1,0,40,0,0
122523,-102.040816326531,4,1,0,40,0,0
122771,-103.092783505155,4,1,0,40,0,0
122864,-104.166666666667,4,1,0,40,0,0
122989,-105.263157894737,4,1,0,40,0,0
123082,-106.578947369361,4,1,0,40,0,0
123111,394.736842105263,4,1,0,40,1,0
123670,-103.092783505155,4,1,0,40,0,0
123900,410.958904109589,4,1,0,40,1,8
124670,-105.035971223082,4,1,0,40,0,0
124721,431.654676258993,4,1,0,40,1,0
125152,437.956204379562,4,1,0,40,1,8
125589,461.538461538462,4,1,0,40,1,8
126050,476.190476190476,4,1,0,40,1,8
126407,-103.389830508913,4,1,0,40,0,0
126526,491.803278688525,4,1,0,40,1,0
127017,508.474576271186,4,1,0,40,1,8
127525,517.241379310345,4,1,0,40,1,8
128040,566.037735849057,4,1,0,40,1,8
128608,568.720379146919,4,1,0,40,1,0
129176,603.015075376884,4,1,0,40,1,8
129779,645.161290322581,4,1,0,40,1,8
130424,693.64161849711,4,1,0,40,1,8
131116,357.142857142857,4,1,0,45,1,0
131116,-150.001500015,4,1,0,45,0,0
133616,-150.001500015,4,1,0,46,0,0
133705,-148.148148148148,4,1,0,47,0,0
133794,-147.058823529412,4,1,0,48,0,0
133883,-145.985401459854,4,1,0,49,0,0
133973,-144.927536231884,4,1,0,50,0,0
136473,-144.927536231884,4,1,0,52,0,0
136562,-142.857142857143,4,1,0,54,0,0
136651,-140.845070422535,4,1,0,56,0,0
136741,-138.888888888889,4,1,0,58,0,0
136830,-136.986301369863,4,1,0,60,0,0
139330,-136.986301369863,4,1,0,61,0,0
139419,-133.333333333333,4,1,0,62,0,0
139508,-129.87012987013,4,1,0,63,0,0
139598,-126.582278481013,4,1,0,64,0,0
139687,-123.456790123457,4,1,0,65,0,0
142187,-123.456790123457,4,1,0,67,0,0
142276,-117.647058823529,4,1,0,69,0,0
142366,-111.111111111111,4,1,0,71,0,0
142455,-105.263157894737,4,1,0,73,0,0
142544,-100,4,1,0,75,0,0
148258,-100,4,1,0,80,0,0
148437,-98.5546643699198,4,1,0,80,0,0
148616,-97.1093287398396,4,1,0,80,0,0
148794,-95.6720676104861,4,1,0,80,0,0
148973,-94.2267319804059,4,1,0,80,0,0
149151,-92.7894708510524,4,1,0,80,0,0
149330,-91.3441352209722,4,1,0,80,0,0
149508,-89.9068740916187,4,1,0,80,0,0
149687,-88.4615384615385,4,1,0,80,0,0
149776,-87.7429078968617,4,1,0,80,0,0
149866,-87.0162028314583,4,1,0,80,0,0
149955,-86.2975722667815,4,1,0,80,0,0
150044,-85.5789417021048,4,1,0,80,0,0
150133,-84.860311137428,4,1,0,80,0,0
150223,-84.1336060720245,4,1,0,80,0,0
150312,-83.4149755073478,4,1,0,80,0,0
150401,-82.696344942671,4,1,0,80,0,0
150491,-81.9696398772676,4,1,0,80,0,0
150580,-81.2510093125908,4,1,0,80,0,0
150669,-80.5323787479141,4,1,0,80,0,0
150758,-79.8137481832373,4,1,0,81,0,0
150818,-79.329278139635,4,1,0,82,0,0
150877,-78.8528825967594,4,1,0,83,0,0
150937,-78.3684125531571,4,1,0,84,0,0
150996,-77.8920170102815,4,1,0,85,0,0
151056,-77.4075469666792,4,1,0,86,0,0
151116,-76.9230769230769,4,1,0,87,0,0
151160,-76.9230769230769,4,1,0,40,0,0
152633,-76.9230769230769,4,1,0,45,0,0
152723,-76.9230769230769,4,1,0,50,0,0
152812,-76.9230769230769,4,1,0,55,0,0
152901,-76.9230769230769,4,1,0,60,0,0
152991,-76.9230769230769,4,1,0,65,0,0
153080,-76.9230769230769,4,1,0,70,0,0
153169,-76.9230769230769,4,1,0,75,0,0
153258,-76.9230769230769,4,1,0,80,0,0
153392,-66.6666666666667,4,1,0,90,0,0
153973,-76.9230769230769,4,1,0,90,0,0
156071,-66.6666666666667,4,1,0,100,0,0
156830,-100,4,1,0,90,0,0
157187,-76.9230769230769,4,1,0,90,0,0
161785,-66.6666666666667,4,1,0,100,0,0
162544,-100,4,1,0,90,0,0
162901,-76.9230769230769,4,1,0,90,0,0
167499,-66.6666666666667,4,1,0,100,0,0
168258,-100,4,1,0,90,0,0
168616,-76.9230769230769,4,1,0,90,0,0
173213,-66.6666666666667,4,1,0,100,0,0
173973,-100,4,1,0,90,0,0
174330,-76.9230769230769,4,1,0,90,0,0
175401,-100,4,1,0,70,0,0
176294,-92.5925925925926,4,1,0,73,0,0
176473,-86.2068965517241,4,1,0,76,0,0
176651,-80.6451612903226,4,1,0,80,0,0
176830,348.837209302326,4,1,0,90,1,0
176830,-76.9230769230769,4,1,0,90,0,0
178225,337.078651685393,4,1,0,90,1,0
178225,-79.6064400716133,4,1,0,90,0,0
178857,-66.6666666666667,4,1,0,100,0,0
179573,319.148936170213,4,1,0,90,1,0
179573,-81.3008130081301,4,1,0,90,0,0
180849,306.122448979592,4,1,0,90,1,0
180849,-84.7604220721152,4,1,0,90,0,0
182073,294.117647058824,4,1,0,90,1,0
182073,-83.3333333333333,4,1,0,90,0,0
183249,288.461538461538,4,1,0,90,1,0
183249,-84.96732026166,4,1,0,90,0,0
183789,-71.4285714285714,4,1,0,100,0,0
184402,283.018867924528,4,1,0,90,1,0
184402,-86.9565217391304,4,1,0,90,0,0
185534,267.857142857143,4,1,0,90,1,0
185534,-91.8785890076243,4,1,0,90,0,0
186605,263.157894736842,4,1,0,90,1,0
186605,-93.5192780971536,4,1,0,90,0,0
187657,256.410256410256,4,1,0,90,1,0
187657,-95.9803117309585,4,1,0,90,0,0
188169,-74.0740740740741,4,1,0,90,0,0
188682,250,4,1,0,90,1,0
188682,-98.0392156862745,4,1,0,90,0,0
189682,241.935483870968,4,1,0,90,1,0
190649,238.095238095238,4,1,0,90,1,0
191601,234.375,4,1,0,90,1,0
192069,-80,4,1,0,90,0,0
192538,229.007633587786,4,1,0,90,1,0
193454,222.222222222222,4,1,0,90,1,0
194009,-87.719298245614,4,1,0,90,0,0
194342,220.588235294118,4,1,0,90,1,1
194342,-97.8417266186487,4,1,0,90,0,1
195224,215.827338129496,4,1,0,90,1,1
195655,-100,4,1,0,90,0,1
196087,212.765957446809,4,1,0,90,1,1
196087,-98.601398601702,4,1,0,90,0,1
196938,209.79020979021,4,1,0,90,1,1
197357,-100,4,1,0,90,0,1
197777,206.896551724138,4,1,0,90,1,1
197777,-97.3154362412842,4,1,0,90,0,1
198604,201.342281879195,4,1,0,90,1,1
199006,-100,4,1,0,90,0,1
199409,200,4,1,0,90,1,1
200809,-90.9090909090909,4,1,0,90,0,1
200995,294.117647058824,4,1,0,80,1,0
200995,-56.6666666667611,4,1,0,80,0,0
201142,-100,4,2,0,75,0,0
201289,-100,4,2,0,70,0,0
201436,-100,4,2,0,65,0,0
201583,-100,4,2,0,60,0,0
201730,-100,4,2,0,55,0,0
201877,-100,4,2,0,50,0,0
208678,-100,4,2,0,53,0,0
208862,-100,4,2,0,56,0,0
209046,-100,4,2,0,59,0,0
209230,-100,4,2,0,65,0,0
209303,-98.3446712018141,4,2,0,67,0,0
209377,-96.6666666666667,4,2,0,70,0,0
209524,-93.3333333333333,4,2,0,70,0,0
209597,-91.6780045351474,4,2,0,72,0,0
209671,-90,4,2,0,75,0,0
209745,-88.4955752212389,4,2,0,75,0,0
209818,-86.6666666666667,4,2,0,75,0,0
209965,-89.2857142857143,4,2,0,80,0,0
210112,-91.743119266055,4,2,0,80,0,0
210259,-95.2380952380952,4,2,0,80,0,0
210406,-66.6666666666667,4,1,0,90,0,1
210995,-60.6060606060606,4,1,0,90,0,1
211289,-66.6666666666667,4,1,0,90,0,1
211877,-71.4285714285714,4,1,0,80,0,1
212171,-66.6666666666667,4,1,0,70,0,1
212318,-72.992700729927,4,1,0,75,0,1
212465,-80.6451612903226,4,1,0,80,0,1
212612,-90.9090909090909,4,1,0,85,0,1
212759,-66.6666666666667,4,1,0,90,0,1
213347,-60.6060606060606,4,1,0,90,0,1
213642,-66.6666666666667,4,1,0,90,0,1
214230,-60.6060606060606,4,1,0,95,0,1
214671,-76.9230769230769,4,1,0,100,0,1
214769,-78.7401574803149,4,1,0,100,0,1
214916,-87.719298245614,4,1,0,100,0,1
215112,-66.6666666666667,4,1,0,90,0,1
215700,-60.6060606060606,4,1,0,90,0,1
215995,-66.6666666666667,4,1,0,90,0,1
216583,-71.4285714285714,4,1,0,80,0,1
216840,-73.5294117647059,4,1,0,75,0,1
216950,-75.187969924812,4,1,0,75,0,1
217024,-76.9230769230769,4,1,0,75,0,1
217171,-80,4,1,0,75,0,1
217318,-83.3333333333333,4,1,0,75,0,1
217465,-66.6666666666667,4,1,0,90,0,1
218053,-60.6060606060606,4,1,0,90,0,1
218347,-66.6666666666667,4,1,0,90,0,1
218936,-50,4,1,0,80,0,0
219034,-50,4,1,0,78,0,0
219132,-50,4,1,0,75,0,0
219230,-50,4,1,0,70,0,0
219328,-50,4,1,0,65,0,0
219426,-50,4,1,0,60,0,0
219524,-50,4,1,0,55,0,0
219622,-50,4,1,0,50,0,0
219781,-100,4,1,0,70,0,0
224524,-100,4,1,0,75,0,0
224671,-98.9969521903289,4,1,0,75,0,0
224745,-98.4920165582496,4,1,0,75,0,0
224818,-97.9939043806578,4,1,0,75,0,0
224965,-96.9908565709867,4,1,0,75,0,0
225112,-95.9878087613156,4,1,0,75,0,0
225259,-94.9847609516444,4,1,0,75,0,0
225333,-94.4798253195651,4,1,0,75,0,0
225406,-93.9817131419733,4,1,0,75,0,0
225553,-92.9786653323022,4,1,0,75,0,0
225700,-91.9756175226311,4,1,0,75,0,0
225847,-90.97256971296,4,1,0,75,0,0
225921,-90.4676340808807,4,1,0,75,0,0
225995,-89.9626984488013,4,1,0,75,0,0
226142,-88.9596506391302,4,1,0,75,0,0
226289,-87.9566028294591,4,1,0,75,0,0
226436,-86.953555019788,4,1,0,75,0,0
226509,-86.4554428421962,4,1,0,75,0,0
226583,-85.9505072101169,4,1,0,75,0,0
226730,-84.9474594004458,4,1,0,75,0,0
226877,-83.9444115907747,4,1,0,75,0,0
226950,-83.4462994131829,4,1,0,76,0,0
227024,-82.9413637811036,4,1,0,77,0,0
227097,-82.4432516035118,4,1,0,78,0,0
227171,-81.9383159714325,4,1,0,79,0,0
227245,-81.4333803393531,4,1,0,80,0,0
227318,-80.9352681617614,4,1,0,81,0,0
227392,-80.430332529682,4,1,0,82,0,0
227465,-79.9322203520903,4,1,0,83,0,0
227539,-79.4272847200109,4,1,0,84,0,0
227612,-78.9291725424191,4,1,0,85,0,0
227686,-78.4242369103398,4,1,0,86,0,0
227759,-77.926124732748,4,1,0,87,0,0
227833,-77.4211891006687,4,1,0,88,0,0
227906,-76.9230769230769,4,1,0,89,0,0
228017,-66.6666666666667,4,1,0,75,0,0
228347,-68.9655172413793,4,1,0,75,0,0
228642,-71.4285714285714,4,1,0,75,0,0
228899,-57.1428571428571,4,1,0,90,0,0
229193,-76.9230769230769,4,1,0,85,0,0
229230,-76.9230769230769,4,1,0,85,0,1
237171,-74.0740740740741,4,1,0,85,0,1
237245,-71.4285714285714,4,1,0,85,0,1
237318,-68.9655172413793,4,1,0,85,0,1
237392,-66.6666666666667,4,1,0,85,0,1
237465,-64.5161290322581,4,1,0,85,0,1
238200,-68.9655172413793,4,1,0,85,0,1
238274,-70.1754385964912,4,1,0,85,0,1
238347,-71.4285714285714,4,1,0,85,0,1
238421,-72.7272727272727,4,1,0,85,0,1
238495,-74.0740740740741,4,1,0,85,0,1
238568,-75.4716981132076,4,1,0,85,0,1
238642,-76.9230769230769,4,1,0,85,0,1
240995,-74.0740740740741,4,1,0,85,0,1
241289,-76.9230769230769,4,1,0,85,0,1
243862,-75.7575757575758,4,1,0,85,0,1
243936,-74.6268656716418,4,1,0,85,0,1
244083,-72.463768115942,4,1,0,85,0,1
244156,-71.4285714285714,4,1,0,85,0,1
244303,-69.4444444444444,4,1,0,85,0,1
244377,-68.4931506849315,4,1,0,85,0,1
244524,-76.9230769230769,4,1,0,85,0,1
245039,-75.7575757575758,4,1,0,85,0,1
245112,-74.6268656716418,4,1,0,85,0,1
245259,-72.463768115942,4,1,0,85,0,1
245333,-71.4285714285714,4,1,0,85,0,1
245480,-69.4444444444444,4,1,0,85,0,1
245553,-68.4931506849315,4,1,0,85,0,1
245664,-76.9230769230769,4,1,0,40,0,0
245958,-76.9230769230769,4,1,0,80,0,0
247465,-71.4285714285714,4,1,0,65,0,0
248053,-66.6666666666667,4,1,0,85,0,0
248642,-87.719298245614,4,1,0,80,0,0
252245,-86.2068965517241,4,1,0,80,0,0
252318,-84.7457627118644,4,1,0,80,0,0
252392,-83.3333333333333,4,1,0,80,0,0
252465,-81.9672131147541,4,1,0,81,0,0
252539,-80.6451612903226,4,1,0,82,0,0
252612,-79.3650793650794,4,1,0,83,0,0
252686,-78.125,4,1,0,84,0,0
252759,-76.9230769230769,4,1,0,85,0,1
256436,-80,4,1,0,85,0,1
256509,-81.9672131147541,4,1,0,85,0,1
256656,-85.4700854700855,4,1,0,85,0,1
256730,-87.719298245614,4,1,0,85,0,1
256877,-91.743119266055,4,1,0,85,0,1
256950,-94.3396226415094,4,1,0,85,0,1
257097,-98.0392156862745,4,1,0,80,0,0
257465,-100,4,1,0,80,0,0
258053,-87.719298245614,4,1,0,80,0,0
261803,-85.9321686389356,4,1,0,80,0,0
261877,-84.1205578047683,4,1,0,81,0,0
261950,-82.3334281980898,4,1,0,82,0,0
262024,-80.5218173639226,4,1,0,83,0,0
262097,-78.7346877572441,4,1,0,84,0,0
262171,-76.9230769230769,4,1,0,85,0,1
262612,-76.9230769230769,4,1,0,85,0,1
262686,-75.7575757575758,4,1,0,85,0,1
262759,-74.6268656716418,4,1,0,85,0,1
262906,-72.463768115942,4,1,0,85,0,1
262980,-71.4285714285714,4,1,0,85,0,1
263127,-69.4444444444444,4,1,0,85,0,1
263200,-68.4931506849315,4,1,0,85,0,1
263274,-67.5675675675676,4,1,0,85,0,1
263347,-66.6666666666667,4,1,0,85,0,1
263495,-74.0740740740741,4,1,0,85,0,1
263642,-76.9230769230769,4,1,0,85,0,1
263789,-76.9230769230769,4,1,0,85,0,1
263862,-76.3358778625954,4,1,0,85,0,1
263936,-75.7575757575758,4,1,0,85,0,1
264009,-75.187969924812,4,1,0,85,0,1
264083,-74.6268656716418,4,1,0,85,0,1
264156,-74.0740740740741,4,1,0,85,0,1
264230,-73.5294117647059,4,1,0,85,0,1
264303,-72.992700729927,4,1,0,85,0,1
264377,-72.463768115942,4,1,0,85,0,1
264524,-76.9230769230769,4,1,0,85,0,0
264597,-77.2466160448993,4,1,0,85,0,0
264671,-77.5701551667217,4,1,0,85,0,0
264745,-78.0587652690657,4,1,0,85,0,0
264818,-78.5407725321888,4,1,0,85,0,0
264892,-79.0293826345329,4,1,0,85,0,0
264965,-79.511389897656,4,1,0,85,0,0
265039,-80,4,1,0,85,0,0
265259,-83.3333333333333,4,1,0,85,0,0
265406,-85.1063829787234,4,1,0,85,0,0
265553,-86.9565217391304,4,1,0,85,0,0
265847,-90.9090909090909,4,1,0,85,0,0
265995,-93.0232558139535,4,1,0,85,0,0
266142,-95.2380952380952,4,1,0,85,0,0
266436,-100,4,1,0,85,0,0
266509,-98.4951556380128,4,1,0,85,0,0
266583,-96.969696969697,4,1,0,85,0,0
266656,-95.4648526077097,4,1,0,85,0,0
266730,-93.9393939393939,4,1,0,85,0,0
266803,-92.4345495774067,4,1,0,85,0,0
266877,-90.9090909090909,4,1,0,85,0,0
266950,-89.4042465471037,4,1,0,85,0,0
267024,-87.8787878787879,4,1,0,85,0,0
267097,-86.3739435168007,4,1,0,85,0,0
267171,-84.8484848484848,4,1,0,85,0,0
267245,-83.323026180169,4,1,0,85,0,0
267318,-81.8181818181818,4,1,0,85,0,0
267392,-80.292723149866,4,1,0,85,0,0
267465,-78.7878787878788,4,1,0,85,0,0
267539,-77.262420119563,4,1,0,85,0,0
267612,-75.7575757575758,4,1,0,85,0,0
267686,-74.2321170892599,4,1,0,85,0,0
267759,-72.7272727272727,4,1,0,85,0,0
267833,-71.2018140589569,4,1,0,85,0,0
267906,-69.6969696969697,4,1,0,85,0,0
267980,-68.1715110286539,4,1,0,85,0,0
268053,-66.6666666666667,4,1,0,85,0,0
268936,-60.6060606060606,4,1,0,100,0,0
269193,-76.9230769230769,4,1,0,80,0,0
269230,-76.9230769230769,4,1,0,85,0,1
273605,-74.0740740740741,4,1,0,60,0,1
273899,-76.9230769230769,4,1,0,85,0,1
281509,-74.0740740740741,4,1,0,87,0,1
281583,-71.4285714285714,4,1,0,90,0,1
281730,-72.992700729927,4,1,0,87,0,1
281877,-74.6268656716418,4,1,0,85,0,1
281950,-71.6845878136201,4,1,0,87,0,1
282024,-68.9655172413793,4,1,0,90,0,1
282318,-74.0740740740741,4,1,0,85,0,1
282392,-71.9424460431655,4,1,0,87,0,1
282465,-69.9300699300699,4,1,0,90,0,1
282759,-76.9230769230769,4,1,0,85,0,1
282833,-74.6268656716418,4,1,0,87,0,1
282906,-72.463768115942,4,1,0,90,0,1
283127,-79.3650793650794,4,1,0,85,0,1
283347,-87.719298245614,4,1,0,85,0,1
286656,-86.2068965517241,4,1,0,86,0,1
286730,-84.7457627118644,4,1,0,87,0,1
286803,-83.3333333333333,4,1,0,88,0,1
286877,-81.9672131147541,4,1,0,89,0,1
287024,-79.3650793650794,4,1,0,90,0,1
287097,-78.125,4,1,0,90,0,1
287245,-75.7575757575758,4,1,0,90,0,1
287318,-74.6268656716418,4,1,0,90,0,1
287465,-72.463768115942,4,1,0,90,0,1
287538,-71.4285714285714,4,1,0,90,0,1
287722,-74.0740740740741,4,1,0,60,0,1
288017,-76.9230769230769,4,1,0,92,0,1
288200,-74.6268656716418,4,1,0,92,0,1
288274,-73.5294117647059,4,1,0,92,0,1
288421,-71.4285714285714,4,1,0,92,0,1
288495,-70.4225352112676,4,1,0,92,0,1
288642,-68.4931506849315,4,1,0,92,0,1
288715,-67.5675675675676,4,1,0,92,0,1
288936,-72.463768115942,4,1,0,86,0,1
289009,-70.9219858156028,4,1,0,87,0,1
289083,-69.4444444444444,4,1,0,88,0,1
289156,-68.0272108843537,4,1,0,89,0,1
289230,-66.6666666666667,4,1,0,94,0,1
289377,-64.9350649350649,4,1,0,94,0,1
289450,-64.1025641025641,4,1,0,94,0,1
289597,-62.5,4,1,0,94,0,1
289671,-61.7283950617284,4,1,0,94,0,1
289818,-60.2409638554217,4,1,0,94,0,1
289892,-59.5238095238095,4,1,0,94,0,1
290075,-66.6666666666667,4,1,0,65,0,1
290370,-71.4285714285714,4,1,0,98,0,1
290553,-68.9655172413793,4,1,0,98,0,1
290627,-68.0272108843537,4,1,0,98,0,1
290774,-65.7894736842105,4,1,0,98,0,1
290847,-64.9350649350649,4,1,0,98,0,1
290921,-64.1025641025641,4,1,0,98,0,1
290995,-63.2911392405063,4,1,0,98,0,1
291142,-61.3496932515337,4,1,0,98,0,1
291216,-60.6060606060606,4,1,0,98,0,1
291362,-58.8235294117647,4,1,0,98,0,1
291436,-58.1395348837209,4,1,0,98,0,1
291509,-57.4712643678161,4,1,0,98,0,1
291583,-56.8181818181818,4,1,0,98,0,0
291877,-66.6666666666667,4,1,0,45,0,0
292686,-87.719298245614,4,1,0,45,0,0
293151,-100,4,1,0,45,0,0
310700,-100,4,1,0,40,0,0
310995,-100,4,1,0,35,0,0
311289,-100,4,1,0,30,0,0
311583,-100,4,1,0,20,0,0
312759,-105.263157894737,4,1,0,15,0,0
313936,-111.111111111111,4,1,0,15,0,0
318936,-111.111111111111,4,1,0,12,0,0

[HitObjects]
64,64,11900,5,0,0:0:0:0:
320,64,12341,1,8,0:0:0:0:
64,64,13468,1,0,0:0:0:0:
64,64,13566,1,0,0:0:0:0:
320,64,13664,1,8,0:0:0:0:
64,64,14252,1,0,0:0:0:0:
320,64,14694,1,8,0:0:0:0:
320,64,16017,1,8,0:0:0:0:
320,64,16605,1,8,0:0:0:0:
64,64,17047,1,0,0:0:0:0:
64,64,18174,1,0,0:0:0:0:
64,64,18272,1,0,0:0:0:0:
320,64,18370,1,8,0:0:0:0:
320,64,18958,1,8,0:0:0:0:
64,64,19400,1,0,0:0:0:0:
320,64,20135,1,8,0:0:0:0:
64,64,20576,1,0,0:0:0:0:
320,64,21115,1,8,0:0:0:0:
320,64,21213,1,8,0:0:0:0:
64,64,21311,1,0,0:0:0:0:
320,64,21752,1,8,0:0:0:0:
64,64,22880,1,0,0:0:0:0:
64,64,22978,1,0,0:0:0:0:
320,64,23076,1,8,0:0:0:0:
64,64,23664,1,0,0:0:0:0:
320,64,24105,1,8,0:0:0:0:
320,64,25233,1,8,0:0:0:0:
320,64,25331,1,8,0:0:0:0:
64,64,25429,1,0,0:0:0:0:
320,64,26017,1,8,0:0:0:0:
320,64,26458,1,8,0:0:0:0:
64,64,26900,1,0,0:0:0:0:
320,64,27194,1,8,0:0:0:0:
320,64,27635,1,8,0:0:0:0:
64,64,27782,1,0,0:0:0:0:
320,64,28076,1,8,0:0:0:0:
64,64,28370,1,0,0:0:0:0:
64,64,28517,1,0,0:0:0:0:
64,64,28664,1,0,0:0:0:0:
320,64,28811,1,8,0:0:0:0:
320,64,29105,1,8,0:0:0:0:
64,64,29252,1,0,0:0:0:0:
320,64,29400,1,8,0:0:0:0:
320,64,29694,1,8,0:0:0:0:
64,64,29841,1,0,0:0:0:0:
64,64,29988,1,0,0:0:0:0:
64,64,30061,1,0,0:0:0:0:
320,64,30135,1,8,0:0:0:0:
256,192,30282,12,0,30576,0:0:0:0:
64,64,30723,5,4,0:0:0:0:
64,64,30870,1,4,0:0:0:0:
64,64,31017,1,4,0:0:0:0:
64,64,31164,1,4,0:0:0:0:
256,192,31311,12,0,31458,0:0:0:0:
320,64,31605,5,12,0:0:0:0:
320,64,31752,1,12,0:0:0:0:
320,64,31900,1,12,0:0:0:0:
320,64,32047,1,12,0:0:0:0:
256,192,32194,12,0,32341,0:0:0:0:
64,64,32488,5,0,0:0:0:0:
64,64,32635,1,0,0:0:0:0:
64,64,32782,1,0,0:0:0:0:
64,64,32929,1,0,0:0:0:0:
320,64,33076,1,4,0:0:0:0:
320,64,33223,1,4,0:0:0:0:
320,64,33370,1,4,0:0:0:0:
320,64,33517,1,4,0:0:0:0:
256,192,33664,12,0,33811,0:0:0:0:
320,64,33958,5,12,0:0:0:0:
320,64,34105,1,12,0:0:0:0:
320,64,34252,1,12,0:0:0:0:
320,64,34400,1,12,0:0:0:0:
256,192,34547,12,0,34841,0:0:0:0:
64,64,35037,5,0,0:0:0:0:
320,64,35086,1,8,0:0:0:0:
64,64,35233,1,0,0:0:0:0:
64,64,35429,1,4,0:0:0:0:
64,64,35576,1,4,0:0:0:0:
64,64,35723,1,4,0:0:0:0:
64,64,35870,1,4,0:0:0:0:
256,192,36017,12,0,36164,0:0:0:0:
320,64,36311,5,12,0:0:0:0:
320,64,36458,1,12,0:0:0:0:
320,64,36605,1,12,0:0:0:0:
320,64,36752,1,12,0:0:0:0:
256,192,36900,12,0,37047,0:0:0:0:
320,64,37194,5,8,0:0:0:0:
320,64,37267,1,8,0:0:0:0:
320,64,37341,1,8,0:0:0:0:
320,64,37488,1,8,0:0:0:0:
320,64,37635,1,8,0:0:0:0:
64,64,37782,1,4,0:0:0:0:
64,64,37929,1,4,0:0:0:0:
64,64,38076,1,4,0:0:0:0:
64,64,38223,1,4,0:0:0:0:
256,192,38370,12,0,38517,0:0:0:0:
320,64,38664,5,12,0:0:0:0:
320,64,38811,1,12,0:0:0:0:
320,64,38958,1,12,0:0:0:0:
320,64,39105,1,12,0:0:0:0:
256,192,39252,12,0,39988,0:0:0:0:
64,64,40135,5,0,0:0:0:0:
64,64,40282,1,0,0:0:0:0:
64,64,40355,1,0,0:0:0:0:
64,64,40429,1,0,0:0:0:0:
64,64,40576,1,0,0:0:0:0:
320,64,40723,1,8,0:0:0:0:
64,64,40870,1,0,0:0:0:0:
320,64,40944,1,8,0:0:0:0:
64,64,41017,1,0,0:0:0:0:
320,64,41164,1,8,0:0:0:0:
64,64,41311,1,0,0:0:0:0:
64,64,41458,1,0,0:0:0:0:
64,64,41532,1,0,0:0:0:0:
320,64,41605,1,8,0:0:0:0:
320,64,41679,1,8,0:0:0:0:
64,64,41752,1,0,0:0:0:0:
320,64,41900,1,8,0:0:0:0:
64,64,42047,1,0,0:0:0:0:
320,64,42120,1,8,0:0:0:0:
64,64,42194,1,0,0:0:0:0:
64,64,42341,1,0,0:0:0:0:
64,64,42488,1,0,0:0:0:0:
64,64,42635,1,0,0:0:0:0:
64,64,42708,1,0,0:0:0:0:
64,64,42782,1,0,0:0:0:0:
64,64,42929,1,0,0:0:0:0:
320,64,43076,1,8,0:0:0:0:
64,64,43223,1,0,0:0:0:0:
320,64,43297,1,8,0:0:0:0:
64,64,43370,1,0,0:0:0:0:
320,64,43517,1,8,0:0:0:0:
64,64,43664,1,0,0:0:0:0:
64,64,43811,1,0,0:0:0:0:
64,64,43885,1,0,0:0:0:0:
320,64,43958,1,8,0:0:0:0:
320,64,44032,1,8,0:0:0:0:
64,64,44105,1,0,0:0:0:0:
320,64,44252,1,8,0:0:0:0:
64,64,44400,1,0,0:0:0:0:
64,64,44473,1,0,0:0:0:0:
320,64,44547,1,8,0:0:0:0:
320,64,44694,1,8,0:0:0:0:
320,64,44767,1,8,0:0:0:0:
64,64,44841,1,0,0:0:0:0:
64,64,44988,1,0,0:0:0:0:
320,64,45061,1,8,0:0:0:0:
64,64,45135,1,0,0:0:0:0:
320,64,45282,1,8,0:0:0:0:
320,64,45429,1,8,0:0:0:0:
64,64,45576,1,0,0:0:0:0:
320,64,45650,1,8,0:0:0:0:
64,64,45723,1,0,0:0:0:0:
320,64,45870,1,8,0:0:0:0:
320,64,45944,1,8,0:0:0:0:
64,64,46017,1,0,0:0:0:0:
64,64,46164,1,0,0:0:0:0:
320,64,46238,1,8,0:0:0:0:
64,64,46311,1,0,0:0:0:0:
320,64,46458,1,8,0:0:0:0:
320,64,46605,1,8,0:0:0:0:
64,64,46752,1,0,0:0:0:0:
320,64,46826,1,8,0:0:0:0:
64,64,46900,1,0,0:0:0:0:
320,64,47047,1,8,0:0:0:0:
320,64,47194,1,8,0:0:0:0:
64,64,47267,1,0,0:0:0:0:
320,64,47341,1,8,0:0:0:0:
320,64,47414,1,8,0:0:0:0:
64,64,47488,1,0,0:0:0:0:
64,64,47561,1,0,0:0:0:0:
320,64,47635,1,8,0:0:0:0:
320,64,47708,1,8,0:0:0:0:
64,64,47782,1,0,0:0:0:0:
64,64,47855,1,0,0:0:0:0:
320,64,47929,1,8,0:0:0:0:
320,64,48002,1,8,0:0:0:0:
64,64,48076,1,0,0:0:0:0:
64,64,48150,1,0,0:0:0:0:
320,64,48223,1,8,0:0:0:0:
320,64,48370,1,8,0:0:0:0:
320,64,48444,1,8,0:0:0:0:
320,64,48517,1,8,0:0:0:0:
320,64,48664,1,8,0:0:0:0:
320,64,48738,1,8,0:0:0:0:
320,64,48811,1,8,0:0:0:0:
320,64,48958,1,8,0:0:0:0:
320,64,49032,1,8,0:0:0:0:
320,64,49105,1,8,0:0:0:0:
320,64,49252,1,12,0:0:0:0:
64,64,49547,1,0,0:0:0:0:
64,64,49596,1,0,0:0:0:0:
64,64,49645,1,0,0:0:0:0:
320,64,49694,1,8,0:0:0:0:
320,64,49743,1,8,0:0:0:0:
320,64,49792,1,8,0:0:0:0:
64,64,49841,1,0,0:0:0:0:
320,64,50135,1,8,0:0:0:0:
320,64,50208,1,8,0:0:0:0:
320,64,50282,1,8,0:0:0:0:
320,64,50429,1,8,0:0:0:0:
320,64,50502,1,8,0:0:0:0:
320,64,50576,1,8,0:0:0:0:
320,64,50723,1,8,0:0:0:0:
320,64,50797,1,8,0:0:0:0:
320,64,50870,1,8,0:0:0:0:
320,64,51017,1,8,0:0:0:0:
320,64,51091,1,8,0:0:0:0:
320,64,51164,1,8,0:0:0:0:
320,64,51311,1,8,0:0:0:0:
64,64,51385,1,0,0:0:0:0:
320,64,51458,1,8,0:0:0:0:
64,64,51532,1,0,0:0:0:0:
320,64,51605,1,8,0:0:0:0:
320,64,51654,1,8,0:0:0:0:
320,64,51703,1,8,0:0:0:0:
64,64,51752,1,0,0:0:0:0:
64,64,51900,1,4,0:0:0:0:
320,64,52047,1,8,0:0:0:0:
320,64,52083,1,8,0:0:0:0:
320,64,52194,1,8,0:0:0:0:
320,64,52230,1,8,0:0:0:0:
64,64,52341,1,0,0:0:0:0:
320,64,52488,1,8,0:0:0:0:
320,64,52561,1,8,0:0:0:0:
320,64,52635,1,8,0:0:0:0:
320,64,52782,1,8,0:0:0:0:
320,64,52855,1,8,0:0:0:0:
320,64,52929,1,8,0:0:0:0:
320,64,53076,1,8,0:0:0:0:
320,64,53150,1,8,0:0:0:0:
320,64,53223,1,8,0:0:0:0:
320,64,53370,1,8,0:0:0:0:
320,64,53444,1,8,0:0:0:0:
64,64,53517,1,0,0:0:0:0:
64,64,53591,1,0,0:0:0:0:
320,64,53664,1,8,0:0:0:0:
320,64,53811,1,8,0:0:0:0:
64,64,53860,1,0,0:0:0:0:
64,64,54056,1,0,0:0:0:0:
64,64,54252,1,0,0:0:0:0:
64,64,54301,1,0,0:0:0:0:
64,64,54350,1,0,0:0:0:0:
320,64,54400,1,8,0:0:0:0:
320,64,54449,1,8,0:0:0:0:
320,64,54498,1,8,0:0:0:0:
64,64,54547,1,0,0:0:0:0:
320,64,54841,1,8,0:0:0:0:
64,64,54914,1,0,0:0:0:0:
320,64,54988,1,8,0:0:0:0:
320,64,55135,1,8,0:0:0:0:
64,64,55208,1,0,0:0:0:0:
320,64,55282,1,8,0:0:0:0:
320,64,55429,1,8,0:0:0:0:
64,64,55502,1,0,0:0:0:0:
320,64,55576,1,8,0:0:0:0:
320,64,55723,1,8,0:0:0:0:
64,64,55797,1,0,0:0:0:0:
320,64,55870,1,8,0:0:0:0:
320,64,56017,1,8,0:0:0:0:
320,64,56164,1,8,0:0:0:0:
64,64,56311,1,0,0:0:0:0:
64,64,56360,1,0,0:0:0:0:
64,64,56409,1,0,0:0:0:0:
320,64,56458,1,8,0:0:0:0:
320,64,56507,1,8,0:0:0:0:
320,64,56556,1,8,0:0:0:0:
64,64,56605,1,0,0:0:0:0:
64,64,56679,1,0,0:0:0:0:
320,64,56752,1,8,0:0:0:0:
320,64,56900,1,8,0:0:0:0:
64,64,56949,1,0,0:0:0:0:
64,64,56998,1,0,0:0:0:0:
320,64,57047,1,8,0:0:0:0:
320,64,57194,1,8,0:0:0:0:
320,64,57414,1,8,0:0:0:0:
320,64,57488,1,8,0:0:0:0:
320,64,57635,1,8,0:0:0:0:
320,64,57708,1,8,0:0:0:0:
320,64,57782,1,8,0:0:0:0:
320,64,58002,1,8,0:0:0:0:
320,64,58076,1,8,0:0:0:0:
64,64,58223,1,0,0:0:0:0:
64,64,58297,1,0,0:0:0:0:
320,64,58370,1,12,0:0:0:0:
64,64,58517,1,0,0:0:0:0:
320,64,58664,1,8,0:0:0:0:
320,64,58738,1,8,0:0:0:0:
320,64,58811,1,8,0:0:0:0:
320,64,58885,1,8,0:0:0:0:
64,64,58958,1,0,0:0:0:0:
64,64,59007,1,0,0:0:0:0:
64,64,59056,1,0,0:0:0:0:
320,64,59105,1,8,0:0:0:0:
320,64,59154,1,8,0:0:0:0:
320,64,59203,1,8,0:0:0:0:
64,64,59252,1,0,0:0:0:0:
320,64,59547,1,8,0:0:0:0:
320,64,59620,1,8,0:0:0:0:
320,64,59694,1,8,0:0:0:0:
320,64,59841,1,8,0:0:0:0:
320,64,59914,1,8,0:0:0:0:
320,64,59988,1,8,0:0:0:0:
320,64,60135,1,8,0:0:0:0:
320,64,60208,1,8,0:0:0:0:
320,64,60282,1,8,0:0:0:0:
320,64,60429,1,8,0:0:0:0:
320,64,60502,1,8,0:0:0:0:
320,64,60576,1,8,0:0:0:0:
320,64,60723,1,8,0:0:0:0:
64,64,60870,1,0,0:0:0:0:
64,64,60944,1,0,0:0:0:0:
320,64,61017,1,8,0:0:0:0:
64,64,61091,1,0,0:0:0:0:
64,64,61164,1,0,0:0:0:0:
320,64,61238,1,8,0:0:0:0:
64,64,61311,1,0,0:0:0:0:
64,64,61360,1,0,0:0:0:0:
64,64,61409,1,0,0:0:0:0:
320,64,61458,1,8,0:0:0:0:
64,64,61752,1,0,0:0:0:0:
320,64,61900,1,12,0:0:0:0:
320,64,62047,1,8,0:0:0:0:
64,64,62194,1,0,0:0:0:0:
320,64,62341,1,12,0:0:0:0:
64,64,62635,1,0,0:0:0:0:
320,64,62782,1,12,0:0:0:0:
320,64,63076,1,12,0:0:0:0:
64,64,63223,1,0,0:0:0:0:
64,64,63297,1,0,0:0:0:0:
320,64,63370,1,12,0:0:0:0:
320,64,63664,1,8,0:0:0:0:
320,64,63738,1,8,0:0:0:0:
64,64,63811,1,0,0:0:0:0:
320,64,63958,1,8,0:0:0:0:
64,64,64105,1,0,0:0:0:0:
320,64,64179,1,8,0:0:0:0:
64,64,64252,1,0,0:0:0:0:
320,64,64400,1,8,0:0:0:0:
320,64,64473,1,8,0:0:0:0:
64,64,64547,1,0,0:0:0:0:
320,64,64694,1,8,0:0:0:0:
64,64,64841,1,0,0:0:0:0:
64,64,64988,1,0,0:0:0:0:
64,64,65061,1,0,0:0:0:0:
320,64,65135,1,8,0:0:0:0:
64,64,65282,1,0,0:0:0:0:
320,64,65429,1,8,0:0:0:0:
64,64,65576,1,0,0:0:0:0:
320,64,65650,1,8,0:0:0:0:
64,64,65797,1,0,0:0:0:0:
320,64,65870,1,8,0:0:0:0:
320,64,65944,1,8,0:0:0:0:
64,64,66017,1,0,0:0:0:0:
64,64,66164,1,0,0:0:0:0:
64,64,66238,1,0,0:0:0:0:
320,64,66311,1,8,0:0:0:0:
64,64,66385,1,0,0:0:0:0:
320,64,66458,1,8,0:0:0:0:
64,64,66605,1,0,0:0:0:0:
320,64,66752,1,8,0:0:0:0:
64,64,66900,1,0,0:0:0:0:
64,64,66973,1,0,0:0:0:0:
64,64,67047,1,0,0:0:0:0:
64,64,67120,1,0,0:0:0:0:
320,64,67194,1,12,0:0:0:0:
64,64,67341,1,0,0:0:0:0:
320,64,67414,1,12,0:0:0:0:
64,64,67561,1,0,0:0:0:0:
320,64,67635,1,12,0:0:0:0:
320,64,67782,1,8,0:0:0:0:
64,64,67855,1,4,0:0:0:0:
64,64,68076,1,0,0:0:0:0:
320,64,68150,1,8,0:0:0:0:
64,64,68223,1,0,0:0:0:0:
64,64,68297,1,0,0:0:0:0:
320,64,68370,1,8,0:0:0:0:
64,64,68517,1,0,0:0:0:0:
64,64,68664,1,0,0:0:0:0:
320,64,68811,1,8,0:0:0:0:
64,64,68958,1,0,0:0:0:0:
320,64,69105,1,8,0:0:0:0:
64,64,69252,1,0,0:0:0:0:
320,64,69400,1,8,0:0:0:0:
64,64,69473,1,0,0:0:0:0:
320,64,69547,1,8,0:0:0:0:
64,64,69694,1,0,0:0:0:0:
64,64,69841,1,0,0:0:0:0:
320,64,69988,1,8,0:0:0:0:
64,64,70135,1,0,0:0:0:0:
320,64,70282,1,8,0:0:0:0:
64,64,70429,1,0,0:0:0:0:
320,64,70576,1,8,0:0:0:0:
320,64,70650,1,8,0:0:0:0:
64,64,70723,1,0,0:0:0:0:
320,64,70870,1,8,0:0:0:0:
64,64,71017,1,0,0:0:0:0:
320,64,71164,1,8,0:0:0:0:
320,64,71238,1,8,0:0:0:0:
64,64,71311,1,0,0:0:0:0:
320,64,71458,1,8,0:0:0:0:
64,64,71605,1,0,0:0:0:0:
320,64,71752,1,8,0:0:0:0:
64,64,71900,1,0,0:0:0:0:
320,64,72047,1,8,0:0:0:0:
64,64,72194,1,0,0:0:0:0:
64,64,72341,1,0,0:0:0:0:
64,64,72414,1,0,0:0:0:0:
320,64,72488,1,8,0:0:0:0:
64,64,72635,1,0,0:0:0:0:
320,64,72782,1,8,0:0:0:0:
320,64,72929,1,8,0:0:0:0:
320,64,73076,1,8,0:0:0:0:
64,64,73223,1,0,0:0:0:0:
320,64,73370,1,8,0:0:0:0:
64,64,73517,1,0,0:0:0:0:
320,64,73664,1,8,0:0:0:0:
64,64,73811,1,0,0:0:0:0:
320,64,73885,1,8,0:0:0:0:
320,64,73958,1,8,0:0:0:0:
64,64,74105,1,0,0:0:0:0:
320,64,74252,1,8,0:0:0:0:
64,64,74400,1,0,0:0:0:0:
320,64,74547,1,8,0:0:0:0:
64,64,74694,1,0,0:0:0:0:
320,64,74841,1,8,0:0:0:0:
320,64,74988,1,8,0:0:0:0:
64,64,75135,1,0,0:0:0:0:
320,64,75184,1,8,0:0:0:0:
320,64,75233,1,8,0:0:0:0:
320,64,75282,1,8,0:0:0:0:
320,64,75331,1,8,0:0:0:0:
320,64,75380,1,8,0:0:0:0:
64,64,75429,1,0,0:0:0:0:
64,64,75576,1,0,0:0:0:0:
320,64,75723,1,8,0:0:0:0:
64,64,75870,1,0,0:0:0:0:
320,64,76017,1,8,0:0:0:0:
320,64,76164,1,8,0:0:0:0:
320,64,76311,1,8,0:0:0:0:
64,64,76458,1,0,0:0:0:0:
64,64,76679,1,0,0:0:0:0:
320,64,76752,1,8,0:0:0:0:
320,64,76900,1,8,0:0:0:0:
64,64,77047,1,0,0:0:0:0:
64,64,77194,1,0,0:0:0:0:
64,64,77267,1,0,0:0:0:0:
320,64,77341,1,8,0:0:0:0:
64,64,77414,1,0,0:0:0:0:
320,64,77488,1,8,0:0:0:0:
320,64,77537,1,8,0:0:0:0:
320,64,77586,1,8,0:0:0:0:
320,64,77635,1,8,0:0:0:0:
320,64,77684,1,8,0:0:0:0:
320,64,77733,1,8,0:0:0:0:
64,64,77782,1,0,0:0:0:0:
64,64,78517,5,0,0:0:0:0:
320,64,78664,1,8,0:0:0:0:
320,64,78811,1,8,0:0:0:0:
320,64,78885,1,8,0:0:0:0:
64,64,78958,1,0,0:0:0:0:
320,64,79105,1,8,0:0:0:0:
64,64,79252,1,0,0:0:0:0:
320,64,79400,1,8,0:0:0:0:
64,64,79547,1,0,0:0:0:0:
320,64,79694,1,8,0:0:0:0:
64,64,79841,1,0,0:0:0:0:
320,64,79988,1,8,0:0:0:0:
320,64,80061,1,8,0:0:0:0:
64,64,80135,1,0,0:0:0:0:
320,64,80282,1,8,0:0:0:0:
64,64,80429,1,0,0:0:0:0:
320,64,80576,1,8,0:0:0:0:
320,64,80650,1,8,0:0:0:0:
64,64,80723,1,0,0:0:0:0:
320,64,80870,1,8,0:0:0:0:
64,64,81017,1,0,0:0:0:0:
320,64,81164,1,8,0:0:0:0:
64,64,81311,1,0,0:0:0:0:
320,64,81458,1,8,0:0:0:0:
64,64,81605,1,0,0:0:0:0:
64,64,81752,1,0,0:0:0:0:
320,64,81900,1,8,0:0:0:0:
64,64,82047,1,0,0:0:0:0:
320,64,82194,1,8,0:0:0:0:
64,64,82341,1,0,0:0:0:0:
320,64,82488,1,8,0:0:0:0:
64,64,82635,1,0,0:0:0:0:
64,64,82782,1,0,0:0:0:0:
64,64,82929,1,0,0:0:0:0:
320,64,83076,1,8,0:0:0:0:
64,64,83223,1,0,0:0:0:0:
320,64,83370,1,8,0:0:0:0:
64,64,83517,1,0,0:0:0:0:
320,64,83664,1,8,0:0:0:0:
320,64,83811,1,8,0:0:0:0:
64,64,83958,1,0,0:0:0:0:
64,64,84105,1,0,0:0:0:0:
320,64,84179,1,8,0:0:0:0:
320,64,84326,1,8,0:0:0:0:
320,64,84400,1,8,0:0:0:0:
320,64,84547,1,8,0:0:0:0:
64,64,84694,1,0,0:0:0:0:
64,64,84767,1,0,0:0:0:0:
320,64,84841,1,12,0:0:0:0:
64,64,84988,1,0,0:0:0:0:
64,64,85135,1,0,0:0:0:0:
320,64,85282,1,8,0:0:0:0:
64,64,85576,1,0,0:0:0:0:
64,64,85650,1,0,0:0:0:0:
320,64,85723,1,8,0:0:0:0:
320,64,85870,1,8,0:0:0:0:
64,64,86017,1,0,0:0:0:0:
64,64,86164,1,0,0:0:0:0:
64,64,86238,1,0,0:0:0:0:
320,64,86311,1,8,0:0:0:0:
320,64,86458,1,8,0:0:0:0:
64,64,86752,1,0,0:0:0:0:
64,64,86826,1,0,0:0:0:0:
320,64,86900,1,8,0:0:0:0:
64,64,87047,1,0,0:0:0:0:
320,64,87194,1,8,0:0:0:0:
320,64,87341,1,8,0:0:0:0:
64,64,87414,1,0,0:0:0:0:
320,64,87488,1,8,0:0:0:0:
64,64,87635,1,0,0:0:0:0:
320,64,87782,1,8,0:0:0:0:
320,64,87929,1,8,0:0:0:0:
64,64,88076,1,0,0:0:0:0:
64,64,88223,1,0,0:0:0:0:
64,64,88297,1,0,0:0:0:0:
320,64,88370,1,8,0:0:0:0:
64,64,88517,1,0,0:0:0:0:
320,64,88664,1,8,0:0:0:0:
320,64,88811,1,8,0:0:0:0:
64,64,88958,1,0,0:0:0:0:
64,64,89032,1,0,0:0:0:0:
320,64,89105,1,8,0:0:0:0:
320,64,89179,1,8,0:0:0:0:
64,64,89252,1,0,0:0:0:0:
320,64,89326,1,8,0:0:0:0:
320,64,89400,1,8,0:0:0:0:
320,64,89473,1,8,0:0:0:0:
64,64,89547,1,4,0:0:0:0:
64,64,89694,1,4,0:0:0:0:
64,64,89841,1,4,0:0:0:0:
64,64,89988,1,4,0:0:0:0:
256,192,90135,12,0,90282,0:0:0:0:
320,64,90429,5,12,0:0:0:0:
320,64,90576,1,12,0:0:0:0:
320,64,90723,1,12,0:0:0:0:
320,64,90870,1,12,0:0:0:0:
256,192,91017,12,0,91164,0:0:0:0:
64,64,91311,5,0,0:0:0:0:
64,64,91458,1,0,0:0:0:0:
64,64,91605,1,0,0:0:0:0:
64,64,91752,1,0,0:0:0:0:
320,64,91900,1,4,0:0:0:0:
320,64,92047,1,4,0:0:0:0:
320,64,92194,1,4,0:0:0:0:
320,64,92341,1,4,0:0:0:0:
256,192,92488,12,0,92635,0:0:0:0:
320,64,92782,5,12,0:0:0:0:
320,64,92929,1,12,0:0:0:0:
320,64,93076,1,12,0:0:0:0:
320,64,93223,1,12,0:0:0:0:
256,192,93370,12,0,93664,0:0:0:0:
64,64,93860,5,0,0:0:0:0:
320,64,93909,1,8,0:0:0:0:
64,64,94056,1,0,0:0:0:0:
64,64,94252,1,4,0:0:0:0:
64,64,94400,1,4,0:0:0:0:
64,64,94547,1,4,0:0:0:0:
64,64,94694,1,4,0:0:0:0:
256,192,94841,12,0,94988,0:0:0:0:
320,64,95135,5,12,0:0:0:0:
320,64,95282,1,12,0:0:0:0:
320,64,95429,1,12,0:0:0:0:
320,64,95576,1,12,0:0:0:0:
256,192,95723,12,0,95870,0:0:0:0:
320,64,96017,5,8,0:0:0:0:
320,64,96091,1,8,0:0:0:0:
320,64,96164,1,8,0:0:0:0:
320,64,96311,1,8,0:0:0:0:
320,64,96458,1,8,0:0:0:0:
64,64,96605,1,4,0:0:0:0:
64,64,96752,1,4,0:0:0:0:
64,64,96900,1,4,0:0:0:0:
320,64,97047,1,12,0:0:0:0:
320,64,97194,1,12,0:0:0:0:
320,64,97341,1,12,0:0:0:0:
256,192,97488,12,0,98517,0:0:0:0:
320,64,98664,5,12,0:0:0:0:
64,64,98958,1,0,0:0:0:0:
64,64,99007,1,0,0:0:0:0:
64,64,99056,1,0,0:0:0:0:
320,64,99105,1,8,0:0:0:0:
320,64,99154,1,8,0:0:0:0:
320,64,99203,1,8,0:0:0:0:
64,64,99252,1,0,0:0:0:0:
320,64,99547,1,8,0:0:0:0:
64,64,99596,1,0,0:0:0:0:
64,64,99645,1,0,0:0:0:0:
320,64,99694,1,8,0:0:0:0:
320,64,99743,1,8,0:0:0:0:
320,64,99792,1,8,0:0:0:0:
64,64,99841,1,0,0:0:0:0:
320,64,99988,1,8,0:0:0:0:
64,64,100135,1,0,0:0:0:0:
64,64,100208,1,0,0:0:0:0:
320,64,100282,1,8,0:0:0:0:
320,64,100355,1,8,0:0:0:0:
64,64,100429,1,0,0:0:0:0:
320,64,100576,1,8,0:0:0:0:
64,64,100723,1,0,0:0:0:0:
320,64,100870,1,8,0:0:0:0:
320,64,101017,1,8,0:0:0:0:
320,64,101066,1,8,0:0:0:0:
320,64,101115,1,8,0:0:0:0:
320,64,101164,1,8,0:0:0:0:
320,64,101213,1,8,0:0:0:0:
320,64,101262,1,8,0:0:0:0:
64,64,101311,1,0,0:0:0:0:
320,64,101458,1,8,0:0:0:0:
64,64,101507,1,0,0:0:0:0:
64,64,101556,1,0,0:0:0:0:
320,64,101605,1,8,0:0:0:0:
64,64,101752,1,0,0:0:0:0:
320,64,101900,1,8,0:0:0:0:
64,64,101949,1,0,0:0:0:0:
64,64,101998,1,0,0:0:0:0:
320,64,102047,1,8,0:0:0:0:
320,64,102096,1,8,0:0:0:0:
320,64,102145,1,8,0:0:0:0:
64,64,102194,1,0,0:0:0:0:
64,64,102341,1,0,0:0:0:0:
320,64,102488,1,8,0:0:0:0:
64,64,102561,1,0,0:0:0:0:
320,64,102635,1,8,0:0:0:0:
64,64,102782,1,0,0:0:0:0:
320,64,102929,1,8,0:0:0:0:
64,64,103002,1,0,0:0:0:0:
320,64,103076,1,8,0:0:0:0:
64,64,103223,1,0,0:0:0:0:
64,64,103297,1,0,0:0:0:0:
320,64,103370,1,8,0:0:0:0:
64,64,103419,1,0,0:0:0:0:
64,64,103468,1,0,0:0:0:0:
320,64,103517,1,8,0:0:0:0:
64,64,103664,1,0,0:0:0:0:
64,64,103713,1,0,0:0:0:0:
64,64,103762,1,0,0:0:0:0:
320,64,103811,1,8,0:0:0:0:
320,64,103860,1,8,0:0:0:0:
320,64,103909,1,8,0:0:0:0:
64,64,103958,1,0,0:0:0:0:
320,64,104252,1,8,0:0:0:0:
64,64,104301,1,0,0:0:0:0:
64,64,104350,1,0,0:0:0:0:
320,64,104400,1,8,0:0:0:0:
320,64,104449,1,8,0:0:0:0:
320,64,104498,1,8,0:0:0:0:
64,64,104547,1,0,0:0:0:0:
320,64,104694,1,8,0:0:0:0:
64,64,104841,1,0,0:0:0:0:
64,64,104914,1,0,0:0:0:0:
320,64,104988,1,8,0:0:0:0:
320,64,105061,1,8,0:0:0:0:
64,64,105135,1,0,0:0:0:0:
320,64,105282,1,8,0:0:0:0:
64,64,105429,1,0,0:0:0:0:
320,64,105576,1,8,0:0:0:0:
320,64,105723,1,8,0:0:0:0:
320,64,105772,1,8,0:0:0:0:
320,64,105821,1,8,0:0:0:0:
320,64,105870,1,8,0:0:0:0:
320,64,105919,1,8,0:0:0:0:
320,64,105968,1,8,0:0:0:0:
64,64,106017,1,0,0:0:0:0:
320,64,106164,1,8,0:0:0:0:
64,64,106213,1,0,0:0:0:0:
64,64,106262,1,0,0:0:0:0:
320,64,106311,1,8,0:0:0:0:
64,64,106458,1,0,0:0:0:0:
64,64,106605,1,0,0:0:0:0:
64,64,106654,1,0,0:0:0:0:
64,64,106703,1,0,0:0:0:0:
320,64,106752,1,8,0:0:0:0:
320,64,106801,1,8,0:0:0:0:
320,64,106850,1,8,0:0:0:0:
64,64,106900,1,0,0:0:0:0:
320,64,107047,1,8,0:0:0:0:
64,64,107096,1,0,0:0:0:0:
64,64,107145,1,0,0:0:0:0:
320,64,107194,1,8,0:0:0:0:
64,64,107341,1,0,0:0:0:0:
320,64,107414,1,8,0:0:0:0:
320,64,107561,1,8,0:0:0:0:
64,64,107635,1,0,0:0:0:0:
320,64,107782,1,8,0:0:0:0:
64,64,107855,1,0,0:0:0:0:
320,64,107929,1,8,0:0:0:0:
64,64,108076,1,0,0:0:0:0:
320,64,108150,1,8,0:0:0:0:
320,64,108223,1,8,0:0:0:0:
320,64,108297,1,8,0:0:0:0:
64,64,108370,1,0,0:0:0:0:
64,64,108444,1,0,0:0:0:0:
320,64,108517,1,8,0:0:0:0:
320,64,108591,1,8,0:0:0:0:
64,64,108664,1,4,0:0:0:0:
320,64,108958,1,8,0:0:0:0:
64,64,109007,1,0,0:0:0:0:
64,64,109056,1,0,0:0:0:0:
320,64,109105,1,8,0:0:0:0:
320,64,109154,1,8,0:0:0:0:
320,64,109203,1,8,0:0:0:0:
64,64,109252,1,0,0:0:0:0:
320,64,109400,1,8,0:0:0:0:
64,64,109547,1,0,0:0:0:0:
64,64,109620,1,0,0:0:0:0:
320,64,109694,1,8,0:0:0:0:
320,64,109767,1,8,0:0:0:0:
64,64,109841,1,0,0:0:0:0:
320,64,109988,1,8,0:0:0:0:
64,64,110135,1,0,0:0:0:0:
320,64,110282,1,8,0:0:0:0:
320,64,110429,1,8,0:0:0:0:
320,64,110478,1,8,0:0:0:0:
320,64,110527,1,8,0:0:0:0:
320,64,110576,1,8,0:0:0:0:
320,64,110625,1,8,0:0:0:0:
320,64,110674,1,8,0:0:0:0:
64,64,110723,1,0,0:0:0:0:
320,64,110870,1,8,0:0:0:0:
64,64,110919,1,0,0:0:0:0:
64,64,110968,1,0,0:0:0:0:
320,64,111017,1,8,0:0:0:0:
64,64,111164,1,0,0:0:0:0:
320,64,111311,1,8,0:0:0:0:
64,64,111360,1,0,0:0:0:0:
64,64,111409,1,0,0:0:0:0:
320,64,111458,1,8,0:0:0:0:
320,64,111507,1,8,0:0:0:0:
320,64,111556,1,8,0:0:0:0:
64,64,111605,1,0,0:0:0:0:
64,64,111752,1,0,0:0:0:0:
320,64,111900,1,8,0:0:0:0:
64,64,111973,1,0,0:0:0:0:
320,64,112047,1,8,0:0:0:0:
64,64,112194,1,0,0:0:0:0:
320,64,112341,1,8,0:0:0:0:
64,64,112414,1,0,0:0:0:0:
320,64,112488,1,8,0:0:0:0:
64,64,112635,1,0,0:0:0:0:
64,64,112782,1,0,0:0:0:0:
320,64,112855,1,8,0:0:0:0:
320,64,112929,1,8,0:0:0:0:
320,64,113002,1,8,0:0:0:0:
64,64,113076,1,4,0:0:0:0:
64,64,113370,1,0,0:0:0:0:
320,64,113517,1,8,0:0:0:0:
64,64,113664,1,0,0:0:0:0:
320,64,113811,1,8,0:0:0:0:
320,64,113885,1,8,0:0:0:0:
64,64,113958,1,0,0:0:0:0:
320,64,114105,1,8,0:0:0:0:
64,64,114252,1,0,0:0:0:0:
320,64,114400,1,8,0:0:0:0:
64,64,114473,1,0,0:0:0:0:
320,64,114547,1,8,0:0:0:0:
64,64,114694,1,0,0:0:0:0:
320,64,114841,1,8,0:0:0:0:
64,64,114988,1,0,0:0:0:0:
320,64,115061,1,8,0:0:0:0:
64,64,115208,1,0,0:0:0:0:
320,64,115282,1,8,0:0:0:0:
64,64,115429,1,0,0:0:0:0:
64,64,115723,1,0,0:0:0:0:
64,64,115797,1,0,0:0:0:0:
320,64,115870,1,8,0:0:0:0:
320,64,116164,1,8,0:0:0:0:
320,64,116238,1,8,0:0:0:0:
64,64,116311,1,0,0:0:0:0:
64,64,116458,1,0,0:0:0:0:
64,64,116532,1,0,0:0:0:0:
320,64,116605,1,8,0:0:0:0:
320,64,116752,1,8,0:0:0:0:
64,64,116826,1,0,0:0:0:0:
64,64,116973,1,0,0:0:0:0:
320,64,117047,1,8,0:0:0:0:
64,64,117194,1,0,0:0:0:0:
64,64,117267,1,0,0:0:0:0:
64,64,117414,1,0,0:0:0:0:
320,64,117488,1,8,0:0:0:0:
64,64,117561,1,0,0:0:0:0:
320,64,117635,1,8,0:0:0:0:
64,64,117782,1,4,0:0:0:0:
320,64,119658,1,8,0:0:0:0:
64,64,119980,1,0,0:0:0:0:
320,64,120299,1,8,0:0:0:0:
64,64,121104,1,0,0:0:0:0:
64,64,121549,1,0,0:0:0:0:
320,64,122061,1,8,0:0:0:0:
64,64,122430,1,0,0:0:0:0:
320,64,122523,1,8,0:0:0:0:
64,64,122771,1,0,0:0:0:0:
320,64,122864,1,8,0:0:0:0:
320,64,122989,1,8,0:0:0:0:
64,64,123082,1,0,0:0:0:0:
320,64,123670,1,8,0:0:0:0:
320,64,124670,1,8,0:0:0:0:
64,64,126407,1,0,0:0:0:0:
64,64,126486,1,0,0:0:0:0:
320,64,126566,1,8,0:0:0:0:
320,64,131116,5,8,0:0:0:0:
64,64,131294,1,0,0:0:0:0:
320,64,131473,1,8,0:0:0:0:
64,64,131651,1,0,0:0:0:0:
64,64,132008,1,0,0:0:0:0:
64,64,132187,1,0,0:0:0:0:
320,64,132366,1,8,0:0:0:0:
64,64,132544,1,0,0:0:0:0:
320,64,132723,1,8,0:0:0:0:
320,64,132901,1,8,0:0:0:0:
64,64,133080,1,0,0:0:0:0:
64,64,133437,1,0,0:0:0:0:
320,64,133616,1,8,0:0:0:0:
320,64,133705,1,8,0:0:0:0:
64,64,133794,1,0,0:0:0:0:
64,64,133883,1,0,0:0:0:0:
320,64,133973,1,8,0:0:0:0:
64,64,134151,1,0,0:0:0:0:
320,64,134330,1,8,0:0:0:0:
64,64,134508,1,0,0:0:0:0:
64,64,134866,1,0,0:0:0:0:
64,64,135044,1,0,0:0:0:0:
320,64,135223,1,8,0:0:0:0:
64,64,135401,1,0,0:0:0:0:
320,64,135580,1,8,0:0:0:0:
320,64,135758,1,8,0:0:0:0:
64,64,135937,1,0,0:0:0:0:
320,64,136116,1,8,0:0:0:0:
64,64,136294,1,0,0:0:0:0:
64,64,136473,1,0,0:0:0:0:
64,64,136562,1,0,0:0:0:0:
320,64,136651,1,8,0:0:0:0:
320,64,136741,1,8,0:0:0:0:
64,64,136830,1,0,0:0:0:0:
320,64,137008,1,8,0:0:0:0:
320,64,137187,1,8,0:0:0:0:
64,64,137366,1,0,0:0:0:0:
64,64,137723,1,0,0:0:0:0:
64,64,137901,1,0,0:0:0:0:
320,64,138080,1,8,0:0:0:0:
64,64,138258,1,0,0:0:0:0:
320,64,138437,1,8,0:0:0:0:
320,64,138616,1,8,0:0:0:0:
64,64,138794,1,0,0:0:0:0:
320,64,138973,1,8,0:0:0:0:
64,64,139151,1,0,0:0:0:0:
320,64,139330,1,8,0:0:0:0:
320,64,139419,1,8,0:0:0:0:
64,64,139508,1,0,0:0:0:0:
64,64,139598,1,0,0:0:0:0:
320,64,139687,1,8,0:0:0:0:
64,64,139866,1,0,0:0:0:0:
320,64,140044,1,8,0:0:0:0:
64,64,140223,1,0,0:0:0:0:
64,64,140580,1,0,0:0:0:0:
64,64,140758,1,0,0:0:0:0:
320,64,140937,1,8,0:0:0:0:
64,64,141116,1,0,0:0:0:0:
320,64,141294,1,8,0:0:0:0:
320,64,141473,1,8,0:0:0:0:
64,64,141651,1,0,0:0:0:0:
320,64,141830,1,8,0:0:0:0:
64,64,142008,1,0,0:0:0:0:
64,64,142187,1,0,0:0:0:0:
64,64,142276,1,0,0:0:0:0:
320,64,142366,1,8,0:0:0:0:
320,64,142455,1,8,0:0:0:0:
64,64,142544,1,0,0:0:0:0:
320,64,142723,1,8,0:0:0:0:
64,64,142812,1,0,0:0:0:0:
320,64,142901,1,8,0:0:0:0:
320,64,142991,1,8,0:0:0:0:
64,64,143080,1,0,0:0:0:0:
320,64,143258,1,8,0:0:0:0:
320,64,143437,1,8,0:0:0:0:
64,64,143526,1,0,0:0:0:0:
320,64,143616,1,8,0:0:0:0:
64,64,143794,1,0,0:0:0:0:
64,64,143854,1,0,0:0:0:0:
64,64,143913,1,0,0:0:0:0:
320,64,143973,1,8,0:0:0:0:
64,64,144151,1,0,0:0:0:0:
64,64,144241,1,0,0:0:0:0:
320,64,144330,1,8,0:0:0:0:
320,64,144419,1,8,0:0:0:0:
64,64,144508,1,0,0:0:0:0:
320,64,144687,1,8,0:0:0:0:
64,64,144776,1,0,0:0:0:0:
320,64,144866,1,8,0:0:0:0:
64,64,144955,1,0,0:0:0:0:
320,64,145044,1,8,0:0:0:0:
320,64,145133,1,8,0:0:0:0:
64,64,145223,1,0,0:0:0:0:
320,64,145312,1,8,0:0:0:0:
64,64,145401,1,0,0:0:0:0:
320,64,145580,1,8,0:0:0:0:
64,64,145669,1,0,0:0:0:0:
320,64,145758,1,8,0:0:0:0:
320,64,145848,1,8,0:0:0:0:
64,64,145937,1,0,0:0:0:0:
320,64,146116,1,8,0:0:0:0:
320,64,146294,1,8,0:0:0:0:
64,64,146383,1,0,0:0:0:0:
320,64,146473,1,8,0:0:0:0:
320,64,146562,1,8,0:0:0:0:
64,64,146651,1,0,0:0:0:0:
64,64,146711,1,0,0:0:0:0:
64,64,146770,1,0,0:0:0:0:
320,64,146830,1,8,0:0:0:0:
64,64,147008,1,0,0:0:0:0:
64,64,147098,1,0,0:0:0:0:
320,64,147187,1,8,0:0:0:0:
320,64,147276,1,8,0:0:0:0:
64,64,147366,1,0,0:0:0:0:
320,64,147544,1,8,0:0:0:0:
64,64,147633,1,0,0:0:0:0:
320,64,147723,1,8,0:0:0:0:
64,64,147812,1,0,0:0:0:0:
320,64,147901,1,8,0:0:0:0:
320,64,147991,1,8,0:0:0:0:
320,64,148080,1,8,0:0:0:0:
320,64,148169,1,8,0:0:0:0:
64,64,148258,1,0,0:0:0:0:
64,64,148437,1,0,0:0:0:0:
64,64,148616,1,0,0:0:0:0:
64,64,148794,1,0,0:0:0:0:
64,64,148973,1,0,0:0:0:0:
64,64,149151,1,0,0:0:0:0:
64,64,149330,1,0,0:0:0:0:
64,64,149508,1,0,0:0:0:0:
64,64,149687,1,0,0:0:0:0:
64,64,149776,1,0,0:0:0:0:
64,64,149866,1,0,0:0:0:0:
64,64,149955,1,0,0:0:0:0:
64,64,150044,1,0,0:0:0:0:
64,64,150133,1,0,0:0:0:0:
64,64,150223,1,0,0:0:0:0:
64,64,150312,1,0,0:0:0:0:
64,64,150401,1,0,0:0:0:0:
64,64,150491,1,0,0:0:0:0:
64,64,150580,1,0,0:0:0:0:
64,64,150669,1,0,0:0:0:0:
64,64,150758,1,0,0:0:0:0:
64,64,150818,1,0,0:0:0:0:
64,64,150877,1,0,0:0:0:0:
64,64,150937,1,0,0:0:0:0:
64,64,150996,1,0,0:0:0:0:
64,64,151056,1,0,0:0:0:0:
64,64,151116,1,0,0:0:0:0:
256,192,152544,12,0,153258,0:0:0:0:
64,64,153437,5,0,0:0:0:0:
64,64,153526,1,0,0:0:0:0:
320,64,153616,1,8,0:0:0:0:
64,64,153973,1,0,0:0:0:0:
64,64,154032,1,0,0:0:0:0:
320,64,154092,1,8,0:0:0:0:
320,64,154151,1,8,0:0:0:0:
320,64,154211,1,8,0:0:0:0:
320,64,154270,1,8,0:0:0:0:
64,64,154508,1,0,0:0:0:0:
320,64,154687,1,8,0:0:0:0:
64,64,155937,1,0,0:0:0:0:
320,64,156116,1,12,0:0:0:0:
64,64,157187,1,0,0:0:0:0:
64,64,157246,1,0,0:0:0:0:
64,64,157306,1,0,0:0:0:0:
64,64,157366,1,0,0:0:0:0:
320,64,157544,1,8,0:0:0:0:
64,64,157633,1,0,0:0:0:0:
64,64,157723,1,0,0:0:0:0:
320,64,157812,1,8,0:0:0:0:
64,64,157901,1,0,0:0:0:0:
64,64,157991,1,0,0:0:0:0:
320,64,158080,1,8,0:0:0:0:
64,64,158258,1,0,0:0:0:0:
320,64,158318,1,8,0:0:0:0:
320,64,158377,1,8,0:0:0:0:
320,64,158437,1,8,0:0:0:0:
320,64,158496,1,8,0:0:0:0:
320,64,158556,1,8,0:0:0:0:
320,64,158616,1,8,0:0:0:0:
64,64,158794,1,0,0:0:0:0:
320,64,158973,1,8,0:0:0:0:
64,64,159687,1,0,0:0:0:0:
64,64,159746,1,0,0:0:0:0:
320,64,159806,1,8,0:0:0:0:
320,64,159866,1,8,0:0:0:0:
320,64,159925,1,8,0:0:0:0:
320,64,159985,1,8,0:0:0:0:
64,64,160223,1,0,0:0:0:0:
320,64,160401,1,8,0:0:0:0:
64,64,161651,1,0,0:0:0:0:
320,64,161830,1,12,0:0:0:0:
64,64,162901,1,0,0:0:0:0:
64,64,162961,1,0,0:0:0:0:
64,64,163020,1,0,0:0:0:0:
64,64,163080,1,0,0:0:0:0:
320,64,163258,1,8,0:0:0:0:
320,64,163318,1,8,0:0:0:0:
64,64,163377,1,0,0:0:0:0:
320,64,163526,1,8,0:0:0:0:
320,64,163586,1,8,0:0:0:0:
64,64,163645,1,0,0:0:0:0:
320,64,163794,1,8,0:0:0:0:
320,64,163854,1,8,0:0:0:0:
64,64,163913,1,0,0:0:0:0:
320,64,164062,1,8,0:0:0:0:
64,64,164151,1,0,0:0:0:0:
64,64,164241,1,0,0:0:0:0:
320,64,164330,1,8,0:0:0:0:
64,64,164389,1,0,0:0:0:0:
64,64,164449,1,0,0:0:0:0:
320,64,164598,1,8,0:0:0:0:
64,64,164657,1,0,0:0:0:0:
64,64,164717,1,0,0:0:0:0:
320,64,164866,1,8,0:0:0:0:
64,64,165223,1,0,0:0:0:0:
64,64,165312,1,0,0:0:0:0:
64,64,165401,1,0,0:0:0:0:
64,64,165461,1,0,0:0:0:0:
320,64,165520,1,8,0:0:0:0:
320,64,165580,1,8,0:0:0:0:
320,64,165639,1,8,0:0:0:0:
320,64,165699,1,8,0:0:0:0:
64,64,165937,1,0,0:0:0:0:
320,64,166116,1,8,0:0:0:0:
64,64,167366,1,0,0:0:0:0:
320,64,167544,1,12,0:0:0:0:
64,64,168616,1,0,0:0:0:0:
64,64,168675,1,0,0:0:0:0:
64,64,168735,1,0,0:0:0:0:
64,64,168794,1,0,0:0:0:0:
320,64,168973,1,8,0:0:0:0:
320,64,169017,1,8,0:0:0:0:
64,64,169151,1,0,0:0:0:0:
320,64,169241,1,8,0:0:0:0:
320,64,169285,1,8,0:0:0:0:
64,64,169419,1,0,0:0:0:0:
320,64,169508,1,8,0:0:0:0:
320,64,169553,1,8,0:0:0:0:
64,64,169687,1,0,0:0:0:0:
320,64,169776,1,8,0:0:0:0:
320,64,169821,1,8,0:0:0:0:
64,64,169866,1,0,0:0:0:0:
64,64,169955,1,0,0:0:0:0:
320,64,170044,1,8,0:0:0:0:
64,64,170223,1,0,0:0:0:0:
320,64,170401,1,8,0:0:0:0:
64,64,171116,1,0,0:0:0:0:
64,64,171175,1,0,0:0:0:0:
320,64,171235,1,8,0:0:0:0:
320,64,171294,1,8,0:0:0:0:
320,64,171354,1,8,0:0:0:0:
320,64,171413,1,8,0:0:0:0:
64,64,171651,1,0,0:0:0:0:
320,64,171830,1,8,0:0:0:0:
64,64,173080,1,0,0:0:0:0:
320,64,173258,1,12,0:0:0:0:
64,64,174330,1,0,0:0:0:0:
64,64,174389,1,0,0:0:0:0:
64,64,174449,1,0,0:0:0:0:
64,64,174508,1,0,0:0:0:0:
320,64,174687,1,12,0:0:0:0:
64,64,175401,1,0,0:0:0:0:
64,64,175758,1,0,0:0:0:0:
64,64,176115,1,0,0:0:0:0:
320,64,176294,1,8,0:0:0:0:
64,64,176473,1,0,0:0:0:0:
64,64,176651,1,0,0:0:0:0:
64,64,176830,1,0,0:0:0:0:
64,64,176888,1,0,0:0:0:0:
320,64,176946,1,8,0:0:0:0:
320,64,177004,1,8,0:0:0:0:
320,64,177062,1,8,0:0:0:0:
320,64,177120,1,8,0:0:0:0:
64,64,177353,1,0,0:0:0:0:
320,64,177527,1,0,0:0:0:0:
64,64,178730,1,0,0:0:0:0:
320,64,178899,1,12,0:0:0:0:
64,64,179892,1,0,0:0:0:0:
64,64,179932,1,0,0:0:0:0:
320,64,180211,1,8,0:0:0:0:
64,64,180370,1,0,0:0:0:0:
64,64,180410,1,0,0:0:0:0:
64,64,180849,1,0,0:0:0:0:
64,64,180887,1,0,0:0:0:0:
64,64,181308,1,0,0:0:0:0:
64,64,181346,1,0,0:0:0:0:
320,64,181461,1,8,0:0:0:0:
64,64,181767,1,0,0:0:0:0:
64,64,181805,1,0,0:0:0:0:
64,64,182073,1,0,0:0:0:0:
64,64,182122,1,0,0:0:0:0:
320,64,182171,1,8,0:0:0:0:
320,64,182220,1,8,0:0:0:0:
320,64,182269,1,8,0:0:0:0:
320,64,182318,1,8,0:0:0:0:
64,64,182514,1,0,0:0:0:0:
320,64,182661,1,0,0:0:0:0:
64,64,183681,1,0,0:0:0:0:
320,64,183825,1,12,0:0:0:0:
64,64,184685,1,0,0:0:0:0:
64,64,184720,1,0,0:0:0:0:
320,64,184968,1,8,0:0:0:0:
64,64,185109,1,0,0:0:0:0:
64,64,185144,1,0,0:0:0:0:
64,64,185534,1,0,0:0:0:0:
64,64,185567,1,0,0:0:0:0:
64,64,185935,1,0,0:0:0:0:
64,64,185969,1,0,0:0:0:0:
320,64,186069,1,8,0:0:0:0:
64,64,186337,1,0,0:0:0:0:
64,64,186371,1,0,0:0:0:0:
64,64,186605,1,0,0:0:0:0:
64,64,186648,1,0,0:0:0:0:
320,64,186692,1,8,0:0:0:0:
320,64,186736,1,8,0:0:0:0:
320,64,186780,1,8,0:0:0:0:
320,64,186824,1,8,0:0:0:0:
64,64,186999,1,0,0:0:0:0:
320,64,187131,1,0,0:0:0:0:
64,64,188041,1,0,0:0:0:0:
320,64,188169,1,12,0:0:0:0:
64,64,188932,1,0,0:0:0:0:
64,64,188963,1,0,0:0:0:0:
320,64,189182,1,8,0:0:0:0:
64,64,189307,1,0,0:0:0:0:
64,64,189338,1,0,0:0:0:0:
64,64,189682,1,0,0:0:0:0:
64,64,189712,1,0,0:0:0:0:
64,64,190044,1,0,0:0:0:0:
64,64,190075,1,0,0:0:0:0:
320,64,190165,1,8,0:0:0:0:
64,64,190407,1,0,0:0:0:0:
64,64,190438,1,0,0:0:0:0:
64,64,190649,1,0,0:0:0:0:
64,64,190688,1,0,0:0:0:0:
320,64,190728,1,8,0:0:0:0:
320,64,190768,1,8,0:0:0:0:
320,64,190807,1,8,0:0:0:0:
320,64,190847,1,8,0:0:0:0:
64,64,191006,1,0,0:0:0:0:
320,64,191125,1,0,0:0:0:0:
64,64,191952,1,0,0:0:0:0:
320,64,192069,1,12,0:0:0:0:
64,64,192767,1,0,0:0:0:0:
64,64,192795,1,0,0:0:0:0:
320,64,192996,1,8,0:0:0:0:
64,64,193110,1,0,0:0:0:0:
64,64,193139,1,0,0:0:0:0:
64,64,193454,1,0,0:0:0:0:
64,64,193481,1,0,0:0:0:0:
64,64,193787,1,0,0:0:0:0:
64,64,193815,1,0,0:0:0:0:
320,64,193898,1,8,0:0:0:0:
256,192,194009,12,0,194231,0:0:0:0:
64,64,194342,5,0,0:0:0:0:
64,64,194452,1,0,0:0:0:0:
64,64,194562,1,0,0:0:0:0:
64,64,194672,1,0,0:0:0:0:
320,64,194783,1,8,0:0:0:0:
320,64,194838,1,8,0:0:0:0:
320,64,194893,1,8,0:0:0:0:
320,64,194948,1,8,0:0:0:0:
64,64,195003,1,0,0:0:0:0:
64,64,195113,1,0,0:0:0:0:
64,64,195224,1,0,0:0:0:0:
64,64,195331,1,0,0:0:0:0:
320,64,195439,1,8,0:0:0:0:
320,64,195493,1,8,0:0:0:0:
64,64,195547,1,0,0:0:0:0:
64,64,195601,1,0,0:0:0:0:
320,64,195655,1,8,0:0:0:0:
64,64,196087,1,0,0:0:0:0:
64,64,196193,1,0,0:0:0:0:
64,64,196299,1,0,0:0:0:0:
64,64,196406,1,0,0:0:0:0:
320,64,196512,1,8,0:0:0:0:
320,64,196565,1,8,0:0:0:0:
320,64,196618,1,8,0:0:0:0:
320,64,196672,1,8,0:0:0:0:
64,64,196725,1,0,0:0:0:0:
64,64,196831,1,0,0:0:0:0:
64,64,196938,1,0,0:0:0:0:
64,64,197042,1,0,0:0:0:0:
320,64,197147,1,8,0:0:0:0:
64,64,197200,1,0,0:0:0:0:
64,64,197252,1,0,0:0:0:0:
64,64,197305,1,0,0:0:0:0:
320,64,197357,1,8,0:0:0:0:
64,64,197777,1,0,0:0:0:0:
64,64,197880,1,0,0:0:0:0:
64,64,197983,1,0,0:0:0:0:
64,64,198087,1,0,0:0:0:0:
320,64,198190,1,8,0:0:0:0:
320,64,198242,1,8,0:0:0:0:
320,64,198294,1,8,0:0:0:0:
320,64,198345,1,8,0:0:0:0:
64,64,198397,1,0,0:0:0:0:
64,64,198501,1,0,0:0:0:0:
64,64,198604,1,0,0:0:0:0:
64,64,198704,1,0,0:0:0:0:
320,64,198805,1,8,0:0:0:0:
320,64,198855,1,8,0:0:0:0:
64,64,198906,1,0,0:0:0:0:
64,64,198956,1,0,0:0:0:0:
320,64,199006,1,8,0:0:0:0:
320,64,199409,1,8,0:0:0:0:
320,64,199459,1,8,0:0:0:0:
64,64,199509,1,0,0:0:0:0:
64,64,199609,1,0,0:0:0:0:
320,64,199709,1,8,0:0:0:0:
320,64,199759,1,8,0:0:0:0:
64,64,199809,1,0,0:0:0:0:
64,64,199909,1,0,0:0:0:0:
320,64,200009,1,8,0:0:0:0:
320,64,200059,1,8,0:0:0:0:
64,64,200109,1,0,0:0:0:0:
64,64,200209,1,0,0:0:0:0:
320,64,200309,1,8,0:0:0:0:
320,64,200359,1,8,0:0:0:0:
64,64,200409,1,0,0:0:0:0:
64,64,200509,1,0,0:0:0:0:
320,64,200609,1,8,0:0:0:0:
64,64,200809,1,0,0:0:0:0:
320,64,200995,1,12,0:0:0:0:
64,64,205602,1,0,0:0:0:0:
64,64,205651,1,0,0:0:0:0:
320,64,205700,1,8,0:0:0:0:
64,64,206142,1,0,0:0:0:0:
320,64,206289,1,8,0:0:0:0:
320,64,206436,1,8,0:0:0:0:
64,64,206583,1,0,0:0:0:0:
320,64,206730,1,8,0:0:0:0:
64,64,206877,1,0,0:0:0:0:
320,64,207024,1,8,0:0:0:0:
320,64,207171,1,8,0:0:0:0:
64,64,207318,1,0,0:0:0:0:
64,64,207465,1,0,0:0:0:0:
320,64,207612,1,8,0:0:0:0:
320,64,207759,1,8,0:0:0:0:
64,64,207906,1,0,0:0:0:0:
320,64,208053,1,8,0:0:0:0:
64,64,208347,1,0,0:0:0:0:
320,64,208495,1,8,0:0:0:0:
320,64,208678,1,8,0:0:0:0:
320,64,208862,1,8,0:0:0:0:
320,64,209046,1,8,0:0:0:0:
320,64,209230,1,8,0:0:0:0:
64,64,209303,1,0,0:0:0:0:
320,64,209377,1,8,0:0:0:0:
64,64,209524,1,0,0:0:0:0:
64,64,209597,1,0,0:0:0:0:
320,64,209671,1,8,0:0:0:0:
64,64,209745,1,0,0:0:0:0:
320,64,209818,1,8,0:0:0:0:
320,64,209965,1,8,0:0:0:0:
320,64,210112,1,8,0:0:0:0:
320,64,210259,1,8,0:0:0:0:
64,64,210406,5,4,0:0:0:0:
64,64,210553,1,4,0:0:0:0:
64,64,210700,1,4,0:0:0:0:
64,64,210847,1,4,0:0:0:0:
256,192,210995,12,0,211142,0:0:0:0:
320,64,211289,5,12,0:0:0:0:
320,64,211436,1,12,0:0:0:0:
320,64,211583,1,12,0:0:0:0:
320,64,211730,1,12,0:0:0:0:
256,192,211877,12,0,212024,0:0:0:0:
64,64,212171,5,0,0:0:0:0:
64,64,212318,1,0,0:0:0:0:
64,64,212465,1,0,0:0:0:0:
64,64,212612,1,0,0:0:0:0:
320,64,212759,1,4,0:0:0:0:
320,64,212906,1,4,0:0:0:0:
320,64,213053,1,4,0:0:0:0:
320,64,213200,1,4,0:0:0:0:
256,192,213347,12,0,213495,0:0:0:0:
320,64,213642,5,12,0:0:0:0:
320,64,213789,1,12,0:0:0:0:
320,64,213936,1,12,0:0:0:0:
320,64,214083,1,12,0:0:0:0:
256,192,214230,12,0,214524,0:0:0:0:
64,64,214720,5,0,0:0:0:0:
320,64,214769,1,8,0:0:0:0:
64,64,214916,1,0,0:0:0:0:
64,64,215112,1,4,0:0:0:0:
64,64,215259,1,4,0:0:0:0:
64,64,215406,1,4,0:0:0:0:
64,64,215553,1,4,0:0:0:0:
256,192,215700,12,0,215847,0:0:0:0:
320,64,215995,5,12,0:0:0:0:
320,64,216142,1,12,0:0:0:0:
320,64,216289,1,12,0:0:0:0:
320,64,216436,1,12,0:0:0:0:
256,192,216583,12,0,216730,0:0:0:0:
320,64,216877,5,8,0:0:0:0:
320,64,216950,1,8,0:0:0:0:
320,64,217024,1,8,0:0:0:0:
320,64,217171,1,8,0:0:0:0:
320,64,217318,1,8,0:0:0:0:
64,64,217465,1,4,0:0:0:0:
64,64,217612,1,4,0:0:0:0:
64,64,217759,1,4,0:0:0:0:
64,64,217906,1,4,0:0:0:0:
256,192,218053,12,0,218200,0:0:0:0:
320,64,218347,5,12,0:0:0:0:
320,64,218495,1,12,0:0:0:0:
320,64,218642,1,12,0:0:0:0:
320,64,218789,1,12,0:0:0:0:
256,192,218936,12,0,219671,0:0:0:0:
64,64,219818,5,0,0:0:0:0:
64,64,219965,1,0,0:0:0:0:
64,64,220039,1,0,0:0:0:0:
64,64,220112,1,0,0:0:0:0:
64,64,220259,1,0,0:0:0:0:
320,64,220406,1,8,0:0:0:0:
64,64,220553,1,0,0:0:0:0:
320,64,220627,1,8,0:0:0:0:
64,64,220700,1,0,0:0:0:0:
320,64,220847,1,8,0:0:0:0:
64,64,220994,1,0,0:0:0:0:
64,64,221142,1,0,0:0:0:0:
64,64,221215,1,0,0:0:0:0:
64,64,221289,1,0,0:0:0:0:
64,64,221435,1,0,0:0:0:0:
320,64,221583,1,8,0:0:0:0:
64,64,221730,1,0,0:0:0:0:
320,64,221803,1,8,0:0:0:0:
64,64,221877,1,0,0:0:0:0:
64,64,221950,1,0,0:0:0:0:
320,64,222024,1,8,0:0:0:0:
64,64,222171,1,0,0:0:0:0:
64,64,222318,1,0,0:0:0:0:
64,64,222392,1,0,0:0:0:0:
64,64,222465,1,0,0:0:0:0:
64,64,222612,1,0,0:0:0:0:
320,64,222759,1,8,0:0:0:0:
64,64,222906,1,0,0:0:0:0:
320,64,222980,1,8,0:0:0:0:
64,64,223053,1,0,0:0:0:0:
320,64,223200,1,8,0:0:0:0:
64,64,223347,1,0,0:0:0:0:
64,64,223494,1,0,0:0:0:0:
64,64,223568,1,0,0:0:0:0:
64,64,223642,1,0,0:0:0:0:
64,64,223788,1,0,0:0:0:0:
320,64,223935,1,8,0:0:0:0:
64,64,224083,1,0,0:0:0:0:
64,64,224156,1,0,0:0:0:0:
320,64,224230,1,8,0:0:0:0:
320,64,224303,1,8,0:0:0:0:
64,64,224377,1,0,0:0:0:0:
320,64,224450,1,8,0:0:0:0:
64,64,224524,1,0,0:0:0:0:
320,64,224671,1,8,0:0:0:0:
320,64,224745,1,8,0:0:0:0:
64,64,224818,1,0,0:0:0:0:
320,64,224965,1,8,0:0:0:0:
64,64,225112,1,0,0:0:0:0:
64,64,225259,1,0,0:0:0:0:
320,64,225333,1,8,0:0:0:0:
64,64,225406,1,0,0:0:0:0:
320,64,225553,1,8,0:0:0:0:
64,64,225700,1,0,0:0:0:0:
320,64,225847,1,8,0:0:0:0:
64,64,225921,1,0,0:0:0:0:
320,64,225995,1,8,0:0:0:0:
320,64,226142,1,8,0:0:0:0:
64,64,226289,1,0,0:0:0:0:
320,64,226436,1,8,0:0:0:0:
320,64,226509,1,8,0:0:0:0:
64,64,226583,1,0,0:0:0:0:
320,64,226730,1,8,0:0:0:0:
64,64,226877,1,0,0:0:0:0:
64,64,226950,1,0,0:0:0:0:
320,64,227024,1,8,0:0:0:0:
320,64,227097,1,8,0:0:0:0:
64,64,227171,1,0,0:0:0:0:
64,64,227245,1,0,0:0:0:0:
320,64,227318,1,8,0:0:0:0:
320,64,227392,1,8,0:0:0:0:
64,64,227465,1,0,0:0:0:0:
64,64,227539,1,0,0:0:0:0:
320,64,227612,1,8,0:0:0:0:
320,64,227686,1,8,0:0:0:0:
64,64,227759,1,0,0:0:0:0:
64,64,227833,1,0,0:0:0:0:
320,64,227906,1,8,0:0:0:0:
320,64,228053,1,8,0:0:0:0:
320,64,228127,1,8,0:0:0:0:
320,64,228200,1,8,0:0:0:0:
320,64,228347,1,8,0:0:0:0:
320,64,228421,1,8,0:0:0:0:
320,64,228494,1,8,0:0:0:0:
320,64,228642,1,8,0:0:0:0:
320,64,228715,1,8,0:0:0:0:
320,64,228788,1,8,0:0:0:0:
320,64,228936,1,12,0:0:0:0:
320,64,229230,1,8,0:0:0:0:
320,64,229377,1,8,0:0:0:0:
64,64,229524,1,0,0:0:0:0:
320,64,229671,1,8,0:0:0:0:
320,64,229745,1,8,0:0:0:0:
64,64,229818,1,0,0:0:0:0:
320,64,229965,1,8,0:0:0:0:
64,64,230112,1,0,0:0:0:0:
320,64,230259,1,8,0:0:0:0:
64,64,230333,1,0,0:0:0:0:
320,64,230406,1,8,0:0:0:0:
64,64,230553,1,0,0:0:0:0:
64,64,230700,1,0,0:0:0:0:
320,64,230847,1,8,0:0:0:0:
64,64,230995,1,0,0:0:0:0:
320,64,231142,1,8,0:0:0:0:
64,64,231215,1,0,0:0:0:0:
320,64,231289,1,8,0:0:0:0:
320,64,231362,1,8,0:0:0:0:
64,64,231436,1,0,0:0:0:0:
320,64,231509,1,8,0:0:0:0:
64,64,231583,1,0,0:0:0:0:
320,64,231730,1,8,0:0:0:0:
64,64,231877,1,0,0:0:0:0:
320,64,232024,1,8,0:0:0:0:
320,64,232097,1,8,0:0:0:0:
64,64,232171,1,0,0:0:0:0:
320,64,232318,1,8,0:0:0:0:
64,64,232465,1,0,0:0:0:0:
320,64,232612,1,8,0:0:0:0:
64,64,232686,1,0,0:0:0:0:
320,64,232759,1,8,0:0:0:0:
64,64,232906,1,0,0:0:0:0:
64,64,233053,1,0,0:0:0:0:
320,64,233200,1,8,0:0:0:0:
64,64,233347,1,0,0:0:0:0:
320,64,233495,1,8,0:0:0:0:
64,64,233642,1,0,0:0:0:0:
320,64,233715,1,8,0:0:0:0:
320,64,233789,1,8,0:0:0:0:
64,64,233862,1,0,0:0:0:0:
320,64,233936,1,8,0:0:0:0:
320,64,234083,1,8,0:0:0:0:
320,64,234156,1,8,0:0:0:0:
64,64,234230,1,0,0:0:0:0:
320,64,234377,1,8,0:0:0:0:
64,64,234524,1,0,0:0:0:0:
320,64,234671,1,8,0:0:0:0:
64,64,234818,1,0,0:0:0:0:
320,64,234965,1,8,0:0:0:0:
64,64,235039,1,0,0:0:0:0:
320,64,235112,1,8,0:0:0:0:
320,64,235259,1,8,0:0:0:0:
320,64,235333,1,8,0:0:0:0:
64,64,235406,1,0,0:0:0:0:
320,64,235553,1,8,0:0:0:0:
64,64,235700,1,0,0:0:0:0:
320,64,235847,1,8,0:0:0:0:
64,64,235995,1,0,0:0:0:0:
320,64,236068,1,8,0:0:0:0:
64,64,236142,1,0,0:0:0:0:
64,64,236215,1,0,0:0:0:0:
320,64,236289,1,8,0:0:0:0:
64,64,236436,1,0,0:0:0:0:
64,64,236509,1,0,0:0:0:0:
320,64,236583,1,8,0:0:0:0:
64,64,236656,1,0,0:0:0:0:
320,64,236730,1,8,0:0:0:0:
64,64,236877,1,0,0:0:0:0:
320,64,237024,1,8,0:0:0:0:
64,64,237171,1,0,0:0:0:0:
64,64,237245,1,0,0:0:0:0:
320,64,237318,1,8,0:0:0:0:
64,64,237392,1,0,0:0:0:0:
320,64,237465,1,12,0:0:0:0:
320,64,237612,1,8,0:0:0:0:
64,64,237759,1,0,0:0:0:0:
320,64,237906,1,12,0:0:0:0:
64,64,238200,1,0,0:0:0:0:
64,64,238274,1,0,0:0:0:0:
320,64,238347,1,8,0:0:0:0:
320,64,238421,1,8,0:0:0:0:
320,64,238495,1,8,0:0:0:0:
64,64,238568,1,0,0:0:0:0:
320,64,238642,1,12,0:0:0:0:
320,64,238789,1,8,0:0:0:0:
64,64,238936,1,0,0:0:0:0:
320,64,239083,1,8,0:0:0:0:
320,64,239156,1,8,0:0:0:0:
64,64,239230,1,0,0:0:0:0:
320,64,239377,1,8,0:0:0:0:
64,64,239524,1,0,0:0:0:0:
320,64,239671,1,8,0:0:0:0:
64,64,239745,1,0,0:0:0:0:
320,64,239818,1,8,0:0:0:0:
64,64,239965,1,0,0:0:0:0:
64,64,240112,1,0,0:0:0:0:
320,64,240259,1,8,0:0:0:0:
64,64,240406,1,0,0:0:0:0:
320,64,240553,1,8,0:0:0:0:
320,64,240627,1,8,0:0:0:0:
64,64,240700,1,0,0:0:0:0:
320,64,240774,1,8,0:0:0:0:
320,64,240847,1,8,0:0:0:0:
320,64,240921,1,8,0:0:0:0:
64,64,240995,1,4,0:0:0:0:
64,64,241142,1,4,0:0:0:0:
320,64,241289,1,8,0:0:0:0:
320,64,241436,1,8,0:0:0:0:
320,64,241509,1,8,0:0:0:0:
64,64,241583,1,0,0:0:0:0:
320,64,241730,1,8,0:0:0:0:
64,64,241877,1,0,0:0:0:0:
320,64,242024,1,8,0:0:0:0:
64,64,242097,1,0,0:0:0:0:
320,64,242171,1,8,0:0:0:0:
64,64,242318,1,0,0:0:0:0:
64,64,242465,1,0,0:0:0:0:
320,64,242612,1,8,0:0:0:0:
64,64,242759,1,0,0:0:0:0:
320,64,242906,1,8,0:0:0:0:
64,64,242980,1,0,0:0:0:0:
320,64,243053,1,8,0:0:0:0:
320,64,243127,1,8,0:0:0:0:
320,64,243200,1,8,0:0:0:0:
64,64,243274,1,0,0:0:0:0:
320,64,243347,1,8,0:0:0:0:
320,64,243495,1,8,0:0:0:0:
64,64,243642,1,0,0:0:0:0:
64,64,243789,1,0,0:0:0:0:
64,64,243862,1,0,0:0:0:0:
320,64,243936,1,12,0:0:0:0:
64,64,244083,1,0,0:0:0:0:
320,64,244156,1,12,0:0:0:0:
64,64,244303,1,0,0:0:0:0:
320,64,244377,1,12,0:0:0:0:
320,64,244524,1,8,0:0:0:0:
320,64,244671,1,8,0:0:0:0:
64,64,244818,1,0,0:0:0:0:
320,64,244965,1,8,0:0:0:0:
64,64,245039,1,0,0:0:0:0:
320,64,245112,1,12,0:0:0:0:
64,64,245259,1,0,0:0:0:0:
320,64,245333,1,12,0:0:0:0:
64,64,245480,1,0,0:0:0:0:
320,64,245553,1,12,0:0:0:0:
64,64,245700,1,0,0:0:0:0:
64,64,245847,1,0,0:0:0:0:
320,64,245995,1,8,0:0:0:0:
320,64,246044,1,8,0:0:0:0:
320,64,246093,1,8,0:0:0:0:
64,64,246142,1,0,0:0:0:0:
320,64,246289,1,8,0:0:0:0:
64,64,246436,1,0,0:0:0:0:
64,64,246509,1,0,0:0:0:0:
320,64,246583,1,8,0:0:0:0:
64,64,246730,1,0,0:0:0:0:
64,64,246803,1,0,0:0:0:0:
320,64,246877,1,8,0:0:0:0:
64,64,247024,1,0,0:0:0:0:
320,64,247171,1,8,0:0:0:0:
64,64,247318,1,0,0:0:0:0:
96,288,247465,2,0,P|224:256|352:352,1,293.999991027832
256,192,248053,12,0,248495,0:0:0:0:
320,64,248642,5,12,0:0:0:0:
320,64,248936,1,8,0:0:0:0:
64,64,249083,1,0,0:0:0:0:
64,64,249377,1,0,0:0:0:0:
64,64,249671,1,0,0:0:0:0:
320,64,249818,1,8,0:0:0:0:
64,64,249965,1,0,0:0:0:0:
64,64,250039,1,0,0:0:0:0:
320,64,250112,1,8,0:0:0:0:
320,64,250186,1,8,0:0:0:0:
64,64,250259,1,0,0:0:0:0:
320,64,250333,1,8,0:0:0:0:
64,64,250406,1,0,0:0:0:0:
64,64,250700,1,0,0:0:0:0:
64,64,250847,1,0,0:0:0:0:
320,64,250995,1,8,0:0:0:0:
320,64,251289,1,8,0:0:0:0:
64,64,251436,1,0,0:0:0:0:
64,64,251730,1,0,0:0:0:0:
64,64,252024,1,0,0:0:0:0:
64,64,252171,1,0,0:0:0:0:
64,64,252245,1,0,0:0:0:0:
320,64,252318,1,8,0:0:0:0:
64,64,252392,1,0,0:0:0:0:
320,64,252465,1,8,0:0:0:0:
320,64,252539,1,8,0:0:0:0:
64,64,252612,1,0,0:0:0:0:
64,64,252686,1,0,0:0:0:0:
320,64,252759,1,12,0:0:0:0:
64,64,252906,1,0,0:0:0:0:
320,64,252980,1,8,0:0:0:0:
64,64,253053,1,0,0:0:0:0:
320,64,253200,1,8,0:0:0:0:
64,64,253347,1,0,0:0:0:0:
320,64,253495,1,8,0:0:0:0:
64,64,253642,1,0,0:0:0:0:
320,64,253715,1,8,0:0:0:0:
64,64,253789,1,0,0:0:0:0:
64,64,253862,1,0,0:0:0:0:
320,64,253936,1,8,0:0:0:0:
320,64,254083,1,8,0:0:0:0:
320,64,254156,1,8,0:0:0:0:
64,64,254230,1,0,0:0:0:0:
320,64,254377,1,8,0:0:0:0:
64,64,254524,1,0,0:0:0:0:
320,64,254671,1,8,0:0:0:0:
320,64,254818,1,8,0:0:0:0:
64,64,254892,1,0,0:0:0:0:
64,64,254965,1,0,0:0:0:0:
64,64,255039,1,0,0:0:0:0:
320,64,255112,1,8,0:0:0:0:
64,64,255259,1,0,0:0:0:0:
64,64,255333,1,0,0:0:0:0:
320,64,255406,1,8,0:0:0:0:
320,64,255553,1,8,0:0:0:0:
64,64,255700,1,0,0:0:0:0:
64,64,255774,1,0,0:0:0:0:
320,64,255847,1,8,0:0:0:0:
64,64,255995,1,0,0:0:0:0:
320,64,256142,1,8,0:0:0:0:
64,64,256215,1,0,0:0:0:0:
320,64,256289,1,12,0:0:0:0:
64,64,256436,1,0,0:0:0:0:
320,64,256509,1,12,0:0:0:0:
320,64,256656,1,8,0:0:0:0:
64,64,256730,1,4,0:0:0:0:
64,64,256877,1,0,0:0:0:0:
320,64,256950,1,12,0:0:0:0:
320,64,257097,1,8,0:0:0:0:
64,64,257171,1,0,0:0:0:0:
64,64,257245,1,0,0:0:0:0:
320,64,257318,1,8,0:0:0:0:
256,192,257465,12,0,257906,0:0:0:0:
320,64,258053,5,12,0:0:0:0:
320,64,258347,1,8,0:0:0:0:
64,64,258495,1,0,0:0:0:0:
64,64,258789,1,0,0:0:0:0:
64,64,259083,1,0,0:0:0:0:
320,64,259230,1,8,0:0:0:0:
64,64,259377,1,0,0:0:0:0:
320,64,259450,1,8,0:0:0:0:
64,64,259524,1,0,0:0:0:0:
64,64,259597,1,0,0:0:0:0:
320,64,259671,1,8,0:0:0:0:
64,64,259745,1,0,0:0:0:0:
320,64,259818,1,8,0:0:0:0:
64,64,260112,1,0,0:0:0:0:
64,64,260259,1,0,0:0:0:0:
320,64,260406,1,8,0:0:0:0:
320,64,260700,1,8,0:0:0:0:
64,64,260847,1,0,0:0:0:0:
64,64,261142,1,0,0:0:0:0:
64,64,261289,1,0,0:0:0:0:
64,64,261362,1,0,0:0:0:0:
64,64,261436,1,0,0:0:0:0:
64,64,261509,1,0,0:0:0:0:
320,64,261583,1,8,0:0:0:0:
64,64,261730,1,0,0:0:0:0:
64,64,261803,1,0,0:0:0:0:
320,64,261877,1,8,0:0:0:0:
320,64,261950,1,8,0:0:0:0:
320,64,262024,1,8,0:0:0:0:
64,64,262097,1,0,0:0:0:0:
320,64,262171,1,12,0:0:0:0:
64,64,262318,1,0,0:0:0:0:
320,64,262465,1,8,0:0:0:0:
64,64,262612,1,0,0:0:0:0:
64,64,262686,1,0,0:0:0:0:
320,64,262759,1,8,0:0:0:0:
64,64,262906,1,0,0:0:0:0:
320,64,262980,1,8,0:0:0:0:
64,64,263127,1,0,0:0:0:0:
320,64,263200,1,8,0:0:0:0:
64,64,263274,1,0,0:0:0:0:
320,64,263347,1,12,0:0:0:0:
64,64,263495,1,0,0:0:0:0:
320,64,263642,1,8,0:0:0:0:
64,64,263789,1,0,0:0:0:0:
64,64,263862,1,0,0:0:0:0:
320,64,263936,1,8,0:0:0:0:
320,64,264009,1,8,0:0:0:0:
64,64,264083,1,0,0:0:0:0:
320,64,264156,1,8,0:0:0:0:
64,64,264230,1,0,0:0:0:0:
64,64,264303,1,0,0:0:0:0:
320,64,264377,1,8,0:0:0:0:
320,64,264524,1,8,0:0:0:0:
320,64,264597,1,8,0:0:0:0:
64,64,264671,1,0,0:0:0:0:
64,64,264745,1,0,0:0:0:0:
320,64,264818,1,8,0:0:0:0:
64,64,264892,1,0,0:0:0:0:
320,64,264965,1,8,0:0:0:0:
320,64,265039,1,8,0:0:0:0:
320,64,265259,1,8,0:0:0:0:
320,64,265406,1,8,0:0:0:0:
64,64,265553,1,0,0:0:0:0:
64,64,265847,1,0,0:0:0:0:
64,64,265995,1,0,0:0:0:0:
320,64,266142,1,8,0:0:0:0:
64,64,266436,1,0,0:0:0:0:
320,64,266509,1,8,0:0:0:0:
320,64,266583,1,8,0:0:0:0:
64,64,266656,1,0,0:0:0:0:
320,64,266730,1,8,0:0:0:0:
64,64,266803,1,0,0:0:0:0:
320,64,266877,1,8,0:0:0:0:
64,64,266950,1,0,0:0:0:0:
64,64,267024,1,0,0:0:0:0:
64,64,267097,1,0,0:0:0:0:
320,64,267171,1,8,0:0:0:0:
320,64,267245,1,8,0:0:0:0:
64,64,267318,1,0,0:0:0:0:
64,64,267392,1,0,0:0:0:0:
64,64,267465,1,0,0:0:0:0:
320,64,267539,1,8,0:0:0:0:
64,64,267612,1,0,0:0:0:0:
320,64,267686,1,8,0:0:0:0:
320,64,267759,1,8,0:0:0:0:
64,64,267833,1,0,0:0:0:0:
64,64,267906,1,0,0:0:0:0:
64,64,267980,1,0,0:0:0:0:
256,192,268053,12,8,268789,0:0:0:0:
320,64,268936,5,12,0:0:0:0:
64,64,269230,1,0,0:0:0:0:
64,64,269279,1,0,0:0:0:0:
64,64,269328,1,0,0:0:0:0:
320,64,269377,1,8,0:0:0:0:
320,64,269426,1,8,0:0:0:0:
320,64,269475,1,8,0:0:0:0:
64,64,269524,1,0,0:0:0:0:
64,64,269671,1,0,0:0:0:0:
64,64,269745,1,0,0:0:0:0:
320,64,269818,1,8,0:0:0:0:
320,64,269892,1,8,0:0:0:0:
320,64,269965,1,8,0:0:0:0:
64,64,270112,1,0,0:0:0:0:
64,64,270186,1,0,0:0:0:0:
320,64,270259,1,8,0:0:0:0:
320,64,270333,1,8,0:0:0:0:
320,64,270406,1,8,0:0:0:0:
64,64,270553,1,0,0:0:0:0:
64,64,270627,1,0,0:0:0:0:
320,64,270700,1,8,0:0:0:0:
320,64,270774,1,8,0:0:0:0:
320,64,270847,1,8,0:0:0:0:
64,64,270995,1,0,0:0:0:0:
64,64,271068,1,0,0:0:0:0:
320,64,271142,1,8,0:0:0:0:
64,64,271215,1,0,0:0:0:0:
320,64,271289,1,8,0:0:0:0:
320,64,271338,1,8,0:0:0:0:
320,64,271387,1,8,0:0:0:0:
64,64,271436,1,0,0:0:0:0:
64,64,271583,1,0,0:0:0:0:
320,64,271730,1,8,0:0:0:0:
320,64,271767,1,8,0:0:0:0:
320,64,271877,1,8,0:0:0:0:
320,64,271914,1,8,0:0:0:0:
64,64,272024,1,0,0:0:0:0:
64,64,272097,1,0,0:0:0:0:
320,64,272171,1,8,0:0:0:0:
320,64,272245,1,8,0:0:0:0:
320,64,272318,1,8,0:0:0:0:
64,64,272465,1,0,0:0:0:0:
64,64,272539,1,0,0:0:0:0:
320,64,272612,1,8,0:0:0:0:
320,64,272686,1,8,0:0:0:0:
320,64,272759,1,8,0:0:0:0:
64,64,272906,1,0,0:0:0:0:
64,64,272980,1,0,0:0:0:0:
320,64,273053,1,8,0:0:0:0:
320,64,273127,1,8,0:0:0:0:
320,64,273200,1,8,0:0:0:0:
64,64,273347,1,0,0:0:0:0:
64,64,273421,1,0,0:0:0:0:
320,64,273495,1,8,0:0:0:0:
64,64,273642,1,0,0:0:0:0:
64,64,273936,1,0,0:0:0:0:
64,64,273985,1,0,0:0:0:0:
64,64,274034,1,0,0:0:0:0:
320,64,274083,1,8,0:0:0:0:
320,64,274132,1,8,0:0:0:0:
320,64,274181,1,8,0:0:0:0:
64,64,274230,1,0,0:0:0:0:
320,64,274524,1,8,0:0:0:0:
64,64,274597,1,0,0:0:0:0:
320,64,274671,1,8,0:0:0:0:
320,64,274818,1,8,0:0:0:0:
64,64,274892,1,0,0:0:0:0:
320,64,274965,1,8,0:0:0:0:
320,64,275112,1,8,0:0:0:0:
64,64,275186,1,0,0:0:0:0:
320,64,275259,1,8,0:0:0:0:
320,64,275406,1,8,0:0:0:0:
64,64,275480,1,0,0:0:0:0:
320,64,275553,1,8,0:0:0:0:
320,64,275700,1,8,0:0:0:0:
320,64,275847,1,8,0:0:0:0:
64,64,275995,1,0,0:0:0:0:
64,64,276044,1,0,0:0:0:0:
64,64,276093,1,0,0:0:0:0:
320,64,276142,1,8,0:0:0:0:
320,64,276191,1,8,0:0:0:0:
320,64,276240,1,8,0:0:0:0:
64,64,276289,1,0,0:0:0:0:
64,64,276362,1,0,0:0:0:0:
320,64,276436,1,8,0:0:0:0:
320,64,276583,1,8,0:0:0:0:
64,64,276632,1,0,0:0:0:0:
64,64,276681,1,0,0:0:0:0:
320,64,276730,1,8,0:0:0:0:
320,64,276877,1,8,0:0:0:0:
320,64,277097,1,8,0:0:0:0:
320,64,277171,1,8,0:0:0:0:
320,64,277318,1,8,0:0:0:0:
320,64,277392,1,8,0:0:0:0:
320,64,277465,1,8,0:0:0:0:
320,64,277686,1,8,0:0:0:0:
320,64,277759,1,8,0:0:0:0:
320,64,277906,1,8,0:0:0:0:
320,64,277980,1,8,0:0:0:0:
320,64,278053,1,8,0:0:0:0:
64,64,278127,1,0,0:0:0:0:
64,64,278200,1,0,0:0:0:0:
320,64,278274,1,8,0:0:0:0:
64,64,278347,1,0,0:0:0:0:
64,64,278421,1,0,0:0:0:0:
320,64,278495,1,8,0:0:0:0:
320,64,278568,1,8,0:0:0:0:
64,64,278642,1,0,0:0:0:0:
64,64,278691,1,0,0:0:0:0:
64,64,278740,1,0,0:0:0:0:
320,64,278789,1,8,0:0:0:0:
320,64,278838,1,8,0:0:0:0:
320,64,278887,1,8,0:0:0:0:
64,64,278936,1,0,0:0:0:0:
64,64,279083,1,0,0:0:0:0:
64,64,279156,1,0,0:0:0:0:
320,64,279230,1,8,0:0:0:0:
320,64,279303,1,8,0:0:0:0:
320,64,279377,1,8,0:0:0:0:
64,64,279524,1,0,0:0:0:0:
64,64,279597,1,0,0:0:0:0:
320,64,279671,1,8,0:0:0:0:
320,64,279818,1,8,0:0:0:0:
320,64,279892,1,8,0:0:0:0:
64,64,279965,1,0,0:0:0:0:
64,64,280038,1,0,0:0:0:0:
320,64,280112,1,8,0:0:0:0:
320,64,280186,1,8,0:0:0:0:
320,64,280259,1,8,0:0:0:0:
64,64,280406,1,0,0:0:0:0:
64,64,280480,1,0,0:0:0:0:
320,64,280553,1,8,0:0:0:0:
64,64,280627,1,0,0:0:0:0:
320,64,280700,1,8,0:0:0:0:
320,64,280749,1,8,0:0:0:0:
320,64,280798,1,8,0:0:0:0:
64,64,280847,1,0,0:0:0:0:
64,64,280921,1,0,0:0:0:0:
320,64,280995,1,8,0:0:0:0:
64,64,281043,1,0,0:0:0:0:
64,64,281092,1,0,0:0:0:0:
320,64,281141,1,8,0:0:0:0:
64,64,281436,1,0,0:0:0:0:
64,64,281509,1,0,0:0:0:0:
320,64,281583,1,12,0:0:0:0:
320,64,281730,1,8,0:0:0:0:
64,64,281877,1,0,0:0:0:0:
64,64,281950,1,0,0:0:0:0:
320,64,282024,1,12,0:0:0:0:
64,64,282318,1,0,0:0:0:0:
64,64,282392,1,0,0:0:0:0:
320,64,282465,1,12,0:0:0:0:
64,64,282759,1,0,0:0:0:0:
64,64,282833,1,0,0:0:0:0:
320,64,282906,1,12,0:0:0:0:
320,64,283347,1,8,0:0:0:0:
320,64,283421,1,8,0:0:0:0:
64,64,283494,1,0,0:0:0:0:
320,64,283641,1,8,0:0:0:0:
64,64,283788,1,0,0:0:0:0:
320,64,283862,1,8,0:0:0:0:
64,64,283935,1,0,0:0:0:0:
320,64,284083,1,8,0:0:0:0:
320,64,284156,1,8,0:0:0:0:
64,64,284230,1,0,0:0:0:0:
320,64,284377,1,8,0:0:0:0:
64,64,284524,1,0,0:0:0:0:
320,64,284671,1,8,0:0:0:0:
64,64,284744,1,0,0:0:0:0:
320,64,284818,1,8,0:0:0:0:
64,64,284965,1,0,0:0:0:0:
320,64,285112,1,8,0:0:0:0:
64,64,285259,1,0,0:0:0:0:
320,64,285333,1,8,0:0:0:0:
64,64,285480,1,0,0:0:0:0:
320,64,285553,1,8,0:0:0:0:
64,64,285700,1,0,0:0:0:0:
64,64,285847,1,0,0:0:0:0:
64,64,285921,1,0,0:0:0:0:
320,64,285994,1,8,0:0:0:0:
64,64,286068,1,0,0:0:0:0:
320,64,286141,1,8,0:0:0:0:
64,64,286288,1,0,0:0:0:0:
320,64,286435,1,8,0:0:0:0:
64,64,286583,1,0,0:0:0:0:
64,64,286656,1,0,0:0:0:0:
64,64,286730,1,0,0:0:0:0:
64,64,286803,1,0,0:0:0:0:
320,64,286877,1,12,0:0:0:0:
64,64,287024,1,0,0:0:0:0:
320,64,287097,1,12,0:0:0:0:
64,64,287244,1,0,0:0:0:0:
320,64,287318,1,12,0:0:0:0:
320,64,287465,1,8,0:0:0:0:
64,64,287538,1,4,0:0:0:0:
64,64,287759,1,0,0:0:0:0:
320,64,288053,1,12,0:0:0:0:
320,64,288200,1,8,0:0:0:0:
64,64,288274,1,4,0:0:0:0:
64,64,288421,1,0,0:0:0:0:
320,64,288495,1,12,0:0:0:0:
320,64,288642,1,8,0:0:0:0:
64,64,288715,1,4,0:0:0:0:
64,64,288936,1,0,0:0:0:0:
64,64,289009,1,0,0:0:0:0:
64,64,289083,1,0,0:0:0:0:
64,64,289156,1,0,0:0:0:0:
320,64,289230,1,12,0:0:0:0:
64,64,289377,1,0,0:0:0:0:
320,64,289450,1,12,0:0:0:0:
320,64,289597,1,8,0:0:0:0:
64,64,289671,1,4,0:0:0:0:
64,64,289818,1,0,0:0:0:0:
320,64,289892,1,12,0:0:0:0:
64,64,290112,1,0,0:0:0:0:
320,64,290406,1,12,0:0:0:0:
320,64,290553,1,8,0:0:0:0:
64,64,290627,1,4,0:0:0:0:
320,64,290774,1,8,0:0:0:0:
64,64,290847,1,0,0:0:0:0:
64,64,290921,1,0,0:0:0:0:
320,64,290995,1,12,0:0:0:0:
320,64,291142,1,8,0:0:0:0:
64,64,291216,1,4,0:0:0:0:
64,64,291362,1,0,0:0:0:0:
320,64,291436,1,8,0:0:0:0:
320,64,291509,1,8,0:0:0:0:
64,64,291583,1,4,0:0:0:0:
320,64,292024,1,8,0:0:0:0:
64,64,293151,1,0,0:0:0:0:
64,64,293249,1,0,0:0:0:0:
320,64,293347,1,8,0:0:0:0:
64,64,293936,1,0,0:0:0:0:
320,64,294377,1,8,0:0:0:0:
320,64,295700,1,8,0:0:0:0:
320,64,296289,1,8,0:0:0:0:
64,64,296730,1,0,0:0:0:0:
64,64,297857,1,0,0:0:0:0:
64,64,297955,1,0,0:0:0:0:
320,64,298053,1,8,0:0:0:0:
320,64,298642,1,8,0:0:0:0:
64,64,299083,1,0,0:0:0:0:
320,64,299818,1,8,0:0:0:0:
64,64,300259,1,0,0:0:0:0:
320,64,300798,1,8,0:0:0:0:
320,64,300896,1,8,0:0:0:0:
64,64,300995,1,0,0:0:0:0:
320,64,301436,1,8,0:0:0:0:
64,64,302563,1,0,0:0:0:0:
64,64,302661,1,0,0:0:0:0:
320,64,302759,1,8,0:0:0:0:
64,64,303347,1,0,0:0:0:0:
320,64,303789,1,8,0:0:0:0:
320,64,304916,1,8,0:0:0:0:
320,64,305014,1,8,0:0:0:0:
64,64,305112,1,0,0:0:0:0:
320,64,305700,1,8,0:0:0:0:
320,64,306142,1,8,0:0:0:0:
64,64,306583,1,0,0:0:0:0:
320,64,306877,1,8,0:0:0:0:
64,64,307318,1,0,0:0:0:0:
64,64,307759,1,0,0:0:0:0:
320,64,308053,1,8,0:0:0:0:
64,64,308200,1,0,0:0:0:0:
64,64,308347,1,0,0:0:0:0:
320,64,308495,1,8,0:0:0:0:
64,64,308789,1,0,0:0:0:0:
64,64,308936,1,0,0:0:0:0:
320,64,309083,1,8,0:0:0:0:
64,64,309377,1,0,0:0:0:0:
64,64,309524,1,0,0:0:0:0:
320,64,309671,1,8,0:0:0:0:
320,64,310210,1,8,0:0:0:0:
320,64,310308,1,8,0:0:0:0:
64,64,310406,1,0,0:0:0:0:
64,64,315112,1,0,0:0:0:0:
320,64,315186,1,8,0:0:0:0:
320,64,315259,1,8,0:0:0:0:
64,64,317428,1,0,0:0:0:0:
320,64,317465,1,8,0:0:0:0:
64,64,318605,1,0,0:0:0:0:
320,64,318642,1,8,0:0:0:0:
64,64,319524,1,0,0:0:0:0:
64,64,319818,1,0,0:0:0:0:
