osu file format v14

[General]
AudioFilename: vstavit.mp3
AudioLeadIn: 0
PreviewTime: 0
Countdown: 0
SampleSet: None
StackLeniency: 0.2
Mode: 0
LetterboxInBreaks: 0
WidescreenStoryboard: 1

[Editor]
Bookmarks: 6434,12434,22034,41234,60434,70034,79634
DistanceSpacing: 0.1
BeatDivisor: 4
GridSize: 4
TimelineZoom: 2.2

[Metadata]
Title:/*encryption*/
TitleUnicode:/*encryption*/
Artist:Camellia
ArtistUnicode:かめりあ
Creator:Rose Pacifica
Version:Left
Source:
Tags:Stance on Wave kamelcamellia cametek
BeatmapID:1153228
BeatmapSetID:543744

[Difficulty]
HPDrainRate:6
CircleSize:4.3
OverallDifficulty:8
ApproachRate:9
SliderMultiplier:1.7
SliderTickRate:1

[Events]
//Background and Video events
0,0,"BG3.jpg",0,0
//Break Periods
//Storyboard Layer 0 (Background)
//Storyboard Layer 1 (Fail)
//Storyboard Layer 2 (Pass)
//Storyboard Layer 3 (Foreground)
//Storyboard Sound Samples

[TimingPoints]
2834,300,4,2,1,60,1,0
2834,-166.666666666667,4,2,1,60,0,0
20084,-142.857142857143,4,2,1,60,0,0
20534,-125,4,2,1,60,0,0
20834,-111.111111111111,4,2,1,60,0,0
21884,-100,4,2,1,60,0,0
31034,-76.9230769230769,4,2,1,60,0,0
31634,-100,4,2,1,60,0,0
50234,-76.9230769230769,4,2,1,60,0,0
50834,-100,4,2,1,60,0,0
60434,-166.666666666667,4,2,1,60,0,0
78134,-200,4,2,1,60,0,0

[Colours]
Combo1 : 17,254,176
Combo2 : 173,255,95
Combo3 : 255,88,100
Combo4 : 255,94,55

[HitObjects]
83,99,2834,5,0,0:0:0:0:
157,55,3734,1,0,0:0:0:0:
241,77,4634,1,0,0:0:0:0:
157,55,5084,1,0,0:0:0:0:
157,55,5159,1,0,0:0:0:0:
157,55,5234,6,0,P|140:126|145:209,2,152.999995330811
439,202,7334,2,0,L|444:144,1,50.9999984436036
429,285,7634,5,0,0:0:0:0:
355,329,8534,1,0,0:0:0:0:
271,307,9434,1,0,0:0:0:0:
355,329,9884,1,0,0:0:0:0:
355,329,9959,1,0,0:0:0:0:
355,329,10034,6,0,P|372:258|367:175,2,152.999995330811
90,91,12434,6,0,P|170:57|241:144,1,203.999993774414
203,253,13334,2,0,B|169:293|169:293|158:133,1,203.999993774414
276,43,14234,2,0,B|324:30|324:30|385:72,1,101.999996887207
311,120,14684,1,0,0:0:0:0:
311,120,14759,1,0,0:0:0:0:
311,120,14834,6,0,B|303:176|303:176|327:211|327:211|316:286,2,152.999995330811
73,240,16934,2,0,L|67:180,1,50.9999984436036
36,312,17234,6,0,P|83:320|135:292,1,101.999996887207
227,252,17684,1,0,0:0:0:0:
227,252,17759,1,0,0:0:0:0:
227,252,17834,2,0,L|234:319,1,50.9999984436036
130,296,18134,6,0,L|144:181,1,101.999996887207
216,133,18584,2,0,L|211:87,2,25.4999992218018
142,194,18884,1,0,0:0:0:0:
284,260,19034,2,0,P|329:264|381:229,1,101.999996887207
419,158,19484,1,0,0:0:0:0:
419,158,19559,1,0,0:0:0:0:
419,158,19634,6,0,L|411:105,1,50.9999984436036
371,33,19934,1,0,0:0:0:0:
335,165,20084,6,0,L|324:98,1,59.4999981842042
287,30,20384,1,0,0:0:0:0:
254,170,20534,6,0,L|243:94,1,68
172,178,20834,6,0,L|160:98,1,76.4999976654053
202,31,21059,1,0,0:0:0:0:
202,31,21134,1,0,0:0:0:0:
88,151,21284,1,0,0:0:0:0:
261,216,21434,1,0,0:0:0:0:
256,187,21509,1,0,0:0:0:0:
252,159,21584,1,0,0:0:0:0:
247,130,21659,1,0,0:0:0:0:
244,102,21734,1,0,0:0:0:0:
88,151,21884,2,0,L|80:226,1,42.5
7,165,22034,6,0,P|48:147|105:159,1,85
221,247,22334,2,0,L|240:316,3,42.5
199,174,22634,5,0,0:0:0:0:
255,361,22784,1,0,0:0:0:0:
199,174,22934,1,0,0:0:0:0:
178,285,23084,2,0,B|233:288|233:288|282:252|282:252|371:260,2,170
82,281,23834,6,0,P|28:282|85:302,1,170
178,285,24284,1,0,0:0:0:0:
332,189,24434,6,0,P|279:183|223:164,1,85
110,94,24734,2,0,L|122:32,3,42.5
53,164,25034,2,0,B|97:137|109:93|109:93|132:133|197:147,1,170
343,252,25484,6,0,P|282:193|199:254,1,170
346,268,25934,1,0,0:0:0:0:
207,238,26084,1,0,0:0:0:0:
340,347,26234,6,0,P|355:302|345:267,1,85
212,158,26534,1,0,0:0:0:0:
201,176,26609,1,0,0:0:0:0:
196,197,26684,2,0,P|201:227|216:251,1,42.5
345,267,26834,6,0,L|445:248,1,85
225,346,27134,1,0,0:0:0:0:
204,342,27209,1,0,0:0:0:0:
183,338,27284,1,0,0:0:0:0:
162,334,27359,1,0,0:0:0:0:
141,330,27434,1,0,0:0:0:0:
141,330,27734,5,0,0:0:0:0:
29,191,27884,2,0,B|70:168|108:191|108:191|160:228|222:170,1,170
262,137,28334,1,0,0:0:0:0:
332,304,28484,1,0,0:0:0:0:
391,236,28634,6,0,P|361:218|273:234,1,127.5
288,243,28934,2,0,P|328:230|384:254,1,85
448,80,29234,6,0,L|466:191,1,85
493,317,29534,2,0,L|502:371,3,42.5
475,240,29834,5,0,0:0:0:0:
295,296,29984,1,0,0:0:0:0:
475,240,30134,1,0,0:0:0:0:
414,309,30284,2,0,B|390:327|390:327|360:218|360:218|405:223,1,170
437,51,30734,5,0,0:0:0:0:
362,97,30884,2,0,P|333:106|289:101,1,42.5
195,143,31034,6,0,B|239:122|248:79|248:79|280:114|357:104,1,165.749992412568
447,86,31334,2,0,P|491:84|436:68,1,165.749992412568
319,106,31634,1,0,0:0:0:0:
137,302,31934,5,0,0:0:0:0:
127,275,32009,1,0,0:0:0:0:
121,249,32084,1,0,0:0:0:0:
118,221,32159,1,0,0:0:0:0:
119,193,32234,1,0,0:0:0:0:
215,235,32384,1,0,0:0:0:0:
35,270,32534,1,0,0:0:0:0:
215,235,32684,6,0,B|270:230|270:230|321:255|321:255|397:247,1,170
252,320,33134,1,0,0:0:0:0:
337,167,33284,1,0,0:0:0:0:
252,320,33434,6,0,B|172:356|172:356|128:264,1,170
215,235,33884,1,0,0:0:0:0:
73,129,34034,6,0,P|122:108|166:99,1,85
304,57,34334,2,0,L|310:-4,3,42.5
351,134,34634,2,0,B|310:106|304:58|304:58|266:90|228:89,1,170
88,224,35084,6,0,P|145:250|209:152,1,170
75,212,35534,1,0,0:0:0:0:
219,167,35684,1,0,0:0:0:0:
89,295,35834,6,0,L|70:184,1,85
204,83,36134,1,0,0:0:0:0:
207,103,36209,1,0,0:0:0:0:
212,125,36284,2,0,L|221:180,1,42.5
166,315,36434,6,0,P|121:316|74:268,1,85
256,262,36734,1,0,0:0:0:0:
276,258,36809,1,0,0:0:0:0:
297,260,36884,1,0,0:0:0:0:
317,268,36959,1,0,0:0:0:0:
333,282,37034,1,0,0:0:0:0:
333,282,37334,5,0,0:0:0:0:
352,41,37484,2,0,B|346:99|346:99|367:142|367:142|356:219,1,170
248,294,37934,1,0,0:0:0:0:
416,266,38084,1,0,0:0:0:0:
248,294,38234,6,0,P|186:293|117:273,1,127.5
149,259,38534,2,0,P|207:274|257:270,1,85
55,325,38834,6,0,B|37:285|37:285|51:223,1,85
96,98,39134,2,0,L|112:27,3,42.5
71,171,39434,5,0,0:0:0:0:
257,143,39584,1,0,0:0:0:0:
71,171,39734,1,0,0:0:0:0:
108,278,39884,2,0,P|179:302|267:220,1,170
408,153,40334,2,0,P|402:179|406:214,1,42.5
464,289,40484,2,0,P|463:267|458:247,1,42.5
330,226,40634,6,0,B|353:268|353:268|426:283|426:283|481:223,1,170
408,153,41084,1,0,0:0:0:0:
377,360,41234,5,0,0:0:0:0:
197,315,41384,1,0,0:0:0:0:
377,360,41534,2,0,L|433:352,3,42.5
280,369,41834,1,0,0:0:0:0:
197,315,42284,6,0,P|182:262|178:211,1,85
370,204,42584,1,0,0:0:0:0:
223,148,42734,1,0,0:0:0:0:
97,255,42884,6,0,P|152:244|202:216,1,85
223,148,43184,1,0,0:0:0:0:
370,204,43334,1,0,0:0:0:0:
376,224,43409,1,0,0:0:0:0:
380,245,43484,1,0,0:0:0:0:
384,266,43559,1,0,0:0:0:0:
385,287,43634,1,0,0:0:0:0:
290,260,43784,5,0,0:0:0:0:
470,227,43934,2,0,L|544:211,3,42.5
389,187,44234,2,0,P|478:162|504:249,1,170
368,290,44684,6,0,P|325:279|289:259,1,85
212,186,44984,2,0,P|169:197|133:217,1,85
289,259,45284,1,0,0:0:0:0:
380,151,45434,2,0,L|385:101,3,42.5
367,229,45734,1,0,0:0:0:0:
395,31,45884,1,0,0:0:0:0:
395,31,45959,1,0,0:0:0:0:
395,31,46034,5,0,0:0:0:0:
367,229,46184,1,0,0:0:0:0:
277,167,46334,1,0,0:0:0:0:
257,157,46409,1,0,0:0:0:0:
237,151,46484,1,0,0:0:0:0:
216,148,46559,1,0,0:0:0:0:
196,149,46634,2,0,P|183:108|179:48,1,85
277,167,46934,1,0,0:0:0:0:
137,217,47084,6,0,P|124:258|120:318,1,85
286,330,47384,1,0,0:0:0:0:
277,167,47534,1,0,0:0:0:0:
286,330,47684,6,0,B|273:271|273:271|290:227|290:227|273:153,1,170
249,75,48134,2,0,P|243:49|242:24,3,42.5
326,100,48434,5,0,0:0:0:0:
200,142,48584,1,0,0:0:0:0:
326,100,48734,1,0,0:0:0:0:
346,94,48809,1,0,0:0:0:0:
367,91,48884,1,0,0:0:0:0:
388,90,48959,1,0,0:0:0:0:
410,94,49034,2,0,L|400:192,1,85
322,215,49334,1,0,0:0:0:0:
464,240,49484,6,0,P|403:267|318:204,1,170
163,68,49934,1,0,0:0:0:0:
174,158,50084,2,0,L|181:213,1,42.5
197,347,50234,6,0,B|191:320|176:301|176:301|202:262|202:262|179:241|178:189,1,165.749992412568
274,194,50534,2,0,P|329:204|274:186,1,165.749992412568
178,200,50834,5,0,0:0:0:0:
207,382,50984,1,0,0:0:0:0:
179,200,51134,2,0,L|174:158,3,42.5
130,272,51434,2,0,P|77:288|32:283,2,85
207,121,51884,6,0,P|186:157|178:199,1,85
269,341,52184,2,0,P|247:304|215:277,1,85
22,225,52484,2,0,B|75:231|75:231|125:192|125:192|213:204,1,170
265,247,52934,5,0,0:0:0:0:
273,227,53009,1,0,0:0:0:0:
277,206,53084,1,0,0:0:0:0:
277,185,53159,1,0,0:0:0:0:
271,165,53234,1,0,0:0:0:0:
177,199,53384,1,0,0:0:0:0:
369,219,53534,2,0,L|425:224,3,42.5
298,260,53834,2,0,B|375:298|375:298|419:204,1,170
254,166,54284,6,0,P|212:190|163:200,1,85
105,273,54584,2,0,P|63:249|14:239,1,85
176,198,54884,1,0,0:0:0:0:
318,256,55034,2,0,L|313:308,3,42.5
324,179,55334,1,0,0:0:0:0:
309,375,55484,1,0,0:0:0:0:
309,375,55559,1,0,0:0:0:0:
309,375,55634,5,0,0:0:0:0:
324,179,55784,1,0,0:0:0:0:
415,231,55934,1,0,0:0:0:0:
434,239,56009,1,0,0:0:0:0:
454,243,56084,1,0,0:0:0:0:
475,245,56159,1,0,0:0:0:0:
496,243,56234,6,0,P|509:298|514:351,1,85
415,231,56534,1,0,0:0:0:0:
284,347,56684,2,0,B|312:378|312:378|350:359,1,85
415,231,56984,2,0,B|386:199|386:199|348:218,1,85
127,329,57284,6,0,B|167:303|203:321|203:321|235:360|292:344,1,170
192,237,57734,2,0,P|161:236|129:246,3,42.5
261,271,58034,5,0,0:0:0:0:
293,98,58184,1,0,0:0:0:0:
261,271,58334,1,0,0:0:0:0:
264,250,58409,1,0,0:0:0:0:
268,229,58484,1,0,0:0:0:0:
271,208,58559,1,0,0:0:0:0:
275,187,58634,1,0,0:0:0:0:
293,98,58784,1,0,0:0:0:0:
392,169,58934,6,0,P|364:162|332:145,1,42.5
174,125,59084,2,0,P|203:130|241:124,1,42.5
350,47,59234,6,0,P|310:23|247:34,1,85
259,27,59459,1,0,0:0:0:0:
247,33,59534,1,0,0:0:0:0:
351,156,59684,1,0,0:0:0:0:
299,244,59834,1,0,0:0:0:0:
284,249,59909,2,0,P|242:247|206:224,1,85
199,214,60134,1,0,0:0:0:0:
92,51,60284,1,0,0:0:0:0:
84,87,60359,1,0,0:0:0:0:
76,125,60434,6,0,B|64:199|64:199|101:262|101:262|46:273,1,203.999993774414
163,179,61334,2,0,P|257:159|313:237,1,203.999993774414
324,136,62234,2,0,L|312:246,1,101.999996887207
297,320,62684,1,0,0:0:0:0:
297,320,62759,1,0,0:0:0:0:
297,320,62834,6,0,B|257:339|215:311|215:311|179:288|134:308,2,152.999995330811
398,63,64934,2,0,P|404:92|415:122,1,50.9999984436036
482,170,65234,6,0,B|434:155|412:112|412:112|383:169|307:175,1,203.999993774414
267,91,66134,2,0,P|252:22|315:74,1,203.999993774414
246,215,67034,2,0,P|228:263|242:323,1,101.999996887207
307,367,67484,1,0,0:0:0:0:
307,367,67559,1,0,0:0:0:0:
307,367,67634,2,0,L|137:347,2,152.999995330811
76,73,70034,5,0,0:0:0:0:
154,118,70934,1,0,0:0:0:0:
239,94,71834,1,0,0:0:0:0:
154,118,72284,1,0,0:0:0:0:
154,118,72359,1,0,0:0:0:0:
154,118,72434,2,0,P|141:187|158:272,2,152.999995330811
452,226,74534,2,0,L|462:155,1,50.9999984436036
436,311,74834,5,0,0:0:0:0:
358,266,75734,1,0,0:0:0:0:
273,290,76634,1,0,0:0:0:0:
358,266,77084,1,0,0:0:0:0:
358,266,77159,1,0,0:0:0:0:
358,266,77234,6,0,P|371:197|354:112,1,152.999995330811
358,266,78134,2,0,B|276:252|220:300|220:300|171:236|171:236|112:304|21:274,1,382.5
