osu file format v14

[General]
AudioFilename: vstavit.mp3
AudioLeadIn: 0
PreviewTime: 0
Countdown: 0
SampleSet: Soft
StackLeniency: 0.2
Mode: 0
LetterboxInBreaks: 0
WidescreenStoryboard: 1

[Editor]
Bookmarks: 6434,12434,22034,60434
DistanceSpacing: 0.8
BeatDivisor: 4
GridSize: 8
TimelineZoom: 2.1

[Metadata]
Title:/*encryption*/
TitleUnicode:/*encryption*/
Artist:Camellia
ArtistUnicode:かめりあ
Creator:Rose Pacifica
Version:Cellina
Source:
Tags:Stance on Wave kamelcamellia cametek
BeatmapID:1152443
BeatmapSetID:543744

[Difficulty]
HPDrainRate:5
CircleSize:4
OverallDifficulty:8.5
ApproachRate:9.6
SliderMultiplier:2
SliderTickRate:1

[Events]
//Background and Video events
0,0,"BG3.jpg",0,0
//Break Periods
//Storyboard Layer 0 (Background)
//Storyboard Layer 1 (Fail)
//Storyboard Layer 2 (Pass)
//Storyboard Layer 3 (Foreground)
//Storyboard Sound Samples

[TimingPoints]
2834,300,4,2,1,60,1,0
2834,-133.333333333333,4,2,1,60,0,0
15734,-117.647058823529,4,2,1,60,0,0
17234,-105.263157894737,4,2,1,60,0,0
20084,-95.2380952380954,4,2,1,60,0,0
20384,-86.9565217391304,4,2,1,60,0,0
22034,-66.6666666666667,4,2,1,60,0,0
22634,-100,4,2,1,60,0,0
22934,-76.9230769230769,4,2,1,60,0,0
23084,-80,4,2,1,60,0,0
23534,-66.6666666666667,4,2,1,60,0,0
23834,-133.333333333333,4,2,1,60,0,0
24434,-66.6666666666667,4,2,1,60,0,0
25034,-50,4,2,1,60,0,0
25484,-100,4,2,1,60,0,0
26084,-76.9230769230769,4,2,1,60,0,0
26534,-66.6666666666667,4,2,1,60,0,0
27134,-76.9230769230769,4,2,1,60,0,0
27434,-133.333333333333,4,2,1,60,0,0
27884,-117.647058823529,4,2,1,60,0,0
28484,-76.9230769230769,4,2,1,60,0,0
28634,-125,4,2,1,60,0,0
29234,-71.4285714285714,4,2,1,60,0,0
29834,-66.6666666666667,4,2,1,60,0,0
30284,-83.3333333333333,4,2,1,60,0,0
30884,-66.6666666666667,4,2,1,60,0,0
31034,-76.9230769230769,4,2,1,60,0,0
31634,-66.6666666666667,4,2,1,60,0,0
32234,-50,4,2,1,60,0,0
32684,-90.9090909090909,4,2,1,60,0,0
33284,-66.6666666666667,4,2,1,60,0,0
33434,-76.9230769230769,4,2,1,60,0,0
34034,-66.6666666666667,4,2,1,60,0,0
34634,-50,4,2,1,60,0,0
35084,-95.2380952380952,4,2,1,60,0,0
35684,-66.6666666666667,4,2,1,60,0,0
37034,-100,4,2,1,60,0,0
37934,-66.6666666666667,4,2,1,60,0,0
38234,-90.9090909090909,4,2,1,60,0,0
38834,-76.9230769230769,4,2,1,60,0,0
39284,-71.4285714285714,4,2,1,60,0,0
41234,-66.6666666666667,4,2,1,60,0,0
41834,-500,4,2,1,60,0,0
42284,-50,4,2,1,60,0,0
42884,-100,4,2,1,60,0,0
43634,-66.6666666666667,4,2,1,60,0,0
44384,-100,4,2,1,60,0,0
44684,-50,4,2,1,60,0,0
45734,-76.9230769230769,4,2,1,60,0,0
46034,-66.6666666666667,4,2,1,60,0,0
46634,-500,4,2,1,60,0,0
47084,-50,4,2,1,60,0,0
47684,-100,4,2,1,60,0,0
48434,-66.6666666666667,4,2,1,60,0,0
49034,-58.8235294117647,4,2,1,60,0,0
49484,-50,4,2,1,60,0,0
50234,-76.9230769230769,4,2,1,60,0,0
50834,-66.6666666666667,4,2,1,60,0,0
51434,-500,4,2,1,60,0,0
51884,-50,4,2,1,60,0,0
52484,-100,4,2,1,60,0,0
53234,-50,4,2,1,60,0,0
53534,-66.6666666666667,4,2,1,60,0,0
53834,-100,4,2,1,60,0,0
54284,-50,4,2,1,60,0,0
55334,-76.9230769230769,4,2,1,60,0,0
55634,-66.6666666666667,4,2,1,60,0,0
56234,-500,4,2,1,60,0,0
56684,-50,4,2,1,60,0,0
57284,-100,4,2,1,60,0,0
58034,-50,4,2,1,60,0,0
58934,-66.6666666666667,4,2,1,60,0,0
60434,-133.333333333333,4,2,1,60,0,0
69434,-153.846153846153,4,2,1,60,0,0
69734,-181.818181818181,4,2,1,60,0,0
79334,-111.111111111111,4,2,1,60,0,0

[Colours]
Combo1 : 17,254,176
Combo2 : 173,255,95
Combo3 : 255,88,100
Combo4 : 255,94,55

[HitObjects]
150,320,2834,6,0,P|143:270|135:231,1,75.0000028610231
208,188,3134,2,0,P|215:138|223:99,1,75.0000028610231
111,146,3434,2,0,L|5:129,1,75.0000028610231
195,38,3734,6,0,B|248:20|296:56|300:100|300:100|334:61|394:68,1,225.000008583069
375,224,4334,2,0,P|365:182|360:132,1,75.0000028610231
276,267,4634,2,0,P|229:248|193:238,1,75.0000028610231
34,369,4934,2,0,P|73:337|100:311,1,75.0000028610231
121,248,5159,1,0,0:0:0:0:
121,248,5234,6,0,L|107:158,1,75.0000028610231
264,102,5534,1,0,0:0:0:0:
182,39,5684,2,0,P|176:72|170:144,1,75.0000028610231
276,240,5984,1,0,0:0:0:0:
449,192,6134,6,0,B|345:232|345:114|213:165,1,225.000008583069
420,33,6734,2,0,P|407:89|403:133,1,75.0000028610231
408,282,7034,5,0,0:0:0:0:
432,278,7184,1,0,0:0:0:0:
252,236,7334,5,0,0:0:0:0:
276,240,7484,1,0,0:0:0:0:
233,358,7634,6,0,P|194:327|148:322,1,75.0000028610231
27,298,7934,2,0,P|66:267|112:262,1,75.0000028610231
207,156,8234,2,0,P|189:205|181:241,1,75.0000028610231
35,117,8534,6,0,B|139:157|139:39|271:90,1,225.000008583069
354,232,9134,2,0,P|350:180|348:135,1,75.0000028610231
413,20,9434,2,0,P|369:49|331:73,1,75.0000028610231
186,197,9734,2,0,P|240:186|263:152,1,75.0000028610231
113,139,9959,1,0,0:0:0:0:
95,155,10034,6,0,P|101:204|103:261,1,75.0000028610231
303,338,10334,1,0,0:0:0:0:
186,376,10484,2,0,B|173:341|173:341|195:287,1,75.0000028610231
431,209,10784,1,0,0:0:0:0:
474,290,10934,6,0,B|366:334|366:216|262:256,1,225.000008583069
431,209,11534,2,0,P|421:164|414:106,1,75.0000028610231
279,55,11834,2,0,P|273:92|264:128,1,75.0000028610231
131,231,12134,2,0,P|86:213|71:170,1,75.0000028610231
138,78,12434,5,0,0:0:0:0:
131,103,12584,1,0,0:0:0:0:
261,255,12734,5,0,0:0:0:0:
254,230,12884,1,0,0:0:0:0:
97,333,13034,5,0,0:0:0:0:
90,358,13184,1,0,0:0:0:0:
289,355,13334,5,0,0:0:0:0:
282,330,13484,1,0,0:0:0:0:
275,305,13634,1,0,0:0:0:0:
268,280,13784,1,0,0:0:0:0:
400,161,13934,5,0,0:0:0:0:
393,186,14084,1,0,0:0:0:0:
112,161,14234,5,0,0:0:0:0:
193,145,14384,1,0,0:0:0:0:
274,129,14534,1,0,0:0:0:0:
126,311,14684,5,0,0:0:0:0:
126,311,14759,1,0,0:0:0:0:
126,311,14834,2,0,B|110:271|110:271|120:224,1,75.0000028610231
276,258,15059,1,0,0:0:0:0:
276,258,15134,6,0,L|176:265,1,75.0000028610231
53,129,15359,1,0,0:0:0:0:
53,129,15434,6,0,P|88:125|120:121,1,37.5000014305115
201,263,15584,2,0,P|182:260|163:258,1,37.5000014305115
223,135,15734,6,0,P|262:110|332:131,1,85.0000016212464
395,168,15959,1,0,0:0:0:0:
414,186,16034,6,0,L|408:280,1,85.0000016212464
276,351,16259,1,0,0:0:0:0:
276,351,16334,6,0,P|267:320|271:281,1,42.5000008106232
487,299,16484,2,0,P|494:279|496:257,1,42.5000008106232
478,79,16634,5,0,0:0:0:0:
390,46,16784,1,0,0:0:0:0:
319,107,16934,5,0,0:0:0:0:
325,125,17009,1,0,0:0:0:0:
282,198,17084,5,0,0:0:0:0:
276,216,17159,1,0,0:0:0:0:
339,287,17234,5,0,0:0:0:0:
154,225,17384,5,0,0:0:0:0:
178,247,17459,1,0,0:0:0:0:
203,268,17534,2,0,P|189:321|180:370,1,94.9999974632264
79,305,17759,1,0,0:0:0:0:
54,321,17834,6,0,P|52:285|46:251,1,47.4999987316132
158,155,17984,2,0,P|155:178|154:202,1,47.4999987316132
32,101,18134,6,0,B|80:110|80:110|107:65,1,94.9999974632264
225,40,18359,1,0,0:0:0:0:
208,60,18434,6,0,P|226:108|189:159,1,94.9999974632264
154,202,18659,1,0,0:0:0:0:
154,202,18734,1,0,0:0:0:0:
293,335,18884,5,0,0:0:0:0:
287,302,18959,1,0,0:0:0:0:
282,269,19034,1,0,0:0:0:0:
63,169,19184,5,0,0:0:0:0:
31,262,19334,1,0,0:0:0:0:
102,68,19484,5,0,0:0:0:0:
102,68,19559,1,0,0:0:0:0:
102,68,19634,1,0,0:0:0:0:
353,135,19784,6,0,P|318:129|279:125,1,47.4999987316132
217,126,19934,1,0,0:0:0:0:
405,208,20084,6,0,P|372:211|328:223,1,52.4999983978272
230,273,20234,1,0,0:0:0:0:
103,155,20384,6,0,P|118:194|127:241,1,57.5000010967255
136,358,20534,1,0,0:0:0:0:
7,160,20684,1,0,0:0:0:0:
7,160,20759,1,0,0:0:0:0:
7,160,20834,5,0,0:0:0:0:
5,102,20909,1,0,0:0:0:0:
38,55,20984,1,0,0:0:0:0:
92,37,21059,1,0,0:0:0:0:
148,48,21134,1,0,0:0:0:0:
195,79,21209,1,0,0:0:0:0:
207,135,21284,1,0,0:0:0:0:
191,190,21359,1,0,0:0:0:0:
199,246,21434,5,0,0:0:0:0:
238,287,21509,1,0,0:0:0:0:
294,297,21584,1,0,0:0:0:0:
347,276,21659,1,0,0:0:0:0:
385,233,21734,1,0,0:0:0:0:
390,175,21809,1,0,0:0:0:0:
365,123,21884,1,0,0:0:0:0:
309,106,21959,1,0,0:0:0:0:
251,111,22034,6,0,B|252:157|273:188|273:188|261:218|244:249|244:249|276:284|269:339,1,225.000008583069
152,372,22334,5,0,0:0:0:0:
154,357,22409,1,0,0:0:0:0:
157,342,22484,1,0,0:0:0:0:
160,327,22559,1,0,0:0:0:0:
118,244,22634,6,0,B|93:270|88:283|88:283|89:268|68:219,1,100
27,121,22934,6,0,P|59:128|129:115,1,64.9999970245363
285,75,23084,6,0,B|165:102|176:-4|29:34,1,250
47,30,23684,6,0,P|62:57|73:108,1,75.0000028610231
69,278,23834,6,0,P|72:192|107:263,1,225.000008583069
145,329,24434,6,0,B|192:348|232:323|232:323|259:355|259:355|315:330|373:348,1,225.000008583069,0|0,0:0|0:0,2:0:0:0:
465,203,24734,5,0,0:0:0:0:
450,201,24809,1,0,0:0:0:0:
435,199,24884,1,0,0:0:0:0:
420,197,24959,1,0,0:0:0:0:
289,179,25034,6,0,B|315:133|315:133|407:143|407:143|421:203,1,200
289,179,25334,1,0,0:0:0:0:
218,354,25484,6,0,B|237:295|216:220|216:220|242:260|300:267,1,200
266,259,26084,6,0,P|225:231|203:190,1,64.9999970245363
185,141,26234,2,0,P|188:91|213:51,1,64.9999970245363
259,6,26384,1,0,0:0:0:0:
35,139,26534,5,0,0:0:0:0:
38,153,26609,1,0,0:0:0:0:
41,167,26684,1,0,0:0:0:0:
44,181,26759,1,0,0:0:0:0:
13,285,26834,6,0,B|80:294|116:249|116:249|143:302|231:293,1,225.000008583069
213,131,27134,6,0,P|202:165|203:230,1,64.9999970245363
373,235,27284,2,0,P|384:201|383:136,1,64.9999970245363
392,87,27434,5,0,0:0:0:0:
297,1,27584,2,0,P|290:53|290:104,1,75.0000028610231
412,341,27884,6,0,B|299:352|324:280|195:295,1,212.500004053116
186,300,28334,1,0,0:0:0:0:
85,136,28484,6,0,B|62:113|62:113|57:145,1,64.9999970245363
24,249,28634,6,0,B|154:260|114:190|257:204,1,240
354,156,29234,6,0,P|342:65|263:205,1,419.999987182618
254,203,29834,6,0,P|214:179|192:108,1,75.0000028610231
306,272,29984,2,0,P|261:287|193:258,1,75.0000028610231
392,276,30134,2,0,P|375:319|309:353,1,75.0000028610231
457,206,30284,6,0,B|443:188|429:171|429:171|454:122|447:58|447:58|390:122|310:118|241:44,1,359.999989013672
269,70,30884,6,0,P|297:88|354:102,1,75.0000028610231
209,172,31034,6,0,L|214:147,12,16.2499992561341
131,71,31334,2,0,L|136:96,12,16.2499992561341
0,231,31634,6,0,B|121:255|93:154|231:173,1,225.000008583069
190,350,31934,5,0,0:0:0:0:
187,320,32009,1,0,0:0:0:0:
184,290,32084,1,0,0:0:0:0:
181,260,32159,1,0,0:0:0:0:
336,238,32234,6,0,B|294:269|270:308|270:308|240:274|169:257,1,200
245,78,32534,1,0,0:0:0:0:
336,238,32684,6,0,B|334:206|316:181|316:181|406:207|506:186|506:186|475:216|468:258,1,330.000010070801
469,250,33284,6,0,P|488:207|507:184,1,75.0000028610231
388,64,33434,6,0,B|314:90|245:77|245:77|309:107|346:153|346:153|289:143|222:165,1,389.999982147218
213,232,34034,6,0,P|142:178|232:166,1,225.000008583069
184,345,34334,5,0,0:0:0:0:
154,343,34409,1,0,0:0:0:0:
124,341,34484,1,0,0:0:0:0:
94,339,34559,1,0,0:0:0:0:
2,329,34634,6,0,B|20:284|57:246|57:246|86:287|96:355,1,200
2,329,34934,1,0,0:0:0:0:
0,144,35084,6,0,B|209:99|108:242|336:179,1,314.999990386963
267,21,35684,6,0,P|254:44|244:95,1,75.0000028610231
299,188,35834,2,0,P|308:212|340:253,1,75.0000028610231,0|0,0:0|0:0,3:0:0:0:
472,348,35984,5,0,0:0:0:0:
442,348,36059,1,0,0:0:0:0:
412,348,36134,1,0,0:0:0:0:
382,348,36209,1,0,0:0:0:0:
352,348,36284,1,0,0:0:0:0:
322,348,36359,1,0,0:0:0:0:
130,321,36434,6,0,B|249:333|222:238|365:251,1,225.000008583069
137,147,36734,6,0,P|150:185|160:229,1,75.0000028610231
334,38,36884,2,0,P|321:76|311:120,1,75.0000028610231
336,249,37034,5,0,0:0:0:0:
492,200,37184,2,0,P|445:176|383:164,1,100
131,320,37484,6,0,B|250:332|223:237|351:251,1,200
312,251,38084,6,0,P|276:259|219:318,1,75.0000028610231
131,320,38234,6,0,P|212:255|67:249,1,330.000010070801
140,248,38834,6,0,B|141:193|115:159|115:159|155:107|155:107|122:73|114:-9,1,259.999988098145
115,16,39434,6,0,P|126:55|148:100,1,69.9999978637696
308,171,39584,2,0,P|317:134|317:102,1,69.9999978637696
149,178,39734,2,0,P|140:217|141:257,1,69.9999978637696,0|0,2:0|2:0,2:0:0:0:
319,293,39884,6,0,B|369:306|369:306|358:138|358:138|292:183,1,279.999991455078,0|0,0:0|0:0,2:0:0:0:
319,293,40334,5,0,0:0:0:0:
309,172,40484,1,0,0:0:0:0:
174,343,40634,6,0,L|219:335,14,34.9999989318848
68,360,41234,6,0,B|34:314|15:259|46:222|46:222|103:218|108:296,1,225.000008583069
174,344,41534,6,0,P|188:286|217:259,1,75.0000028610231
276,200,41684,2,0,P|333:183|371:194,1,75.0000028610231
468,209,41834,6,0,P|490:217|506:229,1,40
427,294,42284,6,0,B|403:338|357:365|357:365|339:319|353:240,1,200
214,253,42584,2,0,B|187:210|187:156|187:156|236:164|297:215,1,200
354,88,42884,6,0,B|404:86|450:113|450:113|419:151|344:179,1,200
191,52,43334,5,0,0:0:0:0:
171,53,43409,1,0,0:0:0:0:
151,55,43484,1,0,0:0:0:0:
131,57,43559,1,0,0:0:0:0:
99,200,43634,6,0,B|76:35|76:35|150:64,1,225.000008583069
147,265,43934,6,0,B|114:285|114:285|48:274,1,75.0000028610231
53,137,44084,2,0,B|86:117|86:117|152:128,1,75.0000028610231
368,168,44234,5,0,0:0:0:0:
261,318,44384,2,0,P|244:258|243:187,1,100
405,80,44684,6,0,B|355:54|328:11|328:11|324:60|292:120,1,200
330,255,44984,2,0,B|380:281|407:324|407:324|411:275|443:215,1,200
368,168,45284,1,0,0:0:0:0:
261,318,45434,5,0,0:0:0:0:
241,316,45509,1,0,0:0:0:0:
221,314,45584,1,0,0:0:0:0:
201,312,45659,1,0,0:0:0:0:
109,359,45734,6,0,P|118:321|122:273,1,64.9999970245363
253,156,45884,2,0,P|244:194|240:242,1,64.9999970245363
106,117,46034,6,0,B|78:88|45:82|45:82|133:96|218:66,1,225.000008583069
365,31,46334,6,0,P|335:29|276:61,1,75.0000028610231
338,205,46484,2,0,P|368:207|427:175,1,75.0000028610231
363,20,46634,6,0,P|334:13|319:14,1,40
341,295,47084,6,0,P|428:337|415:241,1,200
402,69,47384,2,0,B|358:33|323:14|323:14|319:63|331:118,1,200
341,295,47684,6,0,P|254:337|267:241,1,200
111,97,48134,5,0,0:0:0:0:
113,115,48209,1,0,0:0:0:0:
117,135,48284,1,0,0:0:0:0:
120,154,48359,1,0,0:0:0:0:
87,290,48434,6,0,B|146:313|146:313|116:131,1,225.000008583069
52,37,48734,6,0,P|113:11|132:22,1,75.0000028610231
329,128,48884,2,0,P|268:102|249:113,1,75.0000028610231
239,263,49034,6,0,P|279:253|331:247,1,85.0000016212464
249,284,49184,2,0,P|237:323|216:371,1,85.0000016212464
225,282,49334,2,0,P|196:252|165:210,1,85.0000016212464
412,218,49484,6,0,B|459:235|502:264|502:264|459:290|405:299,1,200
79,197,49784,2,0,P|147:130|242:166,1,200
328,361,50084,1,0,0:0:0:0:
341,134,50234,6,0,L|344:107,12,16.2499992561341
266,31,50534,2,0,L|267:47,12,16.2499992561341
512,209,50834,6,0,B|404:180|413:278|263:239,1,225.000008583069
111,72,51134,6,0,P|146:56|212:81,1,75.0000028610231
286,88,51284,2,0,P|320:104|344:171,1,75.0000028610231
387,257,51434,6,0,P|383:287|377:297,1,40
118,260,51884,6,0,B|67:270|28:300|28:300|74:318|126:319,1,200
274,185,52184,2,0,B|292:135|285:86|285:86|246:117|220:162,1,200
230,344,52484,6,0,B|334:318|319:408|453:368,1,200
486,190,52934,5,0,0:0:0:0:
466,193,53009,1,0,0:0:0:0:
446,196,53084,1,0,0:0:0:0:
426,199,53159,1,0,0:0:0:0:
326,222,53234,6,0,B|274:185|274:185|449:147|449:147|416:219,1,300
376,304,53534,6,0,P|350:317|294:311,1,75.0000028610231
266,81,53684,2,0,P|292:68|348:74,1,75.0000028610231
117,188,53834,5,0,0:0:0:0:
186,354,53984,2,0,P|203:302|212:238,1,100
137,91,54284,6,0,P|62:157|149:170,1,200
326,222,54584,2,0,B|380:204|419:175|419:175|374:148|306:140,1,200
230,177,54884,1,0,0:0:0:0:
310,337,55034,5,0,0:0:0:0:
329,333,55109,1,0,0:0:0:0:
348,329,55184,1,0,0:0:0:0:
367,325,55259,1,0,0:0:0:0:
454,344,55334,6,0,P|447:308|446:250,1,64.9999970245363
230,177,55484,2,0,P|237:213|238:271,1,64.9999970245363
45,76,55634,6,0,B|105:83|134:62|134:62|161:96|161:96|212:66|305:92,1,225.000008583069
401,22,55934,6,0,P|357:11|307:19,1,75.0000028610231
321,158,56084,2,0,P|365:169|415:161,1,75.0000028610231
423,18,56234,6,0,P|394:0|383:-3,1,40
321,158,56684,6,0,B|328:209|324:259|324:259|273:242|233:201,1,200
86,120,56984,2,0,P|153:29|225:88,1,200
57,327,57284,6,0,B|57:264|33:198|33:198|58:226|111:225,1,200
216,350,57734,5,0,0:0:0:0:
235,348,57809,1,0,0:0:0:0:
254,346,57884,1,0,0:0:0:0:
273,344,57959,1,0,0:0:0:0:
371,295,58034,6,0,B|229:306|229:306|295:363,1,200
451,351,58334,2,0,B|501:262|501:262|390:202,1,200
320,42,58634,6,0,B|229:93|229:93|283:177,1,200
434,131,58859,1,0,0:0:0:0:
434,131,58934,6,0,P|394:123|337:119,1,75.0000028610231
303,295,59084,2,0,P|263:303|206:307,1,75.0000028610231
46,200,59234,5,0,0:0:0:0:
158,103,59384,1,0,0:0:0:0:
158,103,59459,1,0,0:0:0:0:
158,103,59534,2,0,P|169:137|159:188,1,75.0000028610231
74,332,59684,5,0,0:0:0:0:
74,332,59759,1,0,0:0:0:0:
74,332,59834,2,0,P|97:305|147:288,1,75.0000028610231
320,367,59984,5,0,0:0:0:0:
320,367,60059,1,0,0:0:0:0:
320,367,60134,2,0,P|306:314|300:262,1,75.0000028610231
303,77,60284,1,0,0:0:0:0:
303,77,60359,1,0,0:0:0:0:
303,77,60434,6,0,P|249:82|209:83,1,75.0000028610231
181,156,60734,2,2,P|127:151|87:150,1,75.0000028610231,0|2,0:0|0:0,0:0:0:0:
46,83,61034,2,0,P|35:32|59:0,1,75.0000028610231
52,226,61334,6,0,B|92:254|133:240|133:240|73:296|81:375,1,225.000008583069
245,289,61934,2,0,P|235:231|234:194,1,75.0000028610231
335,331,62234,2,0,P|289:368|258:388,1,75.0000028610231
327,233,62534,2,0,P|382:253|414:270,1,75.0000028610231
478,240,62759,1,0,0:0:0:0:
460,209,62834,6,0,P|462:148|467:111,1,75.0000028610231
303,82,63134,1,0,0:0:0:0:
397,42,63284,2,0,P|393:93|385:142,1,75.0000028610231
177,224,63584,1,0,0:0:0:0:
130,148,63734,6,0,B|251:108|240:220|365:171,1,225.000008583069
169,298,64334,2,0,P|177:240|175:206,1,75.0000028610231
293,356,64634,5,0,0:0:0:0:
317,351,64784,1,0,0:0:0:0:
449,272,64934,5,0,0:0:0:0:
424,266,65084,1,0,0:0:0:0:
343,178,65234,6,0,P|346:137|358:95,1,75.0000028610231
230,4,65534,2,0,P|238:40|241:77,1,75.0000028610231
182,198,65834,2,0,P|136:184|100:177,1,75.0000028610231
8,323,66134,6,0,B|132:365|121:263|249:309,1,225.000008583069
360,235,66734,2,0,P|294:222|272:225,1,75.0000028610231
276,368,67034,2,0,P|342:381|364:378,1,75.0000028610231
463,253,67334,2,0,P|454:202|446:153,1,75.0000028610231
459,69,67559,1,0,0:0:0:0:
425,79,67634,6,0,P|359:66|319:57,1,75.0000028610231
162,143,67934,1,0,0:0:0:0:
158,46,68084,2,0,B|197:48|197:48|223:79,1,75.0000028610231
156,239,68384,1,0,0:0:0:0:
75,172,68534,6,0,P|166:144|139:244,1,225.000008583069
137,332,69134,6,0,L|55:337,1,75.0000028610231
294,301,69434,6,0,L|220:296,1,64.9999970245363
409,367,69734,6,0,L|340:371,1,55.0000016784668
283,180,70034,6,0,P|317:169|340:156,5,55.0000016784668
222,104,70934,2,0,P|197:91|171:83,5,55.0000016784668
185,196,71834,2,0,L|173:268,1,55.0000016784668
218,333,72134,1,0,0:0:0:0:
79,258,72284,1,0,0:0:0:0:
79,258,72359,1,0,0:0:0:0:
79,258,72434,6,0,P|19:303|39:371,1,137.500004196167
34,371,72884,2,0,P|-1:287|32:234,1,137.500004196167
25,237,73334,6,0,P|110:218|-8:164,1,330.000010070801
171,346,74534,1,0,0:0:0:0:
192,272,74684,1,0,0:0:0:0:
214,198,74834,6,0,P|255:186|285:183,5,55.0000016784668
302,105,75734,2,0,P|341:122|366:139,5,55.0000016784668
429,90,76634,2,0,P|447:128|456:157,2,55.0000016784668
388,235,77084,1,0,0:0:0:0:
400,253,77159,1,0,0:0:0:0:
412,271,77234,6,0,P|359:271|336:273,1,55.0000016784668
390,357,77534,1,0,0:0:0:0:
250,276,77684,6,0,P|235:211|294:166,1,137.500004196167
296,163,78134,2,0,P|207:179|73:188,1,220.000006713867
25,99,78884,1,0,0:0:0:0:
25,99,79034,6,0,P|65:89|97:84,1,55.0000016784668
206,154,79334,6,0,P|251:160|306:162,1,89.9999972534181
