osu file format v14

[General]
AudioFilename: audio.mp3
AudioLeadIn: 0
PreviewTime: 26985
Countdown: 0
SampleSet: Soft
StackLeniency: 0.4
Mode: 0
LetterboxInBreaks: 0
WidescreenStoryboard: 0

[Editor]
Bookmarks: 46185
DistanceSpacing: 1
BeatDivisor: 4
GridSize: 4
TimelineZoom: 1.2

[Metadata]
Title:/*encryption*/
TitleUnicode:/*encryption*/
Artist:Camellia
ArtistUnicode:かめりあ
Creator:Kondou-Shinichi
Version:old ver
Source:
Tags:stance on wave kamelcamellia cametek
BeatmapID:1410634
BeatmapSetID:666468

[Difficulty]
HPDrainRate:5.6
CircleSize:3.3
OverallDifficulty:8.7
ApproachRate:9.7
SliderMultiplier:2.5
SliderTickRate:1

[Events]
//Background and Video events
0,0,"edgy.jpg",0,0
//Break Periods
//Storyboard Layer 0 (Background)
//Storyboard Layer 1 (Fail)
//Storyboard Layer 2 (Pass)
//Storyboard Layer 3 (Foreground)
//Storyboard Sound Samples

[TimingPoints]
7785,300,4,2,1,25,1,0
7785,-500,4,2,1,25,0,0
17385,-200,4,2,0,40,0,0
19785,-200,4,2,0,50,0,0
22185,-200,4,2,0,60,0,0
24435,-133.333333333333,4,2,0,50,0,0
25785,-133.333333333333,4,2,0,70,0,0
26385,-125,4,2,1,50,0,0
26685,-66.6666666666667,4,2,1,50,0,0
26985,-200,4,2,1,75,0,0
27285,-100,4,2,1,75,0,0
27585,-66.6666666666667,4,2,1,75,0,0
27735,-200,4,2,1,75,0,0
27885,-100,4,2,1,75,0,0
28035,-200,4,2,1,75,0,0
28485,-66.6666666666667,4,2,1,75,0,0
28635,-200,4,2,1,75,0,0
28785,-500,4,2,1,75,0,0
29385,-200,4,2,1,75,0,0
29685,-100,4,2,1,75,0,0
29985,-50,4,2,1,75,0,0
30285,-66.6666666666667,4,2,1,75,0,0
30435,-200,4,2,1,75,0,0
30885,-80,4,2,1,75,0,0
31035,-200,4,2,1,75,0,0
31185,-100,4,2,1,75,0,0
31785,-200,4,2,1,75,0,0
32085,-100,4,2,1,75,0,0
32385,-66.6666666666667,4,2,1,75,0,0
32535,-200,4,2,1,75,0,0
32685,-100,4,2,1,75,0,0
32835,-133.333333333333,4,2,1,75,0,0
33285,-66.6666666666667,4,2,1,75,0,0
33435,-200,4,2,1,75,0,0
33585,-500,4,2,1,75,0,0
34185,-200,4,2,1,75,0,0
34785,-66.6666666666667,4,2,1,75,0,0
35085,-133.333333333333,4,2,1,75,0,0
35235,-200,4,2,1,75,0,0
35685,-100,4,2,1,75,0,0
35835,-200,4,2,1,75,0,0
35985,-50,4,2,1,100,0,1
36585,-200,4,2,1,75,0,0
36885,-100,4,2,1,75,0,0
37185,-66.6666666666667,4,2,1,75,0,0
37335,-200,4,2,1,75,0,0
37485,-100,4,2,1,75,0,0
37635,-200,4,2,1,75,0,0
38085,-66.6666666666667,4,2,1,75,0,0
38235,-200,4,2,1,75,0,0
38385,-500,4,2,1,75,0,0
38985,-200,4,2,1,75,0,0
39285,-100,4,2,1,75,0,0
39585,-50,4,2,1,75,0,0
39885,-66.6666666666667,4,2,1,75,0,0
40035,-200,4,2,1,75,0,0
40485,-80,4,2,1,75,0,0
40635,-200,4,2,1,75,0,0
40785,-100,4,2,1,75,0,0
41385,-200,4,2,1,75,0,0
41685,-100,4,2,1,75,0,0
41985,-66.6666666666667,4,2,1,75,0,0
42135,-200,4,2,1,75,0,0
42285,-100,4,2,1,75,0,0
42435,-133.333333333333,4,2,1,75,0,0
42885,-66.6666666666667,4,2,1,75,0,0
43035,-200,4,2,1,75,0,0
43185,-500,4,2,1,75,0,0
43785,-200,4,2,1,75,0,0
44385,-66.6666666666667,4,2,1,75,0,0
44685,-133.333333333333,4,2,1,75,0,0
44835,-200,4,2,1,75,0,0
45285,-100,4,2,1,75,0,0
45435,-200,4,2,1,75,0,0
45585,-50,4,2,1,100,0,1
46185,-200,4,2,1,80,0,0
46485,-100,4,2,1,80,0,0
46785,-200,4,2,1,80,0,0
47235,-133.333333333333,4,2,1,80,0,0
47835,-400,4,2,1,80,0,0
48285,-100,4,2,1,80,0,0
48585,-200,4,2,1,80,0,0
48885,-100,4,2,1,80,0,0
49185,-57.1428571428571,4,2,1,80,0,0
49485,-66.6666666666667,4,2,1,80,0,0
49635,-133.333333333333,4,2,1,80,0,0
50235,-100,4,2,1,80,0,0
50385,-200,4,2,1,80,0,0
50985,-200,4,2,1,80,0,0
51285,-100,4,2,1,80,0,0
51585,-66.6666666666667,4,2,1,80,0,0
51735,-200,4,2,1,80,0,0
51885,-100,4,2,1,80,0,0
52035,-133.333333333333,4,2,1,80,0,0
52635,-400,4,2,1,80,0,0
53085,-100,4,2,1,80,0,0
53385,-200,4,2,1,80,0,0
53985,-100,4,2,1,80,0,0
54135,-133.333333333333,4,2,1,80,0,0
54285,-66.6666666666667,4,2,1,80,0,0
54435,-133.333333333333,4,2,1,80,0,0
54885,-200,4,2,1,80,0,0
55035,-100,4,2,1,80,0,0
55185,-30,4,2,1,80,0,1
55785,-200,4,2,1,80,0,0
56085,-100,4,2,1,80,0,0
56385,-66.6666666666667,4,2,1,80,0,0
56535,-200,4,2,1,80,0,0
56685,-100,4,2,1,80,0,0
56835,-133.333333333333,4,2,1,80,0,0
57435,-400,4,2,1,80,0,0
57885,-100,4,2,1,80,0,0
58185,-200,4,2,1,80,0,0
58485,-100,4,2,1,80,0,0
58785,-57.1428571428571,4,2,1,80,0,0
59085,-66.6666666666667,4,2,1,80,0,0
59235,-133.333333333333,4,2,1,80,0,0
59835,-100,4,2,1,80,0,0
59985,-200,4,2,1,80,0,0
60585,-200,4,2,1,80,0,0
60885,-100,4,2,1,80,0,0
61185,-66.6666666666667,4,2,1,80,0,0
61335,-200,4,2,1,80,0,0
61485,-100,4,2,1,80,0,0
61635,-133.333333333333,4,2,1,80,0,0
62235,-400,4,2,1,80,0,0
62685,-100,4,2,1,80,0,0
62985,-200,4,2,1,80,0,0
63585,-100,4,2,1,80,0,0
63735,-133.333333333333,4,2,1,80,0,0
63885,-66.6666666666667,4,2,1,80,0,0
64185,-133.333333333333,4,2,1,60,0,0
65385,-200,4,2,0,35,0,0
70185,-200,4,2,0,40,0,0
73785,-200,4,2,0,37,0,0
74085,-200,4,2,0,34,0,0
74385,-200,4,2,0,31,0,0
74685,-200,4,2,0,28,0,0
74985,-500,4,2,1,25,0,0

[HitObjects]
40,85,7785,6,0,L|198:106,1,150,0|0,1:0|1:0,0:0:0:0:
188,104,9585,1,0,1:0:0:0:
188,104,10035,1,0,1:0:0:0:
188,104,10110,1,0,1:0:0:0:
188,104,10185,6,0,L|246:119,1,50,0|0,1:0|0:0,0:0:0:0:
241,128,10635,2,0,L|298:142,1,50,0|0,1:0|0:0,0:0:0:0:
296,150,11085,1,0,1:0:0:0:
296,150,12285,5,0,1:0:0:0:
241,128,12435,1,0,1:0:0:0:
188,104,12585,6,0,L|33:125,1,150,0|0,1:0|1:0,0:0:0:0:
39,124,14385,1,0,1:0:0:0:
39,124,14835,1,0,1:0:0:0:
39,124,14910,1,0,1:0:0:0:
39,124,14985,6,0,L|53:181,1,50,0|0,1:0|0:0,0:0:0:0:
63,176,15435,2,0,L|77:233,1,50,0|0,1:0|0:0,0:0:0:0:
85,231,15885,1,0,1:0:0:0:
85,231,17085,6,0,P|109:225|125:232,1,37.5,0|0,0:0|0:0,0:0:0:0:
182,282,17385,6,0,L|268:270,4,62.5,0|0|0|0|0,1:0|0:0|0:0|0:0|0:0,0:0:0:0:
97,239,18135,1,0,0:0:0:0:
45,160,18285,6,0,L|33:74,4,62.5,0|0|0|0|0,1:0|0:0|0:0|0:0|0:0,0:0:0:0:
97,239,19035,1,0,0:0:0:0:
182,282,19186,2,0,L|243:273,2,62.5,0|0|0,1:0|0:0|0:0,0:0:0:0:
97,239,19635,1,0,1:0:0:0:
64,205,19710,1,0,1:0:0:0:
45,160,19785,6,0,L|33:74,2,62.5,0|0|0,1:0|0:0|0:0,0:0:0:0:
139,76,20235,2,0,L|151:-10,2,62.5,0|0|0,1:0|0:0|0:0,0:0:0:0:
255,123,20685,6,0,L|267:209,2,62.5,0|0|0,1:0|0:0|0:0,0:0:0:0:
161,207,21135,2,0,L|149:293,2,62.5,0|0|0,0:0|0:0|0:0,0:0:0:0:
51,268,21585,2,0,L|63:354,2,62.5,0|0|0,0:0|0:0|1:0,0:0:0:0:
54,236,21960,1,0,0:0:0:0:
59,205,22035,1,0,1:0:0:0:
58,173,22110,1,0,0:0:0:0:
44,145,22185,6,0,L|124:127,1,62.5,0|0,1:0|0:0,0:0:0:0:
131,147,22410,1,0,0:0:0:0:
160,110,22485,6,0,L|240:92,1,62.5,0|0,0:0|0:0,0:0:0:0:
247,112,22710,1,0,0:0:0:0:
278,77,22785,6,0,L|358:59,1,62.5,0|0,0:0|0:0,0:0:0:0:
365,79,23010,1,0,0:0:0:0:
398,45,23085,6,0,L|416:125,1,62.5,0|0,1:0|0:0,0:0:0:0:
396,132,23310,1,0,0:0:0:0:
433,161,23385,6,0,L|451:241,1,62.5,0|0,0:0|0:0,0:0:0:0:
431,248,23610,1,0,0:0:0:0:
466,279,23685,6,0,L|484:359,1,62.5,0|0,0:0|0:0,0:0:0:0:
464,366,23910,1,0,0:0:0:0:
420,348,23985,5,0,1:0:0:0:
335,307,24135,1,0,0:0:0:0:
247,273,24285,1,0,0:0:0:0:
162,233,24435,6,0,L|96:205,1,46.8750017881394,0|0,1:0|1:0,0:0:0:0:
102,170,24585,1,0,1:0:0:0:
266,80,24735,6,0,L|238:146,1,46.8750017881394,0|0,0:0|0:0,0:0:0:0:
203,140,24885,1,0,0:0:0:0:
312,291,25035,6,0,L|246:263,1,46.8750017881394,0|0,1:0|0:0,0:0:0:0:
252,228,25185,1,0,0:0:0:0:
416,138,25335,6,0,L|388:204,1,46.8750017881394,0|0,0:0|0:0,0:0:0:0:
353,198,25485,1,0,1:0:0:0:
401,379,25635,6,0,L|335:351,1,46.8750017881394,0|0,0:0|0:0,0:0:0:0:
341,316,25785,6,0,L|278:276,1,46.8750017881394,0|0,1:0|0:0,0:0:0:0:
260,179,25935,2,0,L|310:233,1,46.8750017881394,0|0,1:0|0:0,0:0:0:0:
178,249,26085,6,0,L|143:182,1,46.8750017881394,0|0,1:0|0:0,0:0:0:0:
204,50,26235,2,0,L|220:122,1,46.8750017881394,0|0,1:0|0:0,0:0:0:0:
238,309,26385,6,0,B|191:336|140:327|140:327|103:361|114:394,1,150,0|0,1:0|0:0,0:0:0:0:
109,360,26685,6,0,B|98:354|133:315|133:315|199:332|264:272,1,187.500007152558,0|0,1:0|0:0,0:0:0:0:
330,160,26910,1,0,0:0:0:0:
312,134,26985,6,0,P|307:186|347:219,1,93.75,0|0,1:0|0:0,0:0:0:0:
440,281,27285,1,0,3:0:0:0:
500,209,27360,1,0,3:0:0:0:
426,151,27435,1,0,3:0:0:0:
366,223,27510,1,0,3:0:0:0:
293,304,27585,6,0,B|277:321|277:321|263:313|263:313|198:372,1,93.7500035762788,0|0,1:0|0:0,0:0:0:0:
131,194,27735,6,0,L|108:172,1,31.25,0|0,3:0|0:0,0:0:0:0:
148,181,27885,2,0,B|120:147|120:147|98:150,1,62.5,0|0,3:0|0:0,0:0:0:0:
200,44,28035,6,0,P|195:96|272:101,1,125,0|0,1:0|3:0,0:0:0:0:
267,114,28410,1,0,3:0:0:0:
319,186,28485,6,0,L|281:279,1,93.7500035762788,0|0,3:0|0:0,0:0:0:0:
439,97,28635,6,0,L|416:75,1,31.25,0|0,3:0|0:0,0:0:0:0:
463,96,28785,2,0,B|424:47|424:47|391:49,1,87.5,0|0,1:0|0:0,0:0:0:0:
309,229,29385,6,0,P|357:209|367:158,1,93.75,0|0,1:0|0:0,0:0:0:0:
379,47,29685,1,0,3:0:0:0:
287,28,29760,1,0,3:0:0:0:
271,121,29835,1,0,3:0:0:0:
363,140,29910,1,0,3:0:0:0:
424,244,29985,6,0,B|441:250|441:250|363:330|313:305,1,125,0|0,1:0|0:0,0:0:0:0:
353,309,30285,6,0,B|315:330|315:330|306:301|278:283,1,93.7500035762788,0|0,3:0|0:0,0:0:0:0:
232,243,30435,6,0,P|227:295|304:300,1,125,0|0,1:0|3:0,0:0:0:0:
313,296,30810,1,0,3:0:0:0:
353,226,30885,6,0,L|327:136,1,78.125,0|0,3:0|0:0,0:0:0:0:
444,100,31035,2,0,L|453:59,1,31.25,0|0,3:0|0:0,0:0:0:0:
285,94,31185,6,0,B|233:174|233:174|273:165|273:165|287:169|287:169|300:154|300:154|325:175,1,187.5,0|0,1:0|0:0,0:0:0:0:
390,217,31485,5,0,3:0:0:0:
432,300,31560,1,0,3:0:0:0:
374,275,31635,1,0,3:0:0:0:
400,258,31710,1,0,3:0:0:0:
410,269,31785,6,0,P|415:321|375:354,1,93.75,0|0,1:0|0:0,0:0:0:0:
289,384,32085,1,0,3:0:0:0:
230,307,32160,1,0,3:0:0:0:
308,255,32235,1,0,3:0:0:0:
365,330,32310,1,0,3:0:0:0:
257,300,32385,6,0,B|233:298|233:298|230:282|230:282|143:270,1,93.7500035762788,0|0,1:0|0:0,0:0:0:0:
381,194,32535,6,0,L|404:172,1,31.25,0|0,3:0|0:0,0:0:0:0:
364,181,32685,2,0,B|392:147|392:147|414:150,1,62.5,0|0,3:0|0:0,0:0:0:0:
357,68,32835,6,0,B|342:144|443:149|413:258,1,187.500007152558,0|0,1:0|3:0,0:0:0:0:
410,260,33210,1,0,3:0:0:0:
328,316,33285,6,0,L|336:213,1,93.7500035762788,0|0,3:0|0:0,0:0:0:0:
143,328,33435,6,0,L|166:350,1,31.25,0|0,3:0|0:0,0:0:0:0:
119,329,33585,2,0,B|158:378|158:378|191:376,1,87.5,0|0,1:0|0:0,0:0:0:0:
213,294,34185,6,0,P|243:325|187:376,1,125,0|0,1:0|3:0,0:0:0:0:
189,366,34785,6,0,B|241:337|262:313|262:313|288:334|361:350,1,187.500007152558,0|0,1:0|3:0,0:0:0:0:
144,281,35085,6,0,P|179:274|202:261,1,46.8750017881394,0|0,3:0|0:0,0:0:0:0:
134,152,35235,6,0,P|165:191|165:165,1,125,0|0,1:0|3:0,0:0:0:0:
174,158,35610,1,0,3:0:0:0:
226,79,35685,6,0,L|250:163,1,62.5,0|0,3:0|0:0,0:0:0:0:
347,196,35835,2,0,L|332:249,1,31.25,0|0,3:0|0:0,0:0:0:0:
161,343,35985,6,0,P|314:320|361:240,3,250,0|0|0|0,1:0|3:0|1:0|3:0,0:0:0:0:
243,161,36585,6,0,P|191:156|158:196,1,93.75,0|0,1:0|0:0,0:0:0:0:
96,289,36885,1,0,3:0:0:0:
168,349,36960,1,0,3:0:0:0:
226,275,37035,1,0,3:0:0:0:
154,215,37110,1,0,3:0:0:0:
45,210,37185,6,0,B|28:194|28:194|36:180|36:180|-23:115,1,93.7500035762788,0|0,1:0|0:0,0:0:0:0:
212,244,37335,6,0,L|234:221,1,31.25,0|0,3:0|0:0,0:0:0:0:
225,261,37485,2,0,B|259:233|259:233|256:211,1,62.5,0|0,3:0|0:0,0:0:0:0:
181,48,37635,6,0,P|139:79|186:139,1,125,0|0,1:0|3:0,0:0:0:0:
173,144,38010,1,0,3:0:0:0:
248,98,38085,6,0,L|283:184,1,93.7500035762788,0|0,3:0|0:0,0:0:0:0:
432,325,38235,6,0,L|409:303,1,31.25,0|0,3:0|0:0,0:0:0:0:
456,324,38385,2,0,B|417:275|417:275|384:277,1,87.5,0|0,1:0|0:0,0:0:0:0:
311,242,38985,6,0,P|331:290|382:300,1,93.75,0|0,1:0|0:0,0:0:0:0:
493,312,39285,1,0,3:0:0:0:
512,220,39360,1,0,3:0:0:0:
419,204,39435,1,0,3:0:0:0:
400,296,39510,1,0,3:0:0:0:
297,360,39585,6,0,B|293:344|293:344|218:372|162:324,1,125,0|0,1:0|0:0,0:0:0:0:
187,341,39885,6,0,B|170:348|170:348|162:310|207:285,1,93.7500035762788,0|0,3:0|0:0,0:0:0:0:
261,226,40035,6,0,P|209:221|204:298,1,125,0|0,1:0|3:0,0:0:0:0:
218,295,40410,1,0,3:0:0:0:
328,384,40485,6,0,L|302:294,1,78.125,0|0,3:0|0:0,0:0:0:0:
394,243,40635,2,0,L|403:202,1,31.25,0|0,3:0|0:0,0:0:0:0:
313,149,40785,6,0,B|365:69|365:69|325:78|325:78|311:74|311:74|298:89|298:89|273:68,1,187.5,0|0,1:0|0:0,0:0:0:0:
185,152,41085,5,0,3:0:0:0:
102,194,41160,1,0,3:0:0:0:
127,136,41235,1,0,3:0:0:0:
144,162,41310,1,0,3:0:0:0:
133,172,41385,6,0,P|81:177|48:137,1,93.75,0|0,1:0|0:0,0:0:0:0:
12,59,41685,1,0,3:0:0:0:
89,0,41760,1,0,3:0:0:0:
141,78,41835,1,0,3:0:0:0:
66,135,41910,1,0,3:0:0:0:
133,256,41985,6,0,B|109:254|109:254|106:238|106:238|19:226,1,93.7500035762788,0|0,1:0|0:0,0:0:0:0:
301,176,42135,6,0,L|270:185,1,31.25,0|0,3:0|0:0,0:0:0:0:
310,195,42285,2,0,B|269:213|269:213|251:200,1,62.5,0|0,3:0|0:0,0:0:0:0:
255,75,42435,6,0,B|240:151|341:156|311:265,1,187.500007152558,0|0,1:0|3:0,0:0:0:0:
330,263,42810,1,0,3:0:0:0:
391,376,42885,6,0,L|399:273,1,93.7500035762788,0|0,3:0|0:0,0:0:0:0:
202,175,43035,6,0,L|225:197,1,31.25,0|0,3:0|0:0,0:0:0:0:
178,176,43185,2,0,B|217:225|217:225|250:223,1,87.5,0|0,1:0|0:0,0:0:0:0:
252,155,43785,6,0,P|282:186|226:237,1,125,0|0,1:0|3:0,0:0:0:0:
223,250,44385,6,0,B|275:221|318:233|318:233|343:201|313:118,1,187.500007152558,0|0,1:0|3:0,0:0:0:0:
252,328,44685,6,0,P|281:305|313:302,1,46.8750017881394,0|0,3:0|0:0,0:0:0:0:
401,330,44835,6,0,P|440:299|414:299,1,125,0|0,1:0|3:0,0:0:0:0:
402,290,45210,1,0,3:0:0:0:
291,286,45285,6,0,L|311:227,1,62.5,0|0,3:0|0:0,0:0:0:0:
225,128,45435,2,0,L|216:97,1,31.25,0|0,3:0|0:0,0:0:0:0:
229,232,45585,6,0,B|213:262|211:319|211:319|260:380|328:359|328:359|367:324|383:281|393:211|393:211|355:139|289:154|289:154|373:60|484:72|483:74|483:74|506:162|478:234,1,875,0|0,1:0|0:0,0:0:0:0:
447,301,46185,6,0,B|456:376|456:376|476:392,1,93.75,0|0,1:0|0:0,0:0:0:0:
467,339,46485,5,0,3:0:0:0:
456,277,46560,1,0,3:0:0:0:
442,184,46635,1,0,3:0:0:0:
421,60,46710,1,0,3:0:0:0:
393,165,46785,6,0,L|445:194,1,31.25,0|0,1:0|0:0,0:0:0:0:
393,165,47235,6,0,L|490:214,1,93.7500035762788,0|0,1:0|0:0,0:0:0:0:
453,205,47460,1,0,3:0:0:0:
406,208,47535,1,0,3:0:0:0:
344,241,47610,1,0,3:0:0:0:
291,318,47685,6,0,L|278:399,1,46.8750017881394,0|0,3:0|0:0,0:0:0:0:
223,185,47835,6,0,B|230:212|230:212|227:220|227:220|230:225|230:225|235:257,1,62.5,0|0,1:0|1:0,0:0:0:0:
236,260,48210,1,0,0:0:0:0:
326,123,48285,6,0,L|315:201,1,62.5,0|0,1:0|0:0,0:0:0:0:
167,57,48435,2,0,L|190:131,1,62.5,0|0,1:0|0:0,0:0:0:0:
344,213,48585,6,0,B|419:204|419:204|435:184,1,93.75,0|0,1:0|0:0,0:0:0:0:
382,193,48885,5,0,3:0:0:0:
320,204,48960,1,0,3:0:0:0:
227,218,49035,1,0,3:0:0:0:
103,239,49110,1,0,3:0:0:0:
298,273,49185,6,0,B|341:263|341:263|352:256|352:256|362:259|362:259|447:243,1,109.375001043081,0|0,1:0|0:0,0:0:0:0:
279,356,49485,6,0,L|355:347,2,62.5000023841859,0|0|0,1:0|3:0|0:0,0:0:0:0:
162,320,49635,6,0,L|65:271,1,93.7500035762788,0|0,1:0|0:0,0:0:0:0:
102,280,49860,1,0,3:0:0:0:
149,277,49935,1,0,3:0:0:0:
211,244,50010,1,0,3:0:0:0:
276,176,50085,6,0,L|291:92,1,46.8750017881394,0|0,3:0|0:0,0:0:0:0:
372,260,50235,6,0,B|362:204|362:204|354:228,1,62.5,0|0,1:0|0:0,0:0:0:0:
283,317,50385,5,0,3:0:0:0:
274,286,50460,1,0,0:0:0:0:
265,255,50535,1,0,3:0:0:0:
257,224,50610,1,0,3:0:0:0:
249,193,50685,1,0,3:0:0:0:
141,256,50835,5,0,3:0:0:0:
196,285,50910,1,0,3:0:0:0:
252,311,50985,6,0,L|356:345,1,93.75,0|0,1:0|0:0,0:0:0:0:
323,313,51285,1,0,3:0:0:0:
262,295,51360,1,0,3:0:0:0:
171,269,51435,1,0,3:0:0:0:
53,234,51510,1,0,3:0:0:0:
174,197,51585,6,0,L|186:303,1,93.7500035762788,0|0,1:0|0:0,0:0:0:0:
350,320,51735,6,0,L|360:378,1,31.25,0|0,3:0|0:0,0:0:0:0:
377,303,51885,2,0,B|384:345|384:345|366:374,1,62.5,0|0,3:0|0:0,0:0:0:0:
467,210,52035,6,0,L|360:183,1,93.7500035762788,0|0,1:0|0:0,0:0:0:0:
358,179,52260,1,0,3:0:0:0:
332,151,52335,1,0,3:0:0:0:
320,95,52410,1,0,3:0:0:0:
372,41,52485,6,0,L|443:35,1,46.8750017881394,0|0,3:0|0:0,0:0:0:0:
202,142,52635,6,0,B|229:149|229:149|237:146|237:146|242:149|242:149|274:154,1,62.5,0|0,1:0|1:0,0:0:0:0:
286,156,53010,1,0,0:0:0:0:
172,47,53085,6,0,L|250:58,1,62.5,0|0,1:0|0:0,0:0:0:0:
89,233,53235,2,0,L|163:210,1,62.5,0|0,1:0|0:0,0:0:0:0:
278,133,53385,6,0,B|269:58|269:58|249:42,1,93.75,0|0,1:0|0:0,0:0:0:0:
258,95,53685,5,0,3:0:0:0:
269,157,53760,1,0,3:0:0:0:
283,250,53835,1,0,3:0:0:0:
304,374,53910,1,0,3:0:0:0:
128,268,53985,6,0,B|184:257|184:257|190:275,1,62.5,0|0,3:0|0:0,0:0:0:0:
119,297,54135,2,0,B|175:286,1,46.8750017881394,0|0,3:0|0:0,0:0:0:0:
235,339,54285,6,0,B|267:279|267:279|260:208,1,93.7500035762788,0|0,1:0|0:0,0:0:0:0:
207,104,54435,6,0,L|314:131,1,93.7500035762788,0|0,1:0|0:0,0:0:0:0:
316,135,54660,1,0,3:0:0:0:
342,163,54735,1,0,3:0:0:0:
354,219,54810,1,0,3:0:0:0:
272,302,54885,6,0,L|227:267,1,31.25,0|0,3:0|0:0,0:0:0:0:
247,316,55035,2,0,B|202:282|202:282|232:265,1,62.5,0|0,1:0|0:0,0:0:0:0:
197,384,55185,6,0,B|51:253|51:253|4:23,3,416.666666666667,0|0|0|0,1:0|3:0|1:0|3:0,0:0:0:0:
213,55,55785,6,0,B|138:64|138:64|122:84,1,93.75,0|0,1:0|0:0,0:0:0:0:
175,75,56085,5,0,3:0:0:0:
237,64,56160,1,0,3:0:0:0:
330,50,56235,1,0,3:0:0:0:
454,29,56310,1,0,3:0:0:0:
356,72,56385,6,0,L|271:112,1,93.7500035762788,0|0,1:0|0:0,0:0:0:0:
123,230,56535,6,0,L|135:194,1,31.25,0|0,3:0|0:0,0:0:0:0:
153,218,56685,2,0,B|173:170|173:170|142:137,1,62.5,0|0,3:0|0:0,0:0:0:0:
308,261,56835,6,0,L|259:358,1,93.7500035762788,0|0,1:0|0:0,0:0:0:0:
268,321,57060,1,0,3:0:0:0:
265,274,57135,1,0,3:0:0:0:
232,212,57210,1,0,3:0:0:0:
178,159,57285,6,0,L|131:151,1,46.8750017881394,0|0,3:0|0:0,0:0:0:0:
339,250,57435,6,0,B|312:257|312:257|304:254|304:254|299:257|299:257|267:262,1,62.5,0|0,1:0|1:0,0:0:0:0:
264,263,57810,1,0,0:0:0:0:
311,342,57885,6,0,L|233:331,1,62.5,0|0,1:0|0:0,0:0:0:0:
392,147,58035,2,0,L|318:170,1,62.5,0|0,1:0|0:0,0:0:0:0:
154,213,58185,6,0,B|79:222|79:222|63:242,1,93.75,0|0,1:0|0:0,0:0:0:0:
116,233,58485,5,0,3:0:0:0:
178,222,58560,1,0,3:0:0:0:
271,208,58635,1,0,3:0:0:0:
395,187,58710,1,0,3:0:0:0:
287,320,58785,6,0,B|244:310|244:310|233:303|233:303|223:306|223:306|138:290,1,109.375001043081,0|0,1:0|0:0,0:0:0:0:
206,211,59085,6,0,L|143:203,2,62.5000023841859,0|0|0,1:0|3:0|0:0,0:0:0:0:
308,230,59235,6,0,L|405:279,1,93.7500035762788,0|0,1:0|0:0,0:0:0:0:
368,270,59460,1,0,3:0:0:0:
321,273,59535,1,0,3:0:0:0:
259,306,59610,1,0,3:0:0:0:
204,338,59685,6,0,L|133:370,1,46.8750017881394,0|0,3:0|0:0,0:0:0:0:
235,215,59835,6,0,B|179:225|179:225|203:233,1,62.5,0|0,1:0|0:0,0:0:0:0:
111,125,59985,5,0,3:0:0:0:
143,126,60060,1,0,3:0:0:0:
175,127,60135,1,0,3:0:0:0:
207,127,60210,1,0,0:0:0:0:
240,127,60285,1,0,3:0:0:0:
141,256,60435,5,0,3:0:0:0:
196,285,60510,1,0,3:0:0:0:
252,311,60585,6,0,L|356:345,1,93.75,0|0,1:0|0:0,0:0:0:0:
323,313,60885,1,0,3:0:0:0:
262,295,60960,1,0,3:0:0:0:
171,269,61035,1,0,3:0:0:0:
53,234,61110,1,0,3:0:0:0:
152,251,61185,6,0,L|140:145,1,93.7500035762788,0|0,1:0|0:0,0:0:0:0:
319,70,61335,6,0,L|377:60,1,31.25,0|0,3:0|0:0,0:0:0:0:
302,43,61485,2,0,B|344:36|344:36|373:54,1,62.5,0|0,3:0|0:0,0:0:0:0:
416,181,61635,6,0,L|389:288,1,93.7500035762788,0|0,1:0|0:0,0:0:0:0:
385,290,61860,1,0,3:0:0:0:
357,316,61935,1,0,3:0:0:0:
301,328,62010,1,0,3:0:0:0:
247,276,62085,6,0,L|241:205,1,46.8750017881394,0|0,3:0|0:0,0:0:0:0:
144,379,62235,6,0,B|151:352|151:352|148:344|148:344|151:339|151:339|156:307,1,62.5,0|0,1:0|1:0,0:0:0:0:
158,295,62610,1,0,0:0:0:0:
51,384,62685,6,0,L|62:306,1,62.5,0|0,1:0|0:0,0:0:0:0:
277,257,62835,2,0,L|254:183,1,62.5,0|0,1:0|0:0,0:0:0:0:
168,89,62985,6,0,B|93:98|93:98|77:118,1,93.75,0|0,1:0|0:0,0:0:0:0:
130,109,63285,5,0,3:0:0:0:
192,98,63360,1,0,3:0:0:0:
285,84,63435,1,0,3:0:0:0:
409,63,63510,1,0,3:0:0:0:
255,168,63585,6,0,B|244:224|244:224|262:230,1,62.5,0|0,3:0|0:0,0:0:0:0:
284,159,63735,2,0,B|273:215,1,46.8750017881394,0|0,3:0|0:0,0:0:0:0:
323,288,63885,6,0,B|355:228|355:228|359:158,1,93.7500035762788,0|0,1:0|0:0,0:0:0:0:
186,98,64035,2,0,B|166:160|166:160|174:228,1,93.7500035762788,0|0,1:0|0:0,0:0:0:0:
294,303,64185,5,0,3:0:0:0:
407,220,64335,1,0,3:0:0:0:
414,173,64410,1,0,3:0:0:0:
371,89,64485,5,0,3:0:0:0:
313,222,64635,1,0,3:0:0:0:
317,189,64710,1,0,3:0:0:0:
287,130,64785,5,0,3:0:0:0:
234,240,64935,1,0,3:0:0:0:
236,220,65010,1,0,3:0:0:0:
218,184,65085,5,0,3:0:0:0:
158,265,65235,1,0,3:0:0:0:
159,255,65310,1,0,3:0:0:0:
148,234,65385,6,0,L|136:148,4,62.5,0|0|0|0|0,1:0|0:0|0:0|0:0|0:0,0:0:0:0:
232,276,66135,1,0,0:0:0:0:
315,319,66285,6,0,L|323:380,4,62.5,0|0|0|0|0,1:0|0:0|0:0|0:0|0:0,0:0:0:0:
232,276,67035,1,0,0:0:0:0:
148,234,67186,2,0,L|87:243,2,62.5,0|0|0,1:0|0:0|0:0,0:0:0:0:
214,168,67635,1,0,1:0:0:0:
233,125,67710,1,0,1:0:0:0:
236,78,67785,6,0,L|224:-8,2,62.5,0|0|0,1:0|0:0|0:0,0:0:0:0:
328,96,68235,2,0,L|340:10,2,62.5,0|0|0,1:0|0:0|0:0,0:0:0:0:
410,141,68685,6,0,L|422:227,2,62.5,0|0|0,1:0|0:0|0:0,0:0:0:0:
324,181,69135,2,0,L|312:267,2,62.5
234,209,69585,2,0,L|246:295,2,62.5,0|0|0,0:0|0:0|1:0,0:0:0:0:
205,194,69960,1,0,0:0:0:0:
175,183,70035,1,0,1:0:0:0:
143,182,70110,1,0,0:0:0:0:
111,182,70185,6,0,L|187:149,4,62.5,0|0|0|0|0,1:0|0:0|0:0|0:0|0:0,0:0:0:0:
24,144,70935,1,0,0:0:0:0:
44,235,71085,6,0,L|11:311,4,62.5,0|0|0|0|0,1:0|0:0|0:0|0:0|0:0,0:0:0:0:
24,144,71835,1,0,0:0:0:0:
111,182,71985,6,0,L|168:206,2,62.5,0|0|0,1:0|0:0|0:0,0:0:0:0:
129,274,72435,1,0,1:0:0:0:
152,294,72510,1,0,1:0:0:0:
175,314,72585,6,0,L|220:364,2,62.5,0|0|0,1:0|0:0|0:0,0:0:0:0:
276,232,73035,2,0,L|289:297,2,62.5,0|0|0,1:0|0:0|0:0,0:0:0:0:
397,169,73485,2,0,L|387:235,9,62.5,0|0|0|0|0|0|0|0|0|0,1:0|0:0|0:0|0:0|0:0|0:0|0:0|0:0|0:0|0:0,0:0:0:0:
371,146,74985,6,0,L|213:125,1,150,0|0,1:0|1:0,0:0:0:0:
223,127,76785,1,0,1:0:0:0:
223,127,77235,1,0,1:0:0:0:
223,127,77310,1,0,1:0:0:0:
223,127,77385,6,0,L|165:112,1,50,0|0,1:0|0:0,0:0:0:0:
170,103,77835,2,0,L|113:89,1,50,0|0,1:0|0:0,0:0:0:0:
115,81,78285,1,0,1:0:0:0:
115,81,79485,5,0,1:0:0:0:
170,103,79635,1,0,1:0:0:0:
223,127,79785,6,0,L|378:106,1,150,0|0,1:0|1:0,0:0:0:0:
372,107,81585,1,0,1:0:0:0:
372,107,82035,1,0,1:0:0:0:
372,107,82110,1,0,1:0:0:0:
372,107,82185,6,0,L|358:50,1,50,0|0,1:0|0:0,0:0:0:0:
348,55,82635,2,0,L|334:-2,1,50,0|0,1:0|0:0,0:0:0:0:
325,0,83085,2,0,B|282:32|182:28|182:28|187:74|165:133,1,250,0|0,1:0|0:0,0:0:0:0:
