osu file format v14

[General]
AudioFilename: audio.mp3
AudioLeadIn: 0
PreviewTime: 110708
Countdown: 0
SampleSet: Soft
StackLeniency: 0.2
Mode: 0
LetterboxInBreaks: 0
WidescreenStoryboard: 1

[Editor]
Bookmarks: 5880,6570,11397,12087,16915,89328,100363,111397,144501,155535,166570,172087,174846,176225,177604,180363,202087,209328,224501,243811,246570,262259,268639,279673,290018,290708,295535,296225,301053,301742,306570,307259,312777
DistanceSpacing: 0.3
BeatDivisor: 4
GridSize: 8
TimelineZoom: 0.7

[Metadata]
Title:dreamless wanderer
TitleUnicode:dreamless wanderer
Artist:Camellia
ArtistUnicode:かめるかめりあ
Creator:ksg
Version:Insomnia
Source:
Tags:cametek kamelcamellia drumstep c87 かめるかめりあ
BeatmapID:1385382
BeatmapSetID:653528

[Difficulty]
HPDrainRate:5
CircleSize:4.5
OverallDifficulty:8.5
ApproachRate:9.4
SliderMultiplier:1.7
SliderTickRate:1

[Events]
//Background and Video events
0,0,"arches_by_sebastianwagner-d60g0et.jpg",0,0
//Break Periods
//Storyboard Layer 0 (Background)
//Storyboard Layer 1 (Fail)
//Storyboard Layer 2 (Pass)
//Storyboard Layer 3 (Foreground)
//Storyboard Sound Samples

[TimingPoints]
1053,344.827586206897,4,2,1,60,1,0
1053,-333.333333333333,4,2,2,5,0,0
23121,-200,4,2,2,20,0,0
44501,-200,4,2,1,60,0,0
44846,-133.333333333333,4,2,1,60,0,0
46053,-100,4,2,1,60,0,0
46225,-133.333333333333,4,2,1,60,0,0
46915,-50,4,2,1,60,0,0
47259,-100,4,2,1,60,0,0
48639,-133.333333333333,4,2,1,60,0,0
49673,-66.6666666666667,4,2,1,60,0,0
50708,-133.333333333333,4,2,1,60,0,0
51397,-100,4,2,1,60,0,0
52087,-66.6666666666667,4,2,1,60,0,0
52777,-100,4,2,1,60,0,0
53466,-66.6666666666667,4,2,1,60,0,0
54156,-100,4,2,1,60,0,0
54846,-133.333333333333,4,2,1,60,0,0
55190,-100,4,2,1,60,0,0
55535,-66.6666666666667,4,2,1,60,0,0
56225,-133.333333333333,4,2,1,60,0,0
57087,-100,4,2,1,60,0,0
57949,-66.6666666666667,4,2,1,60,0,0
58294,-100,4,2,1,60,0,0
58984,-66.6666666666667,4,2,1,60,0,0
59328,-100,4,2,1,60,0,0
60708,-133.333333333333,4,2,1,60,0,0
61742,-66.6666666666667,4,2,1,60,0,0
62432,-100,4,2,1,60,0,0
63121,-66.6666666666667,4,2,1,60,0,0
63811,-100,4,2,1,60,0,0
64501,-66.6666666666667,4,2,1,60,0,0
65190,-100,4,2,1,60,0,0
67259,-200,4,2,1,60,0,0
67949,-200,4,2,2,60,0,0
89328,-133.333333333333,4,2,1,60,0,0
111397,-66.6666666666667,4,2,1,60,0,1
112001,-100,4,2,1,60,0,1
112777,-66.6666666666667,4,2,1,60,0,1
113380,-100,4,2,1,60,0,1
114156,-133.333333333333,4,2,1,60,0,1
114759,-100,4,2,1,60,0,1
115190,-66.6666666666667,4,2,1,60,0,1
115880,-100,4,2,1,60,0,1
116570,-66.6666666666667,4,2,1,60,0,1
116915,-100,4,2,1,60,0,1
117259,-66.6666666666667,4,2,1,60,0,1
117518,-100,4,2,1,60,0,1
117777,-66.6666666666667,4,2,1,60,0,1
118639,-100,4,2,1,60,0,1
119673,-66.6666666666667,4,2,1,60,0,1
120018,-100,4,2,1,60,0,1
121053,-66.6666666666667,4,2,1,60,0,1
121397,-100,4,2,1,60,0,1
121742,-66.6666666666667,4,2,1,60,0,1
122432,-66.6666666666667,4,2,1,60,0,1
122777,-100,4,2,1,60,0,1
123035,-66.6666666666667,4,2,1,60,0,1
123639,-100,4,2,1,60,0,1
123811,-66.6666666666667,4,2,1,60,0,1
124156,-100,4,2,1,60,0,1
125190,-66.6666666666667,4,2,1,60,0,1
125535,-100,4,2,1,60,0,1
126225,-66.6666666666667,4,2,1,60,0,1
126570,-100,4,2,1,60,0,1
127604,-66.6666666666667,4,2,1,60,0,1
127949,-100,4,2,1,60,0,1
128811,-66.6666666666667,4,2,1,60,0,1
129156,-100,4,2,1,60,0,1
129328,-66.6666666666667,4,2,1,60,0,1
129673,-100,4,2,1,60,0,1
130708,-66.6666666666667,4,2,1,60,0,1
131397,-100,4,2,1,60,0,1
131915,-200,4,2,1,60,0,1
133035,-200,4,2,1,5,0,1
133121,-200,4,2,1,60,0,1
133466,-66.6666666666667,4,2,1,60,0,1
133811,-100,4,2,1,60,0,1
134501,-66.6666666666667,4,2,1,60,0,1
135449,-100,4,2,1,60,0,1
136570,-66.6666666666667,4,2,1,60,0,1
137087,-100,4,2,1,60,0,1
137604,-66.6666666666667,4,2,1,60,0,1
137949,-100,4,2,1,60,0,1
138984,-66.6666666666667,4,2,1,60,0,1
139587,-100,4,2,1,60,0,1
140190,-66.6666666666667,4,2,1,60,0,1
140363,-100,4,2,1,60,0,1
141225,-66.6666666666667,4,2,1,60,0,1
142087,-100,4,2,1,60,0,1
142777,-66.6666666666667,4,2,1,60,0,1
143121,-133.333333333333,4,2,1,60,0,1
143466,-100,4,2,1,60,0,1
143984,-66.6666666666667,4,2,1,60,0,1
144846,-133.333333333333,4,2,1,60,0,1
145104,-66.6666666666667,4,2,1,60,0,1
145880,-100,4,2,1,60,0,1
146225,-66.6666666666667,4,2,1,60,0,1
146742,-100,4,2,1,60,0,1
147259,-66.6666666666667,4,2,1,60,0,1
147604,-100,4,2,1,60,0,1
148294,-66.6666666666667,4,2,1,60,0,1
148639,-100,4,2,1,60,0,1
149501,-66.6666666666667,4,2,1,60,0,1
149846,-100,4,2,1,60,0,1
150018,-66.6666666666667,4,2,1,60,0,1
150363,-100,4,2,1,60,0,1
151053,-66.6666666666667,4,2,1,60,0,1
152777,-200,4,2,1,60,0,0
154759,-200,4,2,1,5,0,0
154846,-100,4,2,1,60,0,0
155535,-133.333333333333,4,2,1,60,0,0
166570,-100,4,2,1,60,0,0
180363,-66.6666666666667,4,2,1,60,0,1
180966,-100,4,2,1,60,0,1
182087,-66.6666666666667,4,2,1,60,0,1
182346,-100,4,2,1,60,0,1
183121,-66.6666666666667,4,2,1,60,0,1
183466,-100,4,2,1,60,0,1
183725,-66.6666666666667,4,2,1,60,0,1
183984,-100,4,2,1,60,0,1
184156,-66.6666666666667,4,2,1,60,0,1
184501,-100,4,2,1,60,0,1
184846,-66.6666666666667,4,2,1,60,0,1
185104,-100,4,2,1,60,0,1
185880,-66.6666666666667,4,2,1,60,0,1
186225,-100,4,2,1,60,0,1
186915,-66.6666666666667,4,2,1,60,0,1
187259,-100,4,2,1,60,0,1
188294,-133.333333333333,4,2,1,60,0,1
188639,-66.6666666666667,4,2,1,60,0,1
188984,-100,4,2,1,60,0,1
190018,-66.6666666666667,4,2,1,60,0,1
190363,-100,4,2,1,60,0,1
190621,-66.6666666666667,4,2,1,60,0,1
191053,-133.333333333333,4,2,1,60,0,1
191397,-66.6666666666667,4,2,1,60,0,1
192001,-100,4,2,1,60,0,1
192432,-66.6666666666667,4,2,1,60,0,1
193121,-66.6666666666667,4,2,1,60,0,1
193380,-100,4,2,1,60,0,1
193811,-66.6666666666667,4,2,1,60,0,1
194501,-100,4,2,1,60,0,1
194759,-66.6666666666667,4,2,1,60,0,1
195018,-100,4,2,1,60,0,1
195535,-66.6666666666667,4,2,1,60,0,1
195880,-100,4,2,1,60,0,1
196915,-66.6666666666667,4,2,1,60,0,1
197259,-100,4,2,1,60,0,1
197518,-66.6666666666667,4,2,1,60,0,1
197777,-100,4,2,1,60,0,1
197949,-66.6666666666667,4,2,1,60,0,1
198639,-66.6666666666667,4,2,1,60,0,1
198897,-100,4,2,1,60,0,1
202087,-66.6666666666667,4,2,1,60,0,0
202432,-66.6666666666667,4,2,1,60,0,1
203035,-66.6666666666667,4,2,1,60,0,1
203466,-100,4,2,1,60,0,1
204156,-66.6666666666667,4,2,1,60,0,1
204415,-100,4,2,1,60,0,1
205190,-66.6666666666667,4,2,1,60,0,1
205535,-100,4,2,1,60,0,1
205794,-66.6666666666667,4,2,1,60,0,1
206225,-100,4,2,1,60,0,1
206570,-66.6666666666667,4,2,1,60,0,1
206915,-100,4,2,1,60,0,1
207604,-66.6666666666667,4,2,1,60,0,1
208553,-100,4,2,1,60,0,1
209328,-66.6666666666667,4,2,1,60,0,1
209673,-100,4,2,1,60,0,1
210880,-100,4,2,1,5,0,1
210938,-100,4,2,1,60,0,1
211110,-100,4,2,1,5,0,1
211167,-100,4,2,1,60,0,1
211340,-100,4,2,1,5,0,1
211397,-100,4,2,1,60,0,1
211570,-100,4,2,1,5,0,1
211627,-100,4,2,1,60,0,1
211800,-100,4,2,1,5,0,1
211857,-100,4,2,1,60,0,1
212030,-100,4,2,1,5,0,1
212087,-66.6666666666667,4,2,1,60,0,1
212432,-100,4,2,1,60,0,1
212777,-66.6666666666667,4,2,1,60,0,1
213121,-100,4,2,1,60,0,1
213466,-66.6666666666667,4,2,1,60,0,1
213811,-100,4,2,1,60,0,1
214501,-66.6666666666667,4,2,1,60,0,1
214846,-100,4,2,1,60,0,1
215880,-66.6666666666667,4,2,1,60,0,1
216570,-100,4,2,1,60,0,1
216828,-66.6666666666667,4,2,1,60,0,1
217259,-100,4,2,1,60,0,1
217604,-66.6666666666667,4,2,1,60,0,1
218208,-100,4,2,1,60,0,1
224156,-66.6666666666667,4,2,1,60,0,0
224501,-100,4,2,1,60,0,1
224846,-66.6666666666667,4,2,1,60,0,1
225104,-100,4,2,1,60,0,1
225880,-66.6666666666667,4,2,1,60,0,1
226225,-100,4,2,1,60,0,1
226915,-66.6666666666667,4,2,1,60,0,1
227259,-100,4,2,1,60,0,1
227863,-66.6666666666667,4,2,1,60,0,1
228639,-100,4,2,1,60,0,1
228984,-66.6666666666667,4,2,1,60,0,1
229242,-100,4,2,1,60,0,1
229673,-66.6666666666667,4,2,1,60,0,1
230018,-100,4,2,1,60,0,1
230363,-66.6666666666667,4,2,1,60,0,1
231742,-100,4,2,1,60,0,1
232001,-133.333333333333,4,2,1,60,0,1
232259,-100,4,2,1,60,0,1
233121,-66.6666666666667,4,2,1,60,0,1
233639,-100,4,2,1,60,0,1
234156,-66.6666666666667,4,2,1,60,0,1
234501,-100,4,2,1,60,0,1
234846,-66.6666666666667,4,2,1,60,0,1
235535,-100,4,2,1,60,0,1
236139,-66.6666666666667,4,2,1,60,0,1
236915,-100,4,2,1,60,0,1
237518,-133.333333333333,4,2,1,60,0,1
237777,-100,4,2,1,60,0,1
237949,-66.6666666666667,4,2,1,60,0,1
238294,-100,4,2,1,60,0,1
238897,-66.6666666666667,4,2,1,60,0,1
240277,-100,4,2,1,60,0,1
240708,-66.6666666666667,4,2,1,60,0,1
241053,-100,4,2,1,60,0,1
242432,-66.6666666666667,4,2,1,60,0,1
242777,-100,4,2,1,60,0,1
243811,-133.333333333333,4,2,1,60,0,0
244415,-133.333333333333,4,2,1,5,0,0
244501,-138.888888888889,4,2,1,60,0,0
245104,-138.888888888889,4,2,1,5,0,0
245190,-100,4,2,1,60,0,0
246570,-133.333333333333,4,2,1,60,0,0
247432,-100,4,2,1,60,0,0
248294,-50,4,2,1,60,0,0
248639,-100,4,2,1,60,0,0
250190,-133.333333333333,4,2,1,60,0,0
251053,-66.6666666666667,4,2,1,60,0,0
251397,-100,4,2,1,60,0,0
252087,-133.333333333333,4,2,1,60,0,0
252777,-100,4,2,1,60,0,0
253466,-66.6666666666667,4,2,1,60,0,0
254156,-100,4,2,1,60,0,0
254846,-66.6666666666667,4,2,1,60,0,0
255708,-100,4,2,1,60,0,0
256225,-133.333333333333,4,2,1,60,0,0
256570,-100,4,2,1,60,0,0
256915,-66.6666666666667,4,2,1,60,0,0
257604,-133.333333333333,4,2,1,60,0,0
258466,-100,4,2,1,60,0,0
259501,-66.6666666666667,4,2,1,60,0,0
259673,-100,4,2,1,60,0,0
260363,-66.6666666666667,4,2,1,60,0,0
261053,-100,4,2,1,60,0,0
263121,-133.333333333333,4,2,1,60,0,0
264070,-100,4,2,1,60,0,0
264501,-66.6666666666667,4,2,1,60,0,0
265190,-100,4,2,1,60,0,0
265880,-66.6666666666667,4,2,1,60,0,0
266570,-100,4,2,1,60,0,0
268294,-100,4,2,2,60,0,0
268639,-200,4,2,1,40,0,0
279673,-400,4,2,2,20,0,0
284501,-400,4,2,2,5,0,0
285190,-400,4,2,2,20,0,0
290018,-400,4,2,2,5,0,0
290708,-400,4,2,2,20,0,0
291397,-400,4,2,2,18,0,0
291742,-400,4,2,2,16,0,0
292087,-400,4,2,2,14,0,0
292432,-400,4,2,2,12,0,0
292777,-400,4,2,2,10,0,0
293121,-400,4,2,2,8,0,0
293466,-400,4,2,2,6,0,0
293811,-400,4,2,2,5,0,0
296225,-400,4,2,2,20,0,0
296915,-400,4,2,2,18,0,0
297259,-400,4,2,2,16,0,0
297604,-400,4,2,2,14,0,0
297949,-400,4,2,2,12,0,0
298294,-400,4,2,2,10,0,0
298639,-400,4,2,2,8,0,0
298984,-400,4,2,2,6,0,0
299328,-400,4,2,2,5,0,0
301742,-400,4,2,2,20,0,0
302432,-400,4,2,2,18,0,0
302777,-400,4,2,2,16,0,0
303121,-400,4,2,2,14,0,0
303466,-400,4,2,2,12,0,0
303811,-400,4,2,2,10,0,0
304156,-400,4,2,2,8,0,0
304501,-400,4,2,2,6,0,0
304846,-400,4,2,2,5,0,0
307259,-400,4,2,2,20,0,0
307604,-400,4,2,2,5,0,0
307949,-400,4,2,2,15,0,0
308294,-1000,4,2,2,15,0,0
308380,-1000,4,2,2,5,0,0

[Colours]
Combo1 : 64,140,255
Combo2 : 22,233,112
Combo3 : 28,216,255
Combo4 : 128,255,0

[HitObjects]
207,102,1053,6,0,B|191:111|164:104|164:104|233:124|272:175|272:175|311:222|393:205|393:205|366:207|314:192|294:138|301:98|329:62|361:49|361:49|375:88|415:116|463:105|486:86|486:86|457:83|446:64,1,713.99997821045
102,86,6570,6,0,B|105:62|92:45|92:45|146:61|166:110|182:177|108:223|108:223|123:271|171:305|231:311|281:286|281:286|223:295|193:251|193:251|160:331|81:318,1,713.99997821045
428,254,12087,6,0,B|411:303|365:327|365:327|330:297|270:292|270:292|333:284|358:238|358:238|327:194|346:146|346:146|312:142|281:121|281:121|262:176|274:220|274:220|191:240|150:178,1,713.99997821045
383,47,17604,6,0,P|385:99|341:148,1,101.999996887207
125,85,18639,1,0,0:0:0:0:
256,192,18811,12,0,23035,0:0:0:0:
211,121,23121,6,0,L|205:183,2,42.5,2|0|0,0:0|0:0|0:0,0:0:0:0:
302,104,23811,2,0,L|296:166,2,42.5,2|0|0,0:0|0:0|0:0,0:0:0:0:
114,137,24501,6,0,L|108:199,2,42.5,2|0|0,0:0|0:0|0:0,0:0:0:0:
211,121,25190,2,0,L|205:183,2,42.5,2|0|0,0:0|0:0|0:0,0:0:0:0:
23,154,25880,6,0,L|17:216,2,42.5,2|0|0,0:0|0:0|0:0,0:0:0:0:
120,138,26569,2,0,L|114:200,2,42.5,2|0|0,0:0|0:0|0:0,0:0:0:0:
211,121,27259,6,0,L|205:183,2,42.5,2|0|0,0:0|0:0|0:0,0:0:0:0:
302,104,27949,2,0,L|296:166,2,42.5,2|0|0,0:0|0:0|0:0,0:0:0:0:
403,161,28639,6,0,L|352:124,2,42.5,2|0|0,0:0|0:0|0:0,0:0:0:0:
303,219,29328,2,0,L|359:193,2,42.5,2|0|0,0:0|0:0|0:0,0:0:0:0:
302,104,30018,6,0,L|296:166,2,42.5,2|0|0,0:0|0:0|0:0,0:0:0:0:
403,161,30708,2,0,L|352:124,2,42.5,2|0|0,0:0|0:0|0:0,0:0:0:0:
196,89,31397,6,0,L|246:125,2,42.5,2|0|0,0:0|0:0|0:0,0:0:0:0:
296,31,32086,2,0,L|239:56,2,42.5,2|0|0,0:0|0:0|0:0,0:0:0:0:
297,146,32776,6,0,L|303:84,2,42.5,2|0|0,0:0|0:0|0:0,0:0:0:0:
196,89,33466,2,0,L|246:125,2,42.5,2|0|0,0:0|0:0|0:0,0:0:0:0:
286,235,34156,6,0,L|251:210,2,42.5,2|0|0,0:0|0:0|0:0,0:0:0:0:
125,197,34846,2,0,L|159:221,2,42.5,2|0|0,0:0|0:0|0:0,0:0:0:0:
225,330,35535,6,0,L|190:305,2,42.5,2|0|0,0:0|0:0|0:0,0:0:0:0:
64,292,36225,2,0,L|110:324,2,56.6666666666667,2|0|0,0:0|0:0|0:0,0:0:0:0:
40,207,36915,6,0,P|40:177|47:148,2,42.5,2|0|0,0:0|0:0|0:0,0:0:0:0:
116,188,37518,2,0,P|121:154|111:119,1,63.75,2|0,0:0|0:0,0:0:0:0:
53,48,37949,2,0,P|45:79|48:106,1,42.5
146,61,38294,6,0,P|173:65|196:61,2,42.5,2|0|0,0:0|0:0|0:0,0:0:0:0:
259,129,38897,2,0,P|229:124|205:131,1,42.5,2|0,0:0|0:0,0:0:0:0:
286,62,39242,2,0,P|322:68|358:61,1,63.75
439,45,39673,6,0,L|434:95,2,42.5,2|0|0,0:0|0:0|0:0,0:0:0:0:
498,185,40277,2,0,P|490:151|504:120,1,63.75,2|0,0:0|0:0,0:0:0:0:
411,158,40708,2,0,L|406:208,1,42.5
380,272,41053,6,0,L|375:322,2,42.5,2|0|0,0:0|0:0|0:0,0:0:0:0:
406,200,41656,2,0,P|376:195|353:200,1,42.5,2|0,0:0|0:0,0:0:0:0:
305,254,42001,2,0,P|262:260|231:252,1,63.75
271,182,42432,5,0,3:2:0:0:
256,192,42518,12,0,44328,0:0:0:0:
85,54,44501,5,8,0:3:0:0:
112,79,44587,1,8,0:3:0:0:
134,109,44673,1,8,0:3:0:0:
150,143,44759,1,8,0:3:0:0:
160,179,44846,5,4,0:3:0:0:
166,147,44932,1,4,0:3:0:0:
172,116,45018,1,4,0:3:0:0:
178,85,45104,1,4,0:3:0:0:
184,53,45190,6,0,P|236:74|318:47,1,127.500004863739,6|0,0:0|0:0,0:0:0:0:
451,54,45708,2,0,P|446:79|446:91,1,31.8750012159348
458,198,45880,1,8,0:0:0:0:
348,122,46053,6,0,P|352:153|352:179,1,42.5
465,206,46225,2,0,P|462:234|467:260,1,31.8750012159348
384,278,46397,2,0,P|387:306|382:332,1,31.8750012159348
443,381,46570,1,0,0:0:0:0:
196,349,46915,6,0,B|257:328|257:328|324:344|324:344|311:278|311:278|254:265,1,255,2|0,0:0|0:0,0:0:0:0:
173,286,47259,6,0,L|145:182,1,85,8|0,0:0|0:0,0:0:0:0:
129,118,47518,1,0,0:0:0:0:
129,118,47604,2,0,L|188:133,1,42.5
296,163,47777,2,0,L|243:218,1,42.5
116,333,47949,6,0,P|57:320|30:262,1,127.5,2|0,0:0|0:0,0:0:0:0:
99,265,48294,1,0,0:0:0:0:
88,223,48380,1,0,0:0:0:0:
77,182,48466,1,0,0:0:0:0:
67,141,48552,1,0,0:0:0:0:
56,100,48639,6,0,P|62:80|81:62,1,31.8750012159348,8|0,0:0|0:0,0:0:0:0:
211,139,48811,2,0,P|252:135|247:61,1,127.500004863739
159,64,49328,5,0,0:0:0:0:
211,241,49501,1,0,0:0:0:0:
389,146,49673,2,0,B|327:131|327:131|269:160|269:160|201:135,1,191.250007295609,2|0,0:0|0:0,0:0:0:0:
150,50,50018,6,0,P|118:48|87:56,1,63.7500024318696,8|0,0:0|0:0,0:0:0:0:
201,227,50190,2,0,P|169:228|138:220,1,63.7500024318696
251,63,50363,5,2,0:3:0:0:
294,42,50449,1,2,0:3:0:0:
341,35,50535,1,2,0:3:0:0:
388,40,50621,1,2,0:3:0:0:
432,58,50708,6,0,P|425:110|455:196,1,127.500004863739,2|0,0:0|0:0,0:0:0:0:
459,309,51225,2,0,P|449:294|442:288,2,21.2500008106232,0|0|0,3:0|3:0|3:0,3:0:0:0:
445,343,51397,6,0,P|399:344|347:367,1,85,8|0,0:0|0:0,0:0:0:0:
365,246,51656,2,0,P|319:245|267:222,1,85
219,350,51915,2,0,P|249:332|279:324,1,42.5
381,266,52087,6,0,P|436:204|349:164,1,191.250007295609
192,208,52432,2,0,P|203:258|200:292,1,63.7500024318696,2|0,0:0|0:0,0:0:0:0:
288,168,52604,2,0,P|285:219|273:251,1,63.7500024318696
214,112,52777,6,0,L|106:105,1,85,8|0,0:0|0:0,0:0:0:0:
24,99,53035,1,0,0:0:0:0:
32,113,53121,2,0,L|41:212,1,85
47,211,53380,1,0,0:0:0:0:
54,224,53466,6,0,B|118:247|182:224|182:224|149:208|115:218,1,191.250007295609,2|0,0:0|0:0,0:0:0:0:
192,310,53811,2,0,P|223:304|253:312,1,63.7500024318696
288,168,53984,2,0,P|328:173|358:161,1,63.7500024318696
341,317,54156,6,0,P|339:290|320:254,1,42.5,8|0,0:0|0:0,0:0:0:0:
226,207,54328,2,0,P|227:127|300:93,1,170
349,165,54759,1,0,0:0:0:0:
372,185,54846,6,0,P|428:175|492:196,1,95.6250036478044
300,93,55190,2,0,P|356:88|422:41,1,127.5,2|0,0:0|0:0,0:0:0:0:
288,168,55535,2,0,P|295:235|176:261,1,191.250007295609,8|0,0:0|0:0,0:0:0:0:
224,79,55880,6,0,L|214:151,1,63.7500024318696
137,128,56053,2,0,L|127:200,1,63.7500024318696
50,177,56225,6,0,B|41:240|41:240|65:207,1,95.6250036478044,6|0,0:0|0:0,0:0:0:0:
113,263,56570,2,0,L|104:326,1,63.7500024318696
173,339,56828,5,0,0:0:0:0:
173,339,56915,1,8,0:0:0:0:
272,236,57087,2,0,P|246:243|208:236,1,42.5
329,347,57259,2,0,P|303:340|265:347,1,42.5
388,218,57432,2,0,P|385:252|391:273,1,42.5
445,357,57604,6,0,P|458:311|451:260,1,85
464,263,57949,6,0,P|457:224|460:185,1,63.7500024318696,2|0,0:0|0:0,0:0:0:0:
411,24,58121,2,0,P|417:55|417:86,1,63.7500024318696
246,148,58294,6,0,P|300:139|355:147,1,85,8|0,0:0|0:0,0:0:0:0:
388,218,58553,1,0,0:0:0:0:
388,218,58639,2,0,P|360:222|337:222,1,42.5
302,64,58811,2,0,P|274:60|251:60,1,42.5
170,184,58984,6,0,B|83:199|23:145|11:97|64:85|80:115,1,191.250007295609,2|0,0:0|0:0,0:0:0:0:
86,247,59328,2,0,P|86:281|71:312,1,42.5
144,94,59501,2,0,P|144:60|159:29,1,42.5
170,184,59673,6,0,P|204:181|239:192,1,42.5,8|0,0:0|0:0,0:0:0:0:
230,87,59846,2,0,B|256:98|284:87|284:87|291:105|314:116|314:116|354:101|388:119,1,170
355,260,60363,5,0,0:0:0:0:
440,66,60535,1,0,0:0:0:0:
496,220,60708,6,0,L|488:179,1,31.8750012159348,2|0,0:0|0:0,0:0:0:0:
390,148,60880,2,0,L|396:179,1,31.8750012159348
425,357,61053,2,0,P|421:306|452:263,1,95.6250036478044,8|0,0:0|0:0,0:0:0:0:
347,280,61397,5,2,0:3:0:0:
309,294,61483,1,2,0:3:0:0:
270,299,61569,1,2,0:3:0:0:
230,294,61655,1,2,0:3:0:0:
190,277,61742,6,0,B|154:253|104:283|104:283|54:310|4:292|-8:241|3:210|28:196,1,255.000009727478,2|0,0:0|0:0,0:0:0:0:
117,45,62259,5,0,0:0:0:0:
119,76,62345,1,0,0:0:0:0:
121,108,62432,2,0,P|177:116|225:97,1,85,8|0,0:0|0:0,0:0:0:0:
188,204,62690,2,0,P|244:196|292:215,1,85
345,108,62949,2,0,P|316:112|291:103,1,42.5
378,193,63121,6,0,P|427:148|401:35,1,191.250007295609
345,108,63466,1,2,0:0:0:0:
487,188,63639,1,0,0:0:0:0:
387,315,63811,6,0,P|368:264|386:177,1,127.5,8|0,0:0|0:0,0:0:0:0:
501,268,64156,2,0,P|480:263|459:268,1,42.5
377,333,64328,2,0,P|356:337|335:332,1,42.5
253,268,64501,6,0,P|232:263|274:320,1,191.250007295609,2|0,0:0|0:0,0:0:0:0:
324,263,64846,1,0,0:0:0:0:
312,233,64932,1,0,0:0:0:0:
305,202,65018,1,0,0:0:0:0:
302,170,65104,1,0,0:0:0:0:
304,138,65190,6,0,P|306:115|311:96,1,42.5,8|0,0:0|0:0,0:0:0:0:
216,192,65363,2,0,P|166:201|57:151,1,170
253,39,65880,6,0,P|228:91|162:109,1,127.5
320,75,66225,2,0,P|275:111|207:99,1,127.5,2|0,0:0|0:0,0:0:0:0:
365,135,66570,2,0,P|309:149|252:110,1,127.5,8|0,0:0|0:0,0:0:0:0:
380,208,66915,6,0,P|323:197|312:188,1,42.5
320,75,67087,2,0,P|263:86|252:95,1,42.5
198,206,67259,6,0,P|159:220|119:208,1,85,6|0,0:0|0:0,0:0:0:0:
109,200,67690,1,0,0:0:0:0:
100,191,67777,1,0,0:0:0:0:
14,321,67949,5,2,0:0:0:0:
14,321,69156,6,0,P|48:306|-6:256,1,127.5,2|0,0:0|0:0,0:0:0:0:
257,325,70018,6,0,P|289:329|334:305,1,85,2|0,0:0|0:0,0:0:0:0:
281,260,70535,2,0,P|214:184|116:210,1,212.5,2|0,0:0|0:0,0:0:0:0:
117,210,71915,6,0,P|108:167|135:118,1,85,2|0,0:0|0:0,0:0:0:0:
209,73,72432,2,0,P|212:90|203:116,1,42.5,2|0,0:0|0:0,0:0:0:0:
136,62,72777,2,0,P|153:22|206:0,1,85,2|0,0:0|0:0,0:0:0:0:
280,54,73294,1,2,0:0:0:0:
280,54,74673,5,2,0:0:0:0:
280,54,75535,6,0,P|266:93|270:136,1,85,2|0,0:0|0:0,0:0:0:0:
361,105,76053,2,0,B|369:147|352:185|352:185|365:244|365:244|331:267|324:316,1,212.5,2|0,0:0|0:0,0:0:0:0:
131,260,78294,6,0,L|123:176,1,85,2|0,0:0|0:0,0:0:0:0:
201,207,78812,2,0,B|209:290|209:290|205:312|173:348|133:351|104:339,1,212.5,2|0,0:0|0:0,0:0:0:0:
209,290,80190,6,0,P|256:296|303:287,1,85,2|0,0:0|0:0,0:0:0:0:
361,252,80708,1,2,0:0:0:0:
361,252,81053,6,0,P|355:205|364:158,1,85,2|0,0:0|0:0,0:0:0:0:
431,206,81570,2,0,B|447:267|426:341|426:341|382:326|341:342,1,212.5,2|0,0:0|0:0,0:0:0:0:
305,200,82949,6,0,P|314:143|347:117,1,85,2|0,0:0|0:0,0:0:0:0:
305,200,83466,6,0,P|288:214|268:220,1,42.5,2|0,0:0|0:0,0:0:0:0:
305,200,83811,6,0,P|349:236|355:277,1,85,2|0,0:0|0:0,0:0:0:0:
231,341,84328,6,0,B|181:345|146:333|146:333|89:380|28:347,1,212.5,2|0,0:0|0:0,0:0:0:0:
36,186,85708,5,0,0:0:0:0:
115,232,85880,5,2,0:0:0:0:
108,205,86053,1,0,0:0:0:0:
187,251,86225,5,2,0:0:0:0:
180,224,86398,1,0,0:0:0:0:
259,270,86570,6,0,B|239:181,1,85,2|0,0:0|0:0,0:0:0:0:
331,289,87087,5,2,0:0:0:0:
256,192,87259,12,0,88811,0:0:0:0:
150,135,89328,6,0,L|218:136,1,63.7500024318696,8|0,0:0|0:0,0:0:0:0:
375,135,89673,1,2,0:0:0:0:
291,104,89846,1,8,0:0:0:0:
303,191,90018,1,2,0:0:0:0:
308,198,90363,1,8,0:0:0:0:
313,205,90708,6,0,L|245:206,1,63.7500024318696,8|0,0:0|0:0,0:0:0:0:
111,205,91053,1,2,0:0:0:0:
143,305,91225,1,8,0:0:0:0:
243,278,91397,1,2,0:0:0:0:
236,299,91742,1,8,0:0:0:0:
229,318,92087,6,0,L|297:319,1,63.7500024318696,8|0,0:0|0:0,0:0:0:0:
423,315,92432,1,2,0:0:0:0:
327,219,92604,1,8,0:0:0:0:
443,305,92777,1,2,0:0:0:0:
460,296,93121,1,8,0:0:0:0:
476,287,93466,6,0,L|466:199,1,63.7500024318696,8|0,0:0|0:0,0:0:0:0:
452,75,93811,1,2,0:0:0:0:
356,160,93984,1,8,0:0:0:0:
271,65,94156,1,2,0:0:0:0:
264,94,94501,1,8,0:0:0:0:
258,122,94846,6,0,L|243:191,1,63.7500024318696,8|0,0:0|0:0,0:0:0:0:
152,276,95190,1,2,0:0:0:0:
92,150,95363,1,8,0:0:0:0:
17,291,95535,2,0,L|101:283,1,63.7500024318696,2|0,0:0|0:0,0:0:0:0:
109,351,95880,2,0,L|193:343,1,63.7500024318696,8|0,0:0|0:0,0:0:0:0:
391,340,96225,6,0,L|307:332,1,63.7500024318696,8|0,0:0|0:0,0:0:0:0:
198,323,96570,1,2,0:0:0:0:
360,264,96742,1,8,0:0:0:0:
257,167,96915,2,0,L|268:255,1,63.7500024318696,2|0,0:0|0:0,0:0:0:0:
321,91,97259,2,0,L|332:179,1,63.7500024318696,8|0,0:0|0:0,0:0:0:0:
438,274,97604,6,0,L|449:186,1,63.7500024318696,8|0,0:0|0:0,0:0:0:0:
468,78,97949,1,2,0:0:0:0:
359,177,98121,1,8,0:0:0:0:
341,28,98294,2,0,L|260:41,1,63.7500024318696,2|0,0:0|0:0,0:0:0:0:
282,107,98639,2,0,L|201:120,1,63.7500024318696,8|0,0:0|0:0,0:0:0:0:
9,70,98984,6,0,L|90:83,1,63.7500024318696,8|0,0:0|0:0,0:0:0:0:
212,107,99328,1,2,0:0:0:0:
27,173,99501,1,8,0:0:0:0:
106,255,99673,2,0,L|114:179,1,63.7500024318696,2|0,0:0|0:0,0:0:0:0:
211,31,100018,2,0,L|204:94,1,63.7500024318696,8|0,0:0|0:0,0:0:0:0:
189,225,100363,5,8,0:0:0:0:
134,111,100535,1,2,0:0:0:0:
20,258,100708,5,8,0:0:0:0:
204,237,100880,1,2,0:0:0:0:
101,44,101053,5,8,0:0:0:0:
15,272,101225,1,2,0:0:0:0:
268,210,101397,5,8,0:0:0:0:
81,27,101570,1,2,0:0:0:0:
146,276,101742,5,8,0:0:0:0:
192,92,101915,1,2,0:0:0:0:
15,143,102087,5,8,0:0:0:0:
234,203,102260,1,2,0:0:0:0:
174,0,102432,5,8,0:0:0:0:
112,211,102604,1,2,0:0:0:0:
342,153,102777,5,8,0:0:0:0:
112,98,102949,1,2,0:0:0:0:
176,310,103121,5,8,0:0:0:0:
230,105,103294,1,2,0:0:0:0:
265,329,103466,5,8,0:0:0:0:
283,138,103639,1,2,0:0:0:0:
362,335,103811,5,8,0:0:0:0:
342,153,103984,1,2,0:0:0:0:
432,293,104156,5,8,0:0:0:0:
403,139,104328,1,2,0:0:0:0:
318,285,104501,5,8,0:0:0:0:
325,85,104673,1,2,0:0:0:0:
210,256,104846,5,8,0:0:0:0:
281,11,105018,1,2,0:0:0:0:
110,188,105190,5,8,0:0:0:0:
277,35,105363,1,2,0:0:0:0:
283,209,105535,5,8,0:0:0:0:
103,13,105708,1,2,0:0:0:0:
152,176,105880,5,8,0:0:0:0:
152,176,105966,1,2,0:0:0:0:
152,176,106053,1,2,0:0:0:0:
152,176,106139,1,2,0:0:0:0:
152,176,106225,5,8,0:0:0:0:
165,167,106311,1,2,0:0:0:0:
180,163,106397,1,2,0:0:0:0:
196,164,106483,1,2,0:0:0:0:
210,171,106570,5,8,0:0:0:0:
230,183,106656,1,2,0:0:0:0:
253,187,106742,1,2,0:0:0:0:
277,182,106828,1,2,0:0:0:0:
292,172,106915,5,8,0:0:0:0:
323,168,107001,1,2,0:0:0:0:
349,185,107087,1,2,0:0:0:0:
361,214,107173,1,2,0:0:0:0:
352,244,107259,5,8,0:0:0:0:
339,281,107345,1,2,0:0:0:0:
348,319,107431,1,2,0:0:0:0:
376,346,107517,1,2,0:0:0:0:
414,355,107604,5,8,0:0:0:0:
452,345,107690,1,2,0:0:0:0:
478,316,107776,1,2,0:0:0:0:
480,277,107862,1,2,0:0:0:0:
468,241,107949,5,8,0:0:0:0:
438,205,108035,1,2,0:0:0:0:
425,159,108121,1,2,0:0:0:0:
432,112,108207,1,2,0:0:0:0:
457,72,108294,5,8,0:0:0:0:
411,85,108380,1,2,0:0:0:0:
364,84,108466,1,2,0:0:0:0:
318,70,108552,1,2,0:0:0:0:
288,49,108639,6,0,L|241:40,3,31.8750012159348,2|0|0|0,0:0|0:3|0:0|0:3,0:3:0:0:
239,46,108984,1,2,0:3:0:0:
134,103,109156,6,0,L|181:93,3,31.8750012159348,0|0|0|0,0:3|0:3|0:3|0:3,0:3:0:0:
183,99,109501,1,2,0:3:0:0:
305,132,109673,6,0,L|257:122,3,31.8750012159348,0|0|0|0,0:3|0:3|0:3|0:3,0:3:0:0:
255,128,110018,1,2,0:3:0:0:
97,189,110190,6,0,L|144:179,3,31.8750012159348,0|0|0|0,0:3|0:3|0:3|0:3,0:3:0:0:
147,185,110535,1,2,0:3:0:0:
231,257,110708,5,8,0:3:0:0:
258,231,110794,1,8,0:3:0:0:
279,201,110880,1,8,0:3:0:0:
295,167,110966,1,8,0:3:0:0:
305,132,111053,5,4,0:3:0:0:
311,164,111139,1,4,0:3:0:0:
317,195,111225,1,4,0:3:0:0:
323,226,111311,1,4,0:3:0:0:
329,257,111397,6,0,P|378:297|482:239,1,191.250007295609,6|0,0:0|0:0,0:0:0:0:
402,218,111742,1,8,0:0:0:0:
299,355,111915,5,0,0:0:0:0:
283,339,112001,2,0,P|240:328|199:335,1,85,2|0,0:0|0:0,0:0:0:0:
85,301,112259,2,0,P|94:329|89:355,1,42.5
183,256,112432,1,8,0:0:0:0:
36,198,112604,2,0,P|51:222|53:249,1,42.5
178,185,112777,6,0,B|231:187|249:233|249:233|286:195|340:198,1,191.250007295609,2|0,0:0|0:0,0:0:0:0:
404,239,113121,2,0,P|361:195|367:131,1,127.500004863739,8|0,0:0|0:0,0:0:0:0:
421,257,113380,6,0,L|411:355,1,85,2|0,0:0|0:0,0:0:0:0:
298,282,113639,2,0,P|297:260|286:242,1,42.5,2|0,0:0|0:0,0:0:0:0:
432,169,113811,2,0,P|437:138|448:125,1,42.5,8|0,0:0|0:0,0:0:0:0:
263,111,113984,1,0,0:0:0:0:
472,36,114156,6,0,P|428:26|363:43,1,95.6250036478044,2|0,0:0|0:0,0:0:0:0:
263,111,114501,2,0,P|306:118|340:108,1,63.7500024318696,8|0,0:0|0:0,0:0:0:0:
283,26,114759,6,0,P|233:21|176:31,1,85,2|0,0:0|0:0,0:0:0:0:
147,122,115018,2,0,P|182:120|195:114,1,42.5
104,36,115190,2,0,P|53:113|90:197,1,191.250007295609,8|0,0:0|0:0,0:0:0:0:
178,269,115535,6,0,P|186:209|153:272,1,191.250007295609,2|0,0:0|0:0,0:0:0:0:
260,194,115880,2,0,P|298:187|355:199,1,85,8|0,0:0|0:0,0:0:0:0:
340,343,116139,2,0,P|314:313|296:258,1,85,2|0,0:0|0:0,0:0:0:0:
415,239,116397,2,0,P|403:257|388:272,1,42.5,2|0,0:0|0:0,0:0:0:0:
255,343,116570,6,0,P|166:343|65:316,1,191.250007295609,8|0,0:0|0:0,0:0:0:0:
40,209,116915,6,0,P|60:268|39:327,1,127.5,2|0,0:0|0:0,0:0:0:0:
122,176,117259,2,0,P|157:153|251:168,1,127.500004863739,8|0,0:0|0:0,0:0:0:0:
329,188,117518,6,0,P|287:194|247:181,1,85,2|0,0:0|0:0,0:0:0:0:
278,51,117777,2,0,P|293:90|289:118,1,63.7500024318696
182,230,117949,1,8,0:0:0:0:
105,83,118121,1,0,0:0:0:0:
290,111,118294,6,0,B|337:88|381:117|381:117|426:146|472:122,1,191.250007295609,2|0,0:0|0:0,0:0:0:0:
329,188,118639,2,0,P|319:233|330:294,1,85,8|0,0:0|0:0,0:0:0:0:
402,141,118897,6,0,P|405:98|395:57,1,85,2|0,0:0|0:0,0:0:0:0:
290,111,119156,2,0,P|256:115|236:112,1,42.5,2|0,0:0|0:0,0:0:0:0:
208,21,119328,2,0,P|271:15|324:48,1,127.5,8|0,0:0|0:0,0:0:0:0:
247,114,119673,6,0,P|184:108|98:216,1,191.250007295609,2|0,0:0|0:0,0:0:0:0:
208,216,120018,2,0,P|201:190|202:168,2,42.5,8|0|0,0:0|0:0|0:0,0:0:0:0:
100,194,120277,6,0,P|105:258|88:306,1,85,2|0,0:0|0:0,0:0:0:0:
90,359,120535,2,0,P|57:353|31:359,1,42.5
219,287,120708,2,0,P|186:293|160:287,1,42.5,8|0,0:0|0:0,0:0:0:0:
338,367,120880,2,0,P|305:361|279:367,1,42.5
201,377,121053,6,0,B|177:293|177:293|191:190,1,191.250007295609,2|0,0:0|0:0,0:0:0:0:
280,201,121397,2,0,P|276:221|276:243,1,42.5,8|0,0:0|0:0,0:0:0:0:
100,194,121570,2,0,P|100:172|96:151,1,42.5,0|2,0:0|0:0,0:0:0:0:
246,121,121742,6,0,L|314:133,1,63.7500024318696
132,59,121915,2,0,L|64:71,1,63.7500024318696,2|0,0:0|0:0,0:0:0:0:
274,43,122087,5,8,0:0:0:0:
315,51,122173,1,2,0:3:0:0:
357,60,122259,1,2,0:3:0:0:
398,69,122345,1,2,0:3:0:0:
440,78,122432,6,0,P|423:148|522:165,1,191.250007295609,2|0,0:0|0:0,0:0:0:0:
398,174,122777,2,0,P|341:187|316:237,1,85,8|0,0:0|0:0,0:0:0:0:
288,310,123035,6,0,P|354:299|393:234,1,127.500004863739,2|0,0:0|0:0,0:0:0:0:
240,247,123294,2,0,L|155:244,1,63.7500024318696,2|0,0:0|0:0,0:0:0:0:
38,237,123466,1,8,0:0:0:0:
186,111,123639,2,0,P|185:136|180:161,1,42.5
38,139,123811,6,0,B|20:117|35:79|35:79|51:44|34:7|34:7|57:24|86:18,1,191.250007295609,2|0,0:0|0:0,0:0:0:0:
177,99,124156,2,0,P|233:108|299:92,1,85,8|0,0:0|0:0,0:0:0:0:
302,0,124415,6,0,P|344:-2|385:5,1,85,2|0,0:0|0:0,0:0:0:0:
349,138,124673,2,0,P|339:112|341:86,1,42.5
474,12,124846,2,0,P|470:71|408:101,1,127.5,8|0,0:0|0:0,0:0:0:0:
506,171,125190,6,0,P|418:186|408:274,1,191.250007295609,2|0,0:0|0:0,0:0:0:0:
455,343,125535,2,0,P|414:356|373:349,1,85,8|0,0:0|0:0,0:0:0:0:
251,277,125794,6,0,P|291:264|332:271,1,85,2|0,0:0|0:0,0:0:0:0:
305,384,126053,2,0,L|293:343,1,42.5
247,197,126225,2,0,B|228:136|228:136|251:76|251:76|230:5,1,191.250007295609,8|0,0:0|0:0,0:0:0:0:
170,73,126570,6,0,P|127:123|46:108,1,127.5,2|0,0:0|0:0,0:0:0:0:
0,0,126915,2,0,L|9:109,1,85,8|0,0:0|0:0,0:0:0:0:
69,123,127173,6,0,L|78:232,1,85,2|0,0:0|0:0,0:0:0:0:
149,241,127432,2,0,L|145:198,1,42.5,2|0,0:0|0:0,0:0:0:0:
95,49,127604,6,0,B|170:73|170:73|217:34|281:39,1,191.250007295609,8|0,0:0|0:0,0:0:0:0:
375,114,127949,6,0,P|322:148|259:158,1,127.5,2|0,0:0|0:0,0:0:0:0:
430,66,128294,2,0,P|428:109|433:151,1,85,8|0,0:0|0:0,0:0:0:0:
329,176,128553,6,0,P|330:218|325:260,1,85,2|0,0:0|0:0,0:0:0:0:
480,237,128811,2,0,P|434:252|403:252,1,63.7500024318696,2|0,0:0|0:0,0:0:0:0:
248,254,128984,1,8,0:0:0:0:
389,373,129156,2,0,P|387:345|396:319,1,42.5
433,151,129328,6,0,P|402:98|270:90,1,191.250007295609,2|0,0:0|0:0,0:0:0:0:
250,181,129673,2,0,P|307:189|336:167,1,85,8|0,0:0|0:0,0:0:0:0:
282,82,129932,6,0,P|225:74|196:96,1,85,2|0,0:0|0:0,0:0:0:0:
167,218,130190,2,0,L|161:167,1,42.5,2|0,0:0|0:0,0:0:0:0:
111,21,130363,2,0,L|87:162,1,127.5,8|0,0:0|0:0,0:0:0:0:
70,261,130708,6,0,B|59:330|59:330|196:317,1,191.250007295609,2|0,0:0|0:0,0:0:0:0:
170,239,131053,2,0,L|161:175,2,63.7500024318696,8|0|0,0:0|0:0|0:0,0:0:0:0:
189,328,131311,1,2,0:0:0:0:
196,336,131397,6,0,P|225:343|271:325,1,42.5,8|0,0:0|0:0,0:0:0:0:
259,227,131570,2,0,P|279:220|300:221,1,42.5,2|0,0:0|0:0,0:0:0:0:
359,363,131742,2,0,P|354:329|354:305,1,42.5,8|0,0:0|0:0,0:0:0:0:
373,163,131915,6,0,P|472:172|378:208,1,276.25,2|0,0:0|0:0,0:0:0:0:
373,163,133122,5,2,0:3:0:0:
341,175,133208,1,2,0:3:0:0:
308,171,133294,1,2,0:3:0:0:
281,152,133380,1,2,0:3:0:0:
266,122,133466,6,0,P|205:83|133:179,1,191.250007295609,6|0,0:0|0:0,0:0:0:0:
202,157,133811,2,0,P|194:115|209:76,1,85,8|0,0:0|0:0,0:0:0:0:
131,245,134070,6,0,P|132:182|99:145,1,85,2|0,0:0|0:0,0:0:0:0:
209,237,134328,2,0,P|236:244|258:247,1,42.5
60,211,134501,2,0,P|29:221|-2:222,1,63.7500024318696,8|0,0:0|0:0,0:0:0:0:
127,102,134673,2,0,P|119:147|125:180,1,63.7500024318696
131,245,134846,6,0,P|118:315|224:376,1,191.250007295609,2|0,0:0|0:0,0:0:0:0:
262,312,135190,2,0,P|234:297|203:292,1,63.7500024318696,8|0,0:0|0:0,0:0:0:0:
30,337,135363,5,0,0:0:0:0:
30,337,135449,2,0,P|58:350|126:337,1,85,2|0,0:0|0:0,0:0:0:0:
202,293,135708,2,0,P|234:297|262:312,1,42.5,2|0,0:0|0:0,0:0:0:0:
370,382,135880,2,0,L|361:270,1,85,8|0,0:0|0:0,0:0:0:0:
348,138,136225,6,0,B|344:90|344:90|394:171,1,127.5,2|0,0:0|0:0,0:0:0:0:
312,210,136570,2,0,P|275:171|281:94,1,127.500004863739,8|0,0:0|0:0,0:0:0:0:
371,27,136828,6,0,P|384:88|348:138,1,127.500004863739,2|0,0:0|0:0,0:0:0:0:
277,100,137087,2,0,P|290:84|307:72,1,42.5
221,176,137259,2,0,P|166:158|75:185,1,127.5,8|0,0:0|0:0,0:0:0:0:
60,77,137604,6,0,B|85:145|85:145|53:266,1,191.250007295609,2|0,0:0|0:0,0:0:0:0:
123,357,137949,2,0,L|119:314,1,42.5,8|0,0:0|0:0,0:0:0:0:
178,235,138121,1,0,0:0:0:0:
187,244,138208,6,0,P|238:251|291:212,1,85,2|0,0:0|0:0,0:0:0:0:
318,324,138466,2,0,P|297:317|276:318,1,42.5,2|0,0:0|0:0,0:0:0:0:
198,330,138639,1,8,0:0:0:0:
384,252,138811,2,0,P|373:227|340:207,1,42.5
400,340,138984,6,0,P|469:279|449:190,1,191.250007295609,2|0,0:0|0:0,0:0:0:0:
352,140,139328,2,0,P|422:148|471:109,1,127.500004863739,8|0,0:0|0:0,0:0:0:0:
321,73,139587,6,0,P|289:101|281:142,1,85,2|0,0:0|0:0,0:0:0:0:
330,211,139846,2,0,P|302:212|272:236,1,42.5
246,82,140018,2,0,P|221:69|203:35,1,42.5,8|0,0:0|0:0,0:0:0:0:
214,202,140190,2,0,P|197:223|195:262,1,63.7500024318696
138,158,140363,6,0,P|91:143|56:66,1,127.5,2|0,0:0|0:0,0:0:0:0:
127,31,140708,2,0,P|136:51|140:72,1,42.5,8|0,0:0|0:0,0:0:0:0:
46,160,140880,1,0,0:0:0:0:
52,168,140966,6,0,P|47:237|62:287,1,85,2|0,0:0|0:0,0:0:0:0:
142,254,141225,2,0,P|148:295|140:327,1,63.7500024318696,2|0,0:0|0:0,0:0:0:0:
73,371,141397,2,0,P|140:346|207:385,1,127.500004863739,8|0,0:0|0:0,0:0:0:0:
382,359,141742,6,0,P|364:291|480:237,1,191.250007295609,2|0,0:0|0:0,0:0:0:0:
501,359,142087,2,0,P|463:341|441:306,1,85,8|0,0:0|0:0,0:0:0:0:
506,265,142346,6,0,P|515:247|496:176,1,85,2|0,0:0|0:0,0:0:0:0:
388,207,142604,2,0,P|383:227|387:248,1,42.5
505,186,142777,2,0,P|509:165|497:114,1,63.7500024318696,8|0,0:0|0:0,0:0:0:0:
359,76,142949,2,0,P|351:107|353:139,1,63.7500024318696
512,41,143121,6,0,P|460:53|421:97,1,95.6250036478044,2|0,0:0|0:0,0:0:0:0:
352,57,143466,2,0,P|309:54|273:33,1,85,8|0,0:0|0:0,0:0:0:0:
353,139,143725,6,0,P|371:177|371:219,1,85,2|0,0:0|0:0,0:0:0:0:
272,186,143984,2,0,P|256:158|250:127,1,63.7500024318696,2|0,0:0|0:0,0:0:0:0:
435,156,144156,6,0,P|456:245|389:307,1,191.250007295609,8|0,0:0|0:0,0:0:0:0:
294,289,144501,5,2,0:3:0:0:
272,186,144673,1,2,0:3:0:0:
371,218,144846,2,0,L|368:299,1,63.7500024318696,8|0,0:0|0:0,0:0:0:0:
339,363,145104,6,0,P|274:340|173:368,1,127.500004863739,2|0,0:0|0:0,0:0:0:0:
134,368,145363,2,0,P|136:324|131:296,1,63.7500024318696
61,253,145535,2,0,P|145:217|215:275,1,191.250007295609,8|0,0:0|0:0,0:0:0:0:
26,313,145880,6,0,P|-1:279|-8:248,1,42.5,2|0,0:0|0:0,0:0:0:0:
29,162,146053,2,0,P|22:182|12:201,1,42.5
143,217,146225,2,0,P|189:211|273:155,1,127.500004863739,8|0,0:0|0:0,0:0:0:0:
276,48,146484,6,0,P|258:90|264:191,1,127.500004863739,2|0,0:0|0:0,0:0:0:0:
355,247,146742,2,0,P|343:229|329:213,1,42.5,2|0,0:0|0:0,0:0:0:0:
180,138,146915,2,0,P|151:100|207:36,1,127.5,8|0,0:0|0:0,0:0:0:0:
300,116,147259,6,0,P|395:106|488:88,1,191.250007295609,2|0,0:0|0:0,0:0:0:0:
362,0,147604,2,0,P|355:41|360:84,1,85,8|0,0:0|0:0,0:0:0:0:
435,138,147863,6,0,P|441:179|436:222,1,85,2|0,0:0|0:0,0:0:0:0:
336,284,148121,2,0,P|361:278|384:277,1,42.5
511,342,148294,2,0,B|489:360|453:367|453:367|387:341|328:367,1,191.250007295609,8|0,0:0|0:0,0:0:0:0:
225,364,148639,6,0,P|171:333|184:242,1,127.5,2|0,0:0|0:0,0:0:0:0:
228,293,148984,2,0,L|270:300,2,42.5,8|0|0,0:0|0:0|0:0,0:0:0:0:
151,348,149242,2,0,P|86:345|41:363,1,85,2|0,0:0|0:0,0:0:0:0:
0,264,149501,2,0,P|41:271|86:263,1,63.7500024318696,2|0,0:0|0:0,0:0:0:0:
216,226,149673,1,8,0:0:0:0:
31,154,149846,2,0,P|28:174|34:195,1,42.5
131,174,150018,6,0,P|105:85|18:55,1,191.250007295609,2|0,0:0|0:0,0:0:0:0:
154,102,150363,2,0,P|207:116|248:100,1,85,8|0,0:0|0:0,0:0:0:0:
300,42,150621,1,0,0:0:0:0:
313,54,150708,6,0,P|314:93|309:112,1,42.5,2|0,0:0|0:0,0:0:0:0:
216,226,150880,2,0,P|215:187|220:168,1,42.5
223,20,151053,6,0,L|291:30,1,63.7500024318696,8|0,0:0|0:0,0:0:0:0:
299,179,151225,2,0,L|367:169,1,63.7500024318696
429,38,151397,5,2,0:0:0:0:
409,232,151570,1,2,0:0:0:0:
235,106,151742,5,8,0:0:0:0:
294,313,151915,1,2,0:0:0:0:
431,141,152087,5,2,0:0:0:0:
472,163,152173,1,2,0:0:0:0:
497,203,152259,1,2,0:0:0:0:
500,250,152345,1,2,0:0:0:0:
479,293,152431,1,8,0:0:0:0:
299,179,152604,5,2,0:0:0:0:
299,179,152690,1,2,0:0:0:0:
299,179,152777,6,0,B|270:176|248:167|248:167|216:183|201:204|201:204|159:167|145:109|145:109|71:119|71:119|75:176|112:227|142:260|177:283,1,488.75,2|0,0:0|0:0,0:0:0:0:
204,303,154846,6,0,L|302:286,1,85
312,283,155104,1,0,0:0:0:0:
337,279,155190,5,2,0:3:0:0:
362,274,155276,1,2,0:3:0:0:
387,270,155362,1,2,0:3:0:0:
412,266,155449,1,2,0:3:0:0:
437,262,155535,6,0,P|452:217|434:135,1,127.500004863739,6|0,0:0|0:0,0:0:0:0:
275,129,156053,5,0,0:0:0:0:
280,160,156139,1,0,0:0:0:0:
285,191,156225,2,0,P|335:198|398:178,1,95.6250036478044
436,140,156570,2,0,L|447:70,1,63.7500024318696
355,42,156915,6,0,L|345:104,1,63.7500024318696
240,124,157259,1,0,0:0:0:0:
256,46,157432,1,0,0:0:0:0:
244,128,157604,6,0,P|238:189|190:230,1,127.500004863739
40,151,158121,5,0,0:0:0:0:
71,144,158207,1,0,0:0:0:0:
102,138,158294,2,0,L|164:150,1,63.7500024318696
105,238,158639,2,0,L|42:225,1,63.7500024318696
47,260,158897,1,0,0:0:0:0:
52,294,158984,2,0,L|114:306,1,63.7500024318696
144,300,159242,1,0,0:0:0:0:
176,294,159328,5,0,0:0:0:0:
259,338,159501,1,0,0:0:0:0:
220,211,159673,5,0,0:0:0:0:
176,294,159846,1,0,0:0:0:0:
303,255,160018,5,0,0:0:0:0:
220,211,160191,1,0,0:0:0:0:
259,338,160363,5,0,0:0:0:0:
303,255,160535,1,0,0:0:0:0:
145,224,160708,5,0,0:0:0:0:
145,192,160794,1,0,0:0:0:0:
158,163,160880,1,0,0:0:0:0:
182,143,160966,1,0,0:0:0:0:
213,135,161053,6,0,P|259:142|310:61,1,127.500004863739
176,0,161570,1,0,0:0:0:0:
179,32,161656,1,0,0:0:0:0:
183,63,161742,2,0,L|257:78,1,63.7500024318696
358,149,162087,2,0,L|283:164,1,63.7500024318696
195,176,162432,5,0,0:0:0:0:
287,320,162604,1,0,0:0:0:0:
341,248,162777,5,0,0:0:0:0:
202,341,162949,1,0,0:0:0:0:
287,320,163121,5,0,0:0:0:0:
141,278,163294,1,0,0:0:0:0:
141,278,163380,1,0,0:0:0:0:
141,278,163466,5,0,0:0:0:0:
138,246,163552,1,0,0:0:0:0:
147,216,163638,1,0,0:0:0:0:
167,191,163724,1,0,0:0:0:0:
195,176,163811,6,0,P|184:130|109:82,1,127.500004863739
205,98,164242,2,0,P|229:65|244:57,1,42.5000016212464
280,131,164501,2,0,P|310:137|362:124,1,63.7500024318696
369,130,164759,5,0,0:0:0:0:
369,130,164846,2,0,L|359:213,1,63.7500024318696
436,231,165190,6,0,L|426:314,1,63.7500024318696
342,359,165535,2,0,L|349:295,1,63.7500024318696
287,234,165880,5,0,0:0:0:0:
287,234,166225,5,0,0:0:0:0:
248,225,166311,1,0,0:0:0:0:
208,223,166397,1,0,0:0:0:0:
169,230,166483,1,0,0:0:0:0:
131,242,166570,6,0,P|68:243|32:212,1,85,8|0,0:0|0:0,0:0:0:0:
13,171,166915,1,8,0:0:0:0:
219,89,167259,6,0,P|249:33|294:18,1,85,8|0,0:0|0:0,0:0:0:0:
339,23,167604,1,8,0:0:0:0:
307,242,167949,6,0,P|339:296|330:342,1,85,8|0,0:0|0:0,0:0:0:0:
304,379,168294,1,8,0:0:0:0:
163,167,168639,6,0,P|130:221|139:267,1,85,8|0,0:0|0:0,0:0:0:0:
166,304,168984,1,8,0:0:0:0:
378,118,169328,6,0,P|410:172|401:218,1,85,8|0,0:0|0:0,0:0:0:0:
375,255,169673,1,8,0:0:0:0:
97,47,170018,6,0,P|64:101|73:147,1,85,8|0,0:0|0:0,0:0:0:0:
100,184,170363,1,8,0:0:0:0:
436,0,170708,6,0,P|468:54|459:100,1,85,8|0,0:0|0:0,0:0:0:0:
433,137,171053,1,8,0:0:0:0:
221,320,171397,5,8,0:0:0:0:
161,60,171742,5,8,0:0:0:0:
212,236,172087,6,0,P|153:225|113:244,1,85,8|0,0:0|0:0,0:0:0:0:
20,172,172346,2,0,P|39:228|76:253,1,85,8|0,0:0|0:0,0:0:0:0:
91,342,172604,2,0,P|101:323|104:302,1,42.5,8|0,0:0|0:0,0:0:0:0:
168,172,172777,6,0,P|227:161|267:180,1,85,8|0,0:0|0:0,0:0:0:0:
360,108,173036,2,0,P|340:164|303:189,1,85,8|0,0:0|0:0,0:0:0:0:
288,277,173294,2,0,P|278:258|275:238,1,42.5,8|0,0:0|0:0,0:0:0:0:
211,106,173466,6,0,P|152:95|112:114,1,85,8|0,0:0|0:0,0:0:0:0:
19,42,173725,2,0,P|38:98|75:123,1,85,8|0,0:0|0:0,0:0:0:0:
91,212,173983,2,0,P|100:192|104:172,1,42.5,8|0,0:0|0:0,0:0:0:0:
192,24,174156,6,0,P|210:76|208:126,1,85,8|0,0:0|0:0,0:0:0:0:
310,182,174415,2,0,P|295:221|292:264,1,85,8|0,0:0|0:0,0:0:0:0:
225,333,174673,2,0,P|218:312|209:293,1,42.5,8|0,0:0|0:0,0:0:0:0:
174,173,174846,5,8,0:0:0:0:
380,96,175018,1,8,0:0:0:0:
254,75,175190,5,8,0:0:0:0:
344,312,175363,1,8,0:0:0:0:
503,115,175535,5,8,0:0:0:0:
231,219,175707,1,8,0:0:0:0:
479,259,175879,5,8,0:0:0:0:
390,22,176052,1,8,0:0:0:0:
316,190,176225,5,8,0:3:0:0:
304,219,176311,1,8,0:3:0:0:
281,241,176397,1,8,0:3:0:0:
251,250,176483,1,8,0:3:0:0:
219,247,176570,5,8,0:3:0:0:
213,205,176656,1,8,0:3:0:0:
190,169,176742,1,8,0:3:0:0:
154,147,176828,1,8,0:3:0:0:
112,142,176915,1,8,0:3:0:0:
72,153,177001,1,8,0:3:0:0:
41,182,177087,1,8,0:3:0:0:
28,222,177173,1,8,0:3:0:0:
34,264,177259,5,8,0:3:0:0:
85,255,177345,1,8,0:3:0:0:
136,270,177431,1,8,0:3:0:0:
173,307,177517,1,8,0:3:0:0:
190,357,177604,6,0,L|258:343,3,42.5,2|0|0|0,2:2|2:2|2:2|2:2,2:2:0:0:
245,337,177949,1,2,0:3:0:0:
366,294,178121,6,0,L|298:279,3,42.5,0|0|0|0,0:3|0:3|0:3|0:3,0:3:0:0:
311,273,178466,1,2,0:3:0:0:
161,245,178639,6,0,L|228:230,3,42.5,0|0|0|0,0:3|0:3|0:3|0:3,0:3:0:0:
215,224,178984,1,2,0:3:0:0:
377,194,179156,6,0,L|309:179,3,42.5,0|0|0|0,0:3|0:3|0:3|0:3,0:3:0:0:
322,173,179501,1,2,0:3:0:0:
239,66,179673,5,8,0:0:0:0:
241,108,179759,1,8,0:0:0:0:
244,150,179845,1,2,0:0:0:0:
116,75,180018,1,8,0:0:0:0:
363,24,180190,5,2,0:0:0:0:
363,24,180277,1,2,0:0:0:0:
363,24,180363,2,0,P|412:71|325:78,1,191.250007295609,6|0,0:0|0:0,0:0:0:0:
437,113,180708,2,0,P|412:169|428:246,1,127.500004863739,8|0,0:0|0:0,0:0:0:0:
484,289,180966,2,0,P|418:276|332:271,1,127.5,2|0,0:0|0:0,0:0:0:0:
163,314,181397,6,0,P|215:305|262:305,1,85,8|0,0:0|0:0,0:0:0:0:
392,353,181742,5,2,0:0:0:0:
400,311,181828,1,0,0:0:0:0:
401,269,181914,1,0,0:0:0:0:
395,227,182000,1,0,0:0:0:0:
381,186,182087,2,0,P|313:174|246:194,1,127.500004863739,8|0,0:0|0:0,0:0:0:0:
204,253,182346,6,0,P|225:216|235:175,1,85,2|0,0:0|0:0,0:0:0:0:
196,55,182604,2,0,P|219:120|225:128,1,42.5,2|0,0:0|0:0,0:0:0:0:
319,271,182777,2,0,P|368:278|417:260,1,85,8|0,0:0|0:0,0:0:0:0:
393,102,183121,6,0,P|299:108|249:196,1,191.250007295609,2|0,0:0|0:0,0:0:0:0:
444,196,183466,2,0,P|467:126|461:83,1,85,8|0,0:0|0:0,0:0:0:0:
441,38,183725,6,0,P|366:28|316:108,1,127.500004863739,2|0,0:0|0:0,0:0:0:0:
324,182,183984,2,0,P|344:185|365:182,1,42.5
256,88,184156,2,0,B|205:78|164:112|164:112|125:100|125:100|74:122,1,191.250007295609,8|0,0:0|0:0,0:0:0:0:
123,184,184501,6,0,P|121:240|67:226,1,127.5,2|0,0:0|0:0,0:0:0:0:
162,251,184846,2,0,P|229:240|297:249,1,127.500004863739,8|0,0:0|0:0,0:0:0:0:
238,366,185104,6,0,P|223:307|231:259,1,85,2|0,0:0|0:0,0:0:0:0:
230,164,185363,2,0,P|235:193|233:216,1,42.5,2|0,0:0|0:0,0:0:0:0:
146,353,185535,1,8,0:0:0:0:
360,283,185708,1,0,0:0:0:0:
221,154,185880,6,0,P|211:87|315:100,1,191.250007295609,2|0,0:0|0:0,0:0:0:0:
177,93,186225,2,0,P|136:104|81:86,1,85,8|0,0:0|0:0,0:0:0:0:
62,0,186484,6,0,P|92:30|103:86,1,85,2|0,0:0|0:0,0:0:0:0:
13,113,186742,2,0,P|23:71|44:45,1,42.5
135,151,186915,2,0,P|142:198|139:233,1,63.7500024318696,8|0,0:0|0:0,0:0:0:0:
43,255,187087,2,0,P|43:223|49:191,1,63.7500024318696
125,316,187259,6,0,P|176:323|264:309,1,127.5,2|0,0:0|0:0,0:0:0:0:
274,233,187604,2,0,P|252:232|231:235,2,42.5,8|0|0,0:0|0:0|0:0,0:0:0:0:
332,288,187863,6,0,P|374:291|416:286,1,85,2|0,0:0|0:0,0:0:0:0:
489,210,188121,2,0,P|484:238|485:263,1,42.5,2|0,0:0|0:0,0:0:0:0:
482,370,188294,2,0,P|468:334|506:344,1,95.6250036478044,8|0,0:0|0:0,0:0:0:0:
397,374,188639,6,0,P|351:317|378:201,1,191.250007295609,2|0,0:0|0:0,0:0:0:0:
483,168,188984,2,0,P|488:196|487:221,1,42.5,8|0,0:0|0:0,0:0:0:0:
371,207,189156,5,0,0:0:0:0:
362,197,189242,1,2,0:0:0:0:
354,186,189328,2,0,P|349:158|350:133,1,42.5
454,48,189501,2,0,P|459:76|458:101,1,42.5
483,168,189673,6,0,P|462:172|441:173,1,42.5,8|0,0:0|0:0,0:0:0:0:
362,66,189846,2,0,P|340:66|320:71,1,42.5
263,196,190018,6,0,P|173:225|87:189,1,191.250007295609,2|0,0:0|0:0,0:0:0:0:
159,104,190363,2,0,P|165:145|158:187,1,85,8|0,0:0|0:0,0:0:0:0:
29,239,190621,6,0,P|16:195|37:111,1,127.500004863739,2|0,0:0|0:0,0:0:0:0:
190,252,190880,2,0,P|144:258|125:250,1,63.7500024318696,2|0,0:0|0:0,0:0:0:0:
93,82,191053,6,0,P|139:37|191:42,1,95.6250036478044,8|0,0:0|0:0,0:0:0:0:
159,104,191397,6,0,P|216:123|307:27,1,191.250007295609,2|0,0:0|0:0,0:0:0:0:
405,167,191742,2,0,P|339:127|268:135,1,127.500004863739,8|0,0:0|0:0,0:0:0:0:
233,19,192001,2,0,P|207:71|236:188,1,170,2|0,0:0|0:0,0:0:0:0:
321,246,192432,6,0,P|386:232|474:244,1,127.500004863739,8|0,0:0|0:0,0:0:0:0:
431,84,192777,5,2,0:0:0:0:
407,118,192863,1,0,0:0:0:0:
370,139,192949,1,0,0:0:0:0:
328,142,193035,1,0,0:0:0:0:
289,126,193121,2,0,P|308:75|394:48,1,127.500004863739,8|0,0:0|0:0,0:0:0:0:
370,139,193380,6,0,P|417:172|425:218,1,85,2|0,0:0|0:0,0:0:0:0:
348,278,193639,2,0,P|318:239|313:219,1,42.5,2|0,0:0|0:0,0:0:0:0:
449,282,193811,2,0,P|427:342|375:377,1,127.500004863739,8|0,0:0|0:0,0:0:0:0:
253,286,194156,6,0,P|189:334|262:369,1,191.250007295609,2|0,0:0|0:0,0:0:0:0:
160,345,194501,2,0,P|109:350|58:308,1,85,8|0,0:0|0:0,0:0:0:0:
18,236,194759,6,0,P|73:229|132:281,1,127.500004863739,2|0,0:0|0:0,0:0:0:0:
13,373,195018,2,0,P|0:338|2:314,1,42.5
127,270,195190,2,0,P|137:212|126:161,1,85,8|0,0:0|0:0,0:0:0:0:
2,3,195535,6,0,P|38:78|148:33,1,191.250007295609,2|0,0:0|0:0,0:0:0:0:
28,155,195880,2,0,P|14:225|38:266,1,85,8|0,0:0|0:0,0:0:0:0:
121,143,196139,6,0,P|135:73|111:32,1,85,2|0,0:0|0:0,0:0:0:0:
88,209,196397,2,0,P|108:214|129:215,1,42.5,2|0,0:0|0:0,0:0:0:0:
220,96,196570,2,0,P|271:93|325:105,1,85,8|0,0:0|0:0,0:0:0:0:
408,248,196915,6,0,P|429:172|480:232,1,191.250007295609,2|0,0:0|0:0,0:0:0:0:
366,312,197259,2,0,P|336:282|322:240,1,85,8|0,0:0|0:0,0:0:0:0:
445,143,197518,6,0,B|420:179|375:176|375:176|332:147,1,127.500004863739,2|0,0:0|0:0,0:0:0:0:
210,171,197777,2,0,P|230:176|260:173,1,42.5
174,245,197949,2,0,P|130:187|147:118,1,127.500004863739,8|0,0:0|0:0,0:0:0:0:
373,72,198294,6,0,B|310:55|310:55|259:90|259:90|191:72,1,191.250007295609,2|0,0:0|0:0,0:0:0:0:
58,0,198639,2,0,P|86:66|56:129,1,127.500004863739,8|0,0:0|0:0,0:0:0:0:
0,168,198897,6,0,P|-2:210|11:249,1,85,2|0,0:0|0:0,0:0:0:0:
97,238,199156,2,0,P|97:217|93:197,1,42.5,2|0,0:0|0:0,0:0:0:0:
64,319,199328,2,0,P|109:334|196:298,1,127.5,8|0,0:0|0:0,0:0:0:0:
188,220,199673,5,8,0:0:0:0:
331,328,199846,1,2,0:0:0:0:
212,173,200018,5,8,0:0:0:0:
338,335,200191,1,2,0:0:0:0:
294,114,200363,5,8,0:0:0:0:
346,343,200536,1,2,0:0:0:0:
410,90,200708,5,8,0:0:0:0:
353,350,200881,1,2,0:0:0:0:
289,197,201053,5,8,0:0:0:0:
294,176,201139,1,2,0:0:0:0:
296,155,201225,1,2,0:0:0:0:
296,134,201311,1,2,0:0:0:0:
294,114,201397,5,8,0:0:0:0:
289,93,201483,1,2,0:0:0:0:
289,71,201569,1,2,0:0:0:0:
292,50,201655,1,2,0:0:0:0:
298,30,201742,5,8,0:0:0:0:
274,50,201828,1,2,0:0:0:0:
244,60,201914,1,2,0:0:0:0:
212,57,202000,1,2,0:0:0:0:
184,42,202087,6,0,B|154:31|116:30|82:48|67:81|67:81|94:62|119:61,1,191.250007295609,6|0,0:3|0:0,0:0:0:0:
120,135,202432,6,0,P|133:196|46:165,1,191.250007295609,2|0,0:0|0:0,0:0:0:0:
156,225,202777,2,0,P|223:226|316:233,1,127.500004863739,12|0,0:0|0:0,0:0:0:0:
388,257,203035,2,0,P|302:193|401:181,1,255.000009727478,2|0,0:0|0:0,0:0:0:0:
476,100,203466,6,0,P|479:164|465:226,1,127.5,12|0,0:0|0:0,0:0:0:0:
388,257,203811,6,0,P|385:278|382:299,1,42.5,2|0,0:0|0:0,0:0:0:0:
314,289,203984,2,0,P|313:310|312:331,1,42.5
469,352,204156,2,0,P|477:290|466:226,1,127.500004863739,8|0,0:0|0:0,0:0:0:0:
393,171,204415,6,0,P|339:177|288:168,1,85,2|0,0:0|0:0,0:0:0:0:
272,289,204673,2,0,P|293:287|314:289,1,42.5,2|0,0:0|0:0,0:0:0:0:
469,352,204846,1,8,0:0:0:0:
388,214,205018,2,0,P|389:192|393:172,1,42.5
291,352,205190,6,0,P|211:316|238:232,1,191.250007295609,2|0,0:0|0:0,0:0:0:0:
159,194,205535,2,0,P|116:188|74:194,1,85,8|0,0:0|0:0,0:0:0:0:
237,232,205794,2,0,P|264:148|185:112,1,191.250007295609,2|0,0:0|0:0,0:0:0:0:
7,277,206225,6,0,P|57:291|152:272,1,127.5,12|0,0:0|0:0,0:0:0:0:
237,232,206570,6,0,P|296:228|418:281,1,191.250007295609,2|0,0:0|0:0,0:0:0:0:
283,377,206915,2,0,P|271:336|277:294,1,85,8|0,0:0|0:0,0:0:0:0:
415,278,207173,6,0,P|426:237|420:195,1,85,2|0,0:0|0:0,0:0:0:0:
282,155,207432,2,0,P|313:160|332:158,1,42.5,2|0,0:0|0:0,0:0:0:0:
476,122,207604,2,0,P|429:114|401:113,1,63.7500024318696,8|0,0:0|0:0,0:0:0:0:
355,23,207777,2,0,P|323:25|292:31,1,63.7500024318696
282,155,207949,6,0,B|274:220|274:220|224:172|157:195,1,191.250007295609,2|0,0:0|0:0,0:0:0:0:
40,219,208294,2,0,P|102:225|157:194,1,127.500004863739,8|0,0:0|0:0,0:0:0:0:
199,286,208553,6,0,L|180:369,1,85,2|0,0:0|0:0,0:0:0:0:
120,254,208811,2,0,L|110:295,1,42.5
40,219,208984,1,8,0:0:0:0:
282,155,209156,1,0,0:0:0:0:
141,69,209328,6,0,B|125:130|125:130|140:174|140:174|120:254,1,191.250007295609,2|0,0:0|0:0,0:0:0:0:
96,372,209673,2,0,P|138:363|180:369,1,85,8|0,0:0|0:0,0:0:0:0:
199,286,209932,6,0,P|241:288|280:304,1,85,2|0,0:0|0:0,0:0:0:0:
319,228,210190,2,0,P|340:234|359:243,1,42.5,2|0,0:0|0:0,0:0:0:0:
260,382,210363,1,8,0:0:0:0:
226,187,210535,1,0,0:0:0:0:
404,335,210708,6,0,P|413:289|450:247,1,85,2|0,3:0|3:0,3:0:0:0:
359,243,210938,2,0,P|350:197|313:155,1,85,2|0,3:0|3:0,3:0:0:0:
428,182,211167,2,0,P|437:136|474:94,1,85,2|0,3:0|3:0,3:0:0:0:
368,102,211397,6,0,P|347:59|300:28,1,85,2|0,3:0|3:0,3:0:0:0:
275,121,211627,2,0,P|229:105|174:116,1,85,2|0,3:0|3:0,3:0:0:0:
222,200,211857,2,0,P|179:221|148:268,1,85,2|0,3:0|3:0,3:0:0:0:
240,292,212087,6,0,P|255:370|318:321,1,191.250007295609,2|0,0:0|0:0,0:0:0:0:
193,365,212432,2,0,P|160:366|124:344,2,56.6666666666667,2|2|2,0:3|0:3|0:0,0:0:0:0:
239,292,212777,6,0,P|298:241|307:172,1,127.500004863739,8|2,0:0|0:0,0:0:0:0:
434,91,213121,2,0,L|449:196,1,85,8|0,0:0|0:0,0:0:0:0:
222,200,213466,6,0,B|182:183|178:146|178:146|245:114|234:51,1,191.250007295609,2|0,0:0|0:0,0:0:0:0:
161,68,213811,1,8,0:0:0:0:
161,68,213897,2,0,L|91:87,1,42.5
284,156,214070,1,2,0:0:0:0:
284,156,214156,2,0,L|366:178,1,85
123,205,214501,6,0,P|82:239|179:263,1,191.250007295609,12|0,0:0|0:0,0:0:0:0:
222,200,214846,5,2,0:0:0:0:
205,239,214932,1,0,0:0:0:0:
197,280,215018,1,0,0:0:0:0:
200,323,215104,1,0,0:0:0:0:
211,363,215190,2,0,L|313:346,1,85,8|0,0:0|0:0,0:0:0:0:
283,259,215449,6,0,L|384:241,1,85,2|0,0:0|0:0,0:0:0:0:
391,330,215708,2,0,L|441:321,1,42.5,2|0,0:0|0:0,0:0:0:0:
490,233,215880,2,0,P|479:304|447:239,1,191.250007295609,8|0,0:0|0:0,0:0:0:0:
508,143,216225,6,0,B|380:165|380:165|301:148,1,191.250007295609,2|0,0:0|0:0,0:0:0:0:
213,116,216570,2,0,P|223:191|216:227,1,85,8|0,0:0|0:0,0:0:0:0:
320,152,216828,2,0,B|307:115|313:72|313:72|288:20|245:0|202:-1|160:19,1,255.000009727478,2|0,0:0|0:0,0:0:0:0:
312,72,217259,6,0,P|379:94|444:48,1,127.5,12|0,0:0|0:0,0:0:0:0:
478,16,217604,6,0,P|466:89|498:224,1,191.250007295609,2|0,0:0|0:0,0:0:0:0:
399,164,217949,2,0,P|418:225|450:280,1,127.500004863739,8|0,0:0|0:0,0:0:0:0:
362,278,218208,6,0,P|382:315|409:348,1,85,2|0,0:0|0:0,0:0:0:0:
343,382,218466,1,2,0:0:0:0:
320,164,218639,1,8,0:0:0:0:
449,279,218811,1,0,0:0:0:0:
216,201,218984,5,2,0:0:0:0:
171,340,219156,1,2,0:0:0:0:
105,134,219328,5,8,0:0:0:0:
166,323,219501,1,2,0:0:0:0:
235,166,219673,5,2,0:0:0:0:
161,306,219845,1,2,0:0:0:0:
92,97,220017,5,8,0:0:0:0:
156,289,220190,1,2,0:0:0:0:
261,137,220363,5,2,0:0:0:0:
151,272,220535,1,2,0:0:0:0:
79,60,220708,5,8,0:0:0:0:
146,255,220879,1,2,0:0:0:0:
294,115,221053,5,2,0:0:0:0:
141,238,221224,1,2,0:0:0:0:
66,23,221397,5,8,0:0:0:0:
136,221,221570,1,2,0:0:0:0:
212,14,221742,5,8,0:0:0:0:
41,184,221915,1,2,0:0:0:0:
294,115,222087,5,8,0:0:0:0:
52,114,222260,1,2,0:0:0:0:
278,256,222432,5,8,0:0:0:0:
109,72,222604,1,2,0:0:0:0:
171,340,222777,5,8,0:0:0:0:
179,82,222949,1,2,0:0:0:0:
41,184,223121,5,8,0:0:0:0:
59,195,223207,1,2,0:0:0:0:
79,201,223293,1,2,0:0:0:0:
100,202,223379,1,2,0:0:0:0:
121,197,223466,5,8,0:0:0:0:
152,195,223552,1,2,0:0:0:0:
181,207,223638,1,2,0:0:0:0:
202,231,223724,1,2,0:0:0:0:
210,262,223811,5,8,0:0:0:0:
225,300,223897,1,2,0:0:0:0:
261,322,223983,1,2,0:0:0:0:
303,319,224069,1,2,0:0:0:0:
336,292,224156,6,0,B|366:281|404:280|438:298|453:331|453:331|426:312|401:311,1,191.250007295609,6|0,0:3|0:0,0:0:0:0:
438,290,224501,6,0,P|496:281|499:223,1,127.500004863739,6|0,0:0|0:0,0:0:0:0:
367,174,224846,2,0,P|317:173|310:102,1,127.500004863739,8|0,0:0|0:0,0:0:0:0:
458,114,225104,6,0,L|436:196,1,85,2|0,0:0|0:0,0:0:0:0:
321,286,225363,2,0,L|321:240,1,42.5
322,91,225535,1,8,0:0:0:0:
389,243,225708,1,0,0:0:0:0:
218,147,225880,6,0,B|176:143|154:153|154:153|127:132|98:118|98:118|84:147|51:172,1,191.250007295609,2|0,0:0|0:0,0:0:0:0:
79,247,226225,2,0,P|117:228|140:193,1,85,8|0,0:0|0:0,0:0:0:0:
75,50,226484,6,0,P|37:68|15:103,1,85,2|0,0:0|0:0,0:0:0:0:
2,227,226742,2,0,L|8:284,1,42.5,2|0,0:0|0:0,0:0:0:0:
21,356,226915,2,0,P|86:341|183:339,1,127.500004863739,8|0,0:0|0:0,0:0:0:0:
326,355,227259,6,0,P|275:340|235:273,1,127.5,2|0,0:0|0:0,0:0:0:0:
329,183,227604,2,0,L|323:268,1,85,8|0,0:0|0:0,0:0:0:0:
406,351,227863,6,0,B|392:275|392:275|395:224,1,127.500004863739,2|0,0:0|0:0,0:0:0:0:
355,110,228121,2,0,P|345:147|350:187,1,63.7500024318696
235,280,228294,2,0,P|222:217|149:286,1,191.250007295609,8|0,0:0|0:0,0:0:0:0:
185,345,228639,6,0,P|247:360|302:325,1,127.5,2|0,0:0|0:0,0:0:0:0:
278,173,228984,2,0,P|234:219|236:284,1,127.5,8|0,0:0|0:0,0:0:0:0:
118,123,229242,6,0,P|161:169|164:213,1,85,2|0,0:0|0:0,0:0:0:0:
240,82,229501,2,0,P|220:117|219:140,1,42.5,2|0,0:0|0:0,0:0:0:0:
161,56,229673,2,0,P|96:80|24:21,1,127.500004863739,8|0,0:0|0:0,0:0:0:0:
240,82,230018,6,0,P|304:57|376:116,1,127.500004863739,2|0,0:0|0:0,0:0:0:0:
472,35,230363,2,0,B|456:98|456:98|463:172,1,127.500004863739,8|0,0:0|0:0,0:0:0:0:
378,205,230621,6,0,L|382:141,2,63.7500024318696,2|0|0,0:0|0:0|0:0,0:0:0:0:
468,240,230880,2,0,L|472:303,1,63.7500024318696
474,372,231053,5,8,0:0:0:0:
497,170,231225,1,0,0:0:0:0:
372,214,231397,6,0,B|329:223|305:193|305:193|269:248|200:236,1,191.250007295609,2|0,0:0|0:0,0:0:0:0:
227,148,231742,2,0,L|146:123,1,85,8|0,0:0|0:0,0:0:0:0:
136,203,232001,6,0,L|89:246,1,63.7500024318696,2|0,0:0|0:0,0:0:0:0:
71,154,232259,2,0,L|61:112,1,42.5,2|0,0:0|0:0,0:0:0:0:
49,42,232432,5,8,0:0:0:0:
227,148,232604,1,0,0:0:0:0:
26,213,232777,6,0,P|21:265|77:317,1,127.5,2|0,0:0|0:0,0:0:0:0:
89,246,233121,2,0,L|136:203,2,63.7500024318696,8|0|0,0:0|0:0|0:0,0:0:0:0:
141,300,233380,6,0,P|203:312|268:297,1,127.500004863739,2|0,0:0|0:0,0:0:0:0:
221,194,233639,2,0,L|228:248,1,42.5
334,271,233811,6,0,L|338:228,1,42.5,8|0,0:0|0:0,0:0:0:0:
163,95,233984,2,0,L|170:149,1,42.5
296,150,234156,6,0,B|359:139|359:139|423:162|423:162|499:148,1,191.250007295609,2|0,0:0|0:0,0:0:0:0:
435,38,234501,6,0,L|431:81,1,42.5,8|0,0:0|0:0,0:0:0:0:
334,271,234673,2,0,L|338:228,1,42.5,0|2,0:0|0:0,0:0:0:0:
345,67,234846,6,0,P|314:73|283:69,1,63.7500024318696
414,237,235018,2,0,P|449:233|487:243,1,63.7500024318696,2|0,0:0|0:0,0:0:0:0:
296,150,235190,5,10,0:0:0:0:
264,146,235276,1,2,0:3:0:0:
232,143,235362,1,2,0:3:0:0:
200,140,235448,1,2,0:3:0:0:
169,137,235535,6,0,L|103:145,1,42.5,2|0,0:0|0:0,0:0:0:0:
9,211,235708,2,0,L|75:219,1,42.5
140,301,235880,2,0,P|125:244|129:199,1,85,8|0,0:0|0:0,0:0:0:0:
38,147,236139,6,0,P|62:85|26:23,1,127.500004863739,2|0,0:0|0:0,0:0:0:0:
140,70,236397,2,0,P|168:54|220:47,1,63.7500024318696
296,150,236570,5,8,0:0:0:0:
126,142,236742,1,0,0:0:0:0:
318,32,236915,6,0,P|292:74|297:153,1,127.5,2|0,0:0|0:0,0:0:0:0:
383,105,237259,2,0,P|448:92|490:96,1,85,8|0,0:0|0:0,0:0:0:0:
329,224,237518,6,0,P|276:225|241:216,1,63.7500024318696,2|0,0:0|0:0,0:0:0:0:
416,186,237777,2,0,P|421:220|421:235,1,42.5,2|0,0:0|0:0,0:0:0:0:
249,341,237949,6,0,P|237:286|283:210,1,127.500004863739,8|0,0:0|0:0,0:0:0:0:
461,325,238294,6,0,P|398:310|332:319,1,127.5,2|0,0:0|0:0,0:0:0:0:
250,340,238639,2,0,P|180:345|135:328,1,85,8|0,0:0|0:0,0:0:0:0:
80,256,238897,6,0,P|153:241|227:256,1,127.500004863739,2|0,0:0|0:0,0:0:0:0:
29,384,239156,2,0,P|10:350|8:310,1,63.7500024318696
130,201,239328,5,8,0:0:0:0:
92,340,239501,1,0,0:0:0:0:
43,164,239673,6,0,P|64:126|77:214,1,191.250007295609,2|0,0:0|0:0,0:0:0:0:
50,93,240018,2,0,P|29:35|93:17,1,127.500004863739,8|0,0:0|0:0,0:0:0:0:
177,138,240277,6,0,P|249:144|288:123,1,85,2|0,0:0|0:0,0:0:0:0:
349,53,240535,2,0,P|328:47|307:50,1,42.5,2|0,0:0|0:0,0:0:0:0:
167,18,240708,6,0,P|128:105|129:200,1,191.250007295609,8|0,0:0|0:0,0:0:0:0:
165,326,241053,6,0,B|199:324|228:314|228:314|254:337|281:348,1,127.5,2|0,0:0|0:0,0:0:0:0:
72,370,241397,2,0,P|85:323|87:276,1,85,8|0,0:0|0:0,0:0:0:0:
231,284,241656,6,0,P|219:237|216:190,1,85,2|0,0:0|0:0,0:0:0:0:
87,191,241915,2,0,L|141:202,1,42.5
300,235,242087,5,8,0:0:0:0:
165,326,242259,1,0,0:0:0:0:
281,348,242432,6,0,P|348:338|416:222,1,191.250007295609,2|0,0:0|0:0,0:0:0:0:
288,150,242777,2,0,L|302:253,1,85,8|0,0:0|0:0,0:0:0:0:
381,92,243035,6,0,L|367:195,1,85,2|0,0:0|0:0,0:0:0:0:
485,60,243294,2,0,L|468:99,1,42.5,2|0,0:0|0:0,0:0:0:0:
482,208,243466,6,0,L|455:174,1,42.5,8|0,0:0|0:0,0:0:0:0:
381,92,243639,1,0,0:0:0:0:
251,223,243811,6,0,B|217:238|163:228|132:195|130:152|130:152|146:182|181:187,1,223.125008511544
190,119,244501,6,0,P|91:95|77:197,1,214.200005229492
167,254,245190,6,0,P|188:255|208:250,1,42.5
250,153,245363,2,0,P|270:147|291:148,1,42.5
321,254,245535,6,0,L|318:311,3,42.5,0|0|0|0,2:3|2:3|2:3|2:3,2:3:0:0:
397,226,245880,2,0,L|394:183,3,42.5,2|2|2|2,2:3|2:3|2:3|2:3,2:3:0:0:
479,268,246225,5,2,2:3:0:0:
483,225,246311,1,2,2:3:0:0:
487,183,246397,1,2,2:3:0:0:
491,141,246483,1,2,2:3:0:0:
495,98,246570,6,0,P|429:86|356:103,1,127.500004863739,6|0,0:0|0:0,0:0:0:0:
240,116,247087,2,0,P|234:139|233:156,1,31.8750012159348
310,241,247259,1,8,0:0:0:0:
366,55,247432,6,0,P|372:86|368:102,1,42.5
223,104,247604,2,0,P|217:135|221:151,1,42.5
323,232,247777,2,0,P|329:263|325:279,1,42.5
251,356,247949,1,0,0:0:0:0:
251,356,248294,6,0,B|195:315|195:315|150:323|150:323|103:263|103:263|184:251,1,255,2|0,0:0|0:0,0:0:0:0:
238,243,248639,6,0,L|264:151,1,85,8|0,0:0|0:0,0:0:0:0:
117,123,248897,1,0,0:0:0:0:
117,123,248984,2,0,L|154:161,1,42.5
281,78,249156,2,0,L|239:88,1,42.5
117,123,249328,6,0,P|75:118|40:35,1,127.5,2|0,0:0|0:0,0:0:0:0:
24,131,249673,1,2,0:3:0:0:
26,162,249759,1,2,0:3:0:0:
28,194,249845,1,2,0:3:0:0:
31,226,249931,1,2,0:3:0:0:
33,258,250018,6,0,L|37:300,1,42.5,8|0,0:0|0:0,0:0:0:0:
43,370,250190,2,0,B|105:352|105:352|166:363,1,127.500004863739
269,380,250708,5,0,0:0:0:0:
114,266,250880,1,0,0:0:0:0:
301,236,251053,2,0,P|287:298|198:252,1,191.250007295609,2|0,0:0|0:0,0:0:0:0:
282,208,251397,6,0,P|261:203|240:197,1,42.5,8|0,0:0|0:0,0:0:0:0:
371,303,251570,2,0,P|349:306|329:312,1,42.5,0|2,0:0|0:3,0:0:0:0:
456,190,251742,5,2,0:3:0:0:
483,174,251828,1,2,0:3:0:0:
496,146,251914,1,2,0:3:0:0:
491,115,252000,1,2,0:3:0:0:
468,92,252087,6,0,P|389:106|332:86,1,127.500004863739,2|0,0:0|0:0,0:0:0:0:
204,44,252604,2,0,L|210:82,2,21.2500008106232,0|0|0,3:0|3:0|3:0,3:0:0:0:
201,23,252777,6,0,P|245:31|297:5,1,85,8|0,0:0|0:0,0:0:0:0:
105,127,253035,2,0,P|149:119|201:145,1,85
41,50,253294,2,0,L|31:106,1,42.5
141,200,253466,6,0,B|152:266|152:266|115:317|115:317|124:386,1,191.250007295609
197,335,253811,2,0,P|239:320|273:320,1,63.7500024318696,2|0,0:0|0:0,0:0:0:0:
71,250,253984,2,0,P|29:235|-5:235,1,63.7500024318696
220,144,254156,6,0,P|228:198|223:239,1,85,8|0,0:0|0:0,0:0:0:0:
231,238,254415,1,0,0:0:0:0:
239,248,254501,2,0,B|346:253,1,85
329,261,254759,1,0,0:0:0:0:
337,271,254846,6,0,P|390:278|390:143,1,191.250007295609,2|0,0:0|0:0,0:0:0:0:
355,87,255190,5,2,0:3:0:0:
349,118,255276,1,2,0:3:0:0:
349,150,255362,1,2,0:3:0:0:
356,181,255448,1,2,0:3:0:0:
370,210,255535,6,0,P|401:235|458:233,1,63.7500024318696,8|0,0:0|0:0,0:0:0:0:
494,79,255708,2,0,B|452:104|452:104|414:90|414:90|375:138|339:132|314:97|362:84,1,212.5
268,45,256225,6,0,P|214:47|165:17,1,95.6250036478044
205,152,256570,2,0,P|151:150|85:203,1,127.5,2|0,0:0|0:0,0:0:0:0:
93,33,256915,2,0,P|87:88|38:19,1,191.250007295609,8|0,0:0|0:0,0:0:0:0:
5,169,257259,6,0,P|9:209|3:246,1,63.7500024318696
107,129,257432,2,0,P|100:168|85:202,1,63.7500024318696
216,117,257604,6,0,B|206:147|186:173|186:173|200:164|240:158,1,95.6250036478044,2|0,0:0|0:0,0:0:0:0:
324,133,257949,2,0,P|298:164|268:186,1,63.7500024318696
369,208,258208,1,0,0:0:0:0:
369,208,258294,1,8,0:0:0:0:
266,30,258466,6,0,L|277:89,1,42.5
399,129,258639,2,0,L|406:87,1,42.5
280,178,258811,2,0,L|291:237,1,42.5
413,277,258984,1,0,0:0:0:0:
413,277,259328,6,0,L|353:270,1,42.5,2|0,0:0|0:0,0:0:0:0:
285,373,259501,2,0,L|357:364,1,63.7500024318696
287,219,259673,6,0,P|236:213|187:223,1,85,8|0,0:0|0:0,0:0:0:0:
157,359,259932,1,0,0:0:0:0:
157,359,260018,2,0,P|180:368|214:368,1,42.5
296,299,260190,2,0,P|273:290|239:290,1,42.5
104,295,260363,6,0,P|54:235|132:231,1,191.250007295609,2|0,0:0|0:0,0:0:0:0:
27,198,260708,5,2,0:3:0:0:
9,153,260794,1,2,0:3:0:0:
9,106,260880,1,2,0:3:0:0:
26,62,260966,1,2,0:3:0:0:
58,27,261053,6,0,L|99:39,1,42.5,8|0,0:0|0:0,0:0:0:0:
251,91,261225,2,0,B|212:106|212:106|172:96|172:96|142:133|96:132,1,170
295,18,261742,5,0,0:0:0:0:
198,187,261915,1,0,0:0:0:0:
166,17,262087,6,0,L|206:28,1,42.5,2|0,0:0|0:0,0:0:0:0:
273,162,262259,2,0,L|313:150,1,42.5
394,23,262432,6,0,P|366:66|433:69,1,127.5,8|0,0:0|0:0,0:0:0:0:
492,65,262777,5,2,0:3:0:0:
489,107,262863,1,2,0:3:0:0:
487,149,262949,1,2,0:3:0:0:
485,192,263035,1,2,0:3:0:0:
483,234,263121,6,0,L|500:372,1,127.500004863739,2|0,0:0|0:0,0:0:0:0:
376,241,263639,2,0,P|356:249|327:253,1,31.8750012159348
192,277,263811,6,0,P|161:273|132:260,1,63.7500024318696,8|0,0:0|0:0,0:0:0:0:
268,341,264070,2,0,P|225:345|188:364,1,85
270,265,264328,2,0,P|266:222|272:204,1,42.5
381,317,264501,6,0,P|450:259|414:177,1,191.250007295609
333,115,264846,2,0,P|334:165|341:204,1,63.7500024318696,2|0,0:0|0:0,0:0:0:0:
246,162,265018,2,0,P|259:210|276:245,1,63.7500024318696
414,177,265190,6,0,B|441:132|441:88|441:88|420:81|389:89,1,127.5,8|0,0:0|0:0,0:0:0:0:
333,115,265535,2,0,P|310:110|276:97,1,42.5
407,4,265708,2,0,P|384:9|350:22,1,42.5
495,165,265880,6,0,P|471:235|345:216,1,191.250007295609,2|0,0:0|0:0,0:0:0:0:
265,222,266225,2,0,P|273:251|274:294,1,63.7500024318696
423,114,266397,2,0,P|415:143|414:186,1,63.7500024318696
433,332,266570,6,0,P|401:332|366:322,1,42.5,8|0,0:0|0:0,0:0:0:0:
265,222,266742,2,0,B|221:197|151:202|91:230|97:276|147:281|159:246,1,212.5
68,189,267259,6,0,P|48:243|79:341,1,127.5
86,109,267604,2,0,P|45:150|32:252,1,127.5,2|0,0:0|0:0,0:0:0:0:
137,46,267949,2,0,P|83:65|28:152,1,127.5,8|0,0:0|0:0,0:0:0:0:
210,9,268294,6,0,P|189:2|168:1,1,42.5,2|0,0:0|0:0,0:0:0:0:
283,198,268466,2,0,P|262:203|241:205,1,42.5,2|0,0:0|0:0,0:0:0:0:
380,92,268639,6,0,L|441:90,2,42.5,6|0|0,0:0|0:0|0:0,0:0:0:0:
491,174,269242,2,0,L|427:171,1,63.75
381,257,269673,2,0,L|442:255,1,42.5
131,257,270190,6,0,L|88:255,1,42.5
21,174,270621,2,0,L|63:172,1,42.5
90,90,270966,2,0,L|154:93,1,63.75
331,86,271397,6,0,P|327:115|332:144,2,42.5
397,187,272001,2,0,P|403:222|395:263,1,63.75
320,313,272432,2,0,P|316:342|321:371,1,42.5
194,355,272949,6,0,P|195:333|192:313,1,42.5
113,249,273380,2,0,P|109:219|114:190,1,42.5
183,148,273725,2,0,P|186:117|181:86,1,63.75
331,86,274156,6,0,L|380:80,2,42.5
353,183,274759,2,0,P|314:192|282:189,1,63.75
331,298,275190,2,0,L|380:304,1,42.5
181,298,275708,6,0,L|132:304,1,42.5
153,194,276139,2,0,L|195:199,1,42.5
181,86,276484,2,0,P|151:94|113:94,1,63.75
195,199,276915,6,0,L|195:255,2,42.5
265,167,277518,2,0,L|265:238,1,63.75
335,135,277949,2,0,L|335:177,1,42.5
194,160,278466,6,0,L|194:117,1,42.5
116,193,278897,2,0,L|116:150,1,42.5
37,185,279242,2,0,L|37:248,1,63.75
75,343,279673,6,0,B|109:345|136:328|136:328|171:325|199:346|199:346|206:269|316:230|302:294|236:303|236:303|205:259|151:261|151:261|201:213|257:184|299:195|316:212,1,595,2|0,0:0|0:0,0:0:0:0:
395,200,285190,6,0,B|382:151|344:135|344:135|363:99|412:90|412:90|405:48|369:28|369:28|304:51|275:113|275:113|225:117|203:77|203:77|180:35|117:35|142:86|189:94,1,595,2|0,0:0|0:0,0:0:0:0:
46,233,290708,6,0,B|41:276|61:340|140:348|176:312|176:312|296:200|212:132|128:200|246:325|246:325|281:301|292:255,1,595,2|0,0:0|0:0,0:0:0:0:
421,297,296225,6,0,B|447:244|410:190|410:190|448:166|491:166|491:166|490:130|500:96|500:96|450:91|391:119|391:119|298:167|230:121|293:42|341:98,1,595,2|0,0:0|0:0,0:0:0:0:
85,284,301742,6,0,B|62:239|80:191|121:164|158:157|158:157|159:192|191:212|191:212|139:232|145:251|145:251|201:241|251:267|251:267|309:298|411:275|356:206|309:256,1,595,2|0,0:0|0:0,0:0:0:0:
256,192,307259,6,0,P|247:149|260:111,1,85,0|2,0:0|0:0,0:0:0:0:
256,192,308294,6,0,B|277:235|253:271|253:271|220:317|256:374|300:316|264:281,1,221
