osu file format v14

[General]
AudioFilename: dreamless wanderer.mp3
AudioLeadIn: 0
PreviewTime: 202432
Countdown: 1
SampleSet: None
StackLeniency: 0.7
Mode: 0
LetterboxInBreaks: 0
WidescreenStoryboard: 0

[Editor]
Bookmarks: 324587
DistanceSpacing: 1.2
BeatDivisor: 4
GridSize: 4
TimelineZoom: 2.899999

[Metadata]
Title:dreamless wanderer
TitleUnicode:dreamless wanderer
Artist:Camellia
ArtistUnicode:かめりあ
Creator:_kotachi_
Version:Vagrants
Source:
Tags:
BeatmapID:1671409
BeatmapSetID:795912

[Difficulty]
HPDrainRate:8
CircleSize:3.8
OverallDifficulty:8.3
ApproachRate:9.4
SliderMultiplier:1.76
SliderTickRate:1

[Events]
//Background and Video events
0,0,"BG.png",0,0
//Break Periods
2,67459,76375
2,155734,164047
//Storyboard Layer 0 (Background)
//Storyboard Layer 1 (Fail)
//Storyboard Layer 2 (Pass)
//Storyboard Layer 3 (Foreground)
//Storyboard Sound Samples

[TimingPoints]
1053,344.827586206897,4,2,1,70,1,0
1053,-200,4,2,1,70,0,0
45190,-66.6666666666667,4,2,2,70,0,0
48639,-200,4,2,2,70,0,0
48811,-50,4,2,2,70,0,0
49501,-100,4,2,2,70,0,0
49673,-66.6666666666667,4,2,2,70,0,0
52087,-55.5555555555556,4,2,2,70,0,0
52777,-66.6666666666667,4,2,2,70,0,0
54328,-55.5555555555556,4,2,2,70,0,0
55190,-66.6666666666667,4,2,2,70,0,0
59673,-200,4,2,2,70,0,0
59846,-50,4,2,2,70,0,0
60708,-66.6666666666667,4,2,2,70,0,0
63121,-55.5555555555556,4,2,2,70,0,0
63811,-66.6666666666667,4,2,2,70,0,0
65363,-50,4,2,2,70,0,0
66225,-66.6666666666667,4,2,2,70,0,0
76915,-133.333333333333,4,2,2,25,0,0
77949,-133.333333333333,4,2,2,35,0,0
78294,-133.333333333333,4,2,2,50,0,0
89328,-111.111111111111,4,2,1,60,0,0
100363,-100,4,2,1,70,0,0
108639,-200,4,2,1,30,0,0
110708,-90.9090909090909,4,2,1,70,0,0
111397,-66.6666666666667,4,2,1,70,0,0
112001,-55.5555555555556,4,2,1,70,0,0
112604,-100,4,2,1,70,0,0
112777,-55.5555555555556,4,2,1,70,0,0
113121,-66.6666666666667,4,2,1,70,0,0
113811,-50,4,2,1,70,0,0
114156,-66.6666666666667,4,2,1,70,0,0
114759,-55.5555555555556,4,2,1,70,0,0
115880,-66.6666666666667,4,2,1,70,0,0
116570,-333.333333333333,4,2,1,70,0,0
116915,-66.6666666666667,4,2,1,70,0,0
117518,-55.5555555555556,4,2,1,70,0,0
118121,-100,4,2,1,70,0,0
118294,-55.5555555555556,4,2,1,70,0,0
118639,-66.6666666666667,4,2,1,70,0,0
119328,-50,4,2,1,70,0,0
119673,-66.6666666666667,4,2,1,70,0,0
120363,-55.5555555555556,4,2,1,70,0,0
120708,-50,4,2,1,70,0,0
121053,-66.6666666666667,4,2,1,70,0,0
123035,-55.5555555555556,4,2,1,70,0,0
123639,-100,4,2,1,70,0,0
123811,-55.5555555555556,4,2,1,70,0,0
124156,-66.6666666666667,4,2,1,70,0,0
124846,-55.5555555555556,4,2,1,70,0,0
125190,-66.6666666666667,4,2,1,70,0,0
125794,-55.5555555555556,4,2,1,70,0,0
126915,-66.6666666666667,4,2,1,70,0,0
127604,-333.333333333333,4,2,1,70,0,0
127949,-66.6666666666667,4,2,1,70,0,0
128466,-55.5555555555556,4,2,1,70,0,0
129156,-100,4,2,1,70,0,0
129328,-55.5555555555556,4,2,1,70,0,0
129673,-66.6666666666667,4,2,1,70,0,0
130363,-55.5555555555556,4,2,1,70,0,0
130708,-66.6666666666667,4,2,1,70,0,0
131397,-58.8235294117647,4,2,1,70,0,0
131570,-55.5555555555556,4,2,1,70,0,0
131742,-52.6315789473684,4,2,1,70,0,0
131915,-50,4,2,1,70,0,0
132777,-133.333333333333,4,2,1,70,0,0
133121,-66.6666666666667,4,2,1,70,0,0
133466,-66.6666666666667,4,2,1,70,0,0
134070,-55.5555555555556,4,2,1,70,0,0
134846,-200,4,2,1,70,0,0
135018,-66.6666666666667,4,2,1,70,0,0
135277,-62.5,4,2,1,70,0,0
135535,-58.8235294117647,4,2,1,70,0,0
136225,-66.6666666666667,4,2,1,70,0,0
136828,-55.5555555555556,4,2,1,70,0,0
137604,-133.333333333333,4,2,1,70,0,0
137949,-66.6666666666667,4,2,1,70,0,0
138466,-55.5555555555556,4,2,1,70,0,0
138984,-66.6666666666667,4,2,1,70,0,0
139587,-55.5555555555556,4,2,1,70,0,0
140363,-200,4,2,1,70,0,0
140535,-66.6666666666667,4,2,1,70,0,0
140794,-62.5,4,2,1,70,0,0
141053,-58.8235294117647,4,2,1,70,0,0
141742,-66.6666666666667,4,2,1,70,0,0
142346,-55.5555555555556,4,2,1,70,0,0
143121,-100,4,2,1,70,0,0
143466,-55.5555555555556,4,2,1,70,0,0
144156,-50,4,2,1,70,0,0
144501,-333.333333333333,4,2,1,70,0,0
144673,-66.6666666666667,4,2,1,70,0,0
144846,-55.5555555555556,4,2,1,70,0,0
145104,-66.6666666666667,4,2,1,70,0,0
145363,-55.5555555555556,4,2,1,70,0,0
145880,-200,4,2,1,70,0,0
146053,-66.6666666666667,4,2,1,70,0,0
146311,-62.5,4,2,1,70,0,0
146570,-58.8235294117647,4,2,1,70,0,0
147259,-66.6666666666667,4,2,1,70,0,0
147863,-55.5555555555556,4,2,1,70,0,0
148639,-133.333333333333,4,2,1,70,0,0
148984,-66.6666666666667,4,2,1,70,0,0
149501,-55.5555555555556,4,2,1,70,0,0
150018,-66.6666666666667,4,2,1,70,0,0
151397,-55.5555555555556,4,2,1,70,0,0
151742,-50,4,2,1,70,0,0
152604,-83.3333333333333,4,2,1,70,0,0
152777,-63.2911392405063,4,2,1,70,0,0
166225,-133.333333333333,4,2,2,60,0,0
177604,-133.333333333333,4,2,2,30,0,0
179759,-133.333333333333,4,2,2,40,0,0
179846,-133.333333333333,4,2,2,50,0,0
180018,-83.3333333333333,4,2,2,60,0,0
180190,-71.4285714285714,4,2,2,70,0,0
180363,-66.6666666666667,4,2,2,70,0,1
184673,-50,4,2,2,70,0,1
184846,-66.6666666666667,4,2,2,70,0,1
190880,-62.5,4,2,2,70,0,1
191053,-58.8235294117647,4,2,2,70,0,1
191225,-55.5555555555556,4,2,2,70,0,1
191397,-66.6666666666667,4,2,2,70,0,1
195708,-50,4,2,2,70,0,1
195880,-66.6666666666667,4,2,2,70,0,1
201053,-55.5555555555556,4,2,1,70,0,1
201397,-52.6315789473684,4,2,1,70,0,1
201742,-50,4,2,1,70,0,1
202087,-333.333333333333,4,2,1,70,0,1
202432,-66.6666666666667,4,2,2,70,0,1
211311,-55.5555555555556,4,2,2,70,0,1
211570,-66.6666666666667,4,2,2,70,0,1
218984,-66.6666666666667,4,2,1,70,0,1
223121,-55.5555555555556,4,2,1,70,0,1
223466,-52.6315789473684,4,2,1,70,0,1
223811,-50,4,2,1,70,0,1
224156,-333.333333333333,4,2,1,70,0,1
224501,-66.6666666666667,4,2,1,70,0,0
225105,-55.5555555555556,4,2,1,70,0,0
225708,-100,4,2,1,70,0,0
225881,-55.5555555555556,4,2,1,70,0,0
226225,-66.6666666666667,4,2,1,70,0,0
226915,-50,4,2,1,70,0,0
227260,-66.6666666666667,4,2,1,70,0,0
227863,-55.5555555555556,4,2,1,70,0,0
228984,-66.6666666666667,4,2,1,70,0,0
229674,-333.333333333333,4,2,1,70,0,0
230019,-66.6666666666667,4,2,1,70,0,0
230622,-55.5555555555556,4,2,1,70,0,0
231225,-100,4,2,1,70,0,0
231398,-55.5555555555556,4,2,1,70,0,0
231743,-66.6666666666667,4,2,1,70,0,0
232432,-50,4,2,1,70,0,0
232777,-66.6666666666667,4,2,1,70,0,0
233467,-55.5555555555556,4,2,1,70,0,0
233812,-50,4,2,1,70,0,0
234157,-66.6666666666667,4,2,1,70,0,0
236139,-55.5555555555556,4,2,1,70,0,0
236743,-100,4,2,1,70,0,0
236915,-55.5555555555556,4,2,1,70,0,0
237260,-66.6666666666667,4,2,1,70,0,0
237950,-55.5555555555556,4,2,1,70,0,0
238294,-66.6666666666667,4,2,1,70,0,0
238898,-55.5555555555556,4,2,1,70,0,0
240019,-66.6666666666667,4,2,1,70,0,0
240708,-333.333333333333,4,2,1,70,0,0
241053,-66.6666666666667,4,2,1,70,0,0
241570,-55.5555555555556,4,2,1,70,0,0
242260,-100,4,2,1,70,0,0
242432,-55.5555555555556,4,2,1,70,0,0
242777,-66.6666666666667,4,2,1,70,0,0
243467,-55.5555555555556,4,2,1,70,0,0
243811,-133.333333333333,4,2,1,70,0,0
245363,-100,4,2,1,70,0,0
245708,-100,4,2,1,50,0,0
246053,-100,4,2,1,60,0,0
246570,-66.6666666666667,4,2,2,70,0,0
250019,-200,4,2,2,70,0,0
250191,-50,4,2,2,70,0,0
250881,-100,4,2,2,70,0,0
251053,-66.6666666666667,4,2,2,70,0,0
253467,-55.5555555555556,4,2,2,70,0,0
254157,-66.6666666666667,4,2,2,70,0,0
255708,-55.5555555555556,4,2,2,70,0,0
256570,-66.6666666666667,4,2,2,70,0,0
261053,-200,4,2,2,70,0,0
261226,-50,4,2,2,70,0,0
262088,-66.6666666666667,4,2,2,70,0,0
264501,-55.5555555555556,4,2,2,70,0,0
265191,-66.6666666666667,4,2,2,70,0,0
266743,-50,4,2,2,70,0,0
267605,-66.6666666666667,4,2,2,70,0,0

[Colours]
Combo1 : 0,128,255
Combo2 : 0,0,255
Combo3 : 128,128,255
Combo4 : 128,0,128

[HitObjects]
433,90,44501,5,8,0:0:0:0:
425,144,44587,1,8,0:0:0:0:
418,199,44673,1,8,0:0:0:0:
410,253,44759,1,8,0:0:0:0:
402,307,44846,5,4,0:3:0:0:
384,295,44932,1,8,0:3:0:0:
364,287,45018,1,4,0:3:0:0:
343,281,45104,1,4,0:3:0:0:
323,279,45190,6,0,B|297:264|297:264|235:274|235:274|226:293|226:293|173:303|173:303|131:277,1,198.000007553101,4|0,1:2|0:0,0:0:0:0:
180,212,45535,1,2,0:0:0:0:
70,88,45708,2,0,L|25:96,2,44.0000016784669,0|2|2,0:0|0:0|0:0,0:0:0:0:
85,93,45880,1,8,0:0:0:0:
250,8,46053,6,2,B|238:56|238:56|247:85|247:85|235:139,1,132.000005035401,2|0,0:0|0:0,0:1:0:0:
453,99,46397,6,0,P|357:135|491:186,1,330.000012588501,2|0,0:0|0:0,0:0:0:0:
483,201,46915,6,0,B|424:166|424:166|446:308,1,198.000007553101,0|0,1:0|0:0,0:0:0:0:
443,292,47259,1,8,0:0:0:0:
195,156,47518,6,2,P|257:174|318:152,1,132.000005035401,2|0,0:0|0:0,0:1:0:0:
190,138,47777,6,2,P|221:128|246:108,1,66.0000025177003,2|0,0:0|0:0,0:1:0:0:
78,121,47949,5,0,1:0:0:0:
115,330,48121,1,2,0:0:0:0:
152,298,48207,1,2,0:0:0:0:
199,284,48293,1,2,0:0:0:0:
248,292,48379,1,2,0:0:0:0:
290,318,48466,2,0,P|326:319|354:304,1,66.0000025177003
418,208,48639,6,0,L|408:182,1,22,8|0,0:0|0:0,0:0:0:0:
195,87,48811,6,2,B|162:194|162:194|237:202|237:202|262:126|262:126|335:136|335:136|302:248,1,440,2|0,0:1|0:0,0:1:0:0:
307,231,49328,5,2,0:0:0:0:
455,104,49501,2,0,L|407:108,1,44,2|0,0:0|0:0,0:0:0:0:
411,107,49673,2,0,B|430:163|430:163|411:197|411:197|428:221|428:221|421:237|421:237|429:258|429:258|426:281|426:281|431:300,1,198.000007553101,0|0,1:0|0:0,0:0:0:0:
307,231,50018,6,0,L|235:236,1,66.0000025177003,8|0,0:0|0:0,0:0:0:0:
156,309,50190,1,0,0:0:0:0:
136,278,50277,1,2,0:0:0:0:
128,234,50363,5,2,0:0:0:0:
144,177,50449,1,2,0:0:0:0:
194,134,50535,1,2,0:0:0:0:
266,126,50621,1,2,0:0:0:0:
341,150,50708,6,0,B|407:170|407:170|471:122|427:47,1,198.000007553101,4|0,1:2|0:0,0:0:0:0:
355,23,51053,1,2,0:0:0:0:
307,231,51225,2,0,L|351:245,2,44.0000016784669,0|2|2,0:0|0:0|0:0,0:0:0:0:
291,232,51397,1,8,0:0:0:0:
178,52,51570,1,2,0:0:0:0:
178,52,51656,6,2,B|187:106|187:106|156:142|156:142|194:188|166:243,1,198.000007553101,0|0,0:0|0:0,0:1:0:0:
455,121,52087,6,2,B|419:98|370:133|370:133|321:166|274:114|320:67|358:92,1,237.599992749024,2|0,0:1|0:0,0:1:0:0:
426,199,52432,2,0,P|424:239|415:282,1,79.1999975830079,0|0,1:0|0:0,0:0:0:0:
261,192,52604,2,0,P|262:232|270:271,1,79.1999975830079,2|0,0:1|0:0,0:0:0:0:
136,350,52777,2,0,L|158:211,1,132.000005035401,8|0,0:0|0:0,0:0:0:0:
169,115,53035,6,2,B|142:109|142:109|129:115|129:115|92:110,1,66.0000025177003,2|0,0:0|0:0,0:1:0:0:
152,123,53294,6,2,B|125:117|125:117|112:123|112:123|75:118,1,66.0000025177003,2|0,0:0|0:0,0:1:0:0:
279,70,53466,6,0,L|344:65,1,66.0000025177003,4|0,1:2|0:0,0:0:0:0:
403,232,53639,1,2,0:0:0:0:
365,219,53725,1,2,0:0:0:0:
365,180,53812,1,2,0:0:0:0:
403,167,53898,1,2,0:0:0:0:
426,199,53984,2,0,L|410:269,1,66.0000025177003,2|0,0:0|0:0,0:0:0:0:
285,221,54156,2,0,P|252:220|222:231,1,66.0000025177003,8|0,0:0|0:0,0:0:0:0:
15,188,54328,6,2,B|103:183|141:278|141:278|116:192|184:148,1,316.799990332032,2|0,0:1|0:0,0:1:0:0:
40,93,54846,2,2,B|73:68|70:24|70:24|86:63|134:83,1,158.399995166016,2|0,0:0|0:0,0:1:0:0:
407,202,55190,6,0,B|301:177|324:269|220:230,1,198.000007553101,2|0,1:2|0:0,0:0:0:0:
220,230,55535,2,0,P|229:272|230:300,1,66.0000025177003,8|0,0:0|0:0,0:0:0:0:
258,132,55708,2,0,P|260:99|268:67,1,66.0000025177003,2|0,0:1|0:0,0:0:0:0:
120,221,55880,6,0,P|88:223|48:230,1,66.0000025177003,2|0,0:1|0:0,0:0:0:0:
103,48,56053,2,0,P|134:50|175:57,1,66.0000025177003,2|0,0:1|0:0,0:0:0:0:
400,71,56225,6,0,B|419:89|429:118|429:118|418:147|428:178|428:178|414:199|405:223|422:262,1,198.000007553101,4|0,1:2|0:0,0:0:0:0:
501,225,56570,1,2,0:0:0:0:
291,120,56742,2,0,L|292:74,2,44.0000016784669,0|2|2,0:0|0:0|0:0,0:0:0:0:
298,137,56914,1,8,0:0:0:0:
192,266,57087,6,2,B|258:286|253:232|322:249,1,132.000005035401,2|0,0:0|0:0,0:1:0:0:
143,71,57432,6,0,B|93:49|93:49|69:119|69:119|100:194|100:194|156:157,1,264.000010070801,2|0,0:0|0:0,0:0:0:0:
315,35,57949,6,0,B|300:110|249:144|249:144|250:92|214:67,1,198.000007553101,0|0,1:0|0:0,0:0:0:0:
230,82,58293,1,8,0:0:0:0:
417,273,58553,6,2,B|479:271|479:271|453:189,1,132.000005035401,2|0,0:0|0:0,0:1:0:0:
350,202,58811,6,2,B|381:199|381:199|371:158,1,66.0000025177003,2|0,0:0|0:0,0:1:0:0:
354,76,58984,5,0,1:0:0:0:
238,232,59156,1,2,0:0:0:0:
204,196,59242,1,2,0:0:0:0:
187,150,59328,1,2,0:0:0:0:
193,101,59414,1,2,0:0:0:0:
216,57,59501,2,0,P|246:43|278:35,1,66.0000025177003
96,124,59673,6,0,L|70:120,1,22,8|0,0:0|0:0,0:0:0:0:
281,248,59846,6,2,B|423:262|466:153|383:87|300:128|318:244|353:321|434:348,1,440,2|0,0:1|0:0,0:1:0:0:
430,346,60363,1,2,0:0:0:0:
269,121,60535,6,2,B|229:139|229:139|266:165,1,88,2|0,0:0|0:0,0:1:0:0:
265,164,60708,6,2,B|151:134|186:235|74:200,1,198.000007553101,2|0,1:2|0:0,0:1:0:0:
165,14,61053,6,0,P|171:49|174:79,1,66.0000025177003,8|0,0:0|0:0,0:0:0:0:
327,56,61225,1,0,0:0:0:0:
350,77,61312,1,2,0:0:0:0:
374,109,61398,5,2,0:0:0:0:
359,166,61484,1,2,0:0:0:0:
342,231,61570,1,2,0:0:0:0:
317,300,61656,1,2,0:0:0:0:
242,327,61743,6,0,B|209:349|174:341|174:341|163:314|176:284|176:284|163:247|183:209,1,198.000007553101,4|0,1:2|0:0,0:0:0:0:
265,164,62088,1,2,0:0:0:0:
67,192,62259,2,0,L|76:237,2,44.0000016784669,0|2|2,0:0|0:0|0:0,0:0:0:0:
69,176,62431,1,8,0:0:0:0:
265,78,62604,1,2,0:0:0:0:
265,78,62690,6,2,B|244:22|173:27|173:27|148:49|148:49|72:44,1,198.000007553101,0|0,0:0|0:0,0:1:0:0:
190,328,63121,6,2,B|171:284|171:284|178:241|178:241|157:196|157:196|184:249|240:239,1,237.599992749024,2|0,0:1|0:0,0:1:0:0:
386,103,63466,2,0,P|384:143|375:186,1,79.1999975830079,0|0,1:0|0:0,0:0:0:0:
347,350,63638,2,0,P|339:311|338:271,1,79.1999975830079,2|0,0:1|0:0,0:0:0:0:
226,163,63811,6,0,P|144:122|80:189,1,198.000007553101,8|0,0:0|0:0,0:0:0:0:
245,154,64156,6,2,P|237:129|230:85,1,66.0000025177003,2|0,0:0|0:0,0:1:0:0:
157,196,64328,6,2,P|151:228|142:260,1,66.0000025177003,2|0,0:0|0:0,0:1:0:0:
327,101,64501,6,0,L|392:96,1,66.0000025177003,4|0,1:2|0:0,0:0:0:0:
431,268,64674,1,2,0:0:0:0:
436,307,64760,1,2,0:0:0:0:
402,325,64847,1,2,0:0:0:0:
373,296,64933,1,2,0:0:0:0:
390,261,65019,2,0,L|401:192,1,66.0000025177003,2|0,0:0|0:0,0:0:0:0:
230,89,65191,2,0,L|220:168,1,66.0000025177003,8|0,0:0|0:0,0:0:0:0:
212,303,65363,6,2,B|167:331|167:331|118:309|118:309|68:348|14:322|-4:264|20:213|82:199|111:231,1,352,2|0,0:1|0:0,0:1:0:0:
285,344,65880,2,2,B|314:293|275:245|275:245|290:220|290:220|281:179,1,176,2|0,0:0|0:0,0:1:0:0:
160,44,66225,6,0,B|227:36|227:36|276:65|276:65|360:49,1,198.000007553101,2|0,1:2|0:0,0:0:0:0:
348,51,66570,2,0,B|360:83|360:83|358:121,1,66.0000025177003,8|0,0:0|0:0,0:0:0:0:
204,196,66743,2,0,B|204:161|204:161|214:131,1,66.0000025177003,2|0,0:1|0:0,0:0:0:0:
468,223,66915,6,0,B|435:220|435:220|396:232,1,66.0000025177003,2|0,0:1|0:0,0:0:0:0:
157,282,67088,2,0,B|190:280|190:280|229:291,1,66.0000025177003,2|0,0:1|0:0,0:0:0:0:
446,360,67259,5,4,1:2:0:0:
123,201,76915,6,0,P|147:140|126:78,1,132.000005035401,0|8,1:0|0:0,0:0:0:0:
308,105,77432,2,0,L|242:115,1,66.0000025177003
363,33,77777,1,0,1:1:0:0:
357,192,77949,1,8,0:0:0:0:
357,192,78294,6,0,L|491:182,1,132.000005035401,2|8,1:2|0:0,0:0:0:0:
347,277,78811,2,0,L|342:340,2,33.0000012588501,2|0|0,0:0|1:0|0:0,0:0:0:0:
186,196,79156,1,2,0:2:0:0:
186,196,79328,2,0,L|254:189,1,66.0000025177003,8|0,0:0|0:0,0:0:0:0:
96,304,79673,6,0,P|95:238|91:172,1,132.000005035401,2|8,1:2|0:0,0:0:0:0:
36,60,80190,1,2,0:0:0:0:
36,60,80277,2,0,L|136:68,1,99.0000037765504,0|0,1:0|1:0,0:0:0:0:
260,20,80708,1,10,0:0:0:0:
260,20,81053,6,0,B|302:39|302:39|394:10,1,132.000005035401,2|8,1:2|0:0,0:0:0:0:
326,127,81570,2,0,P|292:128|277:126,2,33.0000012588501,2|0|0,0:0|1:0|0:0,0:0:0:0:
461,107,81915,1,2,0:2:0:0:
302,207,82087,2,0,P|334:209|370:200,1,66.0000025177003,8|0,0:0|0:0,0:0:0:0:
217,203,82432,6,0,L|221:334,1,132.000005035401,2|8,1:2|0:0,0:0:0:0:
367,300,82949,1,2,0:0:0:0:
367,300,83036,2,0,L|366:198,1,99.0000037765504,0|0,1:0|1:0,0:0:0:0:
246,124,83467,1,10,0:0:0:0:
246,124,83811,6,0,B|172:104|187:158|117:141,1,132.000005035401,2|8,1:2|0:0,0:0:0:0:
23,102,84328,1,2,0:0:0:0:
23,102,84415,1,0,1:0:0:0:
23,102,84501,2,0,P|39:142|39:177,1,66.0000025177003,0|2,0:0|0:0,0:0:0:0:
89,282,84846,2,0,P|92:249|106:219,1,66.0000025177003,8|0,0:0|0:0,0:0:0:0:
302,298,85190,6,0,P|236:306|172:321,1,132.000005035401,2|8,1:2|0:0,0:0:0:0:
201,233,85708,1,2,0:0:0:0:
201,233,85794,1,2,1:2:0:0:
201,233,85880,5,0,0:0:0:0:
295,175,86053,5,2,1:2:0:0:
408,194,86225,5,8,0:0:0:0:
470,50,86397,5,2,0:0:0:0:
297,11,86570,6,0,B|256:2|256:2|161:21,1,132.000005035401,2|8,1:2|0:0,0:0:0:0:
70,116,87087,1,2,0:0:0:0:
70,116,87173,1,0,1:0:0:0:
70,116,87259,2,0,L|144:94,1,66.0000025177003,0|2,0:0|0:0,0:0:0:0:
67,213,87604,2,0,L|-7:191,1,66.0000025177003,8|0,0:0|0:0,0:0:0:0:
211,307,87949,6,0,L|319:298,1,99.0000037765504,0|0,1:0|0:0,0:0:0:0:
331,293,88294,6,0,L|270:253,1,66.0000025177003,8|0,0:0|0:0,0:0:0:0:
143,173,88553,5,2,1:2:0:0:
428,67,89328,6,0,B|355:98|345:35|275:67,1,158.399995166016,12|2,0:2|0:0,0:0:0:0:
192,165,89846,1,8,0:0:0:0:
188,6,90018,2,0,L|198:95,1,79.1999975830079,2|0,0:0|0:0,0:0:0:0:
112,194,90363,2,0,P|108:154|121:117,1,79.1999975830079,8|0,0:0|0:0,0:0:0:0:
98,303,90708,6,0,P|173:277|252:273,1,158.399995166016,8|2,0:0|0:0,0:0:0:0:
356,295,91225,1,8,0:0:0:0:
309,130,91397,2,0,L|316:209,1,79.1999975830079,2|0,0:0|0:0,0:0:0:0:
373,73,91742,2,0,P|339:52|300:45,1,79.1999975830079,8|0,0:0|0:0,0:0:0:0:
160,132,92087,6,0,P|226:113|195:51,1,158.399995166016,8|2,0:0|0:0,0:0:0:0:
81,189,92604,1,8,0:0:0:0:
63,88,92777,2,0,L|76:175,1,79.1999975830079,2|0,0:0|0:0,0:0:0:0:
210,218,93121,2,0,L|198:296,1,79.1999975830079,8|0,0:0|0:0,0:0:0:0:
309,130,93466,6,0,L|332:286,1,158.399995166016,8|2,0:0|0:0,0:0:0:0:
420,229,93984,1,8,0:0:0:0:
382,93,94156,2,0,P|352:59|305:50,1,79.1999975830079,2|0,0:0|0:0,0:0:0:0:
231,144,94501,2,0,L|314:129,1,79.1999975830079,8|0,0:0|0:0,0:0:0:0:
204,256,94846,6,0,B|103:277|103:277|49:237,1,158.399995166016,8|2,0:0|0:0,0:0:0:0:
61,145,95363,1,8,0:0:0:0:
231,144,95535,2,0,L|152:164,1,79.1999975830079,2|0,0:0|0:0,0:0:0:0:
47,54,95880,2,0,L|123:73,1,79.1999975830079,8|0,0:0|0:0,0:0:0:0:
304,33,96225,6,0,B|277:109|340:93|310:187,1,158.399995166016,8|2,0:0|0:0,0:0:0:0:
451,85,96742,1,8,0:0:0:0:
419,189,96915,2,0,P|454:205|489:224,1,79.1999975830079,2|0,0:0|0:0,0:0:0:0:
381,364,97259,2,0,P|369:326|355:288,1,79.1999975830079,8|0,0:0|0:0,0:0:0:0:
236,202,97604,6,0,P|220:261|204:370,1,158.399995166016,8|2,0:0|0:0,0:0:0:0:
128,235,98121,1,8,0:0:0:0:
195,125,98294,2,0,P|234:116|273:121,1,79.1999975830079,2|0,0:0|0:0,0:0:0:0:
128,235,98639,2,0,P|89:243|50:238,1,79.1999975830079,8|0,0:0|0:0,0:0:0:0:
305,232,98984,6,0,P|337:211|464:188,1,158.399995166016,8|2,0:0|0:0,0:0:0:0:
375,296,99501,1,8,0:0:0:0:
237,104,99673,2,0,P|243:144|236:183,1,79.1999975830079,2|0,0:0|0:0,0:0:0:0:
224,337,100018,2,0,P|219:298|203:258,1,79.1999975830079,8|0,0:0|0:0,0:0:0:0:
129,68,100363,5,12,0:0:0:0:
93,198,100535,1,2,0:0:0:0:
207,109,100708,5,8,0:0:0:0:
54,117,100880,1,2,0:0:0:0:
183,198,101053,5,8,0:0:0:0:
207,27,101225,1,2,0:0:0:0:
305,109,101397,5,8,0:0:0:0:
207,109,101570,1,2,0:0:0:0:
305,27,101742,5,8,0:0:0:0:
329,198,101914,1,2,0:0:0:0:
458,117,102087,5,8,0:0:0:0:
305,109,102259,1,2,0:0:0:0:
419,198,102432,5,8,0:0:0:0:
383,68,102604,1,2,0:0:0:0:
329,198,102777,5,8,0:0:0:0:
432,288,102949,1,2,0:0:0:0:
271,129,103121,5,8,0:0:0:0:
204,295,103294,1,2,0:0:0:0:
178,136,103466,5,8,0:0:0:0:
293,283,103639,1,2,0:0:0:0:
362,103,103811,5,8,0:0:0:0:
237,211,103984,1,2,0:0:0:0:
300,41,104156,5,8,0:0:0:0:
329,198,104328,1,2,0:0:0:0:
152,52,104501,5,8,0:0:0:0:
123,209,104673,1,2,0:0:0:0:
276,124,104846,5,8,0:0:0:0:
88,132,105018,1,2,0:0:0:0:
232,244,105190,5,8,0:0:0:0:
40,200,105362,1,2,0:0:0:0:
328,220,105535,5,8,0:0:0:0:
152,52,105707,1,2,0:0:0:0:
344,24,105880,5,8,0:0:0:0:
347,45,105966,1,2,0:0:0:0:
351,67,106052,1,2,0:0:0:0:
355,88,106138,1,2,0:0:0:0:
392,104,106225,5,8,0:0:0:0:
387,129,106311,1,2,0:0:0:0:
382,155,106397,1,2,0:0:0:0:
377,180,106483,1,2,0:0:0:0:
340,192,106570,5,8,0:0:0:0:
345,219,106656,1,2,0:0:0:0:
350,247,106742,1,2,0:0:0:0:
355,275,106828,1,2,0:0:0:0:
392,292,106915,5,8,0:0:0:0:
348,295,107001,1,2,0:0:0:0:
304,299,107087,1,2,0:0:0:0:
260,302,107173,1,2,0:0:0:0:
216,304,107259,5,8,0:0:0:0:
170,303,107346,1,2,0:0:0:0:
134,275,107432,1,2,0:0:0:0:
124,231,107518,1,2,0:0:0:0:
142,190,107604,1,8,0:0:0:0:
183,168,107690,1,2,0:0:0:0:
227,177,107777,1,2,0:0:0:0:
258,211,107863,1,2,0:0:0:0:
289,253,107949,5,8,0:0:0:0:
335,261,108035,1,2,0:0:0:0:
379,239,108121,1,2,0:0:0:0:
393,193,108208,1,2,0:0:0:0:
378,149,108294,1,8,0:0:0:0:
336,121,108380,1,2,0:0:0:0:
295,95,108467,1,2,0:0:0:0:
280,50,108554,1,2,0:0:0:0:
294,4,108639,6,0,L|332:0,4,22,0|0|0|0|2,0:0|0:0|3:0|3:0|0:3,0:0:0:0:
178,74,109156,6,0,L|142:71,4,22,0|0|0|0|2,0:0|3:0|3:0|3:0|0:3,0:0:0:0:
337,83,109673,6,0,L|373:80,4,22,0|0|0|0|2,0:0|0:0|3:0|3:0|0:3,0:0:0:0:
161,154,110190,6,0,L|125:151,4,22,0|0|0|0|2,3:0|3:0|3:0|3:0|0:3,0:0:0:0:
390,156,110708,5,8,0:3:0:0:
386,204,110794,1,8,0:3:0:0:
382,252,110880,1,8,0:3:0:0:
379,300,110966,1,8,0:3:0:0:
375,349,111053,2,0,P|341:338|311:335,1,48.4000014770508,4|8,0:3|0:3,0:0:0:0:
228,347,111225,2,0,P|204:342|181:334,1,48.4000014770508,4|4,0:3|0:3,0:0:0:0:
37,247,111397,6,0,B|77:249|105:220|105:220|77:339,1,198.000007553101,6|0,0:0|0:0,0:0:0:0:
43,162,111742,2,0,P|71:144|104:136,1,66.0000025177003,8|0,0:0|0:0,0:0:0:0:
209,229,111915,1,0,0:0:0:0:
209,229,112001,6,0,B|260:219|260:219|292:234|292:234|369:225,1,158.399995166016,2|0,0:0|0:0,0:0:0:0:
423,95,112259,2,0,B|429:147|429:147|418:171|418:171|435:190|435:190|443:252,1,158.399995166016,0|8,0:0|0:0,0:0:0:0:
300,107,112604,6,0,L|305:150,1,44
234,307,112777,6,0,B|283:348|215:419|136:339|211:223,1,237.599992749024,2|0,0:0|0:0,0:0:0:0:
306,151,113121,2,0,B|266:168|266:168|225:141|170:150,1,132.000005035401,8|0,0:0|0:0,0:0:0:0:
51,189,113380,6,0,B|108:175|108:104|108:104|90:114,1,132.000005035401,2|0,0:0|0:0,0:0:0:0:
35,44,113639,6,0,P|42:75|61:102,1,66.0000025177003,2|0,0:0|0:0,0:0:0:0:
180,48,113811,6,0,B|225:47|255:34|255:34|296:62|296:62|321:41|321:41|379:28|438:59,1,264,8|0,0:0|0:0,0:0:0:0:
357,248,114156,6,0,B|311:180|371:122|371:122|403:145|396:177,1,198.000007553101,2|0,0:0|0:0,0:0:0:0:
432,278,114501,2,0,P|412:307|377:326,1,66.0000025177003,8|0,0:0|0:0,0:0:0:0:
262,263,114673,1,0,0:0:0:0:
262,263,114759,6,0,B|228:260|200:276|200:276|180:257|180:257|156:292|110:284,1,158.399995166016,2|0,0:0|0:0,0:0:0:0:
78,144,115018,2,0,P|102:175|117:212,1,79.1999975830079
174,54,115190,6,0,P|269:73|191:134,1,237.599992749024,8|0,0:0|0:0,0:0:0:0:
341,32,115535,6,0,B|363:81|346:131|346:131|372:162|372:162|344:207|371:257,1,237.599992749024,2|0,0:0|0:0,0:0:0:0:
486,301,115880,2,0,B|414:291|436:346|365:334,1,132.000005035401,8|0,0:0|0:0,0:0:0:0:
237,266,116139,6,0,B|247:256|256:240|256:240|299:276|286:329,1,132.000005035401,2|0,0:0|0:0,0:0:0:0:
160,269,116397,2,0,P|166:239|187:207,1,66.0000025177003,2|0,0:0|0:0,0:0:0:0:
272,81,116570,6,2,L|275:130,1,39.5999987915039,8|0,0:0|0:0,0:1:0:0:
192,185,116915,6,0,B|151:172|135:135|135:135|120:206|53:206,1,198.000007553101,2|0,0:0|0:0,0:0:0:0:
29,65,117259,2,0,L|52:131,1,66.0000025177003,8|0,0:0|0:0,0:0:0:0:
81,291,117432,1,0,0:0:0:0:
81,291,117518,6,0,B|127:287|127:287|157:302|157:302|182:281|182:281|236:277,1,158.399995166016,2|0,0:0|0:0,0:0:0:0:
352,254,117777,2,0,B|307:229|307:229|329:334,1,158.399995166016,0|8,0:0|0:0,0:0:0:0:
455,202,118121,6,0,L|441:245,1,44
468,119,118294,6,0,B|407:108|372:171|372:171|319:142|319:142|286:138|256:155,1,237.599992749024,2|0,0:0|0:0,0:0:0:0:
197,51,118639,2,0,B|186:79|186:79|195:108|195:108|176:142|189:180,1,132.000005035401,8|0,0:0|0:0,0:0:0:0:
204,304,118897,6,0,B|233:308|263:298|263:298|284:261|336:264,1,132.000005035401,2|0,0:0|0:0,0:0:0:0:
400,306,119156,2,0,P|366:302|337:288,1,66.0000025177003,2|0,0:0|0:0,0:0:0:0:
506,101,119328,6,0,B|498:173|498:173|471:209|471:209|489:244|489:244|475:368,1,264,8|0,0:0|0:0,0:0:0:0:
331,171,119673,6,0,B|242:164|274:239|176:213|176:213|206:190,1,198.000007553101,2|0,0:0|0:0,0:0:0:0:
296,26,120018,2,0,L|301:97,1,66.0000025177003,8|0,0:0|0:0,0:0:0:0:
325,257,120190,1,0,0:0:0:0:
325,257,120277,1,2,0:0:0:0:
325,257,120363,6,0,P|321:307|299:343,1,79.1999975830079
130,168,120535,2,0,L|221:177,1,79.1999975830079
109,306,120708,6,0,L|14:294,1,88,8|0,0:0|0:0,0:0:0:0:
135,83,120880,2,0,P|142:124|129:167,1,88
217,17,121053,6,0,B|263:0|299:24|299:24|320:7|320:7|367:1|412:27,1,198.000007553101,2|0,0:0|0:0,0:0:0:0:
489,58,121397,1,8,0:0:0:0:
482,72,121483,1,0,0:0:0:0:
472,85,121569,1,0,0:0:0:0:
382,109,121656,6,0,B|372:157|372:157|389:190|389:190|374:250,1,132.000005035401,2|0,0:0|0:0,0:0:0:0:
478,315,121915,2,0,P|446:306|413:303,1,66.0000025177003,2|0,0:0|0:0,0:0:0:0:
256,136,122087,5,8,0:0:0:0:
235,200,122173,5,0,0:0:0:0:
253,253,122259,5,0,0:0:0:0:
238,291,122346,5,0,0:0:0:0:
181,349,122432,6,0,B|130:304|64:332|64:332|94:307|96:261,1,198.000007553101,2|0,0:0|0:0,0:0:0:0:
41,137,122777,2,0,P|34:171|34:208,1,66.0000025177003,8|0,0:0|0:0,0:0:0:0:
145,94,122949,1,0,0:0:0:0:
145,94,123035,6,0,B|183:75|183:75|213:92|213:92|249:66|293:84,1,158.399995166016,2|0,0:0|0:0,0:0:0:0:
386,27,123294,2,0,B|379:68|379:68|389:100|389:100|370:125|370:125|360:188,1,158.399995166016,0|8,0:0|0:0,0:0:0:0:
498,289,123639,6,0,P|473:277|443:270,1,44
307,307,123811,6,0,B|261:333|261:333|231:204|231:204|280:238,1,237.599992749024,2|0,0:0|0:0,0:0:0:0:
177,319,124156,2,0,B|138:288|77:310|77:310|92:293|104:261,1,132.000005035401,8|0,0:0|0:0,0:0:0:0:
228,126,124415,6,0,P|173:157|157:220,1,132.000005035401,2|0,0:0|0:0,0:0:0:0:
46,106,124673,6,0,P|71:135|86:163,1,66.0000025177003,2|0,0:0|0:0,0:0:0:0:
232,36,124846,6,0,B|295:69|295:69|346:38|346:38|382:62|382:62|418:52|418:52|460:63,1,237.599992749024,8|0,0:0|0:0,0:0:0:0:
497,242,125190,6,0,B|448:247|448:247|411:226|411:226|357:229|357:229|395:181,1,198.000007553101,2|0,0:0|0:0,0:0:0:0:
251,163,125535,2,0,B|285:152|285:152|312:163,1,66.0000025177003,8|0,0:0|0:0,0:0:0:0:
193,325,125708,5,0,0:0:0:0:
193,325,125794,2,0,B|213:331|224:346|224:346|245:265|183:222,1,158.399995166016,2|0,0:0|0:0,0:0:0:0:
100,210,126053,2,0,P|112:182|147:146,1,79.1999975830079
355,109,126225,6,0,B|320:134|320:134|311:197|311:197|324:231|324:231|320:285|320:285|365:259,1,237.599992749024,8|0,0:0|0:0,0:0:0:0:
419,50,126570,6,0,B|388:16|326:11|291:52|291:52|269:5|215:6,1,237.599992749024,2|0,0:0|0:0,0:0:0:0:
130,125,126915,6,0,B|171:112|211:129|211:129|211:105|221:79,1,132.000005035401,8|0,0:0|0:0,0:0:0:0:
41,46,127173,6,0,B|61:77|61:77|44:176,1,132.000005035401,2|0,0:0|0:0,0:0:0:0:
181,226,127432,2,0,P|150:217|117:212,1,66.0000025177003,2|0,0:0|0:0,0:0:0:0:
34,296,127604,6,2,P|53:291|72:285,1,39.5999987915039,8|0,0:0|0:0,0:1:0:0:
265,264,127949,6,0,B|312:282|312:282|293:344|223:353|178:305,1,198.000007553101,2|0,0:0|0:0,0:0:0:0:
158,166,128294,2,0,P|176:200|182:232,1,66.0000025177003,8|0,0:0|0:0,0:0:0:0:
92,87,128466,1,0,0:0:0:0:
92,87,128553,6,0,B|138:96|166:63|166:63|191:102|243:107,1,158.399995166016,2|0,0:0|0:0,0:0:0:0:
397,60,128811,2,0,B|332:11|332:11|301:86,1,158.399995166016,0|8,0:0|0:0,0:0:0:0:
445,303,129156,6,0,L|454:260,1,44
443,146,129328,6,0,B|410:166|371:161|371:161|370:190|351:209|351:209|296:183|231:215,1,237.599992749024,2|0,0:0|0:0,0:0:0:0:
110,261,129673,2,0,B|134:287|134:287|163:244|157:194,1,132.000005035401,8|0,0:0|0:0,0:0:0:0:
43,134,129932,6,0,P|14:180|68:183,1,132.000005035401,2|0,0:0|0:0,0:0:0:0:
94,63,130190,2,0,P|61:49|27:51,1,66.0000025177003,2|0,0:0|0:0,0:0:0:0:
214,121,130363,6,0,B|313:169|404:98|323:10|289:74,1,237.599992749024,8|0,0:0|0:0,0:0:0:0:
132,141,130708,6,0,B|150:183|150:183|191:203|191:203|209:255|175:313,1,198.000007553101,2|0,0:0|0:0,0:0:0:0:
293,224,131053,2,0,P|325:214|357:209,2,66.0000025177003,8|0|0,0:0|0:0|0:0,0:0:0:0:
338,361,131311,1,2,0:0:0:0:
356,362,131397,6,0,L|342:278,1,74.8000014266968,8|0,0:0|0:0,0:0:0:0:
122,251,131570,6,0,L|136:161,1,79.1999975830079,2|0,0:0|0:0,0:0:0:0:
336,208,131742,6,0,L|323:119,1,83.5999977676392,8|0,0:0|0:0,0:0:0:0:
152,88,131915,6,0,L|166:-7,1,88,2|0,0:0|0:0,0:0:0:0:
346,42,132087,5,0,0:0:0:0:
367,48,132259,1,0,0:0:0:0:
388,51,132432,1,0,0:0:0:0:
410,52,132604,1,0,0:0:0:0:
431,51,132777,6,0,L|452:17,1,33.0000012588501
346,127,132949,2,0,L|363:155,1,33.0000012588501
511,215,133121,6,0,P|478:212|445:214,1,66.0000025177003,2|2,0:3|0:3,0:0:0:0:
291,257,133294,2,0,P|258:258|225:256,1,66.0000025177003,2|2,0:3|0:3,0:0:0:0:
83,189,133466,6,0,B|35:184|35:184|107:140|107:140|179:175,1,198.000007553101,6|0,0:0|0:0,0:0:0:0:
291,257,133811,2,0,L|283:333,2,66.0000025177003,8|0|0,0:0|0:0|0:0,0:0:0:0:
339,87,134070,6,0,P|318:160|245:177,1,158.399995166016,2|0,0:0|0:0,0:0:0:0:
200,64,134328,2,0,P|236:76|264:108,1,79.1999975830079
156,288,134501,6,0,B|108:308|108:308|40:268|84:188|84:188|124:240,1,237.599992749024,8|0,0:0|0:0,0:0:0:0:
291,257,134846,6,0,L|332:252,1,33,2|0,0:0|0:0,0:0:0:0:
323,253,135018,6,0,B|327:209|327:209|315:173|315:173|319:117,1,132.000005035401
408,248,135277,6,0,B|412:200|412:200|400:164|400:164|404:108,1,140.8,0|2,0:0|0:0,0:0:0:0:
496,236,135535,6,0,B|500:188|500:188|488:152|488:152|492:88,1,149.600002853394,0|2,0:0|0:0,0:0:0:0:
184,56,135880,6,0,L|192:136,1,74.8000014266968,8|0,0:0|0:0,0:0:0:0:
323,253,136053,2,0,L|315:333,1,74.8000014266968
96,240,136225,6,0,P|172:244|92:296,1,198.000007553101,2|0,0:0|0:0,0:0:0:0:
19,188,136570,2,0,P|19:152|28:123,2,66.0000025177003,8|0|0,0:0|0:0|0:0,0:0:0:0:
184,56,136828,6,0,B|118:60|118:60|92:41|92:41|26:46,1,158.399995166016,2|0,0:0|0:0,0:0:0:0:
191,130,137087,2,0,P|221:122|255:74,1,79.1999975830079
376,10,137259,6,0,B|367:67|367:67|371:91|371:91|357:117|357:117|351:171,1,158.399995166016,8|0,0:0|0:0,0:0:0:0:
221,246,137518,5,0,0:0:0:0:
221,246,137604,2,0,B|256:211|256:211|294:246,1,99.0000037765504,2|0,0:0|0:0,0:0:0:0:
188,321,137949,6,0,P|142:275|144:211,1,132.000005035401,8|0,0:0|0:0,0:0:0:0:
35,186,138208,6,0,P|95:207|152:178,1,132.000005035401,2|0,0:0|0:0,0:0:0:0:
184,56,138466,6,0,B|152:59|152:59|145:62|145:62|136:60|136:60|104:61,1,79.1999975830079,2|0,0:0|0:0,0:0:0:0:
311,49,138639,5,8,0:0:0:0:
89,134,138811,1,0,0:0:0:0:
293,245,138984,6,0,B|366:162|298:75|221:138|295:193,1,198.000007553101,2|0,0:0|0:0,0:0:0:0:
263,325,139328,2,0,L|330:319,2,66.0000025177003,8|0|0,0:0|0:0|0:0,0:0:0:0:
85,243,139587,6,0,B|138:254|168:213|168:213|180:246|214:257,1,158.399995166016,2|0,0:0|0:0,0:0:0:0:
133,93,139846,2,0,P|120:119|103:175,1,79.1999975830079
338,119,140018,6,0,B|320:75|278:51|190:61|178:125|228:188|280:147,1,237.599992749024,8|0,0:0|0:0,0:0:0:0:
364,270,140363,6,0,L|362:238,1,33,2|0,0:0|0:0,0:0:0:0:
358,220,140535,6,0,B|288:276|288:276|276:236,1,132.000005035401
157,122,140794,6,0,B|246:154|246:154|211:185,1,140.8,0|2,0:0|0:0,0:0:0:0:
177,351,141053,6,0,B|160:251|160:251|205:269,1,149.600002853394,0|2,0:0|0:0,0:0:0:0:
405,76,141397,6,0,P|372:71|328:81,1,74.8000014266968,8|0,0:0|0:0,0:0:0:0:
230,118,141570,2,0,P|193:126|156:121,1,74.8000014266968
358,220,141742,6,0,B|401:162|487:171|487:171|459:189|446:228,1,198.000007553101,2|0,0:0|0:0,0:0:0:0:
325,301,142087,2,0,L|348:376,2,66.0000025177003,8|0|0,0:0|0:0|0:0,0:0:0:0:
263,253,142346,6,0,B|238:293|251:330|251:330|217:297|159:297,1,158.399995166016,2|0,0:0|0:0,0:0:0:0:
86,252,142604,2,0,P|75:287|76:330,1,79.1999975830079
168,196,142777,2,0,B|224:183|249:122|249:122|218:87|169:85|169:85|166:124,1,237.599992749024,8|0,0:0|0:0,0:0:0:0:
308,188,143121,6,0,L|362:185,1,44,2|0,0:0|0:0,0:0:0:0:
384,95,143294,2,0,L|330:92,1,44
317,303,143466,6,0,B|372:315|410:280|410:280|417:314|465:333,1,158.399995166016,8|0,0:0|0:0,0:0:0:0:
478,141,143725,2,0,B|503:213|453:194|483:259|483:259|501:248|508:228,1,158.399995166016,2|0,0:0|0:0,0:0:0:0:
339,196,143984,2,0,L|322:118,1,79.1999975830079,2|0,0:0|0:0,0:0:0:0:
194,50,144156,6,0,B|183:38|166:31|166:31|223:12|265:57|265:57|314:25|314:25|377:53,1,264,8|0,0:0|0:0,0:0:0:0:
228,145,144501,6,0,L|232:168,1,19.799999395752
234,180,144673,6,0,L|162:168,1,66.0000025177003
11,213,144846,6,0,B|43:215|64:186|64:186|68:246|117:258,1,158.399995166016,12|0,0:0|0:0,0:0:0:0:
293,271,145104,6,0,B|236:252|196:266|196:266|215:292,1,132.000005035401,2|0,0:0|0:0,0:0:0:0:
375,318,145363,2,0,P|381:278|380:239,1,79.1999975830079
282,90,145535,6,0,B|255:60|255:60|236:182|236:182|327:163,1,237.599992749024,8|0,0:0|0:0,0:0:0:0:
164,42,145880,6,0,L|131:35,1,33,2|0,0:0|0:0,0:0:0:0:
131,35,146053,6,0,B|89:65|89:65|105:144,1,132.000005035401
181,120,146311,6,0,B|138:149|138:149|157:241,1,140.8,0|2,0:0|0:0,0:0:0:0:
230,208,146570,6,0,B|187:237|187:237|207:337,1,149.600002853394,0|2,0:0|0:0,0:0:0:0:
412,69,146915,6,0,L|337:58,1,74.8000014266968,8|0,0:0|0:0,0:0:0:0:
181,120,147087,2,0,L|255:109,1,74.8000014266968
435,56,147259,6,0,B|374:45|374:45|402:204,1,198.000007553101,2|0,0:0|0:0,0:0:0:0:
435,271,147604,2,0,B|403:281|403:281|352:270,2,66.0000025177003,8|0|0,0:0|0:0|0:0,0:0:0:0:
315,196,147863,6,0,B|276:218|276:218|267:289|267:289|301:318,1,158.399995166016,2|0,0:0|0:0,0:0:0:0:
189,280,148121,2,0,L|199:201,1,79.1999975830079
138,59,148294,6,0,B|143:101|122:131|122:131|176:82|246:107|246:107|220:121,1,237.599992749024,8|0,0:0|0:0,0:0:0:0:
347,62,148639,6,0,B|310:54|310:54|335:84|330:117,1,99.0000037765504,2|0,0:0|0:0,0:0:0:0:
313,232,148984,6,0,P|377:230|423:185,1,132.000005035401,8|0,0:0|0:0,0:0:0:0:
485,247,149242,6,0,P|425:222|398:163,1,132.000005035401,2|0,0:0|0:0,0:0:0:0:
363,315,149501,6,0,B|402:333|402:333|444:323,1,79.1999975830079,2|0,0:0|0:0,0:0:0:0:
410,80,149673,1,8,0:0:0:0:
313,232,149846,1,0,0:0:0:0:
224,89,150018,6,0,B|187:84|156:108|156:108|123:109|85:95|85:95|97:124|132:136,1,198.000007553101,2|0,0:0|0:0,0:0:0:0:
207,231,150363,2,0,L|211:158,1,66.0000025177003,8|0,0:0|0:0,0:0:0:0:
12,62,150535,2,0,P|6:94|15:127,1,66.0000025177003
30,291,150708,6,0,B|128:276|128:276|111:304,1,132.000005035401,2|0,0:0|0:0,0:0:0:0:
177,309,150966,2,0,L|107:304,1,66.0000025177003,0|8,0:0|0:0,0:0:0:0:
313,232,151225,1,0,0:0:0:0:
124,108,151397,6,0,P|115:147|114:187,1,79.1999975830079,2|0,0:0|0:0,0:0:0:0:
177,309,151570,2,0,P|208:333|243:350,1,79.1999975830079,2|0,0:0|0:0,0:0:0:0:
257,154,151742,6,0,P|303:140|343:140,1,88,8|0,0:0|0:0,0:0:0:0:
405,334,151915,2,0,P|446:347|490:347,1,88,2|0,0:0|0:0,0:0:0:0:
469,69,152087,5,2,0:0:0:0:
417,71,152173,1,2,0:0:0:0:
371,96,152259,1,2,0:0:0:0:
342,140,152345,1,2,0:0:0:0:
336,192,152431,1,8,0:0:0:0:
69,117,152604,6,0,L|132:124,1,52.7999983886719,2|2,0:0|0:0,0:0:0:0:
217,102,152777,6,0,B|228:142|211:201|158:226|114:224|114:224|141:264|176:338|115:424|24:367|-2:300|50:237|149:265|217:309|236:370|236:370|212:314|228:252|287:206|398:227|410:330|370:362|370:362|346:339|309:330|309:330|464:314|464:314|460:229|403:186|356:171|309:169|309:169|291:127|313:92|313:92|307:30|264:-17|183:-25|119:24|113:75|121:125,1,1807.52004412891,6|0,0:0|0:0,0:0:0:0:
31,109,155104,6,0,B|30:82,2,23.1733338990886
33,132,155190,6,0,L|37:209,4,69.5200016972657,0|0|0|0|6,0:0|0:0|0:0|0:0|0:0,0:0:0:0:
256,192,164587,12,0,166053,0:0:0:0:
343,120,166225,5,0,0:0:0:0:
361,156,166311,1,0,0:0:0:0:
366,195,166397,1,0,0:0:0:0:
358,233,166483,1,0,0:0:0:0:
338,267,166570,6,0,L|206:260,1,132.000005035401,12|8,0:0|0:0,0:0:0:0:
173,116,167259,2,0,L|306:124,1,132.000005035401,8|8,0:0|0:0,0:0:0:0:
97,166,167949,6,0,P|84:102|114:45,1,132.000005035401,8|8,0:0|0:0,0:0:0:0:
414,217,168639,2,0,P|427:281|397:338,1,132.000005035401,8|8,0:0|0:0,0:0:0:0:
180,274,169328,6,0,L|188:142,1,132.000005035401,8|8,0:0|0:0,0:0:0:0:
331,109,170018,2,0,L|324:242,1,132.000005035401,8|8,0:0|0:0,0:0:0:0:
281,33,170708,6,0,P|345:20|402:50,1,132.000005035401,8|8,0:0|0:0,0:0:0:0:
230,350,171397,2,0,P|166:363|109:333,1,132.000005035401,8|8,0:0|0:0,0:0:0:0:
100,93,172087,6,0,L|214:100,1,99.0000037765504,12|8,0:0|0:0,0:0:0:0:
409,201,172604,1,8,0:0:0:0:
412,291,172777,6,0,L|298:284,1,99.0000037765504,8|8,0:0|0:0,0:0:0:0:
103,183,173294,1,8,0:0:0:0:
155,111,173466,6,0,P|185:149|189:197,1,99.0000037765504,8|8,0:0|0:0,0:0:0:0:
440,65,173984,1,8,0:0:0:0:
356,111,174156,6,0,P|326:149|322:197,1,99.0000037765504,8|8,0:0|0:0,0:0:0:0:
72,65,174673,1,8,0:0:0:0:
256,112,174846,5,8,0:0:0:0:
300,28,175018,1,8,0:0:0:0:
322,197,175190,5,8,0:0:0:0:
212,28,175363,1,8,0:0:0:0:
190,197,175535,5,8,0:0:0:0:
356,111,175708,1,8,0:0:0:0:
256,308,175880,5,8,0:0:0:0:
156,111,176053,1,8,0:0:0:0:
396,24,176225,5,8,0:0:0:0:
431,52,176311,1,8,0:0:0:0:
449,93,176397,1,8,0:0:0:0:
446,138,176483,1,8,0:0:0:0:
424,176,176569,1,8,0:0:0:0:
386,201,176656,1,8,0:0:0:0:
341,205,176742,1,8,0:0:0:0:
300,188,176828,1,8,0:0:0:0:
256,180,176915,5,8,0:0:0:0:
211,188,177001,1,8,0:0:0:0:
170,205,177087,1,8,0:0:0:0:
125,201,177173,1,8,0:0:0:0:
87,176,177260,1,8,0:0:0:0:
65,138,177346,1,8,0:0:0:0:
62,93,177432,1,8,0:0:0:0:
80,52,177518,1,8,0:0:0:0:
116,24,177604,6,0,L|148:10,2,33.0000012588501
87,176,177949,2,0,L|96:260,1,66.0000025177003,2|0,0:3|0:0,0:0:0:0:
208,65,178294,6,0,L|240:51,2,33.0000012588501,0|0|2,0:0|0:0|0:3,0:0:0:0:
175,192,178639,2,0,L|183:275,1,66.0000025177003
296,111,178984,6,0,L|328:97,2,33.0000012588501,2|0|0,0:3|0:0|0:0,0:0:0:0:
268,206,179329,2,0,L|276:289,1,66.0000025177003,0|2,0:0|0:3,0:0:0:0:
462,196,179673,5,8,0:0:0:0:
409,201,179759,1,8,0:0:0:0:
397,253,179845,1,8,0:3:0:0:
443,280,179932,1,0,0:0:0:0:
483,244,180018,6,0,L|486:184,1,52.7999983886719,8|0,0:0|0:0,0:0:0:0:
512,33,180190,6,0,P|472:50|447:54,1,61.5999981201172,8|4,0:3|0:3,0:0:0:0:
307,31,180363,6,0,B|236:28|236:28|196:63|196:63|112:59,1,198.000007553101,4|0,1:2|0:0,0:0:0:0:
24,36,180708,2,0,B|40:69|40:69|26:106,1,66.0000025177003,10|0,0:0|0:0,0:0:0:0:
166,212,180880,1,2,0:0:0:0:
179,202,180966,2,0,P|120:174|57:187,1,132.000005035401,0|0,1:2|0:0,0:0:0:0:
105,334,181225,2,0,L|112:257,1,66.0000025177003,2|0,0:0|0:0,0:0:0:0:
275,175,181397,2,0,B|315:209|315:209|288:303|288:303|244:270,1,198.000007553101,10|0,0:0|0:0,0:0:0:0:
179,202,181742,6,0,P|175:170|180:136,1,66.0000025177003,0|0,1:0|0:0,0:0:0:0:
314,48,181915,1,2,0:0:0:0:
314,48,182001,1,2,0:0:0:0:
314,48,182087,2,0,P|288:67|256:80,1,66.0000025177003,8|0,0:0|0:0,0:0:0:0:
114,10,182259,1,2,0:0:0:0:
114,10,182345,2,0,P|143:22|170:43,1,66.0000025177003,0|0,1:0|0:0,0:0:0:0:
323,178,182604,5,0,1:0:0:0:
43,131,182777,1,8,0:0:0:0:
323,178,182949,1,2,0:0:0:0:
116,321,183121,6,0,B|50:263|103:191|103:191|149:216,1,198.000007553101,2|0,1:2|0:0,0:0:0:0:
261,294,183466,2,0,L|195:286,1,66.0000025177003,8|0,0:0|0:0,0:0:0:0:
323,178,183639,1,2,0:0:0:0:
338,189,183725,2,0,B|328:139|328:139|341:108|341:108|332:43,1,132.000005035401,0|0,1:0|0:0,0:0:0:0:
167,80,183984,2,0,P|198:90|230:93,1,66.0000025177003,2|0,0:0|0:0,0:0:0:0:
453,69,184156,2,0,P|431:149|511:131,1,198.000007553101,8|0,0:0|0:0,0:0:0:0:
511,130,184501,6,0,B|521:204,1,66.0000025177003,0|0,1:0|0:0,0:0:0:0:
420,337,184673,6,0,B|423:300|423:300|426:294|426:294|424:288|424:288|427:242,1,88,2|0,0:0|0:0,0:0:0:0:
321,95,184846,6,0,B|334:173|334:173|295:220,1,132.000005035401,8|0,0:0|0:0,0:0:0:0:
157,249,185104,6,0,B|189:233|231:244|231:244|244:273|281:285,1,132.000005035401,2|0,1:2|0:0,0:0:0:0:
248,147,185363,2,0,P|217:142|166:142,1,66.0000025177003,0|0,1:0|0:0,0:0:0:0:
42,134,185535,2,0,B|76:157|76:157|102:37|102:37|59:62,1,198.000007553101,10|0,0:0|0:0,0:0:0:0:
72,54,185880,6,0,B|134:42|134:42|179:57|179:57|214:44|214:44|264:41,1,198.000007553101,2|0,1:2|0:0,0:0:0:0:
383,87,186225,2,0,P|360:38|410:54,1,132.000005035401,8|0,0:0|0:0,0:0:0:0:
295,132,186484,1,0,1:0:0:0:
295,132,186570,2,0,P|297:165|305:204,1,66.0000025177003,2|0,0:0|0:0,0:0:0:0:
459,116,186742,2,0,P|455:150|449:183,1,66.0000025177003
351,307,186915,2,0,P|287:291|223:303,1,132.000005035401,10|0,0:0|0:0,0:0:0:0:
84,258,187259,6,0,B|113:264|147:235|147:235|102:302|140:361,1,198.000007553101,2|0,1:2|0:0,0:0:0:0:
90,177,187604,2,0,P|101:143|106:113,1,66.0000025177003,8|0,0:0|0:0,0:0:0:0:
35,36,187777,1,0,0:0:0:0:
35,36,187863,2,0,L|171:21,1,132.000005035401,2|0,1:2|0:0,0:0:0:0:
277,114,188121,2,0,L|204:106,1,66.0000025177003,0|0,1:0|0:0,0:0:0:0:
367,27,188294,2,0,B|421:46|421:46|439:131|439:131|376:171,1,198.000007553101,8|0,0:0|0:0,0:0:0:0:
242,213,188639,6,0,B|347:186|329:279|441:238,1,198.000007553101,4|0,1:2|0:0,0:0:0:0:
293,350,188984,2,0,P|284:318|279:285,1,66.0000025177003,8|0,0:0|0:0,0:0:0:0:
276,21,189156,5,2,0:0:0:0:
308,30,189242,1,2,1:2:0:0:
339,23,189328,5,2,0:0:0:0:
336,72,189414,1,2,0:0:0:0:
308,112,189500,1,2,0:0:0:0:
263,131,189586,1,2,0:0:0:0:
214,123,189673,5,10,0:0:0:0:
244,110,189759,1,2,0:0:0:0:
277,114,189845,1,2,0:0:0:0:
303,133,189931,1,2,0:0:0:0:
316,160,190018,6,0,P|360:172|404:176,1,88.0000033569337,0|0,1:2|0:0,0:0:0:0:
292,324,190248,2,0,B|292:281|292:281|275:227,1,88.0000033569337,2|8,0:0|0:0,0:0:0:0:
219,104,190478,2,0,P|184:130|166:170,1,88.0000033569337,2|0,0:2|1:0,0:0:0:0:
377,356,190708,6,0,L|381:288,1,66.0000025177003,2|0,0:0|0:0,0:0:0:0:
184,300,190880,6,0,P|149:293|110:290,1,70.4,0|0,1:0|0:0,0:0:0:0:
338,199,191053,6,0,P|376:192|421:188,1,74.8000014266968,10|0,0:0|0:0,0:0:0:0:
183,82,191225,6,0,B|144:72|105:73,1,79.1999975830079,2|0,0:2|0:0,0:0:0:0:
386,10,191397,6,0,P|404:88|309:55,1,198.000007553101,4|0,1:2|0:0,0:0:0:0:
188,0,191742,2,0,L|195:67,1,66.0000025177003,10|0,0:0|0:0,0:0:0:0:
82,207,191915,1,2,0:0:0:0:
69,197,192001,2,0,B|123:154|123:154|191:182,1,132.000005035401,2|0,1:2|0:0,0:0:0:0:
338,199,192259,2,0,B|304:194|304:194|268:228,1,66.0000025177003,2|0,0:0|0:0,0:0:0:0:
186,345,192432,2,0,B|140:351|140:351|131:293|150:246|150:246|200:266,1,198.000007553101,8|0,0:0|0:0,0:0:0:0:
303,300,192777,6,0,P|342:297|373:281,1,66.0000025177003,0|0,1:2|0:0,0:0:0:0:
229,115,192949,1,2,0:0:0:0:
229,115,193035,1,2,0:0:0:0:
229,115,193121,2,0,P|212:150|210:185,1,66.0000025177003,8|0,0:2|0:0,0:0:0:0:
410,141,193294,1,2,0:0:0:0:
410,141,193380,2,0,P|387:108|358:89,1,66.0000025177003,0|0,1:2|0:0,0:0:0:0:
191,262,193639,5,0,1:0:0:0:
220,27,193812,1,8,0:0:0:0:
379,213,193984,1,2,0:0:0:0:
199,127,194156,6,0,B|136:83|76:123|76:123|105:61,1,198.000007553101,2|0,1:2|0:0,0:0:0:0:
316,24,194501,2,0,L|299:88,1,66.0000025177003,8|0,0:0|0:0,0:0:0:0:
364,202,194674,1,2,0:0:0:0:
379,213,194760,2,0,B|522:199,1,132.000005035401,0|0,1:0|0:0,0:0:0:0:
323,307,195019,2,0,P|290:304|258:294,1,66.0000025177003,2|0,0:0|0:0,0:0:0:0:
172,147,195191,2,0,B|179:218|179:218|160:257|160:257|172:361,1,198.000007553101,8|0,0:0|0:0,0:0:0:0:
4,192,195535,6,0,P|35:201|66:212,1,66.0000025177003,0|0,1:0|0:0,0:0:0:0:
106,78,195708,6,0,P|91:48|64:0,1,88,2|0,0:0|0:0,0:0:0:0:
304,0,195880,6,0,P|286:63|266:126,1,132.000005035401,8|0,0:0|0:0,0:0:0:0:
163,257,196138,6,0,B|197:252|218:228|218:228|255:245|292:235,1,132.000005035401,2|0,1:2|0:0,0:0:0:0:
388,232,196397,2,0,L|362:148,1,66.0000025177003,0|0,1:0|0:0,0:0:0:0:
492,78,196570,2,0,B|435:79|435:79|481:224,1,198.000007553101,10|0,0:0|0:0,0:0:0:0:
476,314,196915,6,0,B|426:304|391:330|391:330|346:315|346:315|284:327,1,198.000007553101,2|0,1:2|0:0,0:0:0:0:
177,355,197260,2,0,B|141:328|141:328|150:239,1,132.000005035401,8|0,0:0|0:0,0:0:0:0:
186,141,197519,1,0,1:0:0:0:
186,141,197605,2,0,P|152:140|113:145,1,66.0000025177003,2|0,0:0|0:0,0:0:0:0:
284,236,197777,2,0,P|316:234|349:230,1,66.0000025177003
269,16,197950,2,0,P|290:84|301:147,1,132.000005035401,10|0,0:0|0:0,0:0:0:0:
504,106,198294,6,0,B|450:137|385:91|385:91|374:127|396:158,1,198.000007553101,2|0,1:2|0:0,0:0:0:0:
462,269,198639,2,0,P|473:235|478:205,1,66.0000025177003,8|0,0:0|0:0,0:0:0:0:
354,280,198812,1,0,0:0:0:0:
354,280,198898,2,0,B|277:258|304:316|225:295,1,132.000005035401,2|0,1:2|0:0,0:0:0:0:
234,145,199156,2,0,P|241:181|247:218,1,66.0000025177003,0|0,1:0|0:0,0:0:0:0:
122,292,199329,2,0,B|70:229|120:161|120:161|152:179|148:213,1,198.000007553101,8|0,0:0|0:0,0:0:0:0:
228,295,199673,5,12,0:0:0:0:
331,118,199846,1,0,1:0:0:0:
220,312,200018,5,8,0:0:0:0:
338,99,200190,1,0,1:0:0:0:
324,305,200363,5,8,0:0:0:0:
206,101,200536,1,0,1:0:0:0:
332,323,200708,5,8,0:0:0:0:
197,80,200880,1,0,1:0:0:0:
390,179,201053,6,0,P|351:190|312:189,1,79.1999975830079,8|2,0:0|0:0,0:0:0:0:
268,35,201225,2,0,P|307:33|345:44,1,79.1999975830079,2|2,0:0|0:0,0:0:0:0:
278,281,201397,6,0,P|242:259|217:225,1,83.5999977676392,8|2,0:0|0:0,0:0:0:0:
274,22,201570,2,0,P|305:49|324:86,1,83.5999977676392,2|2,0:0|0:0,0:0:0:0:
124,272,201742,6,0,P|114:231|120:185,1,88,8|2,0:0|0:0,0:0:0:0:
276,10,201915,2,0,P|278:51|264:94,1,88,2|2,0:0|0:0,0:0:0:0:
44,88,202087,6,0,L|91:85,1,39.5999987915039,8|0,0:0|0:0,0:0:0:0:
256,192,202432,5,4,1:2:0:0:
36,244,202604,6,0,L|39:309,1,66.0000025177003,2|0,0:0|0:0,0:0:0:0:
136,263,202777,2,0,L|139:328,1,66.0000025177003,8|0,0:0|0:0,0:0:0:0:
234,281,202949,2,0,L|237:346,1,66.0000025177003,2|0,0:0|1:0,0:0:0:0:
256,192,203121,5,0,0:2:0:0:
36,140,203294,6,0,L|39:75,1,66.0000025177003,2|0,0:0|0:0,0:0:0:0:
136,121,203467,2,0,L|139:56,1,66.0000025177003,8|0,0:0|0:0,0:0:0:0:
234,103,203639,2,0,L|237:38,1,66.0000025177003,2|0,0:0|0:0,0:0:0:0:
256,192,203811,5,0,1:0:0:0:
509,317,203984,6,0,P|513:284|508:252,1,66.0000025177003,2|2,0:0|0:0,0:0:0:0:
423,291,204156,2,0,P|402:265|376:246,1,66.0000025177003,8|0,0:0|0:0,0:0:0:0:
339,339,204328,2,0,P|306:335|274:341,1,66.0000025177003,2|0,0:0|1:0,0:0:0:0:
256,192,204501,5,0,0:0:0:0:
509,66,204673,6,0,P|513:99|508:132,1,66.0000025177003,2|0,0:0|0:0,0:0:0:0:
423,92,204845,2,0,P|402:118|376:138,1,66.0000025177003,8|0,0:0|0:0,0:0:0:0:
339,44,205017,2,0,P|306:48|274:43,1,66.0000025177003,2|0,0:0|0:0,0:0:0:0:
256,192,205190,5,4,1:2:0:0:
96,344,205363,6,0,L|88:278,1,66.0000025177003,2|0,0:0|0:0,0:0:0:0:
140,196,205535,2,0,L|132:122,1,66.0000025177003,8|0,0:0|0:0,0:0:0:0:
48,80,205708,2,0,L|40:6,1,66.0000025177003,2|0,0:0|1:0,0:0:0:0:
256,192,205880,5,0,0:0:0:0:
470,14,206053,6,0,L|464:80,1,66.0000025177003,2|0,0:0|0:0,0:0:0:0:
378,130,206225,2,0,L|372:196,1,66.0000025177003,8|0,0:0|0:0,0:0:0:0:
423,278,206398,2,0,L|416:344,1,66.0000025177003,2|0,0:0|0:0,0:0:0:0:
256,192,206570,5,0,1:0:0:0:
136,40,206742,6,0,L|204:44,1,66.0000025177003,2|0,0:0|0:0,0:0:0:0:
140,196,206915,2,0,L|72:192,1,66.0000025177003,8|0,0:0|0:0,0:0:0:0:
288,100,207087,2,0,L|356:104,1,66.0000025177003,2|0,0:0|1:0,0:0:0:0:
256,192,207259,5,0,0:0:0:0:
437,191,207432,6,0,L|372:188,1,66.0000025177003,2|0,0:0|0:0,0:0:0:0:
158,280,207604,2,0,L|224:284,1,66.0000025177003,8|0,0:0|0:0,0:0:0:0:
376,344,207777,2,0,L|310:340,1,66.0000025177003,2|0,0:0|0:0,0:0:0:0:
213,123,207949,6,0,L|221:191,1,66.0000025177003,4|0,1:2|0:0,0:0:0:0:
310,340,208121,2,0,L|317:274,1,66.0000025177003,2|0,0:2|0:0,0:0:0:0:
158,280,208294,2,0,L|81:278,1,66.0000025177003,8|0,0:0|0:0,0:0:0:0:
77,68,208466,1,2,0:0:0:0:
89,60,208553,2,0,L|74:191,1,132.000005035401,0|0,1:0|0:0,0:0:0:0:
192,152,208811,6,0,L|256:140,1,66.0000025177003,2|0,0:0|0:0,0:0:0:0:
252,262,208984,2,0,L|316:274,1,66.0000025177003,8|0,0:0|0:0,0:0:0:0:
340,121,209156,2,0,L|404:109,1,66.0000025177003,2|0,0:0|0:0,0:0:0:0:
440,311,209328,6,0,P|431:280|428:247,1,66.0000025177003,2|0,1:2|0:0,0:0:0:0:
417,44,209501,2,0,P|414:76|404:108,1,66.0000025177003,2|0,0:0|0:0,0:0:0:0:
316,273,209673,2,0,P|324:242|339:212,1,66.0000025177003,8|0,0:0|0:0,0:0:0:0:
286,55,209846,1,2,0:0:0:0:
271,64,209932,2,0,L|126:81,1,132.000005035401,0|0,1:0|0:0,0:0:0:0:
43,49,210190,6,0,P|38:82|45:114,1,66.0000025177003,2|0,1:2|0:0,0:0:0:0:
231,200,210363,2,0,P|204:180|173:169,1,66.0000025177003,8|0,0:0|0:0,0:0:0:0:
20,282,210535,2,0,P|50:269|75:247,1,66.0000025177003,2|0,0:0|0:0,0:0:0:0:
258,274,210708,6,0,B|213:292|176:256|176:256|161:283|134:296,1,132.000005035401,2|0,1:2|0:0,0:0:0:0:
194,356,210966,2,0,L|271:358,1,66.0000025177003,2|8,0:0|0:0,0:0:0:0:
355,189,211225,1,2,0:0:0:0:
366,174,211311,6,0,B|374:230|374:230|355:274|355:274|372:351,1,158.399995166016,0|0,1:0|0:0,0:0:0:0:
503,262,211570,2,0,P|469:270|434:283,1,66.0000025177003,2|0,0:0|0:0,0:0:0:0:
351,89,211742,2,0,P|385:97|420:110,1,66.0000025177003,8|0,0:0|0:0,0:0:0:0:
283,243,211915,2,0,P|249:251|214:264,1,66.0000025177003,2|0,0:0|0:0,0:0:0:0:
50,135,212087,6,0,P|67:51|135:102,1,198.000007553101,2|0,1:2|0:0,0:0:0:0:
136,182,212432,1,8,0:0:0:0:
136,182,212547,2,0,L|122:276,1,88.0000033569337,2|0,0:0|1:0,0:0:0:0:
225,116,212777,6,0,B|290:97|290:97|354:120,1,132.000005035401,2|0,0:0|1:0,0:0:0:0:
293,325,213121,2,0,B|259:344|243:378|243:378|199:324|222:250,1,198.000007553101,8|0,0:0|0:0,0:0:0:0:
256,192,213466,5,4,1:2:0:0:
3,76,213639,6,0,P|-5:107|-1:140,1,66.0000025177003,2|0,0:0|0:0,0:0:0:0:
97,218,213811,2,0,P|129:211|155:191,1,66.0000025177003,8|0,0:0|0:0,0:0:0:0:
171,63,213984,2,0,P|148:39|118:27,1,66.0000025177003,2|0,0:0|1:0,0:0:0:0:
256,192,214156,5,0,0:0:0:0:
340,63,214328,6,0,P|363:39|393:27,1,66.0000025177003,2|0,0:0|0:0,0:0:0:0:
508,76,214501,2,0,P|517:107|513:140,1,66.0000025177003,8|0,0:0|0:0,0:0:0:0:
414,218,214673,2,0,P|382:211|356:191,1,66.0000025177003,2|0,0:0|0:0,0:0:0:0:
256,192,214846,5,0,1:0:0:0:
116,352,215018,6,0,P|87:335|67:309,1,66.0000025177003,2|2,0:0|0:0,0:0:0:0:
165,197,215190,2,0,P|164:229|152:260,1,66.0000025177003,8|0,0:0|0:0,0:0:0:0:
3,228,215362,2,0,P|31:211|64:207,1,66.0000025177003,2|0,0:0|1:0,0:0:0:0:
256,192,215535,5,0,0:0:0:0:
396,352,215708,6,0,P|424:335|444:309,1,66.0000025177003,2|0,1:2|0:0,0:0:0:0:
347,197,215880,2,0,P|347:229|359:260,1,66.0000025177003,8|0,0:0|0:0,0:0:0:0:
508,228,216052,2,0,P|479:211|446:207,1,66.0000025177003,2|0,0:0|0:0,0:0:0:0:
256,192,216225,5,4,1:2:0:0:
460,48,216397,6,0,P|428:44|392:48,1,66.0000025177003,2|0,0:0|0:0,0:0:0:0:
289,96,216570,2,0,P|256:100|224:96,1,66.0000025177003,8|0,0:0|0:0,0:0:0:0:
117,47,216742,2,0,P|84:43|52:48,1,66.0000025177003,2|0,0:0|1:0,0:0:0:0:
256,192,216915,5,0,0:0:0:0:
52,336,217087,6,0,P|84:340|120:336,1,66.0000025177003,2|0,0:0|0:0,0:0:0:0:
222,287,217260,2,0,P|255:283|288:288,1,66.0000025177003,8|0,0:0|0:0,0:0:0:0:
394,336,217432,2,0,P|427:340|460:336,1,66.0000025177003,2|0,0:0|0:0,0:0:0:0:
256,192,217604,5,0,0:0:0:0:
456,176,217777,6,0,P|455:208|447:240,1,66.0000025177003,2|2,0:0|0:0,0:0:0:0:
256,76,217949,2,0,P|248:44|247:11,1,66.0000025177003,8|0,0:0|0:0,0:0:0:0:
303,288,218121,2,0,P|303:320|295:352,1,66.0000025177003,2|0,0:0|1:1,0:0:0:0:
256,192,218294,5,0,0:0:0:0:
64,240,218466,6,0,P|56:208|55:175,1,66.0000025177003,2|0,0:0|0:0,0:0:0:0:
264,11,218638,2,0,P|263:44|256:76,1,66.0000025177003,8|0,0:0|0:0,0:0:0:0:
216,352,218810,2,0,P|208:320|207:287,1,66.0000025177003,2|0,0:0|0:1,0:0:0:0:
368,84,218984,5,6,0:0:0:0:
132,196,219156,1,2,0:0:0:0:
368,194,219328,5,8,0:0:0:0:
128,164,219500,1,2,0:0:0:0:
284,265,219673,5,2,0:0:0:0:
124,136,219845,1,2,0:0:0:0:
164,368,220018,1,8,0:0:0:0:
169,335,220104,1,2,0:0:0:0:
175,303,220190,1,2,0:0:0:0:
264,60,220363,5,6,0:0:0:0:
436,216,220535,1,2,0:0:0:0:
224,176,220707,5,8,0:0:0:0:
456,208,220879,1,2,0:0:0:0:
260,284,221052,5,2,0:0:0:0:
472,200,221224,1,2,0:0:0:0:
264,60,221397,1,8,0:0:0:0:
231,54,221483,1,2,0:0:0:0:
199,48,221569,1,2,0:0:0:0:
218,315,221742,5,12,0:0:0:0:
294,69,221915,1,2,0:0:0:0:
142,252,222087,5,8,0:0:0:0:
369,131,222260,1,2,0:0:0:0:
120,150,222432,5,8,0:0:0:0:
391,233,222605,1,2,0:0:0:0:
120,150,222777,5,8,0:0:0:0:
391,233,222950,1,2,0:0:0:0:
142,252,223121,6,0,P|102:247|63:239,1,79.1999975830079,8|2,0:0|0:0,0:0:0:0:
369,131,223294,2,0,P|409:136|448:144,1,79.1999975830079,2|2,0:0|0:0,0:0:0:0:
153,160,223466,6,0,P|127:127|113:88,1,83.5999977676392,8|2,0:0|0:0,0:0:0:0:
358,223,223639,2,0,P|384:256|398:295,1,83.5999977676392,2|2,0:0|0:0,0:0:0:0:
209,103,223811,6,0,P|214:65|233:21,1,88,8|2,0:0|0:0,0:0:0:0:
302,280,223984,2,0,P|297:318|278:362,1,88,2|2,0:0|0:0,0:0:0:0:
236,192,224156,6,0,L|280:192,1,39.5999987915039,8|0,0:0|0:0,0:0:0:0:
333,118,224501,6,0,B|360:92|400:93|400:93|436:160|382:203,1,198.000007553101,6|0,0:0|0:0,0:0:0:0:
384,308,224846,2,0,P|412:290|445:282,1,66.0000025177003,8|0,0:0|0:0,0:0:0:0:
276,280,225019,1,0,0:0:0:0:
276,280,225105,6,0,B|200:252|196:308|116:276,1,158.399995166016,2|0,0:0|0:0,0:0:0:0:
136,130,225363,2,0,B|155:98|155:98|207:144|168:206,1,158.399995166016,0|8,0:0|0:0,0:0:0:0:
36,338,225708,6,0,L|31:295,1,44
53,118,225881,6,0,B|72:76|72:76|4:64|-32:112|-24:160|12:200,1,237.599992749024,2|0,0:0|0:0,0:0:0:0:
168,206,226225,2,0,B|219:209|219:209|245:194|245:194|298:193,1,132.000005035401,8|0,0:0|0:0,0:0:0:0:
371,257,226484,6,0,B|344:302|275:293|275:293|299:313,1,132.000005035401,2|0,0:0|0:0,0:0:0:0:
425,321,226743,6,0,P|444:294|452:263,1,66.0000025177003,2|0,0:0|0:0,0:0:0:0:
468,47,226915,6,0,B|423:12|365:35|365:35|353:69|315:73|315:73|273:47|231:55,1,264,8|0,0:0|0:0,0:0:0:0:
175,122,227260,6,0,B|136:122|108:150|108:150|142:84|106:31,1,198.000007553101,2|0,0:0|0:0,0:0:0:0:
81,222,227605,2,0,P|54:204|36:177,1,66.0000025177003,8|0,0:0|0:0,0:0:0:0:
173,274,227777,1,0,0:0:0:0:
173,274,227863,6,0,B|207:271|237:293|237:293|294:288|314:243,1,158.399995166016,2|0,0:0|0:0,0:0:0:0:
354,116,228122,2,0,P|394:124|429:144,1,79.1999975830079
247,55,228294,6,0,B|180:84|180:84|176:182|176:182|240:198,1,237.599992749024,8|0,0:0|0:0,0:0:0:0:
321,1,228639,6,0,B|345:44|328:89|328:89|362:77|404:81|434:108|448:143,1,237.599992749024,2|0,0:0|0:0,0:0:0:0:
349,302,228984,2,0,B|364:161,1,132.000005035401,8|0,0:0|0:0,0:0:0:0:
249,282,229243,6,0,B|206:267|206:267|170:298|125:284,1,132.000005035401,2|0,0:0|0:0,0:0:0:0:
177,145,229501,2,0,P|159:172|153:205,1,66.0000025177003,2|0,0:0|0:0,0:0:0:0:
5,120,229674,6,2,P|10:145|14:166,1,39.5999987915039,8|0,0:0|0:0,0:1:0:0:
132,60,230019,6,0,B|182:73|220:33|220:33|281:36|305:78,1,198.000007553101,2|0,0:0|0:0,0:0:0:0:
415,78,230363,2,0,P|410:111|394:141,1,66.0000025177003,8|0,0:0|0:0,0:0:0:0:
215,152,230536,1,0,0:0:0:0:
215,152,230622,6,0,B|226:194|192:225|192:225|224:254|204:307,1,158.399995166016,2|0,0:0|0:0,0:0:0:0:
33,310,230881,2,0,B|135:277|135:277|114:324,1,158.399995166016,0|8,0:0|0:0,0:0:0:0:
323,337,231225,6,0,L|336:295,1,44
409,141,231398,6,0,B|412:187|395:221|395:221|421:230|421:230|425:261|425:261|447:274|447:274|423:312|429:354,1,237.599992749024,2|0,0:0|0:0,0:0:0:0:
336,295,231743,2,0,B|297:280|297:280|203:298,1,132.000005035401,8|0,0:0|0:0,0:0:0:0:
115,324,232001,6,0,B|121:273|121:273|108:245|108:245|113:190,1,132.000005035401,2|0,0:0|0:0,0:0:0:0:
100,101,232260,2,0,P|134:105|163:119,1,66.0000025177003,2|0,0:0|0:0,0:0:0:0:
336,295,232432,6,0,B|358:244|358:244|323:198|323:198|356:85|356:85|393:119,1,264,8|0,0:0|0:0,0:0:0:0:
473,21,232777,6,0,B|451:68|481:123|481:123|458:156|458:156|472:205,1,198.000007553101,2|0,0:0|0:0,0:0:0:0:
442,341,233122,2,0,L|438:276,1,66.0000025177003,8|0,0:0|0:0,0:0:0:0:
269,213,233294,1,0,0:0:0:0:
269,213,233381,1,2,0:0:0:0:
269,213,233467,6,0,P|312:188|354:186,1,79.1999975830079
379,107,233639,2,0,P|419:106|458:115,1,79.1999975830079
186,143,233812,6,0,P|143:131|99:129,1,88,8|0,0:0|0:0,0:0:0:0:
253,328,233984,2,0,P|293:312|337:308,1,88
281,66,234157,6,0,B|268:105|282:148|282:148|301:167|301:167|310:220|266:242,1,198.000007553101,2|0,0:0|0:0,0:0:0:0:
177,289,234501,1,8,0:0:0:0:
167,276,234587,1,0,0:0:0:0:
160,262,234673,1,0,0:0:0:0:
69,206,234760,6,0,B|83:257|83:257|62:293|69:338,1,132.000005035401,2|0,0:0|0:0,0:0:0:0:
111,80,235019,2,0,P|79:71|46:68,1,66.0000025177003,2|0,0:0|0:0,0:0:0:0:
225,131,235191,5,8,0:0:0:0:
288,156,235277,5,0,0:0:0:0:
332,176,235363,5,0,0:0:0:0:
363,191,235450,5,0,0:0:0:0:
385,203,235536,6,0,B|364:320|364:320|442:353,1,198.000007553101,2|0,0:0|0:0,0:0:0:0:
468,195,235881,2,0,P|463:173|435:136,1,66.0000025177003,8|0,0:0|0:0,0:0:0:0:
464,66,236053,1,0,0:0:0:0:
464,66,236139,6,0,B|426:47|426:47|396:64|396:64|360:38|316:56,1,158.399995166016,2|0,0:0|0:0,0:0:0:0:
248,166,236398,2,0,B|252:117|218:90|218:90|233:54|221:17,1,158.399995166016,0|8,0:0|0:0,0:0:0:0:
149,247,236743,6,0,L|140:200,1,44
0,143,236915,6,0,B|40:174|40:174|70:45|70:45|111:80,1,237.599992749024,2|0,0:0|0:0,0:0:0:0:
149,247,237260,2,0,B|202:237|202:237|241:263|281:253,1,132.000005035401,8|0,0:0|0:0,0:0:0:0:
321,81,237519,6,0,P|265:112|250:175,1,132.000005035401,2|0,0:0|0:0,0:0:0:0:
368,217,237777,6,0,P|351:188|329:163,1,66.0000025177003,2|0,0:0|0:0,0:0:0:0:
111,80,237950,6,0,B|114:127|137:162|137:162|114:219|114:219|141:256|144:301,1,237.599992749024,8|0,0:0|0:0,0:0:0:0:
269,355,238294,6,0,B|243:296|243:296|274:239|274:239|244:162,1,198.000007553101,2|0,0:0|0:0,0:0:0:0:
213,100,238639,2,0,B|247:89|247:89|274:100,1,66.0000025177003,8|0,0:0|0:0,0:0:0:0:
410,72,238812,5,0,0:0:0:0:
410,72,238898,2,0,B|462:68|462:68|440:180,1,158.399995166016,2|0,0:0|0:0,0:0:0:0:
392,256,239157,2,0,P|363:228|346:193,1,79.1999975830079
213,100,239329,6,0,B|185:86|149:84|108:112|108:112|83:182|138:247,1,237.599992749024,8|0,0:0|0:0,0:0:0:0:
155,341,239674,6,0,B|106:293|127:231|127:231|91:281|19:275,1,237.599992749024,2|0,0:0|0:0,0:0:0:0:
212,266,240019,6,0,B|253:253|293:270|293:270|319:266|340:250,1,132.000005035401,8|0,0:0|0:0,0:0:0:0:
418,286,240277,6,0,B|422:238|422:238|410:207|410:207|418:154,1,132.000005035401,2|0,0:0|0:0,0:0:0:0:
426,58,240536,2,0,P|393:63|362:73,1,66.0000025177003,2|0,0:0|0:0,0:0:0:0:
250,173,240708,6,2,P|269:168|289:163,1,39.5999987915039,8|0,0:0|0:0,0:1:0:0:
188,87,241053,6,0,B|182:65|181:37|181:37|117:40|91:106|127:161,1,198.000007553101,2|0,0:0|0:0,0:0:0:0:
205,277,241398,2,0,P|197:244|181:216,1,66.0000025177003,8|0,0:0|0:0,0:0:0:0:
52,294,241570,1,0,0:0:0:0:
52,294,241657,6,0,B|98:303|126:270|126:270|123:310|161:348,1,158.399995166016,2|0,0:0|0:0,0:0:0:0:
327,202,241915,2,0,B|272:218|272:218|246:197|246:197|168:219,1,158.399995166016,0|8,0:0|0:0,0:0:0:0:
402,248,242260,6,0,L|411:205,1,44
370,33,242432,6,0,B|339:58|291:56|291:56|314:117|314:117|309:153|309:153|331:213,1,237.599992749024,2|0,0:0|0:0,0:0:0:0:
220,122,242777,2,0,B|186:81|199:32|199:32|175:58,1,132.000005035401,8|0,0:0|0:0,0:0:0:0:
42,176,243036,6,0,P|92:171|166:225,1,132.000005035401,2|0,0:0|0:0,0:0:0:0:
253,271,243294,2,0,P|216:282|186:303,1,66.0000025177003,2|0,0:0|0:0,0:0:0:0:
351,311,243467,6,0,B|387:276|400:226|358:173|293:177|293:177|342:214,1,237.599992749024,8|0,0:0|0:0,0:0:0:0:
381,98,243811,6,0,B|310:61|245:117|245:117|186:162|117:115|110:40|110:40|42:74|42:74|55:142|100:172,1,528.000020141602,2|0,0:0|3:0,0:0:0:0:
176,249,245363,6,0,B|136:243|136:243|160:347,1,132,0|0,3:0|0:0,0:0:0:0:
240,312,245708,5,8,0:0:0:0:
281,294,245794,1,8,0:0:0:0:
324,293,245880,1,8,0:0:0:0:
365,308,245966,1,8,0:0:0:0:
398,337,246053,5,8,0:3:0:0:
395,323,246139,1,8,0:3:0:0:
405,296,246225,5,4,0:3:0:0:
402,281,246311,1,4,0:3:0:0:
413,251,246397,5,4,0:3:0:0:
410,236,246483,1,4,0:3:0:0:
423,197,246570,6,0,B|397:174|353:177|324:203|324:203|284:178|284:178|231:195,1,198.000007553101,4|0,1:2|0:0,0:0:0:0:
272,272,246915,1,2,0:0:0:0:
340,96,247088,2,0,L|335:50,2,44.0000016784669,0|2|2,0:0|0:0|0:0,0:0:0:0:
333,110,247260,1,8,0:0:0:0:
190,261,247433,6,2,B|117:266|141:218|67:225,1,132.000005035401,2|0,0:0|0:0,0:1:0:0:
333,110,247777,6,0,B|368:146|411:152|411:152|381:191|380:263|380:263|371:235|354:207,1,264.000010070801,2|0,0:0|0:0,0:0:0:0:
245,90,248295,6,0,B|219:86|186:55|186:55|219:116|208:197,1,198.000007553101,0|0,1:0|0:0,0:0:0:0:
190,261,248639,1,8,0:0:0:0:
22,148,248898,6,2,B|-4:86|-4:86|17:25,1,132.000005035401,2|0,0:0|0:0,0:1:0:0:
40,152,249157,6,2,B|43:120|43:120|66:94,1,66.0000025177003,2|0,0:0|0:0,0:1:0:0:
60,154,249329,5,0,1:0:0:0:
255,266,249501,1,2,0:0:0:0:
282,225,249587,1,2,0:0:0:0:
290,177,249673,1,2,0:0:0:0:
276,129,249759,1,2,0:0:0:0:
245,90,249846,2,0,P|217:71|188:58,1,66.0000025177003
141,268,250019,6,0,L|169:266,1,27.5,8|0,0:0|0:0,0:0:0:0:
371,174,250191,6,2,B|363:240|363:240|410:274|410:274|410:329|410:329|444:298|444:298|479:301|479:301|514:272|514:272|513:227|513:227|476:192|476:192|435:207|435:207,1,440,2|0,0:1|0:0,0:1:0:0:
440,205,250708,5,2,0:0:0:0:
266,175,250881,2,0,L|255:133,1,44,2|0,0:0|0:0,0:0:0:0:
266,190,251053,2,0,B|208:204|208:204|176:182|176:182|150:196|150:196|135:188|135:188|114:194|114:194|91:189|91:189|71:193,1,198.000007553101,0|0,1:0|0:0,0:0:0:0:
48,53,251398,6,0,L|38:119,1,66.0000025177003,8|0,0:0|0:0,0:0:0:0:
227,288,251570,1,0,0:0:0:0:
196,267,251657,1,2,0:0:0:0:
171,229,251743,5,2,0:0:0:0:
164,171,251829,1,2,0:0:0:0:
193,112,251915,1,2,0:0:0:0:
256,76,252001,1,2,0:0:0:0:
335,69,252088,6,0,B|396:50|396:50|383:185,1,198.000007553101,4|0,1:2|0:0,0:0:0:0:
369,261,252433,1,2,0:0:0:0:
164,171,252605,2,0,L|120:156,2,44.0000016784669,0|2|2,0:0|0:0|0:0,0:0:0:0:
176,181,252777,1,8,0:0:0:0:
272,276,252950,1,2,0:0:0:0:
272,276,253036,6,2,B|256:218|256:218|275:181|275:181|255:144|255:144|263:89,1,198.000007553101,0|0,0:0|0:0,0:1:0:0:
369,261,253467,6,2,B|417:245|417:245|473:253|473:253|521:229|521:229|485:297,1,237.599992749024,2|0,0:1|0:0,0:1:0:0:
281,354,253812,2,0,P|273:315|271:275,1,79.1999975830079,0|0,1:0|0:0,0:0:0:0:
304,180,253984,2,0,P|303:140|295:101,1,79.1999975830079,2|0,0:1|0:0,0:0:0:0:
168,32,254157,2,0,L|183:166,1,132.000005035401,8|0,0:0|0:0,0:0:0:0:
118,265,254415,6,2,B|90:262|90:262|86:263|86:263|82:262|82:262|46:259,1,66.0000025177003,2|0,0:0|0:0,0:1:0:0:
103,277,254673,6,2,B|75:274|75:274|71:275|71:275|67:274|67:274|31:271,1,66.0000025177003,2|0,0:0|0:0,0:1:0:0:
66,110,254846,6,0,L|131:105,1,66.0000025177003,4|0,1:2|0:0,0:0:0:0:
317,144,255019,1,2,0:0:0:0:
355,157,255105,1,2,0:0:0:0:
355,196,255192,1,2,0:0:0:0:
317,208,255278,1,2,0:0:0:0:
294,177,255364,2,0,P|263:169|229:173,1,66.0000025177003,2|0,0:0|0:0,0:0:0:0:
103,277,255536,2,0,P|86:248|82:215,1,66.0000025177003,8|0,0:0|0:0,0:0:0:0:
99,34,255708,6,2,B|180:4|180:4|242:55|242:55|301:-15|379:15,1,316.799990332032,2|0,0:1|0:0,0:1:0:0:
512,103,256226,2,2,B|469:88|469:88|432:115|432:115|399:93|367:99,1,158.399995166016,2|0,0:0|0:0,0:1:0:0:
236,303,256570,6,0,B|178:309|155:265|155:265|157:209|205:164,1,198.000007553101,2|0,1:2|0:0,0:0:0:0:
277,119,256915,2,0,P|286:161|287:189,1,66.0000025177003,8|0,0:0|0:0,0:0:0:0:
338,334,257088,2,0,P|351:306|378:283,1,66.0000025177003,2|0,0:1|0:0,0:0:0:0:
504,175,257260,6,0,P|471:177|438:182,1,66.0000025177003,2|0,0:1|0:0,0:0:0:0:
345,12,257433,2,0,P|351:48|355:94,1,66.0000025177003,2|0,0:1|0:0,0:0:0:0:
195,173,257605,6,0,B|140:174|140:174|109:135|109:135|55:163|12:135,1,198.000007553101,4|0,1:2|0:0,0:0:0:0:
59,58,257950,1,2,0:0:0:0:
90,273,258122,2,0,L|78:317,2,44.0000016784669,0|2|2,0:0|0:0|0:0,0:0:0:0:
87,254,258294,1,8,0:0:0:0:
276,75,258467,6,2,B|279:104|265:129|265:129|287:166|273:204,1,132.000005035401,2|0,0:0|0:0,0:1:0:0:
436,319,258812,6,0,B|501:338|501:338|544:269|494:193|494:193|471:249,1,264.000010070801,2|0,0:0|0:0,0:0:0:0:
231,290,259329,6,0,B|264:298|264:298|296:283|296:283|327:291|349:312|349:312|351:277|388:246,1,198.000007553101,0|0,1:0|0:0,0:0:0:0:
388,169,259673,1,8,0:0:0:0:
143,87,259933,6,2,B|101:91|101:91|131:187,1,132.000005035401,2|0,0:0|0:0,0:1:0:0:
227,139,260191,6,2,B|204:139|204:139|214:180,1,66.0000025177003,2|0,0:0|0:0,0:1:0:0:
354,76,260364,5,0,1:0:0:0:
480,137,260536,1,2,0:0:0:0:
457,180,260622,1,2,0:0:0:0:
419,211,260708,1,2,0:0:0:0:
370,222,260794,1,2,0:0:0:0:
321,214,260881,2,0,L|340:285,1,66.0000025177003
262,65,261053,6,0,L|258:37,1,22,8|0,0:0|0:0,0:0:0:0:
73,139,261226,6,2,B|54:173|53:208|53:208|84:212|114:253|114:253|122:165|180:99|180:99|199:132|231:148|231:148|214:165|198:200,1,440,2|0,0:1|0:0,0:1:0:0:
204,186,261743,1,2,0:0:0:0:
417,142,261915,6,2,B|394:147|377:160|377:160|377:141|367:112,1,88,2|0,0:0|0:0,0:1:0:0:
369,118,262088,6,2,B|354:167|354:167|394:241|394:241|369:305,1,198.000007553101,2|0,1:2|0:0,0:1:0:0:
263,347,262433,6,0,P|259:314|254:282,1,66.0000025177003,8|0,0:0|0:0,0:0:0:0:
152,69,262605,1,0,0:0:0:0:
139,101,262692,1,2,0:0:0:0:
119,142,262778,5,2,0:0:0:0:
177,140,262864,1,2,0:0:0:0:
245,138,262950,1,2,0:0:0:0:
317,129,263036,1,2,0:0:0:0:
395,126,263123,6,0,B|434:134|460:102|460:102|446:225,1,198.000007553101,4|0,1:2|0:0,0:0:0:0:
427,303,263468,1,2,0:0:0:0:
255,180,263639,2,0,L|244:135,2,44.0000016784669,0|2|2,0:0|0:0|0:0,0:0:0:0:
253,196,263811,1,8,0:0:0:0:
203,335,263984,1,2,0:0:0:0:
203,335,264070,6,2,B|182:291|182:291|130:271|130:271|84:284|84:284|40:341,1,198.000007553101,0|0,0:0|0:0,0:1:0:0:
128,348,264501,6,2,B|129:302|129:302|148:274|148:274|100:203|146:119,1,237.599992749024,2|0,0:1|0:0,0:1:0:0:
327,223,264846,2,0,P|287:216|245:201,1,79.1999975830079,0|0,1:0|0:0,0:0:0:0:
300,41,265018,2,0,P|301:80|309:119,1,79.1999975830079,2|0,0:1|0:0,0:0:0:0:
477,235,265191,6,0,P|384:241|300:315,1,198.000007553101,8|0,0:0|0:0,0:0:0:0:
236,352,265536,6,2,B|220:327|220:327|221:283,1,66.0000025177003,2|0,0:0|0:0,0:1:0:0:
225,200,265708,6,2,B|239:229|239:229|239:264,1,66.0000025177003,2|0,0:0|0:0,0:1:0:0:
86,252,265881,6,0,L|151:247,1,66.0000025177003,4|0,1:2|0:0,0:0:0:0:
315,161,266054,1,2,0:0:0:0:
353,167,266140,1,2,0:0:0:0:
372,134,266227,1,2,0:0:0:0:
345,104,266313,1,2,0:0:0:0:
309,119,266399,2,0,L|241:103,1,66.0000025177003,2|0,0:0|0:0,0:0:0:0:
87,52,266571,2,0,L|155:64,1,66.0000025177003,8|0,0:0|0:0,0:0:0:0:
239,262,266743,6,2,B|324:321|324:321|460:294|460:294|423:248|423:248|345:258,1,352,2|0,0:1|0:0,0:1:0:0:
180,315,267260,2,2,B|127:354|127:354|110:245,1,176,2|0,0:0|0:0,0:1:0:0:
244,103,267605,6,0,B|182:59|108:95|108:95|166:145,1,198.000007553101,2|0,1:2|0:0,0:0:0:0:
218,179,267950,2,0,B|229:208|229:243,1,66.0000025177003,8|0,0:0|0:0,0:0:0:0:
343,127,268123,2,0,B|343:92|353:62,1,66.0000025177003,2|0,0:1|0:0,0:0:0:0:
152,319,268295,6,0,P|142:282|122:240,1,66.0000025177003,2|0,0:1|0:0,0:0:0:0:
412,232,268468,2,0,P|420:195|435:159,1,66.0000025177003,2|0,0:1|0:0,0:0:0:0:
131,58,268639,5,4,1:2:0:0:
