osu file format v14

[General]
AudioFilename: audio.mp3
AudioLeadIn: 0
PreviewTime: 179587
Countdown: 0
SampleSet: Soft
StackLeniency: 0.2
Mode: 0
LetterboxInBreaks: 0
EpilepsyWarning: 1
WidescreenStoryboard: 1

[Editor]
Bookmarks: 6397,6570,7259,7604,8984,12087,12777,13121,17604,18294,18639,23121,34156,45190,67259,89328,100363,105880,108639,111397,130708,133466,144501,152777,155621,166570,180363,187259,191397,199673,202432,213466,224501,243811,268639,310018
DistanceSpacing: 0.9
BeatDivisor: 8
GridSize: 8
TimelineZoom: 1.9

[Metadata]
Title:dreamless wanderer
TitleUnicode:dreamless wanderer
Artist:Camellia
ArtistUnicode:かめりあ
Creator:Shiirn
Version:ouroboros
Source:
Tags:かめるかめりあ kamelcamellia
BeatmapID:1309336
BeatmapSetID:620981

[Difficulty]
HPDrainRate:6
CircleSize:4.4
OverallDifficulty:8.9
ApproachRate:9.3
SliderMultiplier:2.25
SliderTickRate:1

[Events]
//Background and Video events
0,0,"autumnwanderer.jpg",0,0
//Break Periods
//Storyboard Layer 0 (Background)
//Storyboard Layer 1 (Fail)
//Storyboard Layer 2 (Pass)
//Storyboard Layer 3 (Foreground)
//Storyboard Sound Samples

[TimingPoints]
1053,344.827586206897,4,2,1,15,1,0
1053,-500,4,2,1,15,0,0
1828,-500,4,2,1,5,0,0
1915,-500,4,2,1,15,0,0
2432,-500,4,2,1,5,0,0
6570,-500,4,2,1,20,0,0
7346,-500,4,2,1,5,0,0
7432,-500,4,2,1,20,0,0
7777,-500,4,2,1,5,0,0
12087,-500,4,2,1,25,0,0
12863,-500,4,2,1,5,0,0
12949,-500,4,2,1,25,0,0
13294,-500,4,2,1,5,0,0
17604,-500,4,2,1,30,0,0
18380,-500,4,2,1,5,0,0
18466,-500,4,2,1,30,0,0
18811,-500,4,2,1,5,0,0
23121,-151.515151515152,4,2,1,5,0,0
28639,-151.515151515152,4,2,1,20,0,0
34156,-151.515151515152,4,2,1,35,0,0
35535,-151.515151515152,4,2,1,15,0,0
35708,-151.515151515152,4,2,1,35,0,0
36915,-151.515151515152,4,2,1,15,0,0
37087,-151.515151515152,4,2,1,35,0,0
38811,-151.515151515152,4,2,1,15,0,0
38897,-151.515151515152,4,2,1,35,0,0
40190,-151.515151515152,4,2,1,15,0,0
40276,-151.515151515152,4,2,1,35,0,0
41570,-151.515151515152,4,2,1,15,0,0
41656,-151.515151515152,4,2,1,35,0,0
42432,-151.515151515152,4,2,1,15,0,0
42518,-151.515151515152,4,2,1,35,0,0
45190,-83.3333333333333,4,2,1,50,0,0
45708,-133.333333333333,4,2,1,50,0,0
46053,-66.6666666666667,4,2,1,50,0,0
46225,-100,4,2,1,50,0,0
46397,-151.515151515152,4,2,1,50,0,0
46915,-66.6666666666667,4,2,1,50,0,0
47259,-151.515151515152,4,2,1,50,0,0
47518,-100,4,2,1,50,0,0
47777,-117.647058823529,4,2,1,50,0,0
47949,-100,4,2,1,50,0,0
48811,-151.515151515152,4,2,1,50,0,0
49328,-100,4,2,4,50,0,0
49673,-83.3333333333333,4,2,1,50,0,0
50018,-100,4,2,1,50,0,0
50708,-83.3333333333333,4,2,1,50,0,0
51225,-133.333333333333,4,2,1,50,0,0
51656,-100,4,2,1,50,0,0
51915,-74.0740740740741,4,2,1,50,0,0
52087,-58.8235294117647,4,2,1,50,0,0
52432,-133.333333333333,4,2,1,50,0,0
53035,-83.3333333333333,4,2,1,50,0,0
53294,-66.6666666666667,4,2,1,50,0,0
53466,-83.3333333333333,4,2,1,50,0,0
54759,-100,4,2,1,50,0,0
55018,-83.3333333333333,4,2,1,50,0,0
55190,-100,4,2,1,50,0,0
55535,-151.515151515152,4,2,1,50,0,0
56225,-83.3333333333333,4,2,1,50,0,0
56742,-133.333333333333,4,2,1,50,0,0
57087,-66.6666666666667,4,2,1,50,0,0
57259,-100,4,2,1,50,0,0
57431,-151.515151515152,4,2,1,50,0,0
57949,-100,4,2,1,50,0,0
58121,-58.8235294117647,4,2,1,50,0,0
58294,-83.3333333333333,4,2,1,50,0,0
58553,-100,4,2,1,50,0,0
58812,-117.647058823529,4,2,1,50,0,0
58984,-100,4,2,1,50,0,0
59846,-151.515151515152,4,2,1,50,0,0
60190,-100,4,2,1,50,0,0
60535,-66.6666666666667,4,2,1,50,0,0
60708,-100,4,2,1,50,0,0
61053,-100,4,2,1,50,0,0
61742,-83.3333333333333,4,2,1,50,0,0
62259,-133.333333333333,4,2,1,50,0,0
62690,-100,4,2,1,50,0,0
62949,-74.0740740740741,4,2,1,50,0,0
63121,-58.8235294117647,4,2,1,50,0,0
63466,-133.333333333333,4,2,1,50,0,0
63811,-66.6666666666667,4,2,1,50,0,0
64156,-133.333333333333,4,2,1,50,0,0
64501,-83.3333333333333,4,2,1,50,0,0
65966,-133.333333333333,4,2,1,50,0,0
66225,-100,4,2,1,50,0,0
66570,-151.515151515152,4,2,1,50,0,0
67260,-133.333333333333,4,2,1,35,0,0
67777,-200,4,2,1,35,0,0
88811,-200,4,2,1,15,0,0
89328,-133.333333333333,4,2,1,80,0,0
89415,-133.333333333333,4,2,1,35,0,0
89501,-133.333333333333,4,2,1,80,0,0
90449,-133.333333333333,4,2,1,35,0,0
90535,-133.333333333333,4,2,1,80,0,0
90794,-133.333333333333,4,2,1,35,0,0
90880,-133.333333333333,4,2,1,80,0,0
91828,-133.333333333333,4,2,1,35,0,0
91914,-133.333333333333,4,2,1,80,0,0
92173,-133.333333333333,4,2,1,35,0,0
92259,-133.333333333333,4,2,1,80,0,0
93208,-133.333333333333,4,2,1,35,0,0
93294,-133.333333333333,4,2,1,80,0,0
93553,-133.333333333333,4,2,1,35,0,0
93639,-133.333333333333,4,2,1,80,0,0
94587,-133.333333333333,4,2,1,35,0,0
94673,-133.333333333333,4,2,1,80,0,0
94932,-133.333333333333,4,2,1,35,0,0
95018,-133.333333333333,4,2,1,80,0,0
95966,-133.333333333333,4,2,1,35,0,0
96052,-133.333333333333,4,2,1,80,0,0
96311,-133.333333333333,4,2,1,35,0,0
96397,-133.333333333333,4,2,1,80,0,0
97346,-133.333333333333,4,2,1,35,0,0
97432,-133.333333333333,4,2,1,80,0,0
97690,-133.333333333333,4,2,1,35,0,0
97776,-133.333333333333,4,2,1,80,0,0
98725,-133.333333333333,4,2,1,35,0,0
98811,-133.333333333333,4,2,1,80,0,0
99070,-133.333333333333,4,2,1,35,0,0
99156,-133.333333333333,4,2,1,80,0,0
100104,-133.333333333333,4,2,1,35,0,0
100190,-133.333333333333,4,2,1,80,0,0
111397,-66.6666666666667,4,2,1,100,0,0
111742,-83.3333333333333,4,2,1,100,0,0
112001,-62.5,4,2,1,100,0,0
112259,-83.3333333333333,4,2,1,100,0,0
112780,-66.6666666666667,4,2,1,100,0,0
113121,-100,4,2,1,100,0,0
113380,-125,4,2,1,100,0,0
113811,-166.666666666667,4,2,1,100,0,0
114156,-66.6666666666667,4,2,1,100,0,0
114501,-83.3333333333333,4,2,1,100,0,0
114760,-62.5,4,2,1,100,0,0
115018,-83.3333333333333,4,2,1,100,0,0
115190,-151.515151515152,4,2,1,100,0,0
115535,-66.6666666666667,4,2,1,100,0,0
115880,-100,4,2,1,100,0,0
116139,-125,4,2,1,100,0,0
116570,-200,4,2,1,100,0,0
116915,-66.6666666666667,4,2,1,100,0,0
117259,-83.3333333333333,4,2,1,100,0,0
117518,-62.5,4,2,1,100,0,0
117776,-83.3333333333333,4,2,1,100,0,0
118297,-66.6666666666667,4,2,1,100,0,0
118638,-100,4,2,1,100,0,0
118897,-125,4,2,1,100,0,0
119328,-166.666666666667,4,2,1,100,0,0
119673,-66.6666666666667,4,2,1,100,0,0
120018,-83.3333333333333,4,2,1,100,0,0
120277,-71.4285714285714,4,2,1,100,0,0
120449,-50,4,2,1,100,0,0
120707,-66.6666666666667,4,2,1,100,0,0
120880,-125,4,2,1,100,0,0
121052,-66.6666666666667,4,2,1,100,0,0
121397,-83.3333333333333,4,2,1,100,0,0
121742,-66.6666666666667,4,2,1,100,0,0
121915,-83.3333333333333,4,2,1,100,0,0
122432,-66.6666666666667,4,2,1,100,0,0
122777,-83.3333333333333,4,2,1,100,0,0
123036,-62.5,4,2,1,100,0,0
123294,-83.3333333333333,4,2,1,100,0,0
124156,-100,4,2,1,100,0,0
124415,-125,4,2,1,100,0,0
124846,-166.666666666667,4,2,1,100,0,0
125190,-66.6666666666667,4,2,1,100,0,0
125535,-83.3333333333333,4,2,1,100,0,0
125795,-62.5,4,2,1,100,0,0
126053,-83.3333333333333,4,2,1,100,0,0
126225,-151.515151515152,4,2,1,100,0,0
126570,-66.6666666666667,4,2,1,100,0,0
126915,-100,4,2,1,100,0,0
127174,-125,4,2,1,100,0,0
127604,-200,4,2,1,100,0,0
127949,-66.6666666666667,4,2,1,100,0,0
128294,-83.3333333333333,4,2,1,100,0,0
128553,-62.5,4,2,1,100,0,0
128811,-83.3333333333333,4,2,1,100,0,0
129328,-66.6666666666667,4,2,1,100,0,0
129673,-100,4,2,1,100,0,0
129932,-125,4,2,1,100,0,0
130363,-166.666666666667,4,2,1,100,0,0
130708,-66.6666666666667,4,2,1,100,0,0
131053,-83.3333333333333,4,2,1,100,0,0
131570,-125,4,2,1,100,0,0
131742,-83.3333333333333,4,2,1,100,0,0
131915,-125,4,2,1,100,0,0
132087,-100,4,2,1,100,0,0
132432,-83.3333333333333,4,2,1,100,0,0
133466,-66.6666666666667,4,2,1,100,0,0
133811,-83.3333333333333,4,2,1,100,0,0
134070,-125,4,2,1,100,0,0
134328,-83.3333333333333,4,2,1,100,0,0
134501,-50,4,2,1,100,0,0
134846,-100,4,2,1,100,0,0
136225,-66.6666666666667,4,2,1,100,0,0
136570,-100,4,2,1,100,0,0
137259,-133.333333333333,4,2,1,100,0,0
137604,-66.6666666666667,4,2,1,100,0,0
137949,-83.3333333333333,4,2,1,100,0,0
138984,-66.6666666666667,4,2,1,100,0,0
139328,-83.3333333333333,4,2,1,100,0,0
139587,-71.4285714285714,4,2,1,100,0,0
139846,-100,4,2,1,100,0,0
140018,-50,4,2,1,100,0,0
140363,-100,4,2,1,100,0,0
141742,-66.6666666666667,4,2,1,100,0,0
142087,-100,4,2,1,100,0,0
142776,-133.333333333333,4,2,1,100,0,0
143121,-100,4,2,1,100,0,0
143466,-83.3333333333333,4,2,1,100,0,0
144501,-66.6666666666667,4,2,1,100,0,0
144846,-83.3333333333333,4,2,1,100,0,0
145104,-66.6666666666667,4,2,1,100,0,0
145363,-100,4,2,1,100,0,0
145535,-50,4,2,1,100,0,0
145880,-100,4,2,1,100,0,0
147258,-66.6666666666667,4,2,1,100,0,0
147604,-100,4,2,1,100,0,0
148293,-133.333333333333,4,2,1,100,0,0
148638,-66.6666666666667,4,2,1,100,0,0
148984,-83.3333333333333,4,2,1,100,0,0
150018,-100,4,2,1,100,0,0
150363,-83.3333333333333,4,2,1,100,0,0
150622,-71.4285714285714,4,2,1,100,0,0
150881,-100,4,2,1,100,0,0
151053,-58.8235294117647,4,2,1,100,0,0
151397,-66.6666666666667,4,2,1,100,0,0
151570,-83.3333333333333,4,2,1,100,0,0
151742,-66.6666666666667,4,2,1,100,0,0
151915,-83.3333333333333,4,2,1,100,0,0
155190,-83.3333333333333,4,2,0,100,0,0
155535,-250,4,2,1,35,0,0
166570,-133.333333333333,4,2,1,80,0,0
173294,-120.481927710843,4,2,1,100,0,0
173984,-111.111111111111,4,2,1,100,0,0
177604,-200,4,2,1,35,0,0
177949,-175.438596491228,4,2,1,35,0,0
178294,-153.846153846154,4,2,1,35,0,0
178639,-136.986301369863,4,2,1,35,0,0
178984,-125,4,2,1,35,0,0
179328,-114.942528735632,4,2,1,35,0,0
179673,-83.3333333333333,4,2,1,45,0,0
179846,-83.3333333333333,4,2,1,55,0,0
180018,-83.3333333333333,4,2,1,65,0,0
180190,-83.3333333333333,4,2,1,75,0,0
180363,-66.6666666666667,4,2,1,100,0,1
180708,-83.3333333333333,4,2,1,100,0,1
180966,-100,4,2,1,100,0,1
181225,-83.3333333333333,4,2,1,100,0,1
181397,-66.6666666666667,4,2,1,100,0,1
181742,-83.3333333333333,4,2,1,100,0,1
182346,-100,4,2,1,100,0,1
182604,-83.3333333333333,4,2,1,100,0,1
182777,-66.6666666666667,4,2,1,100,0,1
183466,-83.3333333333333,4,2,1,100,0,1
183984,-100,4,2,1,100,0,1
184156,-83.3333333333333,4,2,1,100,0,1
184501,-66.6666666666667,4,2,1,100,0,1
184846,-83.3333333333333,4,2,1,100,0,1
185104,-100,4,2,1,100,0,1
185363,-83.3333333333333,4,2,1,100,0,1
185535,-66.6666666666667,4,2,1,100,0,1
185880,-66.6666666666667,4,2,1,100,0,1
186225,-83.3333333333333,4,2,1,100,0,1
186484,-100,4,2,1,100,0,1
186742,-83.3333333333333,4,2,1,100,0,1
187259,-66.6666666666667,4,2,1,100,0,1
187604,-83.3333333333333,4,2,1,100,0,1
187863,-100,4,2,1,100,0,1
188121,-83.3333333333333,4,2,1,100,0,1
188294,-133.333333333333,4,2,1,100,0,1
188639,-66.6666666666667,4,2,1,100,0,1
188984,-83.3333333333333,4,2,1,100,0,1
189156,-100,4,2,1,100,0,1
190018,-66.6666666666667,4,2,1,100,0,1
190363,-83.3333333333333,4,2,1,100,0,1
190880,-83.3333333333333,4,2,1,100,0,0
191397,-66.6666666666667,4,2,1,100,0,1
191742,-83.3333333333333,4,2,1,100,0,1
192000,-100,4,2,1,100,0,1
192259,-83.3333333333333,4,2,1,100,0,1
192431,-66.6666666666667,4,2,1,100,0,1
192777,-83.3333333333333,4,2,1,100,0,1
193380,-100,4,2,1,100,0,1
193638,-83.3333333333333,4,2,1,100,0,1
193811,-66.6666666666667,4,2,1,100,0,1
194500,-83.3333333333333,4,2,1,100,0,1
195018,-100,4,2,1,100,0,1
195190,-83.3333333333333,4,2,1,100,0,1
195535,-66.6666666666667,4,2,1,100,0,1
195880,-83.3333333333333,4,2,1,100,0,1
196138,-100,4,2,1,100,0,1
196397,-83.3333333333333,4,2,1,100,0,1
196914,-66.6666666666667,4,2,1,100,0,1
197259,-83.3333333333333,4,2,1,100,0,1
197518,-100,4,2,1,100,0,1
197776,-83.3333333333333,4,2,1,100,0,1
198294,-66.6666666666667,4,2,1,100,0,1
198639,-83.3333333333333,4,2,1,100,0,1
199328,-133.333333333333,4,2,1,100,0,1
199673,-66.6666666666667,4,2,1,100,0,0
199846,-83.3333333333333,4,2,1,100,0,0
200018,-66.6666666666667,4,2,1,100,0,0
200190,-83.3333333333333,4,2,1,100,0,0
200363,-66.6666666666667,4,2,1,100,0,0
200535,-83.3333333333333,4,2,1,100,0,0
200708,-66.6666666666667,4,2,1,100,0,0
200880,-83.3333333333333,4,2,1,100,0,0
202087,-133.333333333333,4,2,1,100,0,0
202432,-133.333333333333,4,2,2,50,0,0
202604,-80,4,2,1,100,0,1
203035,-66.6666666666667,4,2,1,100,0,1
203294,-80,4,2,1,100,0,1
204415,-66.6666666666667,4,2,1,100,0,1
204673,-80,4,2,1,100,0,1
205794,-66.6666666666667,4,2,1,100,0,1
206053,-80,4,2,1,100,0,1
207173,-66.6666666666667,4,2,1,100,0,1
207432,-80,4,2,1,100,0,1
208553,-66.6666666666667,4,2,1,100,0,1
208811,-80,4,2,1,100,0,1
209932,-66.6666666666667,4,2,1,100,0,1
210190,-80,4,2,1,100,0,1
211484,-58.8235294117647,4,2,1,100,0,1
211742,-80,4,2,1,100,0,1
212087,-66.6666666666667,4,2,1,100,0,1
212432,-80,4,2,1,100,0,1
213121,-100,4,2,1,100,0,0
213466,-100,4,2,2,50,0,0
213639,-80,4,2,1,100,0,1
214070,-66.6666666666667,4,2,1,100,0,1
214328,-80,4,2,1,100,0,1
215449,-66.6666666666667,4,2,1,100,0,1
215708,-80,4,2,1,100,0,1
216828,-66.6666666666667,4,2,1,100,0,1
217087,-80,4,2,1,100,0,1
218208,-66.6666666666667,4,2,1,100,0,1
218466,-80,4,2,1,100,0,0
218984,-80,4,2,2,60,0,1
219156,-80,4,2,1,100,0,1
219328,-66.6666666666667,4,2,1,100,0,1
219501,-80,4,2,1,100,0,1
220277,-80,4,2,1,100,0,0
220363,-80,4,2,2,70,0,1
220449,-80,4,2,1,100,0,1
220708,-66.6666666666667,4,2,1,100,0,1
220880,-80,4,2,1,100,0,1
221742,-66.6666666666667,4,2,1,100,0,1
221915,-80,4,2,1,100,0,1
222087,-66.6666666666667,4,2,1,100,0,1
222259,-80,4,2,1,100,0,1
222432,-66.6666666666667,4,2,1,100,0,1
222604,-80,4,2,1,100,0,1
222777,-66.6666666666667,4,2,1,100,0,1
222949,-80,4,2,1,100,0,1
224156,-133.333333333333,4,2,1,100,0,0
224501,-66.6666666666667,4,2,1,80,0,0
224846,-83.3333333333333,4,2,1,35,0,0
225105,-62.5,4,2,1,35,0,0
225363,-83.3333333333333,4,2,1,35,0,0
226225,-100,4,2,1,35,0,0
226484,-125,4,2,1,35,0,0
226915,-166.666666666667,4,2,1,35,0,0
227260,-66.6666666666667,4,2,1,35,0,0
227605,-83.3333333333333,4,2,1,35,0,0
227864,-62.5,4,2,1,35,0,0
228122,-83.3333333333333,4,2,1,35,0,0
228294,-151.515151515152,4,2,1,35,0,0
228639,-66.6666666666667,4,2,1,35,0,0
228984,-100,4,2,1,35,0,0
229243,-125,4,2,1,35,0,0
229674,-200,4,2,1,35,0,0
230018,-66.6666666666667,4,2,1,35,0,0
230363,-83.3333333333333,4,2,1,35,0,0
230622,-62.5,4,2,1,35,0,0
230880,-83.3333333333333,4,2,1,35,0,0
231742,-100,4,2,1,35,0,0
232001,-125,4,2,1,35,0,0
232432,-166.666666666667,4,2,1,35,0,0
232777,-66.6666666666667,4,2,1,35,0,0
233122,-83.3333333333333,4,2,1,35,0,0
233381,-71.4285714285714,4,2,1,35,0,0
233553,-50,4,2,1,35,0,0
233811,-66.6666666666667,4,2,1,35,0,0
233984,-125,4,2,1,35,0,0
234156,-66.6666666666667,4,2,1,35,0,0
234501,-83.3333333333333,4,2,1,35,0,0
234846,-66.6666666666667,4,2,1,35,0,0
235019,-83.3333333333333,4,2,1,35,0,0
235536,-66.6666666666667,4,2,1,35,0,0
235881,-83.3333333333333,4,2,1,35,0,0
236140,-62.5,4,2,1,35,0,0
236398,-83.3333333333333,4,2,1,35,0,0
237260,-100,4,2,1,35,0,0
237519,-125,4,2,1,35,0,0
237950,-166.666666666667,4,2,1,35,0,0
238294,-66.6666666666667,4,2,1,35,0,0
238639,-83.3333333333333,4,2,1,35,0,0
239328,-151.515151515152,4,2,1,35,0,0
239673,-66.6666666666667,4,2,1,35,0,0
240018,-100,4,2,1,35,0,0
240277,-125,4,2,1,35,0,0
240707,-200,4,2,1,35,0,0
241052,-66.6666666666667,4,2,1,35,0,0
241397,-83.3333333333333,4,2,1,35,0,0
241656,-62.5,4,2,1,35,0,0
241914,-83.3333333333333,4,2,1,35,0,0
242431,-66.6666666666667,4,2,1,35,0,0
242776,-100,4,2,1,35,0,0
243035,-125,4,2,1,35,0,0
243466,-166.666666666667,4,2,1,35,0,0
243811,-303.030303030303,4,2,1,35,0,0
245363,-222.222222222222,4,2,1,35,0,0
246570,-83.3333333333333,4,2,1,35,0,0
247088,-133.333333333333,4,2,1,35,0,0
247432,-66.6666666666667,4,2,1,35,0,0
247604,-100,4,2,1,35,0,0
247777,-151.515151515152,4,2,1,35,0,0
248294,-66.6666666666667,4,2,1,35,0,0
248639,-151.515151515152,4,2,1,35,0,0
248897,-100,4,2,1,35,0,0
249156,-117.647058823529,4,2,1,35,0,0
249328,-100,4,2,1,35,0,0
250190,-151.515151515152,4,2,1,35,0,0
250707,-100,4,2,1,35,0,0
251052,-83.3333333333333,4,2,1,35,0,0
251397,-100,4,2,1,35,0,0
252087,-83.3333333333333,4,2,1,35,0,0
252604,-133.333333333333,4,2,1,35,0,0
253035,-100,4,2,1,35,0,0
253294,-74.0740740740741,4,2,1,35,0,0
253466,-58.8235294117647,4,2,1,35,0,0
253811,-133.333333333333,4,2,1,35,0,0
254414,-83.3333333333333,4,2,1,35,0,0
254673,-66.6666666666667,4,2,1,35,0,0
254845,-83.3333333333333,4,2,1,35,0,0
256139,-100,4,2,1,35,0,0
256397,-83.3333333333333,4,2,1,35,0,0
256570,-100,4,2,1,35,0,0
256915,-151.515151515152,4,2,1,35,0,0
257604,-83.3333333333333,4,2,1,35,0,0
258122,-133.333333333333,4,2,1,35,0,0
258466,-66.6666666666667,4,2,1,35,0,0
258638,-100,4,2,1,35,0,0
258810,-151.515151515152,4,2,1,35,0,0
259328,-100,4,2,1,35,0,0
259500,-58.8235294117647,4,2,1,35,0,0
259673,-83.3333333333333,4,2,1,35,0,0
259932,-100,4,2,1,35,0,0
260191,-117.647058823529,4,2,1,35,0,0
260363,-100,4,2,1,35,0,0
261225,-151.515151515152,4,2,1,35,0,0
261569,-100,4,2,1,35,0,0
261914,-66.6666666666667,4,2,1,35,0,0
262087,-100,4,2,1,35,0,0
262432,-100,4,2,1,35,0,0
263121,-83.3333333333333,4,2,1,35,0,0
263638,-133.333333333333,4,2,1,35,0,0
264069,-100,4,2,1,35,0,0
264328,-74.0740740740741,4,2,1,35,0,0
264500,-58.8235294117647,4,2,1,35,0,0
264845,-133.333333333333,4,2,1,35,0,0
265190,-66.6666666666667,4,2,1,35,0,0
265535,-133.333333333333,4,2,1,35,0,0
265880,-83.3333333333333,4,2,1,35,0,0
267345,-133.333333333333,4,2,1,35,0,0
267604,-100,4,2,1,35,0,0
267949,-151.515151515152,4,2,1,35,0,0
268639,-500,4,2,1,5,0,0
271311,-500,4,2,1,5,0,0
271397,-500,4,2,1,35,0,0
274156,-500,4,2,1,30,0,0
274932,-500,4,2,1,5,0,0
275018,-500,4,2,1,30,0,0
275363,-500,4,2,1,5,0,0
276915,-500,4,2,1,30,0,0
280449,-500,4,2,1,5,0,0
280535,-500,4,2,1,30,0,0
280880,-500,4,2,1,5,0,0
282432,-500,4,2,1,25,0,0
285966,-500,4,2,1,5,0,0
286053,-500,4,2,1,25,0,0
286397,-500,4,2,1,5,0,0
287949,-500,4,2,1,25,0,0
291484,-500,4,2,1,5,0,0
291570,-500,4,2,1,25,0,0
291915,-500,4,2,1,5,0,0
296225,-500,4,2,1,20,0,0
297001,-500,4,2,1,5,0,0
297087,-500,4,2,1,20,0,0
297432,-500,4,2,1,5,0,0
301742,-500,4,2,1,20,0,0
302518,-500,4,2,1,5,0,0
302604,-500,4,2,1,20,0,0
302949,-500,4,2,1,5,0,0
304501,-500,4,2,1,5,0,0
307259,-500,4,2,1,15,0,0
308035,-500,4,2,1,5,0,0
308121,-500,4,2,1,15,0,0
308380,-500,4,2,1,5,0,0

[Colours]
Combo1 : 240,133,15
Combo2 : 196,130,6
Combo3 : 248,74,24
Combo4 : 248,214,18

[HitObjects]
138,248,1053,5,0,0:0:0:0:
198,344,1742,2,0,L|191:361,1,11.25
289,252,2087,6,0,B|300:228|255:218|226:251|233:289|256:316|296:316|336:291|337:272|337:272|340:304|354:343|408:347|427:286|414:227|361:207,1,405
363,208,6570,5,0,0:0:0:0:
493,162,7259,2,0,L|486:143,1,11.25
404,105,7604,6,0,B|379:135|332:136|332:136|302:137|275:121|271:93|309:70|345:88|332:136|332:136|320:181|308:204|313:250|350:279|397:231|359:205,1,405
362,207,12087,5,0,0:0:0:0:
279,269,12776,2,0,L|275:290,1,11.25
159,217,13121,6,0,B|192:206|223:217|223:217|255:233|287:217|287:217|308:206|293:165|252:175|255:233|255:233|260:273|299:294|345:280|361:234|362:204,1,405
361,206,17604,5,0,0:0:0:0:
263,288,18293,2,0,L|259:305,1,11.25
185,237,18639,6,0,B|198:219|191:197|168:180|125:173|92:189|54:257|106:341|181:360|218:292|245:313|258:255|319:277|362:306,1,405
298,363,23121,5,0,0:0:0:0:
314,264,23811,6,0,P|319:307|315:350,2,74.249999773407
298,164,24501,2,0,P|293:207|297:250,2,74.249999773407
313,64,25190,2,0,P|318:107|314:150,2,74.249999773407
224,167,25880,6,0,P|261:168|297:163,2,74.249999773407
152,200,26570,2,0,P|189:198|225:203,2,74.249999773407
79,167,27259,2,0,P|116:168|152:163,2,74.249999773407
6,199,27949,2,0,P|43:197|79:202,2,74.249999773407
222,338,28639,5,0,0:0:0:0:
241,242,29328,6,0,P|247:279|243:324,2,74.249999773407
222,145,30018,2,0,P|216:182|220:227,2,74.249999773407
240,48,30708,2,0,P|246:85|242:130,2,74.249999773407
332,123,31397,6,0,P|282:124|235:142,2,74.249999773407
468,182,32087,2,0,P|418:181|371:163,1,74.249999773407
305,54,32432,1,0,0:0:0:0:
383,103,32604,2,0,P|342:128|328:165,1,74.249999773407
376,238,32949,1,0,0:0:0:0:
431,299,33121,2,0,P|390:290|324:317,1,111.37499966011
301,319,33466,2,0,P|290:271|267:246,1,74.249999773407
130,202,33811,1,0,0:0:0:0:
108,190,34156,5,0,0:0:0:0:
130,120,34328,1,0,0:0:0:0:
180,174,34501,2,0,P|167:236|66:248,1,148.499999546814
203,104,35018,5,0,0:0:0:0:
267,140,35190,1,0,0:0:0:0:
338,119,35363,2,0,P|374:110|412:121,1,74.249999773407
392,252,35708,1,0,0:0:0:0:
375,183,35880,6,0,P|334:212|352:311,1,148.499999546814
479,276,36484,1,0,0:0:0:0:
417,342,36742,6,0,L|322:335,1,74.249999773407
268,276,37087,1,0,0:0:0:0:
92,304,37259,6,0,P|158:319|202:292,1,111.37499966011
194,193,37777,1,0,0:0:0:0:
151,127,37949,1,0,0:0:0:0:
137,244,38121,1,0,0:0:0:0:
124,236,38466,5,0,0:0:0:0:
211,193,38639,2,0,P|260:215|297:205,1,74.249999773407
321,200,38897,1,0,0:0:0:0:
230,290,39070,1,0,0:0:0:0:
266,145,39242,1,0,0:0:0:0:
275,354,39501,1,0,0:0:0:0:
100,270,39673,5,0,0:0:0:0:
135,201,39846,1,0,0:0:0:0:
204,174,40018,2,0,P|222:201|269:207,1,74.249999773407
326,175,40277,1,0,0:0:0:0:
100,278,40535,5,0,0:0:0:0:
128,196,40708,1,0,0:0:0:0:
203,151,40880,1,0,0:0:0:0:
110,291,41225,5,0,0:0:0:0:
187,132,41397,2,0,P|185:183|198:203,1,74.249999773407
281,230,41656,1,0,0:0:0:0:
114,178,41828,1,0,0:0:0:0:
254,158,42001,1,0,0:0:0:0:
259,148,42259,6,0,P|290:128|337:128,1,74.249999773407
423,158,42604,5,0,0:0:0:0:
419,165,42777,1,0,0:0:0:0:
371,74,43035,1,0,0:0:0:0:
404,182,43294,5,0,0:0:0:0:
412,199,43466,1,0,0:0:0:0:
419,218,43639,1,0,0:0:0:0:
396,52,43984,1,0,0:0:0:0:
387,206,44501,5,0,0:0:0:0:
364,198,44587,1,0,0:0:0:0:
336,199,44673,1,0,0:0:0:0:
313,207,44759,1,0,0:0:0:0:
260,209,44846,5,4,0:0:0:0:
237,217,44932,1,4,0:0:0:0:
210,215,45018,1,4,0:3:0:0:
187,207,45104,1,4,0:3:0:0:
126,169,45190,6,0,B|129:145|142:128|169:127|169:127|164:141|164:141|181:133|201:135|217:143|217:143|240:134|249:111|249:111|259:70|223:34|179:28|150:85,1,337.499989700318,6|0,0:0|0:0,0:0:0:0:
63,139,45708,5,0,0:0:0:0:
56,168,45794,1,0,0:0:0:0:
60,198,45880,2,0,P|64:208|90:232,1,42.1875016093255,8|0,0:0|0:0,0:0:0:0:
295,143,46053,6,2,P|256:130|217:143,1,84.3750032186509,0|0,0:0|0:0,0:1:0:0:
146,262,46225,2,0,P|190:256|208:225,1,56.25,0|0,2:0|2:0,2:0:0:0:
386,142,46397,2,2,P|381:124|373:108,1,37.1249998867035,0|0,0:0|0:0,0:1:0:0:
373,98,46915,6,0,P|390:174|250:201,1,253.125009655953,2|0,0:0|0:0,0:1:0:0:
373,90,47259,2,0,P|388:107|395:132,1,37.1249998867035,8|0,0:0|0:0,0:0:0:0:
317,279,47518,6,0,P|271:240|227:261,1,112.5
284,251,47777,2,0,P|248:251|223:276,1,71.7187513679266
169,207,47949,2,0,B|218:191|218:191|250:202|250:202|300:189,1,112.5,6|0,0:0|0:0,0:0:0:0:
413,139,48208,1,0,0:0:0:0:
401,134,48294,6,0,P|397:179|415:205,1,56.25
474,96,48466,1,0,0:0:0:0:
481,111,48553,1,0,0:0:0:0:
486,126,48639,6,0,P|482:171|460:199,1,56.25,8|0,0:0|0:0,0:0:0:0:
405,300,48811,2,0,P|389:231|289:237,1,185.624999433517
286,240,49328,5,0,0:1:0:0:
398,304,49501,2,0,P|399:265|388:244,1,56.25
279,335,49673,2,0,P|364:343|368:233,1,202.499993820191,2|0,0:0|0:0,0:0:0:0:
283,249,50018,5,8,0:0:0:0:
151,190,50190,2,0,L|226:178,1,56.25
194,164,50363,2,0,L|138:164,1,56.25
131,136,50535,2,0,L|192:153,1,56.25
326,191,50708,6,0,B|333:162|325:137|289:110|289:110|291:101|300:96|300:96|334:127|401:132|401:132|406:127|408:119|408:119|378:92|377:37|429:17,1,337.499989700318,4|0,0:0|0:0,0:0:0:0:
478,115,51225,2,0,P|466:156|450:186,1,42.1875016093255
236,186,51397,1,8,0:0:0:0:
312,195,51656,6,0,P|290:242|205:257,1,140.625
161,209,51915,2,0,P|158:170|176:137,1,75.9375002896786
303,173,52087,6,0,P|189:236|195:132,1,286.875005471707
312,80,52432,2,0,L|325:40,1,42.1875016093255,2|0,0:0|0:0,0:0:0:0:
236,186,52604,2,0,L|249:225,1,42.1875016093255
152,69,52777,1,8,0:0:0:0:
165,75,53035,6,0,P|134:85|112:111,1,67.4999979400635
177,83,53294,2,0,P|136:92|112:127,1,84.3750032186509
105,323,53466,6,0,P|73:331|42:321,1,67.4999979400635,6|0,0:0|0:0,0:0:0:0:
275,300,53639,1,0,0:0:0:0:
287,303,53725,1,0,0:0:0:0:
335,279,53811,5,0,0:0:0:0:
314,236,53897,1,0,0:0:0:0:
322,190,53984,2,0,P|340:167|394:158,1,67.4999979400635
447,204,54156,1,8,0:0:0:0:
374,292,54328,6,0,P|320:213|450:224,1,269.999991760254
275,348,54759,2,0,L|387:363,1,112.5
300,333,55018,2,0,L|233:323,1,67.4999979400635
47,237,55190,6,0,P|114:189|194:205,1,168.75,2|0,0:0|0:0,0:0:0:0:
51,249,55535,6,0,B|70:202|137:176|195:214|195:214|234:240|267:232|291:211,1,259.874999206924,8|0,0:0|0:0,0:0:0:0:
194,204,56225,6,0,B|242:245|307:207|324:170|324:170|343:128|382:105|382:105|429:133|441:176,1,337.499989700318,6|0,0:0|0:0,0:0:0:0:
315,275,56742,5,0,0:0:0:0:
280,288,56828,1,0,0:0:0:0:
246,292,56915,2,0,P|207:287|190:275,1,42.1875016093255,8|0,0:0|0:0,0:0:0:0:
44,245,57087,6,0,P|58:223|137:186,1,84.3750032186509
290,193,57259,2,0,P|245:215|201:200,1,56.25
91,110,57432,2,0,P|91:91|102:77,1,37.1249998867035
101,65,57949,6,0,P|88:82|94:137,1,56.25,2|0,0:0|0:0,0:0:0:0:
186,322,58121,2,0,P|221:290|222:231,1,95.6250018239022
155,111,58294,1,8,0:0:0:0:
192,305,58553,6,0,P|220:251|190:213,1,112.5
226,244,58812,2,0,P|207:209|163:197,1,71.7187513679266
100,146,58984,6,0,L|84:225,1,56.25,6|0,0:0|0:0,0:0:0:0:
154,375,59156,5,0,0:0:0:0:
196,364,59242,1,0,0:0:0:0:
246,346,59328,5,0,0:0:0:0:
256,352,59415,1,0,0:0:0:0:
296,355,59501,5,0,0:0:0:0:
345,332,59587,1,0,0:0:0:0:
415,307,59673,6,0,P|431:279|423:250,1,56.25,8|0,0:0|0:0,0:0:0:0:
397,313,59846,6,0,P|423:275|391:220,1,111.37499966011
386,216,60190,1,0,0:0:0:0:
463,365,60363,1,2,0:0:0:0:
243,153,60535,6,0,P|200:174|179:242,1,84.3750032186509
313,193,60708,6,0,P|240:162|187:221,1,168.75,2|0,0:0|0:0,0:0:0:0:
196,234,61053,6,0,P|202:199|231:179,1,56.25,8|0,0:0|0:0,0:0:0:0:
319,297,61225,1,0,0:0:0:0:
294,287,61311,1,0,0:0:0:0:
269,294,61397,6,0,L|261:361,1,56.25
243,355,61570,2,0,L|231:291,1,56.25
143,304,61742,6,0,B|95:291|55:299|55:299|66:253|47:210|47:210|76:188|123:209|123:209|165:227|210:206,1,337.499989700318,6|0,0:0|0:0,0:0:0:0:
80,130,62259,1,0,0:0:0:0:
111,132,62346,1,0,0:0:0:0:
135,139,62432,2,0,P|172:147|190:143,1,42.1875016093255,8|0,0:0|0:0,0:0:0:0:
328,66,62690,6,0,P|277:79|248:160,1,140.625
286,208,62949,2,0,P|323:216|359:207,1,75.9375002896786
348,78,63121,6,0,P|266:179|369:191,1,286.875005471707
480,82,63466,2,0,P|457:84|439:76,1,42.1875016093255,2|0,0:0|0:0,0:0:0:0:
323,142,63638,2,0,P|305:151|291:178,1,42.1875016093255
359,207,63811,6,0,P|247:159|347:70,1,253.125009655953,8|0,0:0|0:0,0:0:0:0:
483,33,64156,2,0,P|474:54|477:74,1,42.1875016093255
417,242,64328,2,0,P|425:220|422:200,1,42.1875016093255
456,140,64501,6,0,P|421:129|379:149,1,67.4999979400635,6|0,0:0|0:0,0:0:0:0:
292,169,64673,2,0,P|257:180|215:160,1,67.4999979400635
55,55,64846,5,0,0:0:0:0:
77,97,64932,1,0,0:0:0:0:
69,143,65019,2,0,P|61:170|76:204,1,67.4999979400635
257,111,65191,1,8,0:0:0:0:
128,307,65363,6,0,B|187:324|257:303|257:303|327:281|395:320,1,269.999991760254
486,252,65794,2,0,P|470:219|479:184,1,67.4999979400635
365,127,65966,2,0,P|337:92|285:84,1,84.3750032186509
253,227,66225,6,0,P|227:149|260:108,1,112.5,2|0,0:0|0:0,0:0:0:0:
229,219,66570,6,0,P|222:131|359:141,1,259.874999206924,8|0,0:0|0:0,0:0:0:0:
366,324,67259,6,0,B|313:309|270:319|270:319|220:333|158:318,1,185.624999433517,6|0,0:0|0:0,0:0:0:0:
100,302,67777,1,0,0:0:0:0:
100,302,67863,1,0,0:0:0:0:
100,302,67949,2,0,P|126:250|132:196,1,112.5
412,212,68984,5,0,0:0:0:0:
352,169,69156,2,0,B|310:152|273:185|222:168,1,112.5
171,147,69673,1,0,0:0:0:0:
169,132,70018,6,0,P|248:167|295:158,1,112.5
391,60,70535,2,0,P|366:84|358:110,1,56.25
423,257,71053,1,0,0:0:0:0:
417,263,71397,6,0,P|381:218|316:214,1,112.5
171,309,71915,2,0,P|207:301|224:275,1,56.25
257,98,72432,1,0,0:0:0:0:
248,91,72777,6,0,L|237:207,1,112.5
416,273,73294,2,0,P|393:249|362:229,1,56.25
227,211,73811,1,0,0:0:0:0:
210,225,74156,6,0,L|334:214,1,112.5,2|8,0:0|0:0,0:0:0:0:
404,208,74673,1,0,0:0:0:0:
227,211,74846,2,0,L|289:205,1,56.25,0|2,0:0|0:0,0:0:0:0:
418,192,75190,1,8,0:0:0:0:
404,208,75535,6,0,P|391:137|408:92,1,112.5,2|8,0:0|0:0,0:0:0:0:
468,266,76053,2,0,L|410:294,1,56.25
218,217,76570,1,8,0:0:0:0:
210,225,76915,6,0,L|225:104,1,112.5,2|8,0:0|0:0,0:0:0:0:
420,95,77432,1,2,0:0:0:0:
407,107,77518,2,0,P|397:135|415:195,1,84.375,2|2,0:0|0:0,0:0:0:0:
451,248,77949,1,8,0:0:0:0:
460,262,78294,6,0,L|331:253,1,112.5,2|8,0:0|0:0,0:0:0:0:
177,294,78811,1,2,0:0:0:0:
189,280,78897,2,0,P|225:260|273:274,1,84.375,2|0,0:0|0:0,0:0:0:0:
346,356,79328,1,8,0:0:0:0:
326,364,79673,6,0,L|343:237,1,112.5,2|8,0:0|0:0,0:0:0:0:
356,150,80190,1,2,0:0:0:0:
346,157,80277,2,0,P|308:164|264:143,1,84.375,2|2,0:0|0:0,0:0:0:0:
194,98,80708,1,8,0:0:0:0:
182,116,81053,6,0,P|196:150|174:230,1,112.5,2|8,0:0|0:0,0:0:0:0:
48,334,81570,1,2,0:0:0:0:
58,314,81656,2,0,P|96:299|142:303,1,84.375,2|0,0:0|0:0,0:0:0:0:
241,335,82087,1,8,0:0:0:0:
225,350,82432,6,0,L|244:238,1,112.5,2|8,0:0|0:0,0:0:0:0:
320,142,82949,1,2,0:0:0:0:
314,130,83035,2,0,P|284:108|228:113,1,84.375,2|2,0:0|0:0,0:0:0:0:
137,137,83466,1,8,0:0:0:0:
152,152,83811,6,0,L|270:177,1,112.5,2|8,0:0|0:0,0:0:0:0:
389,222,84328,1,2,0:0:0:0:
371,220,84415,2,0,P|322:245|303:290,1,84.375,2|0,0:0|0:0,0:0:0:0:
353,351,84846,1,8,0:0:0:0:
335,363,85190,6,0,L|199:348,1,112.5,2|8,0:0|0:0,0:0:0:0:
91,305,85708,1,2,0:0:0:0:
86,316,85794,1,2,0:0:0:0:
79,329,85880,2,0,L|65:262,1,56.25,2|2,0:0|0:0,0:0:0:0:
129,117,86225,1,8,0:0:0:0:
57,179,86397,1,0,0:0:0:0:
231,170,86570,6,0,P|211:221|252:268,1,112.5,2|8,0:0|0:0,0:0:0:0:
372,297,87087,1,2,0:0:0:0:
363,284,87173,2,0,L|376:190,1,84.375,2|0,0:0|0:0,0:0:0:0:
448,129,87604,1,8,0:0:0:0:
456,139,87949,6,0,L|341:128,1,112.5,2|8,0:0|0:0,0:0:0:0:
157,271,88553,2,0,L|73:280,1,84.375,2|0,0:0|0:0,0:0:0:0:
64,291,89328,6,0,L|55:232,1,42.1875016093255,8|0,0:0|0:0,0:0:0:0:
55,301,89673,5,2,0:0:0:0:
0,198,89846,1,8,0:0:0:0:
191,282,90018,1,2,0:0:0:0:
200,296,90363,6,0,L|244:283,1,42.1875016093255,8|0,0:0|0:0,0:0:0:0:
254,281,90708,6,0,L|298:294,1,42.1875016093255,8|0,0:0|0:0,0:0:0:0:
247,261,91053,5,2,0:0:0:0:
322,194,91225,1,8,0:0:0:0:
283,364,91397,1,2,0:0:0:0:
274,372,91742,6,0,L|279:313,1,42.1875016093255,8|0,0:0|0:0,0:0:0:0:
290,317,92087,6,0,L|285:258,1,42.1875016093255,8|0,0:0|0:0,0:0:0:0:
307,324,92432,5,2,0:0:0:0:
183,274,92604,1,8,0:0:0:0:
421,239,92777,1,2,0:0:0:0:
434,235,93121,6,0,L|438:188,1,42.1875016093255,8|0,0:0|0:0,0:0:0:0:
449,173,93466,6,0,L|440:130,1,42.1875016093255,8|0,0:0|0:0,0:0:0:0:
463,181,93811,5,2,0:0:0:0:
321,140,93984,1,8,0:0:0:0:
476,290,94156,1,2,0:0:0:0:
464,297,94501,6,0,L|420:279,1,42.1875016093255,8|0,0:0|0:0,0:0:0:0:
407,269,94846,6,0,L|364:283,1,42.1875016093255,8|0,0:0|0:0,0:0:0:0:
412,260,95190,5,2,0:0:0:0:
408,375,95363,1,8,0:0:0:0:
215,245,95535,1,2,0:0:0:0:
205,254,95880,6,0,L|172:210,1,42.1875016093255,8|0,0:0|0:0,0:0:0:0:
153,211,96225,6,0,L|149:154,1,42.1875016093255,8|0,0:0|0:0,0:0:0:0:
139,223,96570,5,2,0:0:0:0:
43,100,96742,1,8,0:0:0:0:
320,143,96915,1,2,0:0:0:0:
308,144,97259,6,0,L|309:209,1,42.1875016093255,8|0,0:0|0:0,0:0:0:0:
298,194,97604,6,0,L|289:258,1,42.1875016093255,8|0,0:0|0:0,0:0:0:0:
284,184,97949,5,2,0:0:0:0:
428,267,98121,1,8,0:0:0:0:
194,303,98294,1,2,0:0:0:0:
184,294,98639,6,0,L|201:242,1,42.1875016093255,8|0,0:0|0:0,0:0:0:0:
196,236,98984,6,0,L|187:187,1,42.1875016093255,8|0,0:0|0:0,0:0:0:0:
182,247,99328,5,2,0:0:0:0:
156,99,99501,1,8,0:0:0:0:
420,206,99673,1,2,0:0:0:0:
426,194,100018,6,0,L|444:249,1,42.1875016093255,8|0,0:0|0:0,0:0:0:0:
436,181,100363,5,10,0:0:0:0:
438,328,100535,1,2,0:0:0:0:
364,181,100708,5,10,0:0:0:0:
420,331,100880,1,2,0:0:0:0:
292,202,101053,5,10,0:0:0:0:
407,341,101225,1,2,0:0:0:0:
236,249,101397,5,10,0:0:0:0:
400,351,101570,1,2,0:0:0:0:
192,306,101742,5,10,0:0:0:0:
392,364,101915,1,2,0:0:0:0:
236,249,102087,5,10,0:0:0:0:
417,272,102259,1,2,0:0:0:0:
239,175,102432,5,10,0:0:0:0:
396,161,102604,1,2,0:0:0:0:
203,109,102777,5,10,0:0:0:0:
367,80,102949,1,2,0:0:0:0:
146,65,103121,5,10,0:0:0:0:
306,0,103294,1,2,0:0:0:0:
203,109,103466,5,10,0:0:0:0:
313,7,103638,1,2,0:0:0:0:
270,152,103811,5,10,0:0:0:0:
320,18,103983,1,2,0:0:0:0:
345,161,104156,5,10,0:0:0:0:
329,22,104328,1,2,0:0:0:0:
420,153,104501,5,10,0:0:0:0:
341,27,104673,1,2,0:0:0:0:
345,161,104846,5,10,0:0:0:0:
239,69,105018,1,2,0:0:0:0:
297,223,105190,5,10,0:0:0:0:
149,142,105363,1,2,0:0:0:0:
260,294,105535,5,10,0:0:0:0:
85,275,105708,1,2,0:0:0:0:
29,134,105880,5,10,0:0:0:0:
69,123,105966,1,2,0:0:0:0:
111,125,106053,1,10,0:0:0:0:
149,142,106139,1,2,0:0:0:0:
161,216,106225,5,10,0:0:0:0:
127,215,106311,1,2,0:0:0:0:
97,198,106397,1,10,0:0:0:0:
79,168,106484,1,2,0:0:0:0:
119,105,106570,5,10,0:0:0:0:
138,120,106656,1,2,0:0:0:0:
149,142,106742,1,10,0:0:0:0:
154,166,106828,1,2,0:0:0:0:
86,201,106915,5,10,0:0:0:0:
79,185,107001,1,2,0:0:0:0:
79,168,107087,1,10,0:0:0:0:
83,151,107173,1,2,0:0:0:0:
126,92,107259,5,10,0:0:0:0:
138,95,107346,1,2,0:0:0:0:
150,98,107432,1,10,0:0:0:0:
161,101,107518,1,2,0:0:0:0:
215,77,107604,5,10,0:0:0:0:
223,75,107690,1,2,0:0:0:0:
231,73,107777,1,10,0:0:0:0:
239,71,107863,1,2,0:0:0:0:
299,96,107949,5,10,0:0:0:0:
307,98,108035,1,2,0:0:0:0:
315,100,108121,1,10,0:0:0:0:
323,102,108208,1,2,0:0:0:0:
387,73,108294,5,10,0:0:0:0:
391,72,108380,1,2,0:0:0:0:
395,71,108466,1,10,0:0:0:0:
399,70,108553,1,2,0:0:0:0:
474,79,108639,6,0,L|493:131,3,42.1875016093255,2|0|0|0,0:0|0:0|0:0|0:0,0:0:0:0:
423,256,108984,1,0,0:0:0:0:
341,265,109242,6,0,L|357:218,1,42.1875016093255
430,173,109415,1,0,0:0:0:0:
421,181,109501,1,0,0:0:0:0:
331,264,109759,6,0,L|347:217,1,42.1875016093255
344,129,109932,1,0,0:0:0:0:
343,142,110018,1,0,0:0:0:0:
321,263,110277,6,0,L|337:216,1,42.1875016093255
256,175,110449,1,0,0:0:0:0:
266,182,110535,1,0,0:0:0:0:
101,241,110708,5,0,0:0:0:0:
106,261,110794,1,0,0:0:0:0:
127,308,110880,1,0,0:0:0:0:
148,316,110966,1,0,0:0:0:0:
240,298,111053,5,4,0:0:0:0:
223,285,111139,1,4,0:0:0:0:
241,238,111225,1,4,0:3:0:0:
238,217,111311,1,4,0:3:0:0:
170,240,111397,6,0,P|224:142|312:209,1,253.125009655953,6|0,0:0|0:0,0:0:0:0:
394,214,111742,2,0,P|386:249|352:276,1,67.4999979400635,8|0,0:0|0:0,0:0:0:0:
306,344,111915,1,0,0:0:0:0:
261,278,112001,6,0,B|273:265|315:254|359:281|359:281|386:277|403:244|404:225,1,180,2|0,0:0|0:0,0:0:0:0:
264,127,112259,2,0,P|296:145|315:176,1,67.4999979400635
304,351,112432,1,8,0:0:0:0:
241,202,112604,1,2,0:3:0:0:
392,120,112777,6,0,B|390:162|355:183|325:180|325:180|306:124|257:108|222:119,1,202.499993820191,2|0,0:0|0:0,0:0:0:0:
398,113,113121,2,0,P|357:184|317:188,1,112.5,8|0,0:0|0:0,0:0:0:0:
156,206,113380,2,0,P|213:194|246:208,1,90,2|0,0:0|0:0,0:0:0:0:
249,328,113639,1,2,0:0:0:0:
249,200,113811,6,0,P|202:184|155:198,1,101.249996910095,8|0,0:0|0:0,0:0:0:0:
256,321,114156,6,0,P|264:206|151:192,1,253.125009655953,6|0,0:0|0:0,0:0:0:0:
178,329,114501,2,0,P|188:360|212:384,1,67.4999979400635,8|0,0:0|0:0,0:0:0:0:
210,258,114673,1,0,0:0:0:0:
267,198,114759,6,0,P|291:259|267:321,1,134.999995880127,2|0,0:0|0:0,0:0:0:0:
354,135,115018,2,0,P|396:139|435:184,1,67.4999979400635
426,304,115190,6,0,P|379:271|376:218,1,111.37499966011,8|0,0:0|0:0,0:0:0:0:
371,207,115535,6,0,P|394:300|491:197,1,253.125009655953,2|0,0:0|0:0,0:0:0:0:
420,318,115880,6,0,P|372:291|352:240,1,112.5,8|0,0:0|0:0,0:0:0:0:
495,290,116139,2,0,P|515:250|507:207,1,90,2|0,0:0|0:0,0:0:0:0:
434,246,116397,1,2,0:0:0:0:
214,317,116570,2,0,L|319:299,1,84.375,8|0,0:0|0:0,0:0:0:0:
220,323,116915,6,0,B|315:307|315:307|358:324|358:324|403:315|434:290|431:230,1,253.125009655953,6|0,0:0|0:0,0:0:0:0:
388,326,117259,2,0,P|418:300|436:265,1,67.4999979400635,8|0,0:0|0:0,0:0:0:0:
222,245,117432,1,0,0:0:0:0:
214,317,117518,6,0,B|321:299|321:299|389:326|389:326,1,180,2|0,0:0|0:0,0:0:0:0:
473,195,117777,2,0,P|449:183|392:195,1,67.4999979400635
301,383,117949,1,8,0:0:0:0:
430,252,118121,1,2,0:3:0:0:
179,259,118294,6,0,B|181:219|216:198|250:199|250:199|237:240|243:271|269:288,1,202.499993820191,2|0,0:0|0:0,0:0:0:0:
172,265,118638,2,0,P|225:194|251:193,1,112.5,8|0,0:0|0:0,0:0:0:0:
346,307,118897,2,0,P|352:266|322:229,1,90,2|0,0:0|0:0,0:0:0:0:
213,372,119156,1,2,0:0:0:0:
328,223,119328,6,0,P|359:262|353:312,1,101.249996910095,8|0,0:0|0:0,0:0:0:0:
220,264,119673,6,0,P|319:211|358:317,1,253.125009655953,6|0,0:0|0:0,0:0:0:0:
159,307,120018,2,0,P|146:263|157:225,1,67.4999979400635,8|0,0:0|0:0,0:0:0:0:
292,279,120190,1,0,0:0:0:0:
336,213,120277,2,0,P|360:236|372:289,1,78.7499975967408,2|0,0:0|0:0,0:0:0:0:
243,326,120449,6,0,B|215:367|215:367|114:367|114:367|159:307,1,225
236,351,120708,6,0,B|220:373|220:373|163:373,1,84.3750032186509,8|0,0:0|0:0,0:0:0:0:
48,339,120880,2,0,B|74:303,1,45
224,246,121053,6,0,P|328:196|378:303,1,253.125009655953,2|0,0:0|0:0,0:0:0:0:
158,307,121397,1,8,0:0:0:0:
147,282,121484,1,0,0:0:0:0:
144,253,121570,1,0,0:0:0:0:
146,222,121656,1,2,0:0:0:0:
101,143,121742,6,0,P|132:156|155:200,1,84.3750032186509
152,323,121915,2,0,P|135:293|128:253,1,67.4999979400635,2|0,0:0|0:0,0:0:0:0:
210,141,122087,5,8,0:0:0:0:
204,125,122173,1,0,0:0:0:0:
195,110,122259,1,0,0:0:0:0:
183,97,122346,1,0,0:0:0:0:
123,86,122432,6,0,P|190:131|140:277,1,253.125009655953,6|0,0:0|0:0,0:0:0:0:
117,79,122777,6,0,P|149:86|178:103,1,67.4999979400635,8|0,0:0|0:0,0:0:0:0:
74,206,122949,1,0,0:0:0:0:
99,179,123035,6,0,B|119:157|119:157|145:170|138:205|107:247|27:173,1,134.999995880127,2|0,0:0|0:0,0:0:0:0:
113,71,123294,2,0,P|147:76|176:92,1,67.4999979400635
304,257,123466,1,8,0:0:0:0:
35,147,123639,2,0,P|10:173|5:214,1,67.4999979400635,2|0,0:3|0:0,0:0:0:0:
136,276,123811,6,0,B|170:268|197:227|200:197|200:197|228:169|282:169|307:198,1,202.499993820191,2|0,0:0|0:0,0:0:0:0:
140,283,124156,2,0,P|180:259|204:200,1,112.5,8|0,0:0|0:0,0:0:0:0:
371,207,124415,2,0,P|350:246|309:263,1,90,2|0,0:0|0:0,0:0:0:0:
98,180,124673,1,2,0:0:0:0:
310,270,124846,6,0,P|356:254|378:206,1,101.249996910095,8|0,0:0|0:0,0:0:0:0:
291,149,125190,6,0,P|386:203|306:277,1,253.125009655953,6|0,0:0|0:0,0:0:0:0:
283,145,125535,2,0,P|311:134|355:148,1,67.4999979400635,8|0,0:0|0:0,0:0:0:0:
320,211,125708,1,0,0:0:0:0:
354,278,125794,6,0,P|283:279|242:192,1,134.999995880127,2|0,0:0|0:0,0:0:0:0:
441,242,126053,2,0,P|450:277|435:321,1,67.4999979400635
268,146,126225,6,0,P|322:125|374:150,1,111.37499966011,8|0,0:0|0:0,0:0:0:0:
384,152,126570,6,0,P|294:119|295:260,1,253.125009655953,2|0,0:0|0:0,0:0:0:0:
260,129,126915,6,0,P|313:105|370:123,1,112.5,8|0,0:0|0:0,0:0:0:0:
236,201,127174,2,0,P|251:238|296:264,1,90,2|0,0:0|0:0,0:0:0:0:
315,190,127432,1,2,0:0:0:0:
503,216,127604,6,0,P|461:214|422:193,1,84.375,8|0,0:0|0:0,0:0:0:0:
509,210,127949,6,0,B|482:213|448:208|420:182|420:182|386:188|386:188|384:137|332:89|253:137,1,253.125009655953,6|0,0:0|0:0,0:0:0:0:
387,255,128294,2,0,L|320:266,1,67.4999979400635,8|0,0:0|0:0,0:0:0:0:
495,119,128466,1,0,0:0:0:0:
512,205,128553,6,0,B|482:208|452:203|423:177|423:177|336:192|336:192,1,180,2|0,0:0|0:0,0:0:0:0:
282,119,128811,2,0,P|319:107|356:117,1,67.4999979400635
346,346,128984,1,8,0:0:0:0:
324,196,129156,2,0,P|353:225|358:251,1,67.4999979400635,2|0,0:3|0:0,0:0:0:0:
270,347,129328,6,0,B|268:305|305:271|345:268|345:268|369:216|307:172|260:210,1,253.125009655953,2|0,0:0|0:0,0:0:0:0:
265,354,129673,2,0,P|276:303|327:266,1,112.5,8|0,0:0|0:0,0:0:0:0:
132,176,129932,2,2,P|156:212|197:228,1,90,0|0,0:0|0:0,0:0:0:0:
335,134,130190,1,2,0:0:0:0:
197,238,130363,6,0,P|148:221|120:175,1,101.249996910095,8|0,0:0|0:0,0:0:0:0:
275,99,130708,6,0,P|367:72|342:203,1,253.125009655953,6|0,0:0|0:0,0:0:0:0:
196,248,131053,2,0,P|149:236|122:208,1,67.4999979400635,8|0,0:0|0:0,0:0:0:0:
320,147,131225,1,0,0:0:0:0:
335,134,131311,1,2,0:0:0:0:
354,128,131397,6,0,L|368:199,1,67.4999979400635,8|0,0:0|0:0,0:0:0:0:
273,246,131570,2,0,L|259:312,1,45,2|0,0:0|0:0,0:0:0:0:
378,200,131742,2,0,L|365:134,1,67.4999979400635,8|0,0:0|0:0,0:0:0:0:
252,295,131915,2,0,L|261:251,1,45,2|0,0:0|0:0,0:0:0:0:
179,77,132087,6,0,L|170:141,1,56.25,2|0,0:0|0:0,0:0:0:0:
174,70,132259,2,0,L|165:134,1,56.25,2|0,0:0|0:0,0:0:0:0:
98,230,132432,6,0,L|88:159,1,67.4999979400635,2|0,0:0|0:0,0:0:0:0:
92,237,132604,2,0,L|82:166,1,67.4999979400635,2|0,0:0|0:0,0:0:0:0:
23,72,132777,6,0,L|3:164,1,67.4999979400635,2|0,0:0|0:0,0:0:0:0:
216,242,132949,2,0,P|235:211|239:175,1,67.4999979400635,2|0,0:0|0:0,0:0:0:0:
51,297,133121,5,2,0:0:0:0:
94,350,133208,1,2,0:0:0:0:
157,370,133294,1,2,0:0:0:0:
217,342,133380,1,2,0:0:0:0:
298,294,133466,6,0,B|287:271|242:241|202:248|202:248|237:217|253:154|200:113|185:125,1,253.125009655953,6|0,0:0|0:0,0:0:0:0:
132,228,133811,2,0,P|160:305|192:317,1,67.4999979400635,8|0,0:0|0:0,0:0:0:0:
254,350,133984,1,0,0:0:0:0:
304,295,134070,6,0,P|263:253|209:248,1,90,2|0,0:0|0:0,0:0:0:0:
125,227,134328,2,0,P|122:260|135:291,1,67.4999979400635
385,233,134501,6,0,B|351:239|327:274|315:313|315:313|303:268|279:245|230:230|230:230|266:215|294:189|298:137,1,337.5,8|0,0:0|0:0,0:0:0:0:
181,103,134846,1,2,0:0:0:0:
486,141,135018,6,0,L|473:87,1,56.25
391,78,135190,2,0,L|378:133,1,56.25,8|0,0:0|0:0,0:0:0:0:
181,103,135363,1,0,0:0:0:0:
215,42,135449,6,0,B|261:48|282:88|319:79,1,112.5,2|0,0:0|0:0,0:0:0:0:
354,13,135708,1,2,0:0:0:0:
103,80,135880,6,0,P|99:111|113:156,1,56.25,8|0,0:0|0:0,0:0:0:0:
204,285,136053,2,0,P|209:257|205:230,1,56.25
127,59,136225,6,0,P|120:151|265:114,1,253.125009655953,6|0,0:0|0:0,0:0:0:0:
321,100,136570,2,0,P|252:84|244:93,1,56.25,8|0,0:0|0:0,0:0:0:0:
186,110,136742,1,0,0:0:0:0:
111,66,136828,6,0,P|100:122|125:172,1,112.5,2|0,0:0|0:0,0:0:0:0:
204,285,137087,2,0,P|212:256|205:229,1,56.25
111,46,137259,6,0,P|88:98|114:173,1,126.562504827976,8|0,0:0|0:0,0:0:0:0:
148,26,137604,6,0,P|99:92|123:170,1,168.75,2|0,0:0|0:0,0:0:0:0:
283,112,137863,1,0,0:0:0:0:
285,136,137949,2,0,P|269:167|207:194,1,67.4999979400635,8|0,0:0|0:0,0:0:0:0:
197,107,138121,1,0,0:0:0:0:
203,87,138208,6,0,P|216:62|326:40,1,134.999995880127,2|0,0:0|0:0,0:0:0:0:
105,162,138466,2,0,P|92:131|89:97,1,67.4999979400635,2|0,0:0|0:0,0:0:0:0:
241,31,138639,2,0,P|273:21|319:26,1,67.4999979400635,8|0,0:0|0:0,0:0:0:0:
318,257,138811,2,0,P|281:234|268:178,1,67.4999979400635
231,45,138984,6,0,P|319:35|323:192,1,253.125009655953,6|0,0:0|0:0,0:0:0:0:
225,58,139328,6,0,P|252:40|285:34,1,67.4999979400635,8|0,0:0|0:0,0:0:0:0:
350,169,139501,1,0,0:0:0:0:
319,246,139587,6,0,P|269:189|289:116,1,157.499995193482,2|0,0:0|0:0,0:0:0:0:
419,256,139846,2,0,P|406:291|354:318,1,56.25
172,117,140018,6,0,B|181:72|215:38|215:38|295:25|363:43|363:43|400:75|404:143,1,337.5,8|0,0:0|0:0,0:0:0:0:
315,254,140363,6,0,P|291:239|258:187,1,56.25,2|0,0:0|0:0,0:0:0:0:
196,41,140535,2,0,P|172:86|163:113,1,56.25
346,179,140708,1,8,0:0:0:0:
256,371,140880,1,0,0:0:0:0:
205,318,140966,6,0,B|234:302|261:316|261:316|309:337|334:321,1,112.5
406,322,141225,1,2,0:0:0:0:
168,257,141397,6,0,P|197:243|246:245,1,56.25,8|0,0:0|0:0,0:0:0:0:
382,241,141570,2,0,P|355:251|328:250,1,56.25
158,255,141742,6,0,P|282:278|222:385,1,253.125009655953,6|0,0:0|0:0,0:0:0:0:
88,287,142087,2,0,P|81:256|90:227,1,56.25,8|0,0:0|0:0,0:0:0:0:
209,308,142259,1,0,0:0:0:0:
254,232,142346,6,0,P|288:266|291:339,1,112.5,2|0,0:0|0:0,0:0:0:0:
87,361,142604,2,0,P|43:347|28:324,1,56.25
68,158,142777,1,8,0:0:0:0:
150,298,142949,6,0,L|217:291,1,42.1875016093255
88,287,143121,2,0,L|277:304,1,168.75,2|0,0:0|0:0,0:0:0:0:
284,285,143466,2,0,L|115:300,1,134.999995880127,8|0,0:0|0:0,0:0:0:0:
15,268,143725,2,0,P|28:332|87:361,1,134.999995880127,2|0,0:0|0:0,0:0:0:0:
347,251,143984,2,0,P|324:223|280:216,1,67.4999979400635,2|0,0:0|0:0,0:0:0:0:
98,272,144156,6,0,L|87:285,15,16.8749994850159,8|0|0|0|0|0|0|0|0|0|0|0|0|0|0|0,0:0|0:0|0:0|0:0|0:0|0:0|0:0|0:0|0:0|0:0|0:0|0:0|0:0|0:0|0:0|0:0,0:0:0:0:
284,285,144673,5,0,0:3:0:0:
410,266,144846,6,0,P|372:298|285:290,1,134.999995880127,8|0,0:0|0:0,0:0:0:0:
61,212,145104,2,0,P|97:202|166:292,1,168.750006437302,2|0,0:0|0:0,0:0:0:0:
334,316,145363,2,0,P|289:306|269:292,1,56.25
98,272,145535,6,0,B|147:238|139:181|102:154|102:154|117:119|154:106|154:106|198:138|216:175|202:226,1,337.5,8|0,0:0|0:0,0:0:0:0:
61,212,145880,1,2,0:0:0:0:
36,11,146053,6,0,B|61:28|63:66,1,56.25
99,143,146225,2,0,B|108:122|138:104,1,56.25,8|0,0:0|0:0,0:0:0:0:
237,98,146397,1,0,0:0:0:0:
222,29,146484,6,0,P|282:37|312:91,1,112.5,2|0,0:0|0:0,0:0:0:0:
302,151,146742,1,2,0:0:0:0:
357,224,146915,6,0,P|329:239|282:243,1,56.25,8|0,0:0|0:0,0:0:0:0:
113,227,147088,2,0,P|137:213|164:208,1,56.25
371,195,147259,6,0,P|288:235|268:87,1,253.125009655953,6|0,0:0|0:0,0:0:0:0:
260,31,147605,2,0,P|300:88|295:99,1,56.25,8|0,0:0|0:0,0:0:0:0:
302,157,147777,1,0,0:0:0:0:
368,209,147863,6,0,P|320:242|262:233,1,112.5,2|0,0:0|0:0,0:0:0:0:
107,222,148122,2,0,P|130:203|158:196,1,56.25
370,217,148294,6,0,P|339:243|255:238,1,126.562504827976,8|0,0:0|0:0,0:0:0:0:
385,148,148639,6,0,P|355:222|252:230,1,168.750006437302,2|0,0:0|0:0,0:0:0:0:
263,66,148898,1,0,0:0:0:0:
240,77,148984,2,0,P|217:103|215:171,1,67.4999979400635,8|0,0:0|0:0,0:0:0:0:
302,151,149156,1,0,0:0:0:0:
323,137,149242,6,0,P|306:173|301:122,1,134.999995880127,2|0,0:0|0:0,0:0:0:0:
394,161,149501,2,0,P|388:193|335:227,1,67.4999979400635,2|0,0:0|0:0,0:0:0:0:
257,66,149674,2,0,P|289:54|336:64,1,67.4999979400635,8|0,0:0|0:0,0:0:0:0:
247,233,149846,2,0,P|216:210|203:154,1,67.4999979400635
405,90,150018,6,0,P|460:127|423:228,1,168.75,6|0,0:0|0:0,0:0:0:0:
271,167,150363,2,0,B|311:148|311:148|354:173|354:173|393:160,1,134.999995880127,8|0,0:0|0:0,0:0:0:0:
308,238,150621,1,0,0:0:0:0:
308,228,150708,2,0,B|348:249|348:249|389:234,1,78.7499975967408,2|0,0:0|0:0,0:0:0:0:
251,101,150880,2,0,L|323:68,1,78.7499975967408
169,160,151053,6,0,P|130:283|258:243,1,286.875005471707,8|0,0:0|0:0,0:0:0:0:
252,101,151397,6,0,L|244:194,1,84.3750032186509,2|0,0:0|0:0,0:0:0:0:
184,233,151570,2,0,L|176:326,1,67.4999979400635,2|0,0:0|0:0,0:0:0:0:
177,76,151742,6,0,L|169:169,1,84.3750032186509,8|0,0:0|0:0,0:0:0:0:
112,208,151915,2,0,L|104:301,1,67.4999979400635,2|0,0:0|0:0,0:0:0:0:
253,262,152087,5,2,0:0:0:0:
245,185,152173,1,2,0:0:0:0:
184,233,152259,1,2,0:0:0:0:
170,160,152346,1,2,0:0:0:0:
112,208,152432,1,10,0:0:0:0:
254,324,152604,5,2,0:0:0:0:
175,260,152690,1,2,0:0:0:0:
72,257,152777,1,2,0:0:0:0:
256,192,152863,12,0,154846,0:0:0:0:
183,170,155190,5,2,0:0:0:0:
184,175,155277,1,0,0:0:0:0:
185,180,155363,1,0,0:0:0:0:
186,185,155449,1,2,0:0:0:0:
187,190,155535,2,0,P|230:204|278:190,1,90
331,106,156053,6,0,L|329:125,3,15
343,95,156570,5,0,0:0:0:0:
355,203,156742,1,0,0:0:0:0:
355,84,156915,1,0,0:0:0:0:
432,209,157087,1,0,0:0:0:0:
367,73,157259,1,0,0:0:0:0:
496,171,157432,1,0,0:0:0:0:
498,70,157604,1,0,0:0:0:0:
432,209,158064,6,0,L|423:251,1,30
496,171,158294,2,0,P|464:142|406:139,1,90
350,174,158811,6,0,L|354:190,3,15
265,266,159242,2,0,L|268:284,1,11.25
272,252,159328,6,0,P|245:256|219:250,1,45
156,181,159673,2,0,P|129:177|103:183,1,45
29,218,160018,1,0,0:0:0:0:
47,325,160190,1,0,0:0:0:0:
131,256,160363,1,0,0:0:0:0:
148,363,160535,1,0,0:0:0:0:
233,295,160708,1,0,0:0:0:0:
251,286,160794,1,0,0:0:0:0:
271,282,160880,1,0,0:0:0:0:
291,283,160966,1,0,0:0:0:0:
311,288,161053,6,0,P|357:301|398:288,1,90
460,219,161570,2,0,L|465:237,3,15
464,203,162087,5,0,0:0:0:0:
422,94,162259,1,0,0:0:0:0:
468,187,162432,1,0,0:0:0:0:
357,132,162604,1,0,0:0:0:0:
472,171,162777,1,0,0:0:0:0:
317,193,162949,1,0,0:0:0:0:
397,269,163121,1,0,0:0:0:0:
326,301,163294,5,0,0:0:0:0:
336,318,163380,1,0,0:0:0:0:
350,332,163466,1,0,0:0:0:0:
367,342,163553,1,0,0:0:0:0:
386,346,163639,1,0,0:0:0:0:
406,347,163725,1,0,0:0:0:0:
425,342,163811,6,0,P|459:317|476:271,1,90
472,171,164242,6,0,P|475:193|472:208,2,33.75
314,228,164759,2,0,L|310:240,1,11.25
322,229,164846,6,0,P|348:233|368:230,1,45
390,106,165190,2,0,P|394:132|391:152,1,45
282,49,165535,2,0,P|308:45|328:48,1,45
286,148,165880,1,0,0:0:0:0:
183,169,166225,5,2,0:0:0:0:
183,176,166312,1,0,0:0:0:0:
185,181,166398,1,0,0:0:0:0:
189,186,166484,1,2,0:0:0:0:
193,190,166570,6,0,B|221:198|262:181|285:148|285:148|302:170|285:214,1,168.750006437302,8|8,0:0|0:0,0:0:0:0:
113,141,167087,1,0,0:0:0:0:
107,135,167173,1,0,0:0:0:0:
103,128,167259,2,0,B|112:91|154:75|191:87|191:87|184:54|137:53,1,168.750006437302,8|8,0:0|0:0,0:0:0:0:
42,197,167777,1,0,0:0:0:0:
68,291,167949,6,0,L|160:269,1,84.3750032186509,8|0,0:0|0:0,0:0:0:0:
236,256,168294,1,8,0:0:0:0:
231,263,168466,1,0,0:0:0:0:
108,146,168639,2,0,B|148:169|222:124|222:124|200:168,1,168.750006437302,8|8,0:0|0:0,0:0:0:0:
260,59,169156,1,0,0:0:0:0:
280,50,169242,1,0,0:0:0:0:
309,50,169328,6,0,P|297:96|396:127,1,168.750006437302,8|8,0:0|0:0,0:0:0:0:
438,299,169846,1,0,0:0:0:0:
419,286,169932,1,0,0:0:0:0:
395,283,170018,2,0,B|368:244|317:242|317:242|275:274,1,126.562504827976,8|0,0:0|0:0,0:0:0:0:
235,305,170363,6,0,L|239:213,1,84.3750032186509,8|0,0:0|0:0,0:0:0:0:
116,92,170708,2,0,L|120:184,1,84.3750032186509,8|0,0:0|0:0,0:0:0:0:
238,220,171053,5,8,0:0:0:0:
47,191,171225,1,0,0:0:0:0:
190,129,171397,1,8,0:0:0:0:
217,313,171570,1,0,0:0:0:0:
447,98,171742,1,8,0:0:0:0:
438,117,171828,1,0,0:0:0:0:
434,138,171915,1,0,0:0:0:0:
438,158,172001,1,0,0:0:0:0:
444,178,172087,6,0,B|465:217|465:217|459:261,1,84.3750032186509,8|0,0:0|0:0,0:0:0:0:
405,317,172346,1,8,0:0:0:0:
190,129,172604,6,0,P|161:142|134:138,1,42.1875016093255,8|0,0:0|0:0,0:0:0:0:
227,67,172777,2,0,P|257:99|262:154,1,84.3750032186509,8|0,0:0|0:0,0:0:0:0:
151,67,173035,1,8,0:0:0:0:
281,293,173294,6,0,P|308:285|351:298,1,46.687500676775,8|0,0:0|0:0,0:0:0:0:
244,354,173466,2,0,P|215:317|218:259,1,93.37500135355,8|0,0:0|0:0,0:0:0:0:
311,359,173725,1,8,0:0:0:0:
129,144,173984,6,0,P|149:160|160:182,1,50.6249984550477,8|0,0:0|0:0,0:0:0:0:
58,148,174156,2,0,P|72:103|122:73,1,101.249996910095,8|0,0:0|0:0,0:0:0:0:
92,206,174415,1,8,0:0:0:0:
80,216,174501,6,0,L|76:268,1,50.6249984550477
88,262,174673,2,0,L|92:314,1,50.6249984550477,8|0,0:0|0:0,0:0:0:0:
88,333,174846,5,8,0:0:0:0:
311,205,175018,1,8,0:0:0:0:
217,350,175190,1,8,0:0:0:0:
146,132,175363,1,8,0:0:0:0:
304,300,175535,5,8,0:0:0:0:
236,90,175708,1,8,0:0:0:0:
140,286,175880,1,8,0:0:0:0:
375,161,176053,1,8,0:0:0:0:
146,132,176225,5,10,0:0:0:0:
170,143,176311,1,10,0:0:0:0:
189,160,176397,1,10,0:0:0:0:
199,185,176484,1,10,0:0:0:0:
132,200,176570,5,10,0:0:0:0:
109,174,176656,1,10,0:0:0:0:
100,140,176742,1,10,0:0:0:0:
109,107,176828,1,10,0:0:0:0:
163,57,176915,5,10,0:0:0:0:
181,94,177001,1,10,0:0:0:0:
178,135,177087,1,10,0:0:0:0:
153,168,177173,1,10,0:0:0:0:
109,107,177259,5,10,0:0:0:0:
132,68,177346,1,10,0:0:0:0:
167,40,177432,1,10,0:0:0:0:
212,35,177518,1,10,0:0:0:0:
251,38,177604,6,0,P|282:42|315:63,1,56.25,2|0,0:0|0:0,0:0:0:0:
257,223,177949,2,0,P|223:221|184:192,1,64.1249992172241
242,31,178294,6,0,P|277:32|310:50,1,73.1249966526033
262,229,178639,2,0,P|225:226|183:201,1,82.1250022556306
234,26,178984,6,0,P|272:25|316:50,1,90
271,232,179328,2,0,P|220:231|178:206,1,97.8750008213997
223,138,179673,5,0,0:0:0:0:
240,157,179759,1,0,0:0:0:0:
253,222,179846,1,0,0:0:0:0:
247,250,179932,1,0,0:0:0:0:
332,277,180018,6,0,P|340:238|324:199,1,67.4999979400635
167,221,180190,2,0,P|163:260|178:290,1,67.4999979400635
331,243,180363,6,0,P|255:167|208:316,1,253.125009655953,6|0,0:0|0:0,0:0:0:0:
325,327,180708,2,0,P|358:329|388:311,1,67.4999979400635,8|0,0:0|0:0,0:0:0:0:
247,250,180880,1,2,0:0:0:0:
259,159,180966,6,0,P|194:177|164:216,1,112.5,6|0,0:0|0:0,0:0:0:0:
463,321,181225,2,0,P|465:284|449:259,1,67.4999979400635,4|0,0:0|0:0,0:0:0:0:
247,250,181397,6,0,B|229:278|231:318|231:318|270:311|301:330|301:330|331:346|396:339|398:297,1,253.125009655953,12|0,0:0|0:0,0:0:0:0:
308,162,181742,5,2,0:0:0:0:
245,137,181828,1,0,0:0:0:0:
184,167,181915,1,0,0:0:0:0:
150,225,182001,1,0,0:0:0:0:
141,291,182087,2,0,B|192:275|232:318|232:318|262:310|287:326,1,134.999995880127,8|0,0:0|0:0,0:0:0:0:
463,321,182346,2,0,P|463:282|409:238,1,112.5,2|0,0:0|0:0,0:0:0:0:
147,302,182604,2,0,P|180:297|209:314,1,67.4999979400635,2|0,0:0|0:0,0:0:0:0:
341,366,182777,6,0,L|318:250,1,84.3750032186509,12|0,0:0|0:0,0:0:0:0:
271,113,182949,2,0,L|248:229,1,84.3750032186509,4|0,0:0|0:0,0:0:0:0:
468,333,183121,6,0,P|419:228|338:346,1,253.125009655953,6|0,0:0|0:0,0:0:0:0:
212,324,183466,2,0,P|163:334|120:314,1,67.4999979400635,8|0,0:0|0:0,0:0:0:0:
169,243,183639,1,2,0:0:0:0:
101,283,183725,6,0,P|118:304|228:302,1,134.999995880127,6|0,0:0|0:0,0:0:0:0:
99,139,183984,2,0,P|70:148|50:168,1,56.25,4|0,0:0|0:0,0:0:0:0:
146,330,184156,6,0,P|252:281|232:190,1,202.499993820191,12|0,0:0|0:0,0:0:0:0:
103,131,184501,6,0,P|32:187|137:248,1,253.125009655953,2|0,0:0|0:0,0:0:0:0:
256,290,184846,2,0,P|266:238|258:206,1,67.4999979400635,8|0,0:0|0:0,0:0:0:0:
99,195,185018,1,2,0:0:0:0:
52,138,185104,6,0,P|28:169|50:253,1,112.5,2|0,0:0|0:0,0:0:0:0:
139,335,185363,2,0,P|176:344|234:324,1,67.4999979400635,2|0,0:0|0:0,0:0:0:0:
360,240,185535,2,0,L|370:345,1,84.3750032186509,12|0,0:0|0:0,0:0:0:0:
263,224,185708,2,0,L|273:119,1,84.3750032186509
100,196,185880,6,0,P|99:296|234:320,1,253.125009655953,6|0,0:0|0:0,0:0:0:0:
430,249,186225,2,0,P|406:184|368:169,1,67.4999979400635,8|0,0:0|0:0,0:0:0:0:
179,244,186397,1,2,0:0:0:0:
103,205,186484,6,0,P|107:292|135:322,1,112.5,2|0,0:0|0:0,0:0:0:0:
437,282,186742,2,0,P|446:249|443:212,1,67.4999979400635
208,181,186915,6,0,B|237:202|273:209|304:176|304:176|344:140|382:150|422:174,1,202.499993820191,12|0,0:0|0:0,0:0:0:0:
433,275,187259,6,0,P|400:170|295:282,1,253.125009655953,6|0,0:0|0:0,0:0:0:0:
139,335,187604,2,0,P|176:344|234:324,1,67.4999979400635,12|0,0:0|0:0,0:0:0:0:
362,240,187777,1,2,0:0:0:0:
383,156,187863,6,0,P|345:154|283:207,1,112.5,2|0,0:0|0:0,0:0:0:0:
436,282,188121,2,0,P|451:239|421:178,1,67.4999979400635,2|0,0:0|0:0,0:0:0:0:
130,337,188294,6,0,P|178:352|247:295,1,126.562504827976,8|0,0:0|0:0,0:0:0:0:
189,173,188639,6,0,P|262:265|189:357,1,253.125009655953,6|0,0:0|0:0,0:0:0:0:
48,180,188984,2,0,P|80:145|108:130,1,67.4999979400635,8|0,0:0|0:0,0:0:0:0:
258,168,189156,5,2,0:0:0:0:
285,203,189242,1,2,0:0:0:0:
292,249,189328,1,0,0:0:0:0:
289,289,189415,1,0,0:0:0:0:
277,319,189501,2,0,P|263:341|238:358,1,56.25
45,273,189673,5,8,0:0:0:0:
47,228,189760,1,0,0:0:0:0:
59,185,189846,2,0,P|73:163|98:145,1,56.25
268,156,190018,6,0,P|313:228|231:370,1,253.125009655953,2|0,0:0|0:0,0:0:0:0:
57,275,190363,2,0,P|60:241|75:201,1,67.4999979400635,8|0,0:0|0:0,0:0:0:0:
188,251,190535,1,0,0:0:0:0:
295,200,190621,6,0,P|308:251|273:336,1,134.999995880127,2|0,0:0|0:0,0:0:0:0:
49,276,190880,6,0,P|51:241|66:201,1,67.4999979400635,2|0,0:0|0:0,0:0:0:0:
0,86,191053,2,0,P|39:97|118:79,1,67.4999979400635,12|0,0:0|0:0,0:0:0:0:
185,70,191225,2,0,P|218:65|301:82,1,67.4999979400635,4|0,0:0|0:0,0:0:0:0:
417,156,191397,6,0,P|365:283|282:237,1,253.125009655953,6|0,0:0|0:0,0:0:0:0:
183,63,191742,2,0,P|220:56|258:64,1,67.4999979400635,8|0,0:0|0:0,0:0:0:0:
356,205,191915,1,2,0:0:0:0:
431,247,192001,6,0,P|397:280|321:287,1,112.5,6|0,0:0|0:0,0:0:0:0:
250,155,192259,2,0,P|276:134|310:130,1,67.4999979400635
380,84,192432,6,0,B|405:110|403:164|357:205|357:205|296:187|248:241|252:275,1,253.125009655953,12|0,0:0|0:0,0:0:0:0:
188,347,192777,5,2,0:0:0:0:
135,304,192863,1,0,0:0:0:0:
106,243,192949,1,0,0:0:0:0:
109,175,193035,1,0,0:0:0:0:
143,115,193121,2,0,P|196:85|271:108,1,134.999995880127,8|0,0:0|0:0,0:0:0:0:
382,234,193380,2,0,P|323:242|287:294,1,112.5,2|0,0:0|0:0,0:0:0:0:
168,106,193639,2,0,P|206:95|247:110,1,67.4999979400635,2|0,0:0|0:0,0:0:0:0:
362,311,193811,6,0,P|387:352|449:365,1,84.3750032186509,12|0,0:0|0:0,0:0:0:0:
182,358,193984,2,0,P|157:318|95:304,1,84.3750032186509,4|0,0:0|0:0,0:0:0:0:
231,113,194156,6,0,P|140:150|244:230,1,253.125009655953,6|0,0:0|0:0,0:0:0:0:
392,239,194501,2,0,P|340:239|319:257,1,67.4999979400635,8|0,0:0|0:0,0:0:0:0:
368,323,194673,1,2,0:0:0:0:
397,233,194759,6,0,P|331:235|286:284,1,134.999995880127,6|0,0:0|0:0,0:0:0:0:
126,154,195018,2,0,P|127:197|166:225,1,56.25,4|0,0:0|0:0,0:0:0:0:
410,232,195190,6,0,P|335:226|285:358,1,202.499993820191,12|0,0:0|0:0,0:0:0:0:
121,146,195535,6,0,P|153:230|242:147,1,253.125009655953,2|0,0:0|0:0,0:0:0:0:
302,36,195880,2,0,P|331:56|346:89,1,67.4999979400635,8|0,0:0|0:0,0:0:0:0:
181,170,196052,1,2,0:0:0:0:
112,138,196138,6,0,P|122:218|153:238,1,112.5,2|0,0:0|0:0,0:0:0:0:
332,94,196397,2,0,P|314:57|274:41,1,67.4999979400635,2|0,0:0|0:0,0:0:0:0:
107,128,196570,6,0,P|121:229|212:231,1,202.499993820191,8|0,0:0|0:0,0:0:0:0:
403,52,196915,6,0,P|271:45|252:158,1,253.125009655953,6|0,0:0|0:0,0:0:0:0:
457,211,197259,2,0,P|424:192|375:206,1,67.4999979400635,8|0,0:0|0:0,0:0:0:0:
212,281,197432,1,2,0:0:0:0:
255,340,197518,6,0,P|285:292|251:225,1,112.5,2|0,0:0|0:0,0:0:0:0:
227,119,197777,2,0,P|218:152|221:189,1,67.4999979400635
456,220,197950,6,0,B|427:199|391:192|360:225|360:225|320:261|282:251|242:227,1,202.499993820191,8|0,0:0|0:0,0:0:0:0:
231,126,198294,6,0,P|264:231|369:119,1,253.125009655953,6|0,0:0|0:0,0:0:0:0:
230,54,198639,2,0,P|197:61|172:83,1,67.4999979400635,8|0,0:0|0:0,0:0:0:0:
302,164,198811,1,2,0:0:0:0:
271,241,198897,6,0,P|334:243|384:160,1,134.999995880127,2|0,0:0|0:0,0:0:0:0:
234,47,199156,2,0,P|198:54|169:74,1,67.4999979400635,2|0,0:0|0:0,0:0:0:0:
175,223,199328,6,0,P|223:185|226:122,1,126.562504827976,8|0,0:0|0:0,0:0:0:0:
92,282,199673,6,0,L|100:189,1,84.3750032186509,10|0,0:0|0:0,0:0:0:0:
160,150,199846,2,0,L|168:57,1,67.4999979400635,2|0,0:0|0:0,0:0:0:0:
167,307,200018,2,0,L|175:214,1,84.3750032186509,10|0,0:0|0:0,0:0:0:0:
232,175,200190,2,0,L|240:82,1,67.4999979400635,2|0,0:0|0:0,0:0:0:0:
239,332,200363,6,0,L|247:239,1,84.3750032186509,10|0,0:0|0:0,0:0:0:0:
304,200,200535,2,0,L|312:107,1,67.4999979400635,2|0,0:0|0:0,0:0:0:0:
311,357,200708,2,0,L|319:264,1,84.3750032186509,10|0,0:0|0:0,0:0:0:0:
376,225,200880,2,0,L|384:132,1,67.4999979400635,2|0,0:0|0:0,0:0:0:0:
390,297,201053,5,10,0:0:0:0:
318,273,201139,1,2,0:0:0:0:
246,248,201225,1,2,0:0:0:0:
174,223,201311,1,2,0:0:0:0:
160,150,201397,5,14,0:0:0:0:
232,175,201483,1,2,0:0:0:0:
304,200,201569,1,2,0:0:0:0:
376,225,201655,1,2,0:0:0:0:
390,297,201742,5,14,0:0:0:0:
318,273,201828,1,2,0:0:0:0:
246,248,201914,1,2,0:0:0:0:
174,223,202000,1,2,0:0:0:0:
99,198,202087,6,0,P|84:135|128:78,1,126.562504827976,14|0,0:0|0:0,0:0:0:0:
291,125,202432,1,8,0:3:0:0:
390,297,202604,6,0,P|365:313|321:319,1,70.3125,0|0,0:1|0:0,0:0:0:0:
53,230,202777,2,0,P|78:214|122:208,1,70.3125,8|0,0:0|0:0,0:0:0:0:
232,319,202949,1,2,0:0:0:0:
205,250,203035,6,0,P|138:202|58:217,1,168.750006437302,2|0,0:0|0:0,0:0:0:0:
1,337,203294,6,0,P|35:345|70:346,1,70.3125
232,319,203466,2,0,P|270:309|315:322,1,70.3125,8|0,0:0|0:0,0:0:0:0:
467,276,203639,2,0,P|485:248|476:206,1,70.3125
337,98,203811,5,2,0:0:0:0:
275,131,203897,1,0,0:0:0:0:
204,132,203984,1,0,0:0:0:0:
140,102,204070,1,0,0:0:0:0:
76,72,204156,2,0,P|72:111|104:172,1,70.3125,8|0,0:0|0:0,0:0:0:0:
277,136,204328,1,2,0:0:0:0:
340,111,204415,6,0,P|330:183|218:164,1,168.750006437302,2|0,0:0|0:0,0:0:0:0:
65,74,204673,6,0,P|65:125|97:176,1,70.3125,2|0,0:0|0:0,0:0:0:0:
351,113,204846,2,0,P|354:146|341:181,1,70.3125,8|0,0:0|0:0,0:0:0:0:
56,79,205018,2,0,P|56:130|88:181,1,70.3125
360,114,205190,1,6,0:0:0:0:
48,294,205363,6,0,L|56:376,1,70.3125
190,260,205535,2,0,L|199:190,1,70.3125,8|0,0:0|0:0,0:0:0:0:
63,147,205708,1,2,0:0:0:0:
22,208,205794,6,0,P|84:217|128:122,1,168.750006437302,2|0,0:0|0:0,0:0:0:0:
130,47,206053,2,0,P|95:55|66:75,1,70.3125
40,302,206225,2,0,L|48:384,1,70.3125,8|0,0:0|0:0,0:0:0:0:
196,270,206397,2,0,L|205:200,1,70.3125
63,147,206570,1,2,0:0:0:0:
222,195,206742,6,0,P|220:233|231:265,1,70.3125
430,238,206915,2,0,L|439:168,1,70.3125,8|0,0:0|0:0,0:0:0:0:
299,220,207087,1,2,0:0:0:0:
206,225,207173,6,0,P|237:292|362:274,1,168.750006437302,2|0,0:0|0:0,0:0:0:0:
447,164,207432,2,0,L|438:234,1,70.3125,2|0,0:0|0:0,0:0:0:0:
320,318,207604,2,0,P|275:320|235:303,1,70.3125,8|0,0:0|0:0,0:0:0:0:
198,241,207777,2,0,P|194:203|215:153,1,70.3125
347,52,207949,6,0,L|419:59,1,70.3125,6|0,0:0|0:0,0:0:0:0:
276,91,208121,2,0,L|207:98,1,70.3125
67,52,208294,2,0,L|139:59,1,70.3125,8|0,0:0|0:0,0:0:0:0:
294,220,208466,1,2,0:0:0:0:
216,193,208553,6,0,P|228:270|343:287,1,168.750006437302,2|0,0:0|0:0,0:0:0:0:
443,244,208811,6,0,P|457:207|455:153,1,70.3125
425,73,208983,2,0,L|355:66,1,70.3125,8|0,0:0|0:0,0:0:0:0:
237,83,209156,2,0,L|167:89,1,70.3125
49,262,209328,6,0,P|75:234|127:222,1,70.3125,6|0,0:0|0:0,0:0:0:0:
300,317,209501,2,0,P|256:295|237:260,1,70.3125
51,275,209673,2,0,P|80:240|133:235,1,70.3125,8|0,0:0|0:0,0:0:0:0:
323,236,209846,1,2,0:0:0:0:
305,327,209932,6,0,P|243:288|261:166,1,168.750006437302,2|0,0:0|0:0,0:0:0:0:
400,182,210190,6,0,P|417:233|411:271,1,70.3125,2|0,0:0|0:0,0:0:0:0:
237,294,210363,2,0,P|219:238|227:199,1,70.3125,8|0,0:0|0:0,0:0:0:0:
402,171,210535,2,0,P|422:221|419:261,1,70.3125
233,301,210708,6,0,P|213:227|349:147,1,210.9375,6|0,0:0|0:0,0:0:0:0:
444,306,211053,2,0,P|388:301|350:268,1,70.3125,8|0,0:0|0:0,0:0:0:0:
422,153,211225,1,2,0:0:0:0:
461,95,211311,2,0,P|492:151|484:182,1,70.3125,2|0,0:0|0:0,0:0:0:0:
313,329,211484,6,0,B|300:302|304:262|304:262|340:226|340:226|371:212|408:232,1,191.250003647804
228,304,211742,6,0,P|201:275|206:230,1,70.3125,8|0,0:0|0:0,0:0:0:0:
120,76,211915,1,0,0:0:0:0:
120,76,212001,1,0,0:0:0:0:
120,76,212087,2,0,B|177:98|229:69|229:69|286:42|375:39|371:143,1,253.125009655953,6|0,0:0|0:0,0:0:0:0:
221,308,212432,6,0,P|194:272|283:215,1,140.625,8|0,0:0|0:0,0:0:0:0:
423,212,212690,1,2,0:0:0:0:
452,273,212777,2,0,P|420:281|378:265,1,70.3125,2|0,0:0|0:0,0:0:0:0:
263,69,212949,2,0,P|295:61|337:77,1,70.3125,2|0,0:0|0:0,0:0:0:0:
241,195,213121,6,0,P|186:238|228:327,1,168.75,8|0,0:0|0:0,0:0:0:0:
423,212,213466,1,8,0:3:0:0:
251,61,213639,6,0,P|283:53|332:60,1,70.3125
432,217,213811,2,0,L|376:324,1,70.3125,8|0,0:0|0:0,0:0:0:0:
252,262,213984,1,2,0:0:0:0:
178,296,214070,6,0,P|181:228|235:186,1,140.625,2|0,0:0|0:0,0:0:0:0:
452,325,214328,2,0,P|402:348|361:339,1,70.3125
182,210,214501,2,0,P|207:186|240:174,1,70.3125,8|0,0:0|0:0,0:0:0:0:
254,359,214673,2,0,P|209:389|175:385,1,70.3125
45,324,214846,5,2,0:0:0:0:
83,265,214932,1,0,0:0:0:0:
102,197,215018,1,0,0:0:0:0:
101,126,215104,1,0,0:0:0:0:
65,65,215190,2,0,P|104:54|135:63,1,70.3125,8|0,0:0|0:0,0:0:0:0:
82,271,215363,1,2,0:0:0:0:
44,330,215449,6,0,P|124:327|149:252,1,168.750006437302,2|0,0:0|0:0,0:0:0:0:
54,65,215708,6,0,P|78:51|125:50,1,70.3125,2|0,0:0|0:0,0:0:0:0:
127,335,215880,2,0,P|154:302|159:262,1,70.3125,8|0,0:0|0:0,0:0:0:0:
41,65,216053,2,0,P|74:44|112:41,1,70.3125
82,271,216225,1,2,0:0:0:0:
228,256,216397,6,0,P|204:219|160:211,1,70.3125
39,339,216570,2,0,P|81:351|148:323,1,70.3125,8|0,0:0|0:0,0:0:0:0:
234,261,216742,1,2,0:0:0:0:
267,191,216828,6,0,P|187:200|159:275,1,168.750006437302,2|0,0:0|0:0,0:0:0:0:
326,237,217087,6,0,P|341:190|336:164,1,70.3125
118,47,217259,2,0,L|107:137,1,70.3125,8|0,0:0|0:0,0:0:0:0:
35,346,217432,2,0,P|77:358|126:349,1,70.3125
267,191,217604,1,2,0:0:0:0:
105,58,217777,6,0,L|96:127,1,70.3125
330,247,217949,2,0,P|350:201|345:175,1,70.3125,8|0,0:0|0:0,0:0:0:0:
114,231,218121,1,2,0:0:0:0:
45,213,218208,6,0,P|76:292|174:269,1,168.750006437302,2|0,0:0|0:0,0:0:0:0:
335,255,218466,6,0,P|352:227|357:181,1,70.3125,2|0,0:0|0:0,0:0:0:0:
304,47,218639,2,0,P|262:70|187:50,1,70.3125,8|0,0:0|0:0,0:0:0:0:
97,48,218811,2,0,L|88:117,1,70.3125
56,294,218984,6,0,P|88:310|122:312,1,70.3125,8|0,0:3|0:0,0:0:0:0:
190,144,219156,2,0,L|211:210,1,70.3125,2|0,0:0|0:0,0:0:0:0:
48,305,219328,6,0,P|79:320|152:314,1,84.3750032186509,10|0,0:0|0:0,0:0:0:0:
267,82,219501,2,0,L|270:151,1,70.3125,2|0,0:0|0:0,0:0:0:0:
41,313,219673,6,0,P|72:328|134:326,1,70.3125,10|0,0:0|0:0,0:0:0:0:
357,42,219846,2,0,L|342:110,1,70.3125,2|0,0:0|0:0,0:0:0:0:
204,313,220018,5,10,0:0:0:0:
146,254,220104,1,0,0:0:0:0:
104,182,220190,1,2,0:0:0:0:
357,42,220363,6,0,P|325:26|291:24,1,70.3125,8|0,0:3|0:0,0:0:0:0:
223,192,220535,2,0,L|201:125,1,70.3125,2|0,0:0|0:0,0:0:0:0:
365,31,220708,6,0,P|333:15|261:22,1,84.3750032186509,10|0,0:0|0:0,0:0:0:0:
146,254,220880,2,0,L|142:184,1,70.3125,2|0,0:0|0:0,0:0:0:0:
372,23,221052,6,0,P|340:7|279:10,1,70.3125,10|0,0:0|0:0,0:0:0:0:
56,294,221225,2,0,L|70:225,1,70.3125,2|0,0:0|0:0,0:0:0:0:
209,23,221397,5,10,0:0:0:0:
267,82,221483,1,0,0:0:0:0:
309,154,221570,1,2,0:0:0:0:
130,322,221742,6,0,P|173:324|234:297,1,84.3750032186509,10|0,0:0|0:0,0:0:0:0:
354,101,221915,2,0,P|376:146|376:166,1,70.3125,2|0,0:0|0:0,0:0:0:0:
142,336,222087,6,0,P|182:332|247:300,1,84.3750032186509,10|0,0:0|0:0,0:0:0:0:
369,107,222259,2,0,P|384:141|382:191,1,70.3125,2|0,0:0|0:0,0:0:0:0:
154,345,222432,6,0,P|195:338|242:314,1,84.3750032186509,10|0,0:0|0:0,0:0:0:0:
384,113,222604,2,0,P|399:147|397:197,1,70.3125,2|0,0:0|0:0,0:0:0:0:
168,352,222777,6,0,P|214:339|254:309,1,84.3750032186509,10|0,0:0|0:0,0:0:0:0:
399,119,222949,2,0,P|414:153|412:203,1,70.3125,2|0,0:0|0:0,0:0:0:0:
316,323,223121,5,10,0:0:0:0:
305,281,223208,1,2,0:0:0:0:
272,254,223294,1,2,0:0:0:0:
229,252,223380,1,2,0:0:0:0:
244,318,223466,5,10,0:0:0:0:
278,331,223553,1,2,0:0:0:0:
316,323,223639,1,2,0:0:0:0:
344,309,223725,1,2,0:0:0:0:
340,240,223811,5,10,0:0:0:0:
322,265,223897,1,2,0:0:0:0:
313,294,223984,1,2,0:0:0:0:
316,323,224070,1,2,0:0:0:0:
386,296,224156,6,0,P|412:248|404:167,1,126.562504827976,10|0,0:0|0:0,0:0:0:0:
199,209,224501,6,0,P|287:142|341:240,1,253.125009655953,2|0,0:0|0:0,0:0:0:0:
118,214,224846,2,0,P|126:249|160:276,1,67.4999979400635,8|0,0:0|0:0,0:0:0:0:
206,344,225019,1,0,0:0:0:0:
251,278,225105,6,0,B|239:265|197:254|152:281|152:281|126:277|109:244|108:225,1,180,2|0,0:0|0:0,0:0:0:0:
242,144,225363,2,0,P|214:163|198:193,1,67.4999979400635
208,351,225535,1,8,0:0:0:0:
273,212,225708,1,2,0:3:0:0:
118,135,225880,6,0,B|120:177|155:198|189:197|189:197|204:139|253:123|288:134,1,202.499993820191,2|0,0:0|0:0,0:0:0:0:
112,128,226225,2,0,P|153:199|196:201,1,112.5,8|0,0:0|0:0,0:0:0:0:
354,206,226484,2,0,P|308:192|267:207,1,90,2|0,0:0|0:0,0:0:0:0:
263,328,226743,1,2,0:0:0:0:
263,200,226915,6,0,P|310:184|357:198,1,101.249996910095,8|0,0:0|0:0,0:0:0:0:
256,321,227260,6,0,P|248:206|361:192,1,253.125009655953,6|0,0:0|0:0,0:0:0:0:
331,323,227605,2,0,P|324:355|300:379,1,67.4999979400635,8|0,0:0|0:0,0:0:0:0:
302,258,227777,1,0,0:0:0:0:
248,196,227863,6,0,P|221:259|244:321,1,134.999995880127,2|0,0:0|0:0,0:0:0:0:
158,135,228122,2,0,P|116:139|77:184,1,67.4999979400635
88,302,228294,6,0,P|132:271|135:217,1,111.37499966011,8|0,0:0|0:0,0:0:0:0:
141,207,228639,6,0,P|118:300|21:197,1,253.125009655953,2|0,0:0|0:0,0:0:0:0:
92,318,228984,6,0,P|140:291|160:240,1,112.5,8|0,0:0|0:0,0:0:0:0:
18,290,229243,2,0,P|-2:250|6:207,1,90,2|0,0:0|0:0,0:0:0:0:
78,241,229501,1,2,0:0:0:0:
298,317,229674,2,0,L|215:302,1,84.375,8|0,0:0|0:0,0:0:0:0:
292,323,230018,6,0,B|197:307|197:307|154:324|154:324|109:315|78:290|81:230,1,253.125009655953,6|0,0:0|0:0,0:0:0:0:
124,326,230363,2,0,P|93:304|75:258,1,67.4999979400635,8|0,0:0|0:0,0:0:0:0:
290,245,230536,1,0,0:0:0:0:
298,317,230622,6,0,B|191:299|191:299|123:326|123:326,1,180,2|0,0:0|0:0,0:0:0:0:
39,195,230881,2,0,P|63:183|120:195,1,67.4999979400635
211,383,231053,1,8,0:0:0:0:
82,252,231225,1,2,0:3:0:0:
333,259,231398,6,0,B|331:219|296:198|262:199|262:199|275:240|269:271|243:288,1,202.499993820191,2|0,0:0|0:0,0:0:0:0:
338,266,231742,2,0,P|287:195|259:194,1,112.5,8|0,0:0|0:0,0:0:0:0:
166,307,232001,2,0,P|162:263|189:229,1,90,2|0,0:0|0:0,0:0:0:0:
297,363,232260,1,2,0:0:0:0:
185,223,232432,6,0,P|154:262|160:312,1,101.249996910095,8|0,0:0|0:0,0:0:0:0:
292,264,232777,6,0,P|193:211|154:317,1,253.125009655953,6|0,0:0|0:0,0:0:0:0:
353,307,233122,2,0,P|366:263|355:225,1,67.4999979400635,8|0,0:0|0:0,0:0:0:0:
220,279,233294,1,0,0:0:0:0:
175,210,233381,2,0,P|151:236|139:290,1,78.7499975967408,2|0,0:0|0:0,0:0:0:0:
269,326,233553,6,0,B|297:367|297:367|398:367|398:367|353:307,1,225
276,351,233812,6,0,B|292:373|292:373|349:373,1,84.3750032186509,8|0,0:0|0:0,0:0:0:0:
464,339,233984,2,0,B|438:303,1,45
288,246,234157,6,0,P|184:196|134:303,1,253.125009655953,6|0,0:0|0:0,0:0:0:0:
354,307,234501,1,8,0:0:0:0:
365,282,234588,1,0,0:0:0:0:
368,253,234674,1,0,0:0:0:0:
366,222,234760,1,2,0:0:0:0:
411,143,234846,6,0,P|380:156|357:200,1,84.3750032186509
360,323,235019,2,0,P|377:293|384:253,1,67.4999979400635,2|0,0:0|0:0,0:0:0:0:
302,141,235191,5,8,0:0:0:0:
314,121,235277,1,0,0:0:0:0:
332,103,235363,1,0,0:0:0:0:
350,93,235450,1,0,0:0:0:0:
389,86,235536,6,0,P|322:131|372:277,1,253.125009655953,6|0,0:0|0:0,0:0:0:0:
404,77,235881,6,0,P|350:92|323:122,1,67.4999979400635,8|0,0:0|0:0,0:0:0:0:
437,206,236053,1,0,0:0:0:0:
413,179,236139,6,0,B|393:157|393:157|367:170|374:205|405:247|485:173,1,134.999995880127
418,69,236398,2,0,P|376:70|347:85,1,67.4999979400635
208,257,236570,1,8,0:0:0:0:
477,147,236743,2,0,P|502:173|507:214,1,67.4999979400635,2|0,0:3|0:0,0:0:0:0:
375,272,236915,6,0,B|342:268|315:227|312:197|312:197|284:169|230:169|205:198,1,202.499993820191,2|0,0:0|0:0,0:0:0:0:
375,283,237260,2,0,P|336:257|306:201,1,112.5,8|0,0:0|0:0,0:0:0:0:
141,207,237519,2,0,P|162:246|203:263,1,90,2|0,0:0|0:0,0:0:0:0:
414,180,237777,1,2,0:0:0:0:
202,270,237950,6,0,P|152:250|134:206,1,101.249996910095,8|0,0:0|0:0,0:0:0:0:
221,149,238294,6,0,P|126:203|206:277,1,253.125009655953,6|0,0:0|0:0,0:0:0:0:
230,147,238639,2,0,P|202:136|158:149,1,67.4999979400635,8|0,0:0|0:0,0:0:0:0:
192,211,238812,1,0,0:0:0:0:
160,281,238898,6,0,P|228:281|270:192,1,134.999995880127,2|0,0:0|0:0,0:0:0:0:
71,242,239157,2,0,P|62:277|77:321,1,67.4999979400635
244,145,239328,6,0,P|191:125|138:149,1,111.37499966011,8|0,0:0|0:0,0:0:0:0:
128,152,239673,6,0,P|218:119|217:260,1,253.125009655953,2|0,0:0|0:0,0:0:0:0:
252,129,240018,6,0,P|199:105|142:123,1,112.5,8|0,0:0|0:0,0:0:0:0:
276,201,240277,2,0,P|261:238|216:264,1,90,2|0,0:0|0:0,0:0:0:0:
197,190,240536,1,2,0:0:0:0:
7,213,240708,2,0,P|49:207|90:186,1,84.375,8|0,0:0|0:0,0:0:0:0:
1,209,241053,6,0,B|28:210|57:199|90:181|90:181|124:187|124:187|126:136|178:88|257:136,1,253.125009655953,6|0,0:0|0:0,0:0:0:0:
99,255,241397,2,0,L|166:266,1,67.4999979400635,8|0,0:0|0:0,0:0:0:0:
8,133,241570,1,0,0:0:0:0:
0,203,241656,6,0,B|31:204|60:192|89:175|89:175|176:190|176:190,1,180,2|0,0:0|0:0,0:0:0:0:
230,119,241915,2,0,P|193:107|156:117,1,67.4999979400635
166,346,242088,1,8,0:0:0:0:
192,191,242259,2,0,P|158:224|152:247,1,67.4999979400635,2|0,0:3|0:0,0:0:0:0:
242,347,242432,6,0,B|244:305|207:271|167:268|167:268|143:216|205:172|252:210,1,253.125009655953,2|0,0:0|0:0,0:0:0:0:
247,354,242777,2,0,P|236:303|185:266,1,112.5,8|0,0:0|0:0,0:0:0:0:
380,176,243036,2,0,P|356:212|315:228,1,90,2|0,0:0|0:0,0:0:0:0:
177,134,243294,1,2,0:0:0:0:
385,104,243466,6,0,P|445:148|450:193,1,101.249996910095,8|0,0:0|0:0,0:0:0:0:
512,282,243811,6,0,B|516:321|488:369|434:372|434:372|394:347|394:347|370:368|331:361|331:361|311:335|319:307,1,296.999999093628,6|0,0:0|0:0,0:0:0:0:
266,197,245363,6,0,B|294:197|326:160|374:176,1,101.249996910095
362,243,245794,1,0,0:0:0:0:
372,254,245880,1,0,0:0:0:0:
379,267,245966,1,0,0:0:0:0:
375,281,246053,5,0,0:0:0:0:
366,307,246139,1,0,0:0:0:0:
375,333,246225,1,0,0:0:0:0:
400,346,246311,1,0,0:0:0:0:
428,349,246397,1,0,0:0:0:0:
456,341,246484,1,0,0:0:0:0:
473,322,246570,6,0,B|500:313|508:282|501:259|501:259|530:234|530:234|514:202|520:173|520:173|539:125|523:75|475:48|420:61,1,337.499989700318,2|0,0:0|0:0,0:0:0:0:
449,139,247087,5,0,0:0:0:0:
445,168,247173,1,0,0:0:0:0:
446,191,247259,2,0,P|442:201|416:225,1,42.1875016093255,8|0,0:0|0:0,0:0:0:0:
217,143,247432,6,0,P|256:130|295:143,1,84.3750032186509
354,277,247604,2,0,P|310:271|292:240,1,56.25,0|0,2:0|2:0,2:0:0:0:
128,142,247777,2,0,P|130:124|139:108,1,37.1249998867035
139,98,248294,6,0,P|122:174|262:201,1,253.125009655953,6|0,0:0|0:0,0:0:0:0:
138,88,248639,2,0,P|128:96|112:128,1,37.1249998867035,8|0,0:0|0:0,0:0:0:0:
277,291,248897,6,0,P|323:252|367:273,1,112.5
312,248,249156,2,0,P|347:245|376:264,1,71.7187513679266
343,170,249328,2,0,B|294:154|294:154|262:165|262:165|212:152,1,112.5,2|0,0:0|0:0,0:0:0:0:
99,139,249587,1,0,0:0:0:0:
115,132,249673,6,0,P|119:177|101:203,1,56.25
36,94,249845,1,0,0:0:0:0:
25,99,249932,1,0,0:0:0:0:
13,105,250018,6,0,P|17:150|39:178,1,56.25,8|0,0:0|0:0,0:0:0:0:
107,296,250190,2,0,P|123:227|223:233,1,185.624999433517
226,240,250707,5,0,0:0:0:0:
114,302,250880,2,0,P|113:263|121:244,1,56.25
233,333,251052,2,0,P|148:341|144:231,1,202.499993820191,6|0,0:0|0:0,0:0:0:0:
229,249,251397,5,8,0:0:0:0:
361,190,251569,2,0,L|286:178,1,56.25
318,164,251742,2,0,L|374:164,1,56.25
381,136,251914,2,0,L|320:153,1,56.25
186,191,252087,6,0,B|179:162|187:137|223:110|223:110|221:101|212:96|212:96|178:127|111:132|111:132|106:127|104:119|104:119|134:92|135:37|83:17,1,337.499989700318,6|0,0:0|0:0,0:0:0:0:
35,104,252604,2,0,P|43:151|49:161,1,42.1875016093255
276,186,252776,1,8,0:0:0:0:
200,195,253035,6,0,P|222:242|307:257,1,140.625
351,209,253294,2,0,P|354:170|336:137,1,75.9375002896786
209,173,253466,6,0,P|323:236|317:132,1,286.875005471707
200,80,253811,2,0,L|187:40,1,42.1875016093255,2|0,0:0|0:0,0:0:0:0:
276,186,253983,2,0,L|263:225,1,42.1875016093255
363,70,254156,1,8,0:0:0:0:
346,75,254414,6,0,P|395:98|408:120,1,67.4999979400635
334,83,254673,2,0,P|375:92|403:127,1,84.3750032186509
407,323,254845,6,0,P|439:331|470:321,1,67.4999979400635,6|0,0:0|0:0,0:0:0:0:
233,334,255018,1,0,0:0:0:0:
225,303,255104,1,0,0:0:0:0:
176,278,255190,5,0,0:0:0:0:
198,236,255276,1,0,0:0:0:0:
190,190,255363,2,0,P|169:164|120:161,1,67.4999979400635
65,211,255535,1,8,0:0:0:0:
138,292,255708,6,0,P|192:213|63:223,1,269.999991760254
237,348,256139,2,0,L|125:363,1,112.5
212,333,256397,2,0,L|279:323,1,67.4999979400635
465,237,256570,6,0,P|398:189|318:205,1,168.75,2|0,0:0|0:0,0:0:0:0:
461,249,256915,6,0,B|442:202|375:176|317:214|317:214|278:240|245:232|219:213,1,259.874999206924,8|0,0:0|0:0,0:0:0:0:
317,205,257604,6,0,B|280:242|212:220|192:174|192:174|172:129|126:115|126:115|82:134|72:189,1,337.499989700318,6|0,0:0|0:0,0:0:0:0:
197,275,258121,5,0,0:0:0:0:
232,288,258207,1,0,0:0:0:0:
266,292,258294,2,0,P|305:287|322:275,1,42.1875016093255,8|0,0:0|0:0,0:0:0:0:
468,245,258466,6,0,P|454:223|375:186,1,84.3750032186509
222,193,258638,2,0,P|267:215|311:200,1,56.25
423,110,258811,2,0,P|419:91|409:77,1,37.1249998867035
410,69,259328,6,0,P|423:86|417:141,1,56.25,2|0,0:0|0:0,0:0:0:0:
326,322,259500,2,0,P|291:290|290:231,1,95.6250018239022
357,115,259673,1,8,0:0:0:0:
320,305,259932,6,0,P|292:251|322:213,1,112.5
285,244,260191,2,0,P|306:212|345:196,1,71.7187513679266
431,142,260363,6,0,L|447:221,1,56.25,6|0,0:0|0:0,0:0:0:0:
358,375,260535,5,0,0:0:0:0:
316,364,260621,1,0,0:0:0:0:
266,346,260707,5,0,0:0:0:0:
256,352,260794,1,0,0:0:0:0:
216,355,260880,5,0,0:0:0:0:
167,332,260966,1,0,0:0:0:0:
102,307,261052,6,0,P|81:279|89:250,1,56.25,8|0,0:0|0:0,0:0:0:0:
115,313,261225,6,0,P|89:275|121:220,1,111.37499966011
126,216,261569,1,0,0:0:0:0:
49,365,261742,1,0,0:0:0:0:
269,154,261914,6,0,P|312:174|333:242,1,84.3750032186509
199,193,262087,6,0,P|272:162|325:221,1,168.75,2|0,0:0|0:0,0:0:0:0:
316,234,262432,6,0,P|310:199|281:179,1,56.25,8|0,0:0|0:0,0:0:0:0:
193,297,262604,1,0,0:0:0:0:
218,287,262690,1,0,0:0:0:0:
242,294,262776,6,0,L|250:361,1,56.25
283,358,262949,2,0,L|295:294,1,56.25
369,304,263121,6,0,B|417:291|457:299|457:299|446:253|465:210|465:210|436:188|389:209|389:209|347:227|302:206,1,337.499989700318,6|0,0:0|0:0,0:0:0:0:
432,130,263638,1,0,0:0:0:0:
401,132,263725,1,0,0:0:0:0:
377,139,263811,2,0,P|340:147|322:143,1,42.1875016093255,8|0,0:0|0:0,0:0:0:0:
184,66,264069,6,0,P|235:79|264:160,1,140.625
225,212,264328,2,0,P|189:221|153:209,1,75.9375002896786
164,78,264500,6,0,P|246:179|143:191,1,286.875005471707
30,79,264845,2,0,P|53:77|71:85,1,42.1875016093255,2|0,0:0|0:0,0:0:0:0:
189,142,265017,2,0,P|207:151|221:178,1,42.1875016093255
153,209,265190,6,0,P|267:153|179:65,1,253.125009655953,8|0,0:0|0:0,0:0:0:0:
29,33,265535,2,0,P|38:54|35:74,1,42.1875016093255
95,242,265707,2,0,P|87:220|90:200,1,42.1875016093255
56,140,265880,6,0,P|91:129|133:149,1,67.4999979400635,6|0,0:0|0:0,0:0:0:0:
220,169,266053,2,0,P|255:180|297:160,1,67.4999979400635
457,55,266225,5,0,0:0:0:0:
435,97,266311,1,0,0:0:0:0:
443,143,266397,2,0,P|451:170|436:204,1,67.4999979400635
255,111,266570,1,8,0:0:0:0:
384,307,266742,6,0,B|325:324|255:303|255:303|185:281|117:320,1,269.999991760254
26,252,267173,2,0,P|42:219|33:184,1,67.4999979400635
148,129,267346,2,0,P|176:94|228:86,1,84.3750032186509
259,227,267604,6,0,P|285:149|252:108,1,112.5,2|0,0:0|0:0,0:0:0:0:
282,219,267949,6,0,P|265:105|154:137,1,259.874999206924,8|0,0:0|0:0,0:0:0:0:
223,171,268639,5,0,0:0:0:0:
223,171,269328,2,0,L|236:155,1,11.25
153,135,269673,6,0,B|132:182|162:222|162:222|187:258|178:310|141:333,1,213.75
98,268,271397,5,0,0:0:0:0:
98,268,272087,1,0,0:0:0:0:
98,268,272777,1,0,0:0:0:0:
98,268,273466,1,0,0:0:0:0:
296,318,274156,5,0,0:0:0:0:
296,318,274846,2,0,L|293:338,1,11.25
342,254,275190,6,0,B|312:233|269:234|239:263|239:263|199:259|181:221|196:180,1,213.75
246,129,276915,5,0,0:0:0:0:
246,129,277604,1,0,0:0:0:0:
246,129,278294,1,0,0:0:0:0:
246,129,278984,1,0,0:0:0:0:
62,44,279673,5,0,0:0:0:0:
62,44,280363,2,0,L|62:23,1,11.25
50,122,280708,6,0,B|91:128|119:98|119:98|151:122|191:104|191:104|221:91|255:108,1,213.75
219,177,282432,5,0,0:0:0:0:
219,177,283121,1,0,0:0:0:0:
219,177,283811,1,0,0:0:0:0:
219,177,284501,1,0,0:0:0:0:
392,222,285190,5,0,0:0:0:0:
392,222,285880,2,0,L|391:203,1,11.25
438,286,286225,6,0,B|392:314|350:288|350:288|327:275|310:278|310:278|333:318|314:357,1,213.75
244,321,287949,5,0,0:0:0:0:
244,321,288639,1,0,0:0:0:0:
244,321,289328,1,0,0:0:0:0:
244,321,290018,1,0,0:0:0:0:
89,243,290708,5,0,0:0:0:0:
89,243,291397,2,0,L|70:244,1,11.25
153,197,291742,6,0,B|183:248|151:291|151:291|178:312|221:298|221:298|244:268|236:196|211:162|211:162|183:122|205:72,1,405
202,78,296225,5,0,0:0:0:0:
306,29,296915,2,0,L|310:47,1,11.25
411,86,297259,6,0,B|401:106|409:130|409:130|312:108|262:205|291:285|406:322|443:281|443:229|426:189|392:188|376:202,1,405
384,197,301742,5,0,0:0:0:0:
318,292,302432,2,0,L|318:273,1,11.25
227,207,302777,6,0,B|185:180|142:204|142:204|184:167|210:145|225:105|220:53|155:27|93:56|82:117|110:165|158:159|166:134|161:111,1,405
161,111,307259,5,0,0:0:0:0:
226,189,307949,2,0,L|223:207,1,11.25
226,189,308294,6,0,P|298:162|274:266,1,225
