osu file format v14

[General]
AudioFilename: audio.mp3
AudioLeadIn: 0
PreviewTime: 179587
Countdown: 0
SampleSet: Normal
StackLeniency: 1
Mode: 1
LetterboxInBreaks: 0
WidescreenStoryboard: 0

[Editor]
Bookmarks: 67259,89328,108639,111397,180363,187259,191397,199673,202432,213466,224501,243811,268639,310018
DistanceSpacing: 1
BeatDivisor: 12
GridSize: 32
TimelineZoom: 4.5

[Metadata]
Title:dreamless wanderer
TitleUnicode:dreamless wanderer
Artist:Camellia
ArtistUnicode:かめりあ
Creator:Fallmorph
Version:Endgame
Source:
Tags:かめるかめりあ kamelcamellia
BeatmapID:1747782
BeatmapSetID:834322

[Difficulty]
HPDrainRate:4
CircleSize:2
OverallDifficulty:7
ApproachRate:10
SliderMultiplier:1.4
SliderTickRate:1

[Events]
//Background and Video events
0,0,"bg.jpg",0,-134
//Break Periods
//Storyboard Layer 0 (Background)
//Storyboard Layer 1 (Fail)
//Storyboard Layer 2 (Pass)
//Storyboard Layer 3 (Foreground)
//Storyboard Layer 4 (Overlay)
//Storyboard Sound Samples

[TimingPoints]
1053,344.827586206897,4,1,1,50,1,0
1053,-125,4,1,1,50,0,0
2518,-166.666666666667,4,1,1,15,0,0
6484,-125,4,1,1,50,0,0
8035,-166.666666666667,4,1,1,15,0,0
12001,-125,4,1,1,50,0,0
13553,-166.666666666667,4,1,1,15,0,0
17518,-125,4,1,1,50,0,0
19070,-166.666666666667,4,1,1,15,0,0
23035,-100,4,1,1,50,0,0
45190,-76.9230769230769,4,1,1,100,0,0
67346,-100,4,1,1,100,0,0
89328,-100,4,1,1,100,0,0
111397,-71.4285714285714,4,1,1,100,0,0
155190,-100,4,1,1,100,0,0
180363,-66.6666666666667,4,1,1,100,0,0
202604,-66.6666666666667,4,1,1,100,0,1
224501,-66.6666666666667,4,1,1,100,0,0
224673,-71.4285714285714,4,1,1,100,0,0
246570,-76.9230769230769,4,1,1,100,0,0
268639,-76.9230769230769,4,1,1,100,0,0
268811,-77.1548381870156,4,1,1,99,0,0
268984,-77.3880002166864,4,1,1,99,0,0
269242,-77.7403673854282,4,1,1,98,0,0
269501,-78.0960190554286,4,1,1,98,0,0
269673,-78.3349130874139,4,1,1,97,0,0
269846,-78.5752731472933,4,1,1,97,0,0
270190,-79.0604456637322,4,1,1,96,0,0
270363,-79.3052856972917,4,1,1,96,0,0
270621,-79.6753706697432,4,1,1,95,0,0
270794,-79.9240401922013,4,1,1,95,0,0
270966,-80.1742667862867,4,1,1,94,0,0
271225,-80.5525907727007,4,1,1,94,0,0
271570,-81.0625681432214,4,1,1,93,0,0
271742,-81.3199860129624,4,1,1,93,0,0
272001,-81.7091595150725,4,1,1,92,0,0
272259,-82.1021432764502,4,1,1,92,0,0
272432,-82.3662166725696,4,1,1,91,0,0
272604,-82.631994281866,4,1,1,91,0,0
272949,-83.1686593877456,4,1,1,90,0,0
273121,-83.4396493532175,4,1,1,90,0,0
273380,-83.8494968610941,4,1,1,89,0,0
273553,-84.1249491044058,4,1,1,89,0,0
273725,-84.4022170774382,4,1,1,88,0,0
273984,-84.8215270249867,4,1,1,88,0,0
274328,-85.387179627302,4,1,1,87,0,0
274501,-85.6728445354861,4,1,1,87,0,0
274759,-86.104980914831,4,1,1,86,0,0
275018,-86.5414239179726,4,1,1,86,0,0
275190,-86.8348774021784,4,1,1,85,0,0
275363,-87.1303278017193,4,1,1,85,0,0
275708,-87.7273014380259,4,1,1,84,0,0
275880,-88.0288664258784,4,1,1,84,0,0
276139,-88.4851605961422,4,1,1,83,0,0
276311,-88.79196752345,4,1,1,82,0,0
276484,-89.1009094529828,4,1,1,82,0,0
276742,-89.5683343693404,4,1,1,81,0,0
277087,-90.1993043829646,4,1,1,81,0,0
277259,-90.5181348557277,4,1,1,80,0,0
277518,-91.0005878637976,4,1,1,80,0,0
277777,-91.4882949875393,4,1,1,79,0,0
277949,-91.8163196162812,4,1,1,79,0,0
278121,-92.1467049259786,4,1,1,78,0,0
278466,-92.8146602612176,4,1,1,78,0,0
278639,-93.1522825569556,4,1,1,77,0,0
278897,-93.6633029052483,4,1,1,77,0,0
279070,-94.0071389021282,4,1,1,76,0,0
279242,-94.3535086295719,4,1,1,76,0,0
279501,-94.8779205795902,4,1,1,75,0,0
279846,-95.5862111155293,4,1,1,75,0,0
280018,-95.9443369334847,4,1,1,74,0,0
280277,-96.4865391629214,4,1,1,74,0,0
280535,-97.034998583289,4,1,1,73,0,0
280708,-97.4040837636159,4,1,1,73,0,0
280880,-97.775891789465,4,1,1,72,0,0
281225,-98.528283036287,4,1,1,72,0,0
281397,-98.9088377024664,4,1,1,71,0,0
281656,-99.4852632479551,4,1,1,71,0,0
281828,-99.8732608320042,4,1,1,70,0,0
282001,-100.264296686064,4,1,1,70,0,0
282259,-100.856574890545,4,1,1,69,0,0
282604,-101.657319276159,4,1,1,69,0,0
282777,-102.06247856688,4,1,1,68,0,0
283035,-102.676362053281,4,1,1,68,0,0
283294,-103.297568271945,4,1,1,67,0,0
283466,-103.715934501313,4,1,1,66,0,0
283639,-104.137703367917,4,1,1,66,0,0
283984,-104.991616419429,4,1,1,65,0,0
284156,-105.423846030581,4,1,1,65,0,0
284415,-106.078960935362,4,1,1,64,0,0
284587,-106.520208481352,4,1,1,64,0,0
284759,-106.96514219946,4,1,1,63,0,0
285018,-107.639498098548,4,1,1,63,0,0
285363,-108.552056681542,4,1,1,62,0,0
285535,-109.014163120073,4,1,1,62,0,0
285794,-109.714686956569,4,1,1,61,0,0
286053,-110.424394073744,4,1,1,61,0,0
286225,-110.902614196422,4,1,1,60,0,0
286397,-111.38499443632,4,1,1,60,0,0
286742,-112.362454310617,4,1,1,59,0,0
286915,-112.857645879793,4,1,1,59,0,0
287173,-113.608606988065,4,1,1,58,0,0
287346,-114.114868026155,4,1,1,58,0,0
287518,-114.625661246783,4,1,1,57,0,0
287777,-115.400549537417,4,1,1,57,0,0
288121,-116.450088909643,4,1,1,56,0,0
288294,-116.982050274206,4,1,1,56,0,0
288553,-117.789098618923,4,1,1,55,0,0
288811,-118.607500501117,4,1,1,55,0,0
288984,-119.15940191513,4,1,1,54,0,0
289156,-119.716320207636,4,1,1,54,0,0
289501,-120.846213525592,4,1,1,53,0,0
289673,-121.41919613207,4,1,1,53,0,0
289932,-122.289005606951,4,1,1,52,0,0
290104,-122.875784869076,4,1,1,52,0,0
290277,-123.468222366268,4,1,1,51,0,0
290535,-124.367590800778,4,1,1,51,0,0
290708,-124.974536438201,4,1,1,50,0,0
292949,-200,4,1,1,15,0,0
296225,-133.333333333333,4,1,1,50,0,0
298466,-200,4,1,1,15,0,0
301742,-133.333333333333,4,1,1,50,0,0
303984,-200,4,1,1,15,0,0
307259,-133.333333333333,4,1,1,50,0,0
309501,-200,4,1,1,15,0,0

[Colours]
Combo1 : 240,133,15
Combo2 : 196,130,6
Combo3 : 248,74,24
Combo4 : 248,214,18

[HitObjects]
256,192,1053,5,0,0:0:0:0:
256,192,1685,1,0,0:0:0:0:
256,192,1742,1,8,0:0:0:0:
256,192,2087,1,0,0:0:0:0:
256,192,3294,1,0,0:0:0:0:
256,192,3466,1,0,0:0:0:0:
256,192,3553,1,8,0:0:0:0:
256,192,3725,1,8,0:0:0:0:
256,192,6570,5,0,0:0:0:0:
256,192,7144,1,0,0:0:0:0:
256,192,7202,1,0,0:0:0:0:
256,192,7317,1,8,0:0:0:0:
256,192,7604,1,0,0:0:0:0:
256,192,8811,1,0,0:0:0:0:
256,192,8897,1,0,0:0:0:0:
256,192,8984,1,0,0:0:0:0:
256,192,9070,1,8,0:0:0:0:
256,192,9242,1,8,0:0:0:0:
256,192,12087,5,0,0:0:0:0:
256,192,12719,1,0,0:0:0:0:
256,192,12777,1,8,0:0:0:0:
256,192,13121,1,0,0:0:0:0:
256,192,14328,1,0,0:0:0:0:
256,192,14501,1,0,0:0:0:0:
256,192,14587,1,8,0:0:0:0:
256,192,14759,1,8,0:0:0:0:
256,192,17604,5,0,0:0:0:0:
256,192,18179,1,0,0:0:0:0:
256,192,18236,1,8,0:0:0:0:
256,192,18351,1,8,0:0:0:0:
256,192,18639,1,0,0:0:0:0:
256,192,19846,1,0,0:0:0:0:
256,192,19932,1,0,0:0:0:0:
256,192,20018,1,8,0:0:0:0:
256,192,20104,1,8,0:0:0:0:
256,192,20277,1,8,0:0:0:0:
256,192,23121,5,8,0:0:0:0:
256,192,23294,1,0,0:0:0:0:
256,192,23466,1,0,0:0:0:0:
256,192,23811,1,8,0:0:0:0:
256,192,23984,1,0,0:0:0:0:
256,192,24156,1,8,0:0:0:0:
256,192,24501,1,0,0:0:0:0:
256,192,24673,1,8,0:0:0:0:
256,192,24846,1,0,0:0:0:0:
256,192,25190,1,0,0:0:0:0:
256,192,25363,1,0,0:0:0:0:
256,192,25535,1,8,0:0:0:0:
256,192,25880,1,8,0:0:0:0:
256,192,26053,1,0,0:0:0:0:
256,192,26225,1,8,0:0:0:0:
256,192,26570,1,0,0:0:0:0:
256,192,26742,1,8,0:0:0:0:
256,192,26915,1,0,0:0:0:0:
256,192,27259,1,8,0:0:0:0:
256,192,27432,1,0,0:0:0:0:
256,192,27604,1,0,0:0:0:0:
256,192,27949,1,8,0:0:0:0:
256,192,28121,1,8,0:0:0:0:
256,192,28294,1,0,0:0:0:0:
256,192,28639,1,8,0:0:0:0:
256,192,28811,1,8,0:0:0:0:
256,192,28984,1,0,0:0:0:0:
256,192,29328,1,8,0:0:0:0:
256,192,29501,1,0,0:0:0:0:
256,192,29673,1,8,0:0:0:0:
256,192,30018,1,0,0:0:0:0:
256,192,30190,1,8,0:0:0:0:
256,192,30363,1,0,0:0:0:0:
256,192,30708,1,0,0:0:0:0:
256,192,30880,1,8,0:0:0:0:
256,192,31053,1,8,0:0:0:0:
256,192,31397,1,8,0:0:0:0:
256,192,31570,1,0,0:0:0:0:
256,192,31742,1,8,0:0:0:0:
256,192,32087,1,0,0:0:0:0:
256,192,32259,1,8,0:0:0:0:
256,192,32432,1,0,0:0:0:0:
256,192,32777,1,8,0:0:0:0:
256,192,32949,1,0,0:0:0:0:
256,192,33121,1,0,0:0:0:0:
256,192,33466,1,8,0:0:0:0:
256,192,33639,1,8,0:0:0:0:
256,192,33811,1,0,0:0:0:0:
256,192,34156,5,8,0:0:0:0:
256,192,34328,5,0,0:0:0:0:
256,192,34501,1,0,0:0:0:0:
256,192,34759,1,8,0:0:0:0:
256,192,35018,1,0,0:0:0:0:
256,192,35190,1,0,0:0:0:0:
256,192,35363,1,8,0:0:0:0:
256,192,35708,1,0,0:0:0:0:
256,192,35880,1,0,0:0:0:0:
256,192,36139,1,8,0:0:0:0:
256,192,36311,1,8,0:0:0:0:
256,192,36484,1,0,0:0:0:0:
256,192,36742,1,0,0:0:0:0:
256,192,37087,1,0,0:0:0:0:
256,192,37259,1,0,0:0:0:0:
256,192,37518,1,8,0:0:0:0:
256,192,37777,1,0,0:0:0:0:
256,192,37949,1,8,0:0:0:0:
256,192,38121,1,8,0:0:0:0:
256,192,38466,1,0,0:0:0:0:
256,192,38639,1,0,0:0:0:0:
256,192,38897,1,8,0:0:0:0:
256,192,39070,1,8,0:0:0:0:
256,192,39242,1,0,0:0:0:0:
256,192,39501,1,0,0:0:0:0:
256,192,39846,1,0,0:0:0:0:
256,192,40018,1,0,0:0:0:0:
256,192,40277,1,8,0:0:0:0:
256,192,40535,1,0,0:0:0:0:
256,192,40708,1,0,0:0:0:0:
256,192,40880,1,8,0:0:0:0:
256,192,41225,1,0,0:0:0:0:
256,192,41397,1,0,0:0:0:0:
256,192,41656,1,8,0:0:0:0:
256,192,41828,1,8,0:0:0:0:
256,192,42001,1,0,0:0:0:0:
256,192,42259,1,0,0:0:0:0:
256,192,42604,1,0,0:0:0:0:
256,192,42777,1,0,0:0:0:0:
256,192,43035,1,8,0:0:0:0:
256,192,43294,1,0,0:0:0:0:
256,192,43466,1,8,0:0:0:0:
256,192,43639,1,8,0:0:0:0:
256,192,43984,1,0,0:0:0:0:
256,192,44501,5,8,0:0:0:0:
256,192,44587,1,8,0:0:0:0:
256,192,44673,1,8,0:0:0:0:
256,192,44759,1,8,0:0:0:0:
256,192,44846,1,0,0:0:0:0:
256,192,44932,1,0,0:0:0:0:
256,192,45018,1,0,0:0:0:0:
256,192,45104,1,0,0:0:0:0:
256,192,45190,5,12,0:0:0:0:
256,192,45363,1,8,0:0:0:0:
256,192,45420,1,0,0:0:0:0:
256,192,45478,1,0,0:0:0:0:
256,192,45535,1,8,0:0:0:0:
256,192,45708,1,0,0:0:0:0:
256,192,45794,1,0,0:0:0:0:
256,192,45837,1,0,0:0:0:0:
256,192,45880,1,8,0:0:0:0:
256,192,46053,1,8,0:0:0:0:
256,192,46110,1,8,0:0:0:0:
256,192,46167,1,8,0:0:0:0:
256,192,46225,1,0,0:0:0:0:
256,192,46311,1,0,0:0:0:0:
256,192,46397,1,8,0:0:0:0:
256,192,46484,1,8,0:0:0:0:
256,192,46570,1,0,0:0:0:0:
256,192,46915,1,0,0:0:0:0:
256,192,47001,1,8,0:0:0:0:
256,192,47087,1,8,0:0:0:0:
256,192,47144,1,0,0:0:0:0:
256,192,47202,1,0,0:0:0:0:
256,192,47259,1,8,0:0:0:0:
256,192,47432,1,0,0:0:0:0:
256,192,47518,1,8,0:0:0:0:
256,192,47604,1,8,0:0:0:0:
256,192,47662,1,0,0:0:0:0:
256,192,47719,1,0,0:0:0:0:
256,192,47777,1,8,0:0:0:0:
256,192,47949,1,0,0:0:0:0:
256,192,48121,1,0,0:0:0:0:
256,192,48179,1,0,0:0:0:0:
256,192,48236,1,0,0:0:0:0:
256,192,48294,1,8,0:0:0:0:
256,192,48351,1,0,0:0:0:0:
256,192,48409,1,0,0:0:0:0:
256,192,48466,1,8,0:0:0:0:
256,192,48553,1,8,0:0:0:0:
256,192,48639,1,0,0:0:0:0:
256,192,48811,1,0,0:0:0:0:
256,192,48869,1,8,0:0:0:0:
256,192,48926,1,8,0:0:0:0:
256,192,48984,1,8,0:0:0:0:
256,192,49041,1,8,0:0:0:0:
256,192,49098,1,8,0:0:0:0:
256,192,49156,1,0,0:0:0:0:
256,192,49242,1,0,0:0:0:0:
256,192,49328,1,8,0:0:0:0:
256,192,49501,1,8,0:0:0:0:
256,192,49587,1,8,0:0:0:0:
256,192,49673,1,0,0:0:0:0:
256,192,49759,1,0,0:0:0:0:
256,192,49846,1,8,0:0:0:0:
256,192,49903,1,0,0:0:0:0:
256,192,49961,1,0,0:0:0:0:
256,192,50018,1,8,0:0:0:0:
256,192,50190,1,8,0:0:0:0:
256,192,50277,1,8,0:0:0:0:
256,192,50363,1,0,0:0:0:0:
256,192,50449,1,0,0:0:0:0:
256,192,50535,1,8,0:0:0:0:
256,192,50621,1,8,0:0:0:0:
256,192,50708,5,4,0:0:0:0:
256,192,50880,1,0,0:0:0:0:
256,192,50938,1,0,0:0:0:0:
256,192,50995,1,0,0:0:0:0:
256,192,51053,1,8,0:0:0:0:
256,192,51225,1,0,0:0:0:0:
256,192,51311,1,8,0:0:0:0:
256,192,51354,1,8,0:0:0:0:
256,192,51397,1,8,0:0:0:0:
256,192,51656,1,0,0:0:0:0:
256,192,51713,1,0,0:0:0:0:
256,192,51771,1,0,0:0:0:0:
256,192,51828,1,0,0:0:0:0:
256,192,51915,1,8,0:0:0:0:
256,192,52001,1,8,0:0:0:0:
256,192,52087,1,0,0:0:0:0:
256,192,52144,1,0,0:0:0:0:
256,192,52202,1,0,0:0:0:0:
256,192,52259,1,8,0:0:0:0:
256,192,52317,1,8,0:0:0:0:
256,192,52374,1,8,0:0:0:0:
256,192,52432,1,0,0:0:0:0:
256,192,52604,1,0,0:0:0:0:
256,192,52777,1,8,0:0:0:0:
256,192,52949,1,0,0:0:0:0:
256,192,53035,1,8,0:0:0:0:
256,192,53121,1,0,0:0:0:0:
256,192,53179,1,0,0:0:0:0:
256,192,53236,1,0,0:0:0:0:
256,192,53294,1,8,0:0:0:0:
256,192,53466,1,0,0:0:0:0:
256,192,53639,1,8,0:0:0:0:
256,192,53696,1,0,0:0:0:0:
256,192,53754,1,0,0:0:0:0:
256,192,53811,1,8,0:0:0:0:
256,192,53869,1,8,0:0:0:0:
256,192,53926,1,8,0:0:0:0:
256,192,53984,1,0,0:0:0:0:
256,192,54070,1,0,0:0:0:0:
256,192,54156,1,8,0:0:0:0:
256,192,54328,1,0,0:0:0:0:
256,192,54386,1,0,0:0:0:0:
256,192,54443,1,0,0:0:0:0:
256,192,54501,1,8,0:0:0:0:
256,192,54558,1,8,0:0:0:0:
256,192,54616,1,8,0:0:0:0:
256,192,54673,1,0,0:0:0:0:
256,192,54759,1,8,0:0:0:0:
256,192,54846,1,0,0:0:0:0:
256,192,55018,1,8,0:0:0:0:
256,192,55104,1,0,0:0:0:0:
256,192,55190,1,8,0:0:0:0:
256,192,55248,1,8,0:0:0:0:
256,192,55305,1,8,0:0:0:0:
256,192,55363,1,0,0:0:0:0:
256,192,55449,1,0,0:0:0:0:
256,192,55535,1,8,0:0:0:0:
256,192,55593,1,8,0:0:0:0:
256,192,55650,1,8,0:0:0:0:
256,192,55708,1,0,0:0:0:0:
256,192,55794,1,8,0:0:0:0:
256,192,55880,1,0,0:0:0:0:
256,192,55966,1,0,0:0:0:0:
256,192,56053,1,8,0:0:0:0:
256,192,56139,1,8,0:0:0:0:
256,192,56225,5,4,0:0:0:0:
256,192,56397,1,0,0:0:0:0:
256,192,56455,1,0,0:0:0:0:
256,192,56512,1,0,0:0:0:0:
256,192,56570,1,8,0:0:0:0:
256,192,56742,1,0,0:0:0:0:
256,192,56828,1,8,0:0:0:0:
256,192,56871,1,8,0:0:0:0:
256,192,56915,1,8,0:0:0:0:
256,192,57087,1,8,0:0:0:0:
256,192,57144,1,8,0:0:0:0:
256,192,57202,1,8,0:0:0:0:
256,192,57259,1,0,0:0:0:0:
256,192,57346,1,0,0:0:0:0:
256,192,57432,1,8,0:0:0:0:
256,192,57518,1,8,0:0:0:0:
256,192,57604,1,0,0:0:0:0:
256,192,57949,1,0,0:0:0:0:
256,192,58035,1,8,0:0:0:0:
256,192,58121,1,0,0:0:0:0:
256,192,58179,1,8,0:0:0:0:
256,192,58236,1,8,0:0:0:0:
256,192,58294,1,8,0:0:0:0:
256,192,58466,1,0,0:0:0:0:
256,192,58553,1,8,0:0:0:0:
256,192,58639,1,8,0:0:0:0:
256,192,58696,1,0,0:0:0:0:
256,192,58754,1,0,0:0:0:0:
256,192,58811,1,8,0:0:0:0:
256,192,58984,1,0,0:0:0:0:
256,192,59156,1,8,0:0:0:0:
256,192,59213,1,0,0:0:0:0:
256,192,59271,1,0,0:0:0:0:
256,192,59328,1,8,0:0:0:0:
256,192,59386,1,0,0:0:0:0:
256,192,59443,1,0,0:0:0:0:
256,192,59501,1,8,0:0:0:0:
256,192,59587,1,8,0:0:0:0:
256,192,59673,1,0,0:0:0:0:
256,192,59846,1,0,0:0:0:0:
256,192,59903,1,8,0:0:0:0:
256,192,59961,1,8,0:0:0:0:
256,192,60018,1,0,0:0:0:0:
256,192,60075,1,8,0:0:0:0:
256,192,60133,1,8,0:0:0:0:
256,192,60190,1,0,0:0:0:0:
256,192,60277,1,0,0:0:0:0:
256,192,60363,1,8,0:0:0:0:
256,192,60535,1,8,0:0:0:0:
256,192,60621,1,8,0:0:0:0:
256,192,60708,1,0,0:0:0:0:
256,192,60794,1,0,0:0:0:0:
256,192,60880,1,8,0:0:0:0:
256,192,60938,1,8,0:0:0:0:
256,192,60995,1,8,0:0:0:0:
256,192,61053,1,8,0:0:0:0:
256,192,61225,1,8,0:0:0:0:
256,192,61311,1,8,0:0:0:0:
256,192,61397,1,0,0:0:0:0:
256,192,61484,1,0,0:0:0:0:
256,192,61570,1,8,0:0:0:0:
256,192,61656,1,8,0:0:0:0:
256,192,61742,5,4,0:0:0:0:
256,192,61915,1,8,0:0:0:0:
256,192,61972,1,0,0:0:0:0:
256,192,62030,1,0,0:0:0:0:
256,192,62087,1,8,0:0:0:0:
256,192,62259,1,0,0:0:0:0:
256,192,62346,1,0,0:0:0:0:
256,192,62389,1,0,0:0:0:0:
256,192,62432,1,8,0:0:0:0:
256,192,62690,1,8,0:0:0:0:
256,192,62748,1,8,0:0:0:0:
256,192,62805,1,8,0:0:0:0:
256,192,62863,1,0,0:0:0:0:
256,192,62949,1,8,0:0:0:0:
256,192,63035,1,8,0:0:0:0:
256,192,63121,1,0,0:0:0:0:
256,192,63179,1,0,0:0:0:0:
256,192,63236,1,0,0:0:0:0:
256,192,63294,1,8,0:0:0:0:
256,192,63351,1,8,0:0:0:0:
256,192,63409,1,8,0:0:0:0:
256,192,63466,1,0,0:0:0:0:
256,192,63639,1,0,0:0:0:0:
256,192,63811,1,8,0:0:0:0:
256,192,63984,1,0,0:0:0:0:
256,192,64070,1,8,0:0:0:0:
256,192,64156,1,8,0:0:0:0:
256,192,64213,1,0,0:0:0:0:
256,192,64271,1,0,0:0:0:0:
256,192,64328,1,8,0:0:0:0:
256,192,64501,1,0,0:0:0:0:
256,192,64673,1,0,0:0:0:0:
256,192,64731,1,0,0:0:0:0:
256,192,64788,1,0,0:0:0:0:
256,192,64846,1,8,0:0:0:0:
256,192,64903,1,8,0:0:0:0:
256,192,64961,1,8,0:0:0:0:
256,192,65018,1,0,0:0:0:0:
256,192,65104,1,0,0:0:0:0:
256,192,65190,1,8,0:0:0:0:
256,192,65363,1,8,0:0:0:0:
256,192,65420,1,0,0:0:0:0:
256,192,65478,1,0,0:0:0:0:
256,192,65535,1,8,0:0:0:0:
256,192,65593,1,8,0:0:0:0:
256,192,65650,1,8,0:0:0:0:
256,192,65708,1,0,0:0:0:0:
256,192,65794,1,8,0:0:0:0:
256,192,65880,1,0,0:0:0:0:
256,192,66053,1,8,0:0:0:0:
256,192,66139,1,0,0:0:0:0:
256,192,66225,1,8,0:0:0:0:
256,192,66282,1,8,0:0:0:0:
256,192,66340,1,8,0:0:0:0:
256,192,66397,1,0,0:0:0:0:
256,192,66484,1,0,0:0:0:0:
256,192,66570,1,8,0:0:0:0:
256,192,66627,1,8,0:0:0:0:
256,192,66685,1,8,0:0:0:0:
256,192,66742,1,0,0:0:0:0:
256,192,66828,1,8,0:0:0:0:
256,192,66915,1,0,0:0:0:0:
256,192,67001,1,0,0:0:0:0:
256,192,67087,1,8,0:0:0:0:
256,192,67173,1,8,0:0:0:0:
256,192,67259,1,0,0:0:0:0:
256,192,67777,1,0,0:0:0:0:
256,192,67863,1,0,0:0:0:0:
256,192,67949,1,8,0:0:0:0:
256,192,68294,1,8,0:0:0:0:
256,192,69156,1,8,0:0:0:0:
256,192,69673,1,8,0:0:0:0:
256,192,70018,1,0,0:0:0:0:
256,192,70363,1,0,0:0:0:0:
256,192,70535,1,8,0:0:0:0:
256,192,71053,1,8,0:0:0:0:
256,192,71742,1,0,0:0:0:0:
256,192,71915,1,8,0:0:0:0:
256,192,72432,1,8,0:0:0:0:
256,192,72777,1,8,0:0:0:0:
256,192,73294,1,0,0:0:0:0:
256,192,73380,1,8,0:0:0:0:
256,192,73423,1,8,0:0:0:0:
256,192,73466,1,8,0:0:0:0:
256,192,73811,1,8,0:0:0:0:
256,192,74501,1,0,0:0:0:0:
256,192,74673,1,8,0:0:0:0:
256,192,75190,5,8,0:0:0:0:
256,192,75535,1,0,0:0:0:0:
256,192,75880,1,0,0:0:0:0:
256,192,76053,1,8,0:0:0:0:
256,192,76570,1,8,0:0:0:0:
256,192,76915,1,0,0:0:0:0:
256,192,77259,1,8,0:0:0:0:
256,192,77518,1,0,0:0:0:0:
256,192,77777,1,0,0:0:0:0:
256,192,77949,1,8,0:0:0:0:
256,192,78294,5,8,0:0:0:0:
256,192,78639,1,8,0:0:0:0:
256,192,78811,1,0,0:0:0:0:
256,192,78897,1,0,0:0:0:0:
256,192,78984,1,8,0:0:0:0:
256,192,79156,1,0,0:0:0:0:
256,192,79328,1,8,0:0:0:0:
256,192,79673,1,0,0:0:0:0:
256,192,80018,1,8,0:0:0:0:
256,192,80190,1,8,0:0:0:0:
256,192,80277,1,0,0:0:0:0:
256,192,80535,1,0,0:0:0:0:
256,192,80708,1,8,0:0:0:0:
256,192,81053,1,0,0:0:0:0:
256,192,81397,1,8,0:0:0:0:
256,192,81570,1,8,0:0:0:0:
256,192,81656,1,0,0:0:0:0:
256,192,81742,1,0,0:0:0:0:
256,192,81915,1,0,0:0:0:0:
256,192,82087,1,8,0:0:0:0:
256,192,82432,1,0,0:0:0:0:
256,192,82777,1,8,0:0:0:0:
256,192,82949,1,8,0:0:0:0:
256,192,83035,1,0,0:0:0:0:
256,192,83294,1,0,0:0:0:0:
256,192,83466,1,8,0:0:0:0:
256,192,83811,1,0,0:0:0:0:
256,192,84156,1,8,0:0:0:0:
256,192,84328,1,8,0:0:0:0:
256,192,84415,1,0,0:0:0:0:
256,192,84458,1,0,0:0:0:0:
256,192,84501,1,0,0:0:0:0:
256,192,84846,1,8,0:0:0:0:
256,192,85190,1,0,0:0:0:0:
256,192,85535,1,8,0:0:0:0:
256,192,85708,1,8,0:0:0:0:
256,192,85794,1,0,0:0:0:0:
256,192,85880,1,0,0:0:0:0:
256,192,86053,1,0,0:0:0:0:
256,192,86225,1,8,0:0:0:0:
256,192,86397,1,0,0:0:0:0:
256,192,86570,1,8,0:0:0:0:
256,192,86915,1,8,0:0:0:0:
256,192,87087,1,8,0:0:0:0:
256,192,87173,1,0,0:0:0:0:
256,192,87604,1,8,0:0:0:0:
256,192,87949,1,0,0:0:0:0:
256,192,88294,1,8,0:0:0:0:
256,192,88553,1,0,0:0:0:0:
256,192,89328,1,8,0:0:0:0:
256,192,89673,1,0,0:0:0:0:
256,192,89846,1,8,0:0:0:0:
256,192,90018,1,0,0:0:0:0:
256,192,90363,1,8,0:0:0:0:
256,192,90708,1,8,0:0:0:0:
256,192,91053,1,0,0:0:0:0:
256,192,91225,1,8,0:0:0:0:
256,192,91397,1,0,0:0:0:0:
256,192,91570,1,0,0:0:0:0:
256,192,91742,1,8,0:0:0:0:
256,192,92087,1,8,0:0:0:0:
256,192,92432,1,0,0:0:0:0:
256,192,92604,1,8,0:0:0:0:
256,192,92777,1,0,0:0:0:0:
256,192,93121,1,8,0:0:0:0:
256,192,93466,1,8,0:0:0:0:
256,192,93811,1,0,0:0:0:0:
256,192,93984,1,8,0:0:0:0:
256,192,94156,1,0,0:0:0:0:
256,192,94328,1,0,0:0:0:0:
256,192,94501,1,8,0:0:0:0:
256,192,94673,1,0,0:0:0:0:
256,192,94846,1,8,0:0:0:0:
256,192,95190,1,0,0:0:0:0:
256,192,95363,1,8,0:0:0:0:
256,192,95535,1,0,0:0:0:0:
256,192,95880,1,8,0:0:0:0:
256,192,96225,1,8,0:0:0:0:
256,192,96570,1,0,0:0:0:0:
256,192,96742,1,8,0:0:0:0:
256,192,96915,1,0,0:0:0:0:
256,192,97087,1,0,0:0:0:0:
256,192,97259,1,8,0:0:0:0:
256,192,97604,1,8,0:0:0:0:
256,192,97949,1,0,0:0:0:0:
256,192,98121,1,8,0:0:0:0:
256,192,98294,1,0,0:0:0:0:
256,192,98639,1,8,0:0:0:0:
256,192,98984,1,8,0:0:0:0:
256,192,99156,1,0,0:0:0:0:
256,192,99328,1,0,0:0:0:0:
256,192,99501,1,8,0:0:0:0:
256,192,99673,1,0,0:0:0:0:
256,192,99846,1,0,0:0:0:0:
256,192,100018,1,8,0:0:0:0:
256,192,100363,1,8,0:0:0:0:
256,192,100535,1,0,0:0:0:0:
256,192,100708,1,0,0:0:0:0:
256,192,100880,1,8,0:0:0:0:
256,192,101053,1,8,0:0:0:0:
256,192,101225,1,0,0:0:0:0:
256,192,101397,1,8,0:0:0:0:
256,192,101570,1,0,0:0:0:0:
256,192,101742,1,8,0:0:0:0:
256,192,101915,1,0,0:0:0:0:
256,192,102087,1,0,0:0:0:0:
256,192,102259,1,8,0:0:0:0:
256,192,102432,1,0,0:0:0:0:
256,192,102604,1,0,0:0:0:0:
256,192,102777,1,8,0:0:0:0:
256,192,102949,1,0,0:0:0:0:
256,192,103121,1,8,0:0:0:0:
256,192,103294,1,0,0:0:0:0:
256,192,103466,1,0,0:0:0:0:
256,192,103639,1,8,0:0:0:0:
256,192,103811,1,8,0:0:0:0:
256,192,103984,1,0,0:0:0:0:
256,192,104156,1,8,0:0:0:0:
256,192,104328,1,0,0:0:0:0:
256,192,104501,1,8,0:0:0:0:
256,192,104673,1,0,0:0:0:0:
256,192,104846,1,0,0:0:0:0:
256,192,105018,1,8,0:0:0:0:
256,192,105190,1,0,0:0:0:0:
256,192,105363,1,0,0:0:0:0:
256,192,105535,1,8,0:0:0:0:
256,192,105708,1,0,0:0:0:0:
256,192,105880,1,8,0:0:0:0:
256,192,105966,1,8,0:0:0:0:
256,192,106053,1,0,0:0:0:0:
256,192,106139,1,0,0:0:0:0:
256,192,106225,1,8,0:0:0:0:
256,192,106311,1,0,0:0:0:0:
256,192,106397,1,0,0:0:0:0:
256,192,106484,1,8,0:0:0:0:
256,192,106570,1,8,0:0:0:0:
256,192,106656,1,0,0:0:0:0:
256,192,106742,1,8,0:0:0:0:
256,192,106828,1,0,0:0:0:0:
256,192,106915,1,8,0:0:0:0:
256,192,107001,1,8,0:0:0:0:
256,192,107087,1,0,0:0:0:0:
256,192,107173,1,0,0:0:0:0:
256,192,107259,1,8,0:0:0:0:
256,192,107346,1,0,0:0:0:0:
256,192,107432,1,0,0:0:0:0:
256,192,107518,1,0,0:0:0:0:
256,192,107604,1,8,0:0:0:0:
256,192,107690,1,0,0:0:0:0:
256,192,107777,1,0,0:0:0:0:
256,192,107863,1,8,0:0:0:0:
256,192,107949,1,8,0:0:0:0:
256,192,108035,1,0,0:0:0:0:
256,192,108121,1,8,0:0:0:0:
256,192,108208,1,0,0:0:0:0:
256,192,108294,1,8,0:0:0:0:
256,192,108380,1,0,0:0:0:0:
256,192,108466,1,8,0:0:0:0:
256,192,108639,1,8,0:0:0:0:
256,192,108725,1,0,0:0:0:0:
256,192,108811,1,0,0:0:0:0:
256,192,108897,1,0,0:0:0:0:
256,192,108984,1,8,0:0:0:0:
256,192,109242,1,0,0:0:0:0:
256,192,109328,1,0,0:0:0:0:
256,192,109415,1,8,0:0:0:0:
256,192,109501,1,8,0:0:0:0:
256,192,109759,1,0,0:0:0:0:
256,192,109846,1,8,0:0:0:0:
256,192,109932,1,8,0:0:0:0:
256,192,110018,1,8,0:0:0:0:
256,192,110277,1,8,0:0:0:0:
256,192,110363,1,8,0:0:0:0:
256,192,110449,1,8,0:0:0:0:
256,192,110535,1,8,0:0:0:0:
256,192,110708,1,0,0:0:0:0:
256,192,110794,1,8,0:0:0:0:
256,192,110880,1,8,0:0:0:0:
256,192,110966,1,8,0:0:0:0:
256,192,111053,1,0,0:0:0:0:
256,192,111139,1,0,0:0:0:0:
256,192,111225,1,8,0:0:0:0:
256,192,111311,1,8,0:0:0:0:
256,192,111397,5,4,0:0:0:0:
256,192,111570,1,8,0:0:0:0:
256,192,111627,1,0,0:0:0:0:
256,192,111685,1,0,0:0:0:0:
256,192,111742,1,8,0:0:0:0:
256,192,111915,1,8,0:0:0:0:
256,192,112001,1,0,0:0:0:0:
256,192,112058,1,8,0:0:0:0:
256,192,112116,1,8,0:0:0:0:
256,192,112173,1,0,0:0:0:0:
256,192,112259,1,8,0:0:0:0:
256,192,112317,1,0,0:0:0:0:
256,192,112374,1,0,0:0:0:0:
256,192,112432,1,8,0:0:0:0:
256,192,112604,1,8,0:0:0:0:
256,192,112690,1,8,0:0:0:0:
256,192,112777,1,0,0:0:0:0:
256,192,112949,1,8,0:0:0:0:
256,192,113007,1,8,0:0:0:0:
256,192,113064,1,8,0:0:0:0:
256,192,113121,1,8,0:0:0:0:
256,192,113179,1,0,0:0:0:0:
256,192,113236,1,0,0:0:0:0:
256,192,113294,1,8,0:0:0:0:
256,192,113380,1,0,0:0:0:0:
256,192,113466,1,0,0:0:0:0:
256,192,113524,1,8,0:0:0:0:
256,192,113581,1,8,0:0:0:0:
256,192,113639,1,0,0:0:0:0:
256,192,113725,1,0,0:0:0:0:
256,192,113811,1,8,0:0:0:0:
256,192,113869,1,8,0:0:0:0:
256,192,113926,1,8,0:0:0:0:
256,192,113984,1,8,0:0:0:0:
256,192,114156,1,0,0:0:0:0:
256,192,114328,1,0,0:0:0:0:
256,192,114386,1,0,0:0:0:0:
256,192,114443,1,0,0:0:0:0:
256,192,114501,1,8,0:0:0:0:
256,192,114673,1,8,0:0:0:0:
256,192,114759,1,0,0:0:0:0:
256,192,114817,1,0,0:0:0:0:
256,192,114874,1,0,0:0:0:0:
256,192,114932,1,8,0:0:0:0:
256,192,115018,1,8,0:0:0:0:
256,192,115075,1,0,0:0:0:0:
256,192,115133,1,0,0:0:0:0:
256,192,115190,1,8,0:0:0:0:
256,192,115277,1,8,0:0:0:0:
256,192,115363,1,8,0:0:0:0:
256,192,115449,1,8,0:0:0:0:
256,192,115535,1,0,0:0:0:0:
256,192,115708,1,8,0:0:0:0:
256,192,115765,1,0,0:0:0:0:
256,192,115823,1,0,0:0:0:0:
256,192,115880,1,8,0:0:0:0:
256,192,115938,1,8,0:0:0:0:
256,192,115995,1,8,0:0:0:0:
256,192,116053,1,8,0:0:0:0:
256,192,116139,1,0,0:0:0:0:
256,192,116225,1,8,0:0:0:0:
256,192,116311,1,8,0:0:0:0:
256,192,116397,1,0,0:0:0:0:
256,192,116484,1,0,0:0:0:0:
256,192,116570,1,8,0:0:0:0:
256,192,116627,1,8,0:0:0:0:
256,192,116685,1,8,0:0:0:0:
256,192,116742,1,8,0:0:0:0:
256,192,116800,1,8,0:0:0:0:
256,192,116857,1,8,0:0:0:0:
256,192,116915,1,0,0:0:0:0:
256,192,117087,1,8,0:0:0:0:
256,192,117144,1,0,0:0:0:0:
256,192,117202,1,0,0:0:0:0:
256,192,117259,1,8,0:0:0:0:
256,192,117432,1,8,0:0:0:0:
256,192,117518,1,0,0:0:0:0:
256,192,117575,1,8,0:0:0:0:
256,192,117633,1,8,0:0:0:0:
256,192,117690,1,0,0:0:0:0:
256,192,117777,1,8,0:0:0:0:
256,192,117834,1,0,0:0:0:0:
256,192,117892,1,0,0:0:0:0:
256,192,117949,1,8,0:0:0:0:
256,192,118121,1,8,0:0:0:0:
256,192,118208,1,8,0:0:0:0:
256,192,118294,1,0,0:0:0:0:
256,192,118466,1,8,0:0:0:0:
256,192,118524,1,8,0:0:0:0:
256,192,118581,1,8,0:0:0:0:
256,192,118639,1,8,0:0:0:0:
256,192,118696,1,0,0:0:0:0:
256,192,118754,1,0,0:0:0:0:
256,192,118811,1,8,0:0:0:0:
256,192,118897,1,0,0:0:0:0:
256,192,118984,1,8,0:0:0:0:
256,192,119041,1,8,0:0:0:0:
256,192,119098,1,8,0:0:0:0:
256,192,119156,1,0,0:0:0:0:
256,192,119242,1,0,0:0:0:0:
256,192,119328,1,8,0:0:0:0:
256,192,119386,1,8,0:0:0:0:
256,192,119443,1,8,0:0:0:0:
256,192,119501,1,8,0:0:0:0:
256,192,119673,1,0,0:0:0:0:
256,192,119846,1,0,0:0:0:0:
256,192,119903,1,0,0:0:0:0:
256,192,119961,1,0,0:0:0:0:
256,192,120018,1,8,0:0:0:0:
256,192,120190,1,8,0:0:0:0:
256,192,120277,1,0,0:0:0:0:
256,192,120334,1,8,0:0:0:0:
256,192,120392,1,8,0:0:0:0:
256,192,120449,1,0,0:0:0:0:
256,192,120535,1,0,0:0:0:0:
256,192,120593,1,0,0:0:0:0:
256,192,120650,1,0,0:0:0:0:
256,192,120708,1,8,0:0:0:0:
256,192,120880,1,8,0:0:0:0:
256,192,120938,1,8,0:0:0:0:
256,192,120995,1,8,0:0:0:0:
256,192,121053,1,0,0:0:0:0:
256,192,121110,1,0,0:0:0:0:
256,192,121167,1,0,0:0:0:0:
256,192,121225,1,8,0:0:0:0:
256,192,121282,1,0,0:0:0:0:
256,192,121340,1,0,0:0:0:0:
256,192,121397,1,8,0:0:0:0:
256,192,121484,1,8,0:0:0:0:
256,192,121570,1,8,0:0:0:0:
256,192,121656,1,0,0:0:0:0:
256,192,121742,1,8,0:0:0:0:
256,192,121800,1,8,0:0:0:0:
256,192,121857,1,8,0:0:0:0:
256,192,121915,1,0,0:0:0:0:
256,192,121972,1,0,0:0:0:0:
256,192,122030,1,0,0:0:0:0:
256,192,122087,1,8,0:0:0:0:
256,192,122173,1,8,0:0:0:0:
256,192,122259,1,8,0:0:0:0:
256,192,122346,1,8,0:0:0:0:
256,192,122432,5,0,0:0:0:0:
256,192,122604,1,8,0:0:0:0:
256,192,122662,1,0,0:0:0:0:
256,192,122719,1,0,0:0:0:0:
256,192,122777,1,8,0:0:0:0:
256,192,122949,1,8,0:0:0:0:
256,192,123035,1,0,0:0:0:0:
256,192,123093,1,8,0:0:0:0:
256,192,123150,1,8,0:0:0:0:
256,192,123208,1,0,0:0:0:0:
256,192,123294,1,8,0:0:0:0:
256,192,123351,1,8,0:0:0:0:
256,192,123409,1,8,0:0:0:0:
256,192,123466,1,8,0:0:0:0:
256,192,123639,1,8,0:0:0:0:
256,192,123725,1,8,0:0:0:0:
256,192,123811,1,0,0:0:0:0:
256,192,123984,1,8,0:0:0:0:
256,192,124041,1,0,0:0:0:0:
256,192,124098,1,0,0:0:0:0:
256,192,124156,1,8,0:0:0:0:
256,192,124213,1,0,0:0:0:0:
256,192,124271,1,0,0:0:0:0:
256,192,124328,1,8,0:0:0:0:
256,192,124415,1,0,0:0:0:0:
256,192,124501,1,8,0:0:0:0:
256,192,124558,1,8,0:0:0:0:
256,192,124616,1,8,0:0:0:0:
256,192,124673,1,0,0:0:0:0:
256,192,124759,1,0,0:0:0:0:
256,192,124846,1,8,0:0:0:0:
256,192,124903,1,8,0:0:0:0:
256,192,124961,1,8,0:0:0:0:
256,192,125018,1,8,0:0:0:0:
256,192,125190,1,0,0:0:0:0:
256,192,125363,1,0,0:0:0:0:
256,192,125420,1,0,0:0:0:0:
256,192,125478,1,0,0:0:0:0:
256,192,125535,1,8,0:0:0:0:
256,192,125708,1,8,0:0:0:0:
256,192,125794,1,0,0:0:0:0:
256,192,125851,1,8,0:0:0:0:
256,192,125909,1,8,0:0:0:0:
256,192,125966,1,0,0:0:0:0:
256,192,126053,1,8,0:0:0:0:
256,192,126110,1,0,0:0:0:0:
256,192,126167,1,0,0:0:0:0:
256,192,126225,1,8,0:0:0:0:
256,192,126311,1,8,0:0:0:0:
256,192,126397,1,8,0:0:0:0:
256,192,126484,1,8,0:0:0:0:
256,192,126570,1,0,0:0:0:0:
256,192,126742,1,8,0:0:0:0:
256,192,126800,1,8,0:0:0:0:
256,192,126857,1,0,0:0:0:0:
256,192,126915,1,8,0:0:0:0:
256,192,126972,1,0,0:0:0:0:
256,192,127030,1,8,0:0:0:0:
256,192,127087,1,8,0:0:0:0:
256,192,127173,1,0,0:0:0:0:
256,192,127259,1,8,0:0:0:0:
256,192,127346,1,8,0:0:0:0:
256,192,127432,1,0,0:0:0:0:
256,192,127518,1,0,0:0:0:0:
256,192,127604,1,8,0:0:0:0:
256,192,127662,1,8,0:0:0:0:
256,192,127719,1,8,0:0:0:0:
256,192,127777,1,8,0:0:0:0:
256,192,127834,1,8,0:0:0:0:
256,192,127892,1,8,0:0:0:0:
256,192,127949,1,0,0:0:0:0:
256,192,128121,1,8,0:0:0:0:
256,192,128179,1,0,0:0:0:0:
256,192,128236,1,0,0:0:0:0:
256,192,128294,1,8,0:0:0:0:
256,192,128466,1,8,0:0:0:0:
256,192,128553,1,0,0:0:0:0:
256,192,128610,1,8,0:0:0:0:
256,192,128667,1,8,0:0:0:0:
256,192,128725,1,0,0:0:0:0:
256,192,128811,1,8,0:0:0:0:
256,192,128869,1,8,0:0:0:0:
256,192,128926,1,8,0:0:0:0:
256,192,128984,1,8,0:0:0:0:
256,192,129156,1,8,0:0:0:0:
256,192,129242,1,8,0:0:0:0:
256,192,129328,1,0,0:0:0:0:
256,192,129501,1,8,0:0:0:0:
256,192,129558,1,0,0:0:0:0:
256,192,129616,1,0,0:0:0:0:
256,192,129673,1,8,0:0:0:0:
256,192,129731,1,0,0:0:0:0:
256,192,129788,1,0,0:0:0:0:
256,192,129846,1,8,0:0:0:0:
256,192,129932,1,0,0:0:0:0:
256,192,130018,1,0,0:0:0:0:
256,192,130075,1,8,0:0:0:0:
256,192,130133,1,8,0:0:0:0:
256,192,130190,1,0,0:0:0:0:
256,192,130277,1,0,0:0:0:0:
256,192,130363,1,8,0:0:0:0:
256,192,130420,1,8,0:0:0:0:
256,192,130478,1,8,0:0:0:0:
256,192,130535,1,8,0:0:0:0:
256,192,130708,1,0,0:0:0:0:
256,192,130880,1,0,0:0:0:0:
256,192,130938,1,0,0:0:0:0:
256,192,130995,1,0,0:0:0:0:
256,192,131053,1,8,0:0:0:0:
256,192,131139,1,8,0:0:0:0:
256,192,131225,1,8,0:0:0:0:
256,192,131311,1,0,0:0:0:0:
256,192,131397,1,8,0:0:0:0:
256,192,131570,1,0,0:0:0:0:
256,192,131627,1,0,0:0:0:0:
256,192,131685,1,0,0:0:0:0:
256,192,131742,1,8,0:0:0:0:
256,192,131915,1,0,0:0:0:0:
256,192,132087,1,8,0:0:0:0:
256,192,132259,1,8,0:0:0:0:
256,192,132432,1,0,0:0:0:0:
256,192,132604,1,0,0:0:0:0:
256,192,132777,1,8,0:0:0:0:
256,192,132949,1,8,0:0:0:0:
256,192,133121,1,8,0:0:0:0:
256,192,133208,1,8,0:0:0:0:
256,192,133294,1,8,0:0:0:0:
256,192,133380,1,8,0:0:0:0:
256,192,133466,1,0,0:0:0:0:
256,192,133639,1,0,0:0:0:0:
256,192,133696,1,0,0:0:0:0:
256,192,133754,1,0,0:0:0:0:
256,192,133811,1,8,0:0:0:0:
256,192,133984,1,8,0:0:0:0:
256,192,134070,1,0,0:0:0:0:
256,192,134156,1,0,0:0:0:0:
256,192,134242,1,8,0:0:0:0:
256,192,134328,1,8,0:0:0:0:
256,192,134415,1,0,0:0:0:0:
256,192,134501,1,8,0:0:0:0:
256,192,134558,1,0,0:0:0:0:
256,192,134616,1,0,0:0:0:0:
256,192,134673,1,8,0:0:0:0:
256,192,134731,1,8,0:0:0:0:
256,192,134788,1,8,0:0:0:0:
256,192,134846,1,0,0:0:0:0:
256,192,135018,1,8,0:0:0:0:
256,192,135075,1,0,0:0:0:0:
256,192,135133,1,0,0:0:0:0:
256,192,135190,1,8,0:0:0:0:
256,192,135248,1,0,0:0:0:0:
256,192,135305,1,0,0:0:0:0:
256,192,135363,1,8,0:0:0:0:
256,192,135449,1,0,0:0:0:0:
256,192,135535,1,8,0:0:0:0:
256,192,135593,1,8,0:0:0:0:
256,192,135650,1,8,0:0:0:0:
256,192,135708,1,0,0:0:0:0:
256,192,135794,1,0,0:0:0:0:
256,192,135880,1,8,0:0:0:0:
256,192,135966,1,8,0:0:0:0:
256,192,136053,1,8,0:0:0:0:
256,192,136139,1,8,0:0:0:0:
256,192,136225,1,0,0:0:0:0:
256,192,136397,1,8,0:0:0:0:
256,192,136455,1,0,0:0:0:0:
256,192,136512,1,0,0:0:0:0:
256,192,136570,1,8,0:0:0:0:
256,192,136742,1,8,0:0:0:0:
256,192,136828,1,0,0:0:0:0:
256,192,136915,1,8,0:0:0:0:
256,192,136972,1,8,0:0:0:0:
256,192,137030,1,8,0:0:0:0:
256,192,137087,1,0,0:0:0:0:
256,192,137173,1,0,0:0:0:0:
256,192,137259,1,8,0:0:0:0:
256,192,137317,1,8,0:0:0:0:
256,192,137374,1,8,0:0:0:0:
256,192,137432,1,8,0:0:0:0:
256,192,137489,1,8,0:0:0:0:
256,192,137547,1,8,0:0:0:0:
256,192,137604,1,0,0:0:0:0:
256,192,137777,1,0,0:0:0:0:
256,192,137834,1,0,0:0:0:0:
256,192,137892,1,0,0:0:0:0:
256,192,137949,1,8,0:0:0:0:
256,192,138035,1,0,0:0:0:0:
256,192,138121,1,8,0:0:0:0:
256,192,138208,1,0,0:0:0:0:
256,192,138294,1,8,0:0:0:0:
256,192,138351,1,8,0:0:0:0:
256,192,138409,1,8,0:0:0:0:
256,192,138466,1,0,0:0:0:0:
256,192,138553,1,0,0:0:0:0:
256,192,138639,1,8,0:0:0:0:
256,192,138725,1,0,0:0:0:0:
256,192,138811,1,8,0:0:0:0:
256,192,138984,1,0,0:0:0:0:
256,192,139156,1,0,0:0:0:0:
256,192,139213,1,0,0:0:0:0:
256,192,139271,1,0,0:0:0:0:
256,192,139328,1,8,0:0:0:0:
256,192,139501,1,8,0:0:0:0:
256,192,139587,1,0,0:0:0:0:
256,192,139673,1,0,0:0:0:0:
256,192,139759,1,8,0:0:0:0:
256,192,139846,1,8,0:0:0:0:
256,192,139932,1,0,0:0:0:0:
256,192,140018,1,8,0:0:0:0:
256,192,140075,1,0,0:0:0:0:
256,192,140133,1,0,0:0:0:0:
256,192,140190,1,8,0:0:0:0:
256,192,140248,1,8,0:0:0:0:
256,192,140305,1,8,0:0:0:0:
256,192,140363,1,0,0:0:0:0:
256,192,140535,1,8,0:0:0:0:
256,192,140593,1,0,0:0:0:0:
256,192,140650,1,0,0:0:0:0:
256,192,140708,1,8,0:0:0:0:
256,192,140765,1,0,0:0:0:0:
256,192,140823,1,0,0:0:0:0:
256,192,140880,1,8,0:0:0:0:
256,192,140966,1,0,0:0:0:0:
256,192,141053,1,8,0:0:0:0:
256,192,141110,1,8,0:0:0:0:
256,192,141167,1,8,0:0:0:0:
256,192,141225,1,0,0:0:0:0:
256,192,141311,1,0,0:0:0:0:
256,192,141397,1,8,0:0:0:0:
256,192,141484,1,8,0:0:0:0:
256,192,141570,1,8,0:0:0:0:
256,192,141656,1,8,0:0:0:0:
256,192,141742,1,0,0:0:0:0:
256,192,141915,1,8,0:0:0:0:
256,192,141972,1,0,0:0:0:0:
256,192,142030,1,0,0:0:0:0:
256,192,142087,1,8,0:0:0:0:
256,192,142259,1,8,0:0:0:0:
256,192,142346,1,0,0:0:0:0:
256,192,142432,1,8,0:0:0:0:
256,192,142489,1,8,0:0:0:0:
256,192,142547,1,8,0:0:0:0:
256,192,142604,1,0,0:0:0:0:
256,192,142690,1,0,0:0:0:0:
256,192,142777,1,8,0:0:0:0:
256,192,142834,1,8,0:0:0:0:
256,192,142892,1,8,0:0:0:0:
256,192,142949,1,8,0:0:0:0:
256,192,143035,1,8,0:0:0:0:
256,192,143121,1,0,0:0:0:0:
256,192,143179,1,0,0:0:0:0:
256,192,143236,1,0,0:0:0:0:
256,192,143294,1,8,0:0:0:0:
256,192,143380,1,0,0:0:0:0:
256,192,143466,1,8,0:0:0:0:
256,192,143524,1,8,0:0:0:0:
256,192,143581,1,8,0:0:0:0:
256,192,143639,1,0,0:0:0:0:
256,192,143725,1,0,0:0:0:0:
256,192,143811,1,8,0:0:0:0:
256,192,143869,1,8,0:0:0:0:
256,192,143926,1,8,0:0:0:0:
256,192,143984,1,0,0:0:0:0:
256,192,144041,1,0,0:0:0:0:
256,192,144098,1,0,0:0:0:0:
256,192,144156,1,8,0:0:0:0:
256,192,144242,1,0,0:0:0:0:
256,192,144328,1,8,0:0:0:0:
256,192,144386,1,8,0:0:0:0:
256,192,144443,1,8,0:0:0:0:
256,192,144501,5,0,0:0:0:0:
256,192,144673,1,0,0:0:0:0:
256,192,144846,1,8,0:0:0:0:
256,192,144903,1,0,0:0:0:0:
256,192,144961,1,0,0:0:0:0:
256,192,145018,1,8,0:0:0:0:
256,192,145104,1,0,0:0:0:0:
256,192,145190,1,0,0:0:0:0:
256,192,145277,1,8,0:0:0:0:
256,192,145363,1,8,0:0:0:0:
256,192,145449,1,0,0:0:0:0:
256,192,145535,1,8,0:0:0:0:
256,192,145593,1,0,0:0:0:0:
256,192,145650,1,0,0:0:0:0:
256,192,145708,1,8,0:0:0:0:
256,192,145765,1,8,0:0:0:0:
256,192,145823,1,8,0:0:0:0:
256,192,145880,1,0,0:0:0:0:
256,192,146053,1,8,0:0:0:0:
256,192,146110,1,8,0:0:0:0:
256,192,146167,1,8,0:0:0:0:
256,192,146225,1,8,0:0:0:0:
256,192,146282,1,0,0:0:0:0:
256,192,146340,1,0,0:0:0:0:
256,192,146397,1,8,0:0:0:0:
256,192,146484,1,0,0:0:0:0:
256,192,146570,1,8,0:0:0:0:
256,192,146627,1,8,0:0:0:0:
256,192,146685,1,8,0:0:0:0:
256,192,146742,1,0,0:0:0:0:
256,192,146828,1,0,0:0:0:0:
256,192,146915,1,8,0:0:0:0:
256,192,147001,1,8,0:0:0:0:
256,192,147087,1,8,0:0:0:0:
256,192,147173,1,8,0:0:0:0:
256,192,147259,1,0,0:0:0:0:
256,192,147432,1,8,0:0:0:0:
256,192,147489,1,8,0:0:0:0:
256,192,147547,1,8,0:0:0:0:
256,192,147604,1,8,0:0:0:0:
256,192,147777,1,8,0:0:0:0:
256,192,147863,1,0,0:0:0:0:
256,192,147949,1,8,0:0:0:0:
256,192,148007,1,0,0:0:0:0:
256,192,148064,1,0,0:0:0:0:
256,192,148121,1,8,0:0:0:0:
256,192,148208,1,0,0:0:0:0:
256,192,148294,1,8,0:0:0:0:
256,192,148351,1,8,0:0:0:0:
256,192,148409,1,8,0:0:0:0:
256,192,148466,1,0,0:0:0:0:
256,192,148524,1,8,0:0:0:0:
256,192,148581,1,8,0:0:0:0:
256,192,148639,1,0,0:0:0:0:
256,192,148811,1,8,0:0:0:0:
256,192,148869,1,0,0:0:0:0:
256,192,148926,1,0,0:0:0:0:
256,192,148984,1,8,0:0:0:0:
256,192,149070,1,0,0:0:0:0:
256,192,149156,1,8,0:0:0:0:
256,192,149242,1,0,0:0:0:0:
256,192,149328,1,8,0:0:0:0:
256,192,149386,1,8,0:0:0:0:
256,192,149443,1,8,0:0:0:0:
256,192,149501,1,0,0:0:0:0:
256,192,149587,1,0,0:0:0:0:
256,192,149673,1,8,0:0:0:0:
256,192,149759,1,0,0:0:0:0:
256,192,149846,1,8,0:0:0:0:
256,192,150018,5,0,0:0:0:0:
256,192,150363,1,8,0:0:0:0:
256,192,150708,1,0,0:0:0:0:
256,192,151053,1,8,0:0:0:0:
256,192,151397,1,0,0:0:0:0:
256,192,151570,1,0,0:0:0:0:
256,192,151742,1,8,0:0:0:0:
256,192,151915,1,8,0:0:0:0:
256,192,152087,5,0,0:0:0:0:
256,192,152173,1,0,0:0:0:0:
256,192,152259,1,0,0:0:0:0:
256,192,152346,1,0,0:0:0:0:
256,192,152432,1,8,0:0:0:0:
256,192,152604,1,0,0:0:0:0:
256,192,152690,1,0,0:0:0:0:
256,192,152777,1,8,0:0:0:0:
256,192,152949,12,0,154846,0:0:0:0:
256,192,155190,5,8,0:0:0:0:
256,192,155277,1,8,0:0:0:0:
256,192,155363,1,8,0:0:0:0:
256,192,155449,1,8,0:0:0:0:
256,192,155535,1,0,0:0:0:0:
256,192,156053,1,8,0:0:0:0:
256,192,156096,1,8,0:0:0:0:
256,192,156139,1,8,0:0:0:0:
256,192,156225,1,0,0:0:0:0:
256,192,156570,1,0,0:0:0:0:
256,192,156742,1,0,0:0:0:0:
256,192,156915,1,8,0:0:0:0:
256,192,157087,1,8,0:0:0:0:
256,192,158064,1,0,0:0:0:0:
256,192,158179,1,0,0:0:0:0:
256,192,158294,1,8,0:0:0:0:
256,192,158811,1,8,0:0:0:0:
256,192,158854,1,8,0:0:0:0:
256,192,158897,1,8,0:0:0:0:
256,192,158984,1,0,0:0:0:0:
256,192,159213,1,0,0:0:0:0:
256,192,159271,1,0,0:0:0:0:
256,192,159328,1,8,0:0:0:0:
256,192,159501,1,8,0:0:0:0:
256,192,159673,1,0,0:0:0:0:
256,192,160018,1,0,0:0:0:0:
256,192,160190,1,0,0:0:0:0:
256,192,160363,1,8,0:0:0:0:
256,192,160535,1,8,0:0:0:0:
256,192,160708,1,8,0:0:0:0:
256,192,160794,1,8,0:0:0:0:
256,192,160880,1,8,0:0:0:0:
256,192,160966,1,8,0:0:0:0:
256,192,161053,1,0,0:0:0:0:
256,192,161570,1,8,0:0:0:0:
256,192,161613,1,8,0:0:0:0:
256,192,161656,1,8,0:0:0:0:
256,192,161742,1,0,0:0:0:0:
256,192,162087,1,0,0:0:0:0:
256,192,162259,1,8,0:0:0:0:
256,192,162432,1,0,0:0:0:0:
256,192,162604,1,8,0:0:0:0:
256,192,163294,1,0,0:0:0:0:
256,192,163380,1,0,0:0:0:0:
256,192,163466,1,0,0:0:0:0:
256,192,163553,1,0,0:0:0:0:
256,192,163639,1,0,0:0:0:0:
256,192,163725,1,0,0:0:0:0:
256,192,163811,1,8,0:0:0:0:
256,192,164242,1,8,0:0:0:0:
256,192,164371,1,0,0:0:0:0:
256,192,164501,1,8,0:0:0:0:
256,192,164731,1,0,0:0:0:0:
256,192,164788,1,0,0:0:0:0:
256,192,164846,1,8,0:0:0:0:
256,192,165018,1,8,0:0:0:0:
256,192,165190,1,0,0:0:0:0:
256,192,165535,1,0,0:0:0:0:
256,192,165708,1,0,0:0:0:0:
256,192,165880,1,8,0:0:0:0:
256,192,166225,1,8,0:0:0:0:
256,192,166311,1,8,0:0:0:0:
256,192,166397,1,0,0:0:0:0:
256,192,166484,1,0,0:0:0:0:
256,192,166570,1,8,0:0:0:0:
256,192,166915,1,8,0:0:0:0:
256,192,167259,1,8,0:0:0:0:
256,192,167604,1,8,0:0:0:0:
256,192,167949,1,8,0:0:0:0:
256,192,168294,1,8,0:0:0:0:
256,192,168639,1,8,0:0:0:0:
256,192,168984,1,8,0:0:0:0:
256,192,169328,1,8,0:0:0:0:
256,192,169673,1,8,0:0:0:0:
256,192,170018,1,8,0:0:0:0:
256,192,170363,1,8,0:0:0:0:
256,192,170708,1,8,0:0:0:0:
256,192,171053,1,8,0:0:0:0:
256,192,171397,1,8,0:0:0:0:
256,192,171742,1,8,0:0:0:0:
256,192,172087,5,8,0:0:0:0:
256,192,172346,1,8,0:0:0:0:
256,192,172604,1,8,0:0:0:0:
256,192,172777,1,8,0:0:0:0:
256,192,173035,1,8,0:0:0:0:
256,192,173294,1,8,0:0:0:0:
256,192,173466,1,8,0:0:0:0:
256,192,173725,1,8,0:0:0:0:
256,192,173984,1,8,0:0:0:0:
256,192,174156,1,8,0:0:0:0:
256,192,174415,1,8,0:0:0:0:
256,192,174673,1,8,0:0:0:0:
256,192,174846,1,8,0:0:0:0:
256,192,175018,1,8,0:0:0:0:
256,192,175190,1,8,0:0:0:0:
256,192,175363,1,8,0:0:0:0:
256,192,175535,1,8,0:0:0:0:
256,192,175708,1,8,0:0:0:0:
256,192,175880,1,8,0:0:0:0:
256,192,176053,1,8,0:0:0:0:
256,192,176225,1,8,0:0:0:0:
256,192,176311,1,8,0:0:0:0:
256,192,176397,1,8,0:0:0:0:
256,192,176484,1,8,0:0:0:0:
256,192,176570,1,8,0:0:0:0:
256,192,176656,1,8,0:0:0:0:
256,192,176742,1,8,0:0:0:0:
256,192,176828,1,8,0:0:0:0:
256,192,176915,1,8,0:0:0:0:
256,192,177001,1,8,0:0:0:0:
256,192,177087,1,8,0:0:0:0:
256,192,177173,1,8,0:0:0:0:
256,192,177259,1,8,0:0:0:0:
256,192,177346,1,8,0:0:0:0:
256,192,177432,1,8,0:0:0:0:
256,192,177518,1,8,0:0:0:0:
256,192,177604,1,0,0:0:0:0:
256,192,177777,1,0,0:0:0:0:
256,192,177863,1,0,0:0:0:0:
256,192,177949,1,8,0:0:0:0:
256,192,178208,1,0,0:0:0:0:
256,192,178294,1,0,0:0:0:0:
256,192,178380,1,8,0:0:0:0:
256,192,178466,1,8,0:0:0:0:
256,192,178725,1,0,0:0:0:0:
256,192,178811,1,8,0:0:0:0:
256,192,178897,1,8,0:0:0:0:
256,192,178984,1,8,0:0:0:0:
256,192,179242,1,8,0:0:0:0:
256,192,179328,1,8,0:0:0:0:
256,192,179415,1,8,0:0:0:0:
256,192,179501,1,8,0:0:0:0:
256,192,179673,1,8,0:0:0:0:
256,192,179759,1,8,0:0:0:0:
256,192,179846,1,0,0:0:0:0:
256,192,179932,1,0,0:0:0:0:
256,192,180018,1,8,0:0:0:0:
256,192,180190,1,8,0:0:0:0:
256,192,180363,5,4,0:0:0:0:
256,192,180535,1,8,0:0:0:0:
256,192,180593,1,0,0:0:0:0:
256,192,180650,1,0,0:0:0:0:
256,192,180708,1,8,0:0:0:0:
256,192,180794,1,0,0:0:0:0:
256,192,180880,1,8,0:0:0:0:
256,192,180923,1,8,0:0:0:0:
256,192,180966,1,0,0:0:0:0:
256,192,181053,1,0,0:0:0:0:
256,192,181139,1,0,0:0:0:0:
256,192,181196,1,8,0:0:0:0:
256,192,181254,1,8,0:0:0:0:
256,192,181311,1,0,0:0:0:0:
256,192,181397,1,8,0:0:0:0:
256,192,181455,1,0,0:0:0:0:
256,192,181512,1,0,0:0:0:0:
256,192,181570,1,8,0:0:0:0:
256,192,181627,1,8,0:0:0:0:
256,192,181685,1,8,0:0:0:0:
256,192,181742,1,0,0:0:0:0:
256,192,181828,1,8,0:0:0:0:
256,192,181915,1,8,0:0:0:0:
256,192,182001,1,8,0:0:0:0:
256,192,182087,1,8,0:0:0:0:
256,192,182144,1,0,0:0:0:0:
256,192,182202,1,0,0:0:0:0:
256,192,182259,1,8,0:0:0:0:
256,192,182346,1,0,0:0:0:0:
256,192,182432,1,8,0:0:0:0:
256,192,182489,1,8,0:0:0:0:
256,192,182547,1,8,0:0:0:0:
256,192,182604,1,0,0:0:0:0:
256,192,182690,1,0,0:0:0:0:
256,192,182777,1,8,0:0:0:0:
256,192,182834,1,8,0:0:0:0:
256,192,182892,1,8,0:0:0:0:
256,192,182949,1,8,0:0:0:0:
256,192,183035,1,0,0:0:0:0:
256,192,183121,1,0,0:0:0:0:
256,192,183294,1,0,0:0:0:0:
256,192,183351,1,0,0:0:0:0:
256,192,183409,1,0,0:0:0:0:
256,192,183466,1,8,0:0:0:0:
256,192,183553,1,0,0:0:0:0:
256,192,183639,1,8,0:0:0:0:
256,192,183682,1,8,0:0:0:0:
256,192,183725,1,0,0:0:0:0:
256,192,183811,1,8,0:0:0:0:
256,192,183869,1,8,0:0:0:0:
256,192,183926,1,8,0:0:0:0:
256,192,183984,1,0,0:0:0:0:
256,192,184041,1,0,0:0:0:0:
256,192,184098,1,0,0:0:0:0:
256,192,184156,1,8,0:0:0:0:
256,192,184242,1,0,0:0:0:0:
256,192,184328,1,0,0:0:0:0:
256,192,184415,1,8,0:0:0:0:
256,192,184501,1,0,0:0:0:0:
256,192,184587,1,0,0:0:0:0:
256,192,184673,1,8,0:0:0:0:
256,192,184731,1,0,0:0:0:0:
256,192,184788,1,0,0:0:0:0:
256,192,184846,1,8,0:0:0:0:
256,192,184903,1,8,0:0:0:0:
256,192,184961,1,8,0:0:0:0:
256,192,185018,1,8,0:0:0:0:
256,192,185104,1,0,0:0:0:0:
256,192,185190,1,8,0:0:0:0:
256,192,185248,1,8,0:0:0:0:
256,192,185305,1,8,0:0:0:0:
256,192,185363,1,0,0:0:0:0:
256,192,185449,1,0,0:0:0:0:
256,192,185535,1,8,0:0:0:0:
256,192,185593,1,0,0:0:0:0:
256,192,185650,1,0,0:0:0:0:
256,192,185708,1,8,0:0:0:0:
256,192,185794,1,8,0:0:0:0:
256,192,185880,1,0,0:0:0:0:
256,192,186053,1,0,0:0:0:0:
256,192,186110,1,0,0:0:0:0:
256,192,186167,1,0,0:0:0:0:
256,192,186225,1,8,0:0:0:0:
256,192,186282,1,0,0:0:0:0:
256,192,186340,1,0,0:0:0:0:
256,192,186397,1,8,0:0:0:0:
256,192,186484,1,0,0:0:0:0:
256,192,186570,1,8,0:0:0:0:
256,192,186627,1,8,0:0:0:0:
256,192,186685,1,8,0:0:0:0:
256,192,186742,1,0,0:0:0:0:
256,192,186800,1,0,0:0:0:0:
256,192,186857,1,0,0:0:0:0:
256,192,186915,1,8,0:0:0:0:
256,192,187001,1,0,0:0:0:0:
256,192,187087,1,8,0:0:0:0:
256,192,187144,1,8,0:0:0:0:
256,192,187202,1,8,0:0:0:0:
256,192,187259,1,0,0:0:0:0:
256,192,187432,1,8,0:0:0:0:
256,192,187489,1,8,0:0:0:0:
256,192,187547,1,8,0:0:0:0:
256,192,187604,1,8,0:0:0:0:
256,192,187662,1,0,0:0:0:0:
256,192,187719,1,0,0:0:0:0:
256,192,187777,1,8,0:0:0:0:
256,192,187863,1,0,0:0:0:0:
256,192,187949,1,8,0:0:0:0:
256,192,188007,1,8,0:0:0:0:
256,192,188064,1,8,0:0:0:0:
256,192,188121,1,0,0:0:0:0:
256,192,188208,1,0,0:0:0:0:
256,192,188294,1,8,0:0:0:0:
256,192,188351,1,0,0:0:0:0:
256,192,188409,1,0,0:0:0:0:
256,192,188466,1,8,0:0:0:0:
256,192,188524,1,0,0:0:0:0:
256,192,188581,1,0,0:0:0:0:
256,192,188639,1,0,0:0:0:0:
256,192,188811,1,8,0:0:0:0:
256,192,188869,1,0,0:0:0:0:
256,192,188926,1,0,0:0:0:0:
256,192,188984,1,8,0:0:0:0:
256,192,189041,1,8,0:0:0:0:
256,192,189098,1,8,0:0:0:0:
256,192,189156,1,8,0:0:0:0:
256,192,189242,1,0,0:0:0:0:
256,192,189328,1,8,0:0:0:0:
256,192,189415,1,8,0:0:0:0:
256,192,189501,1,0,0:0:0:0:
256,192,189544,1,0,0:0:0:0:
256,192,189673,1,8,0:0:0:0:
256,192,189716,1,8,0:0:0:0:
256,192,189846,1,8,0:0:0:0:
256,192,189889,1,8,0:0:0:0:
256,192,190018,1,0,0:0:0:0:
256,192,190075,1,0,0:0:0:0:
256,192,190133,1,0,0:0:0:0:
256,192,190190,1,8,0:0:0:0:
256,192,190277,1,0,0:0:0:0:
256,192,190363,1,8,0:0:0:0:
256,192,190420,1,0,0:0:0:0:
256,192,190478,1,0,0:0:0:0:
256,192,190535,1,8,0:0:0:0:
256,192,190621,1,0,0:0:0:0:
256,192,190708,1,8,0:0:0:0:
256,192,190765,1,8,0:0:0:0:
256,192,190823,1,8,0:0:0:0:
256,192,190880,1,0,0:0:0:0:
256,192,190966,1,0,0:0:0:0:
256,192,191053,1,8,0:0:0:0:
256,192,191110,1,8,0:0:0:0:
256,192,191167,1,8,0:0:0:0:
256,192,191225,1,8,0:0:0:0:
256,192,191282,1,8,0:0:0:0:
256,192,191340,1,8,0:0:0:0:
256,192,191397,5,0,0:0:0:0:
256,192,191570,1,8,0:0:0:0:
256,192,191627,1,0,0:0:0:0:
256,192,191685,1,0,0:0:0:0:
256,192,191742,1,8,0:0:0:0:
256,192,191828,1,0,0:0:0:0:
256,192,191915,1,8,0:0:0:0:
256,192,191958,1,8,0:0:0:0:
256,192,192001,1,0,0:0:0:0:
256,192,192087,1,0,0:0:0:0:
256,192,192173,1,0,0:0:0:0:
256,192,192231,1,8,0:0:0:0:
256,192,192288,1,8,0:0:0:0:
256,192,192346,1,0,0:0:0:0:
256,192,192432,1,8,0:0:0:0:
256,192,192489,1,0,0:0:0:0:
256,192,192547,1,0,0:0:0:0:
256,192,192604,1,8,0:0:0:0:
256,192,192662,1,8,0:0:0:0:
256,192,192719,1,8,0:0:0:0:
256,192,192777,1,0,0:0:0:0:
256,192,192863,1,8,0:0:0:0:
256,192,192949,1,8,0:0:0:0:
256,192,193035,1,8,0:0:0:0:
256,192,193121,1,8,0:0:0:0:
256,192,193179,1,0,0:0:0:0:
256,192,193236,1,0,0:0:0:0:
256,192,193294,1,8,0:0:0:0:
256,192,193380,1,0,0:0:0:0:
256,192,193466,1,8,0:0:0:0:
256,192,193524,1,8,0:0:0:0:
256,192,193581,1,8,0:0:0:0:
256,192,193639,1,0,0:0:0:0:
256,192,193725,1,0,0:0:0:0:
256,192,193811,1,8,0:0:0:0:
256,192,193869,1,8,0:0:0:0:
256,192,193926,1,8,0:0:0:0:
256,192,193984,1,8,0:0:0:0:
256,192,194070,1,0,0:0:0:0:
256,192,194156,1,0,0:0:0:0:
256,192,194328,1,0,0:0:0:0:
256,192,194386,1,0,0:0:0:0:
256,192,194443,1,0,0:0:0:0:
256,192,194501,1,8,0:0:0:0:
256,192,194587,1,0,0:0:0:0:
256,192,194673,1,8,0:0:0:0:
256,192,194716,1,8,0:0:0:0:
256,192,194759,1,0,0:0:0:0:
256,192,194846,1,8,0:0:0:0:
256,192,194903,1,8,0:0:0:0:
256,192,194961,1,8,0:0:0:0:
256,192,195018,1,0,0:0:0:0:
256,192,195075,1,0,0:0:0:0:
256,192,195133,1,0,0:0:0:0:
256,192,195190,1,8,0:0:0:0:
256,192,195277,1,0,0:0:0:0:
256,192,195363,1,0,0:0:0:0:
256,192,195449,1,8,0:0:0:0:
256,192,195535,1,0,0:0:0:0:
256,192,195621,1,0,0:0:0:0:
256,192,195708,1,8,0:0:0:0:
256,192,195765,1,0,0:0:0:0:
256,192,195823,1,0,0:0:0:0:
256,192,195880,1,8,0:0:0:0:
256,192,195938,1,8,0:0:0:0:
256,192,195995,1,8,0:0:0:0:
256,192,196053,1,8,0:0:0:0:
256,192,196139,1,0,0:0:0:0:
256,192,196225,1,8,0:0:0:0:
256,192,196282,1,8,0:0:0:0:
256,192,196340,1,8,0:0:0:0:
256,192,196397,1,0,0:0:0:0:
256,192,196484,1,0,0:0:0:0:
256,192,196570,1,8,0:0:0:0:
256,192,196627,1,0,0:0:0:0:
256,192,196685,1,0,0:0:0:0:
256,192,196742,1,8,0:0:0:0:
256,192,196828,1,8,0:0:0:0:
256,192,196915,1,0,0:0:0:0:
256,192,197087,1,0,0:0:0:0:
256,192,197144,1,0,0:0:0:0:
256,192,197202,1,0,0:0:0:0:
256,192,197259,1,8,0:0:0:0:
256,192,197317,1,0,0:0:0:0:
256,192,197374,1,0,0:0:0:0:
256,192,197432,1,8,0:0:0:0:
256,192,197518,1,0,0:0:0:0:
256,192,197604,1,8,0:0:0:0:
256,192,197662,1,8,0:0:0:0:
256,192,197719,1,8,0:0:0:0:
256,192,197777,1,0,0:0:0:0:
256,192,197834,1,0,0:0:0:0:
256,192,197892,1,0,0:0:0:0:
256,192,197949,1,8,0:0:0:0:
256,192,198035,1,0,0:0:0:0:
256,192,198121,1,8,0:0:0:0:
256,192,198179,1,8,0:0:0:0:
256,192,198236,1,8,0:0:0:0:
256,192,198294,1,0,0:0:0:0:
256,192,198466,1,8,0:0:0:0:
256,192,198524,1,8,0:0:0:0:
256,192,198581,1,8,0:0:0:0:
256,192,198639,1,8,0:0:0:0:
256,192,198696,1,0,0:0:0:0:
256,192,198754,1,0,0:0:0:0:
256,192,198811,1,8,0:0:0:0:
256,192,198897,1,0,0:0:0:0:
256,192,198984,1,8,0:0:0:0:
256,192,199041,1,8,0:0:0:0:
256,192,199098,1,8,0:0:0:0:
256,192,199156,1,0,0:0:0:0:
256,192,199242,1,0,0:0:0:0:
256,192,199328,1,8,0:0:0:0:
256,192,199386,1,0,0:0:0:0:
256,192,199443,1,0,0:0:0:0:
256,192,199501,1,8,0:0:0:0:
256,192,199558,1,8,0:0:0:0:
256,192,199616,1,8,0:0:0:0:
256,192,199673,1,0,0:0:0:0:
256,192,199846,1,8,0:0:0:0:
256,192,199903,1,0,0:0:0:0:
256,192,199961,1,0,0:0:0:0:
256,192,200018,1,8,0:0:0:0:
256,192,200075,1,8,0:0:0:0:
256,192,200133,1,8,0:0:0:0:
256,192,200190,1,8,0:0:0:0:
256,192,200277,1,0,0:0:0:0:
256,192,200363,1,8,0:0:0:0:
256,192,200449,1,8,0:0:0:0:
256,192,200535,1,0,0:0:0:0:
256,192,200578,1,0,0:0:0:0:
256,192,200708,1,8,0:0:0:0:
256,192,200751,1,8,0:0:0:0:
256,192,200880,1,0,0:0:0:0:
256,192,200923,1,0,0:0:0:0:
256,192,201053,1,8,0:0:0:0:
256,192,201110,1,8,0:0:0:0:
256,192,201167,1,8,0:0:0:0:
256,192,201225,1,0,0:0:0:0:
256,192,201311,1,0,0:0:0:0:
256,192,201397,1,8,0:0:0:0:
256,192,201455,1,0,0:0:0:0:
256,192,201512,1,0,0:0:0:0:
256,192,201570,1,0,0:0:0:0:
256,192,201656,1,0,0:0:0:0:
256,192,201742,1,8,0:0:0:0:
256,192,201800,1,0,0:0:0:0:
256,192,201857,1,0,0:0:0:0:
256,192,201915,1,8,0:0:0:0:
256,192,202001,1,0,0:0:0:0:
256,192,202087,1,8,0:0:0:0:
256,192,202144,1,8,0:0:0:0:
256,192,202202,1,8,0:0:0:0:
256,192,202259,1,8,0:0:0:0:
256,192,202317,1,8,0:0:0:0:
256,192,202374,1,8,0:0:0:0:
256,192,202432,5,4,0:0:0:0:
256,192,202604,1,8,0:0:0:0:
256,192,202662,1,0,0:0:0:0:
256,192,202719,1,0,0:0:0:0:
256,192,202777,1,8,0:0:0:0:
256,192,202863,1,0,0:0:0:0:
256,192,202949,1,8,0:0:0:0:
256,192,202992,1,8,0:0:0:0:
256,192,203035,1,0,0:0:0:0:
256,192,203121,1,0,0:0:0:0:
256,192,203179,1,0,0:0:0:0:
256,192,203236,1,0,0:0:0:0:
256,192,203294,1,8,0:0:0:0:
256,192,203380,1,0,0:0:0:0:
256,192,203466,1,8,0:0:0:0:
256,192,203524,1,0,0:0:0:0:
256,192,203581,1,0,0:0:0:0:
256,192,203639,1,8,0:0:0:0:
256,192,203696,1,8,0:0:0:0:
256,192,203754,1,8,0:0:0:0:
256,192,203811,1,0,0:0:0:0:
256,192,203897,1,0,0:0:0:0:
256,192,203984,1,8,0:0:0:0:
256,192,204070,1,0,0:0:0:0:
256,192,204156,1,8,0:0:0:0:
256,192,204213,1,0,0:0:0:0:
256,192,204271,1,0,0:0:0:0:
256,192,204328,1,8,0:0:0:0:
256,192,204415,1,0,0:0:0:0:
256,192,204501,1,0,0:0:0:0:
256,192,204558,1,0,0:0:0:0:
256,192,204616,1,0,0:0:0:0:
256,192,204673,1,8,0:0:0:0:
256,192,204759,1,0,0:0:0:0:
256,192,204846,1,8,0:0:0:0:
256,192,204903,1,0,0:0:0:0:
256,192,204961,1,0,0:0:0:0:
256,192,205018,1,8,0:0:0:0:
256,192,205075,1,8,0:0:0:0:
256,192,205133,1,8,0:0:0:0:
256,192,205190,1,0,0:0:0:0:
256,192,205277,1,0,0:0:0:0:
256,192,205363,1,8,0:0:0:0:
256,192,205420,1,0,0:0:0:0:
256,192,205478,1,0,0:0:0:0:
256,192,205535,1,8,0:0:0:0:
256,192,205621,1,0,0:0:0:0:
256,192,205708,1,8,0:0:0:0:
256,192,205751,1,8,0:0:0:0:
256,192,205794,1,0,0:0:0:0:
256,192,205880,1,0,0:0:0:0:
256,192,205938,1,0,0:0:0:0:
256,192,205995,1,0,0:0:0:0:
256,192,206053,1,8,0:0:0:0:
256,192,206110,1,0,0:0:0:0:
256,192,206167,1,0,0:0:0:0:
256,192,206225,1,8,0:0:0:0:
256,192,206311,1,0,0:0:0:0:
256,192,206397,1,8,0:0:0:0:
256,192,206484,1,8,0:0:0:0:
256,192,206570,1,0,0:0:0:0:
256,192,206656,1,0,0:0:0:0:
256,192,206742,1,8,0:0:0:0:
256,192,206800,1,8,0:0:0:0:
256,192,206857,1,0,0:0:0:0:
256,192,206915,1,8,0:0:0:0:
256,192,206972,1,8,0:0:0:0:
256,192,207030,1,0,0:0:0:0:
256,192,207087,1,8,0:0:0:0:
256,192,207173,1,0,0:0:0:0:
256,192,207259,1,0,0:0:0:0:
256,192,207317,1,0,0:0:0:0:
256,192,207374,1,0,0:0:0:0:
256,192,207432,1,8,0:0:0:0:
256,192,207518,1,0,0:0:0:0:
256,192,207604,1,8,0:0:0:0:
256,192,207662,1,0,0:0:0:0:
256,192,207719,1,0,0:0:0:0:
256,192,207777,1,8,0:0:0:0:
256,192,207863,1,0,0:0:0:0:
256,192,207949,1,8,0:0:0:0:
256,192,208035,1,0,0:0:0:0:
256,192,208121,1,8,0:0:0:0:
256,192,208179,1,0,0:0:0:0:
256,192,208236,1,0,0:0:0:0:
256,192,208294,1,8,0:0:0:0:
256,192,208351,1,0,0:0:0:0:
256,192,208409,1,0,0:0:0:0:
256,192,208466,1,8,0:0:0:0:
256,192,208639,1,0,0:0:0:0:
256,192,208696,1,0,0:0:0:0:
256,192,208754,1,0,0:0:0:0:
256,192,208811,1,8,0:0:0:0:
256,192,208869,1,0,0:0:0:0:
256,192,208926,1,0,0:0:0:0:
256,192,208984,1,8,0:0:0:0:
256,192,209070,1,0,0:0:0:0:
256,192,209156,1,8,0:0:0:0:
256,192,209213,1,0,0:0:0:0:
256,192,209271,1,0,0:0:0:0:
256,192,209328,1,8,0:0:0:0:
256,192,209415,1,0,0:0:0:0:
256,192,209501,1,8,0:0:0:0:
256,192,209558,1,8,0:0:0:0:
256,192,209616,1,8,0:0:0:0:
256,192,209673,1,8,0:0:0:0:
256,192,209731,1,0,0:0:0:0:
256,192,209788,1,0,0:0:0:0:
256,192,209846,1,8,0:0:0:0:
256,192,210018,1,0,0:0:0:0:
256,192,210075,1,0,0:0:0:0:
256,192,210133,1,0,0:0:0:0:
256,192,210190,1,8,0:0:0:0:
256,192,210277,1,0,0:0:0:0:
256,192,210363,1,8,0:0:0:0:
256,192,210420,1,0,0:0:0:0:
256,192,210478,1,0,0:0:0:0:
256,192,210535,1,8,0:0:0:0:
256,192,210593,1,0,0:0:0:0:
256,192,210650,1,0,0:0:0:0:
256,192,210708,1,8,0:0:0:0:
256,192,210794,1,0,0:0:0:0:
256,192,210880,1,8,0:0:0:0:
256,192,210938,1,0,0:0:0:0:
256,192,210995,1,0,0:0:0:0:
256,192,211053,1,8,0:0:0:0:
256,192,211110,1,8,0:0:0:0:
256,192,211167,1,8,0:0:0:0:
256,192,211225,1,8,0:0:0:0:
256,192,211311,1,0,0:0:0:0:
256,192,211397,1,8,0:0:0:0:
256,192,211484,1,8,0:0:0:0:
256,192,211570,1,0,0:0:0:0:
256,192,211613,1,0,0:0:0:0:
256,192,211742,1,8,0:0:0:0:
256,192,211785,1,8,0:0:0:0:
256,192,211915,1,8,0:0:0:0:
256,192,211958,1,8,0:0:0:0:
256,192,212087,1,0,0:0:0:0:
256,192,212144,1,0,0:0:0:0:
256,192,212202,1,0,0:0:0:0:
256,192,212259,1,8,0:0:0:0:
256,192,212346,1,0,0:0:0:0:
256,192,212432,1,8,0:0:0:0:
256,192,212489,1,0,0:0:0:0:
256,192,212547,1,0,0:0:0:0:
256,192,212604,1,8,0:0:0:0:
256,192,212690,1,0,0:0:0:0:
256,192,212777,1,8,0:0:0:0:
256,192,212834,1,8,0:0:0:0:
256,192,212892,1,8,0:0:0:0:
256,192,212949,1,0,0:0:0:0:
256,192,213035,1,0,0:0:0:0:
256,192,213121,1,8,0:0:0:0:
256,192,213179,1,8,0:0:0:0:
256,192,213236,1,8,0:0:0:0:
256,192,213294,1,8,0:0:0:0:
256,192,213351,1,8,0:0:0:0:
256,192,213409,1,8,0:0:0:0:
256,192,213466,1,0,0:0:0:0:
256,192,213639,1,8,0:0:0:0:
256,192,213696,1,0,0:0:0:0:
256,192,213754,1,0,0:0:0:0:
256,192,213811,1,8,0:0:0:0:
256,192,213897,1,0,0:0:0:0:
256,192,213984,1,8,0:0:0:0:
256,192,214027,1,8,0:0:0:0:
256,192,214070,1,0,0:0:0:0:
256,192,214156,1,0,0:0:0:0:
256,192,214213,1,0,0:0:0:0:
256,192,214271,1,0,0:0:0:0:
256,192,214328,1,8,0:0:0:0:
256,192,214415,1,0,0:0:0:0:
256,192,214501,1,8,0:0:0:0:
256,192,214558,1,0,0:0:0:0:
256,192,214616,1,0,0:0:0:0:
256,192,214673,1,8,0:0:0:0:
256,192,214731,1,8,0:0:0:0:
256,192,214788,1,8,0:0:0:0:
256,192,214846,1,0,0:0:0:0:
256,192,214932,1,0,0:0:0:0:
256,192,215018,1,8,0:0:0:0:
256,192,215104,1,0,0:0:0:0:
256,192,215190,1,8,0:0:0:0:
256,192,215248,1,0,0:0:0:0:
256,192,215305,1,0,0:0:0:0:
256,192,215363,1,8,0:0:0:0:
256,192,215449,1,0,0:0:0:0:
256,192,215535,1,0,0:0:0:0:
256,192,215593,1,0,0:0:0:0:
256,192,215650,1,0,0:0:0:0:
256,192,215708,1,8,0:0:0:0:
256,192,215794,1,0,0:0:0:0:
256,192,215880,1,8,0:0:0:0:
256,192,215938,1,0,0:0:0:0:
256,192,215995,1,0,0:0:0:0:
256,192,216053,1,8,0:0:0:0:
256,192,216110,1,8,0:0:0:0:
256,192,216167,1,8,0:0:0:0:
256,192,216225,1,0,0:0:0:0:
256,192,216311,1,0,0:0:0:0:
256,192,216397,1,8,0:0:0:0:
256,192,216455,1,0,0:0:0:0:
256,192,216512,1,0,0:0:0:0:
256,192,216570,1,8,0:0:0:0:
256,192,216656,1,0,0:0:0:0:
256,192,216742,1,8,0:0:0:0:
256,192,216785,1,8,0:0:0:0:
256,192,216828,1,0,0:0:0:0:
256,192,216915,1,0,0:0:0:0:
256,192,216972,1,0,0:0:0:0:
256,192,217030,1,0,0:0:0:0:
256,192,217087,1,8,0:0:0:0:
256,192,217144,1,0,0:0:0:0:
256,192,217202,1,0,0:0:0:0:
256,192,217259,1,8,0:0:0:0:
256,192,217346,1,0,0:0:0:0:
256,192,217432,1,8,0:0:0:0:
256,192,217518,1,8,0:0:0:0:
256,192,217604,1,0,0:0:0:0:
256,192,217690,1,0,0:0:0:0:
256,192,217777,1,8,0:0:0:0:
256,192,217834,1,8,0:0:0:0:
256,192,217892,1,0,0:0:0:0:
256,192,217949,1,8,0:0:0:0:
256,192,218007,1,8,0:0:0:0:
256,192,218064,1,0,0:0:0:0:
256,192,218121,1,8,0:0:0:0:
256,192,218208,1,0,0:0:0:0:
256,192,218294,1,0,0:0:0:0:
256,192,218351,1,0,0:0:0:0:
256,192,218409,1,0,0:0:0:0:
256,192,218466,1,8,0:0:0:0:
256,192,218553,1,0,0:0:0:0:
256,192,218639,1,8,0:0:0:0:
256,192,218696,1,0,0:0:0:0:
256,192,218754,1,0,0:0:0:0:
256,192,218811,1,8,0:0:0:0:
256,192,218897,1,0,0:0:0:0:
256,192,218984,1,8,0:0:0:0:
256,192,219070,1,0,0:0:0:0:
256,192,219156,1,8,0:0:0:0:
256,192,219213,1,0,0:0:0:0:
256,192,219271,1,0,0:0:0:0:
256,192,219328,1,8,0:0:0:0:
256,192,219386,1,0,0:0:0:0:
256,192,219443,1,0,0:0:0:0:
256,192,219501,1,8,0:0:0:0:
256,192,219673,1,0,0:0:0:0:
256,192,219731,1,0,0:0:0:0:
256,192,219788,1,0,0:0:0:0:
256,192,219846,1,8,0:0:0:0:
256,192,219903,1,0,0:0:0:0:
256,192,219961,1,0,0:0:0:0:
256,192,220018,1,8,0:0:0:0:
256,192,220104,1,0,0:0:0:0:
256,192,220190,1,8,0:0:0:0:
256,192,220248,1,0,0:0:0:0:
256,192,220305,1,0,0:0:0:0:
256,192,220363,1,8,0:0:0:0:
256,192,220449,1,0,0:0:0:0:
256,192,220535,1,8,0:0:0:0:
256,192,220593,1,8,0:0:0:0:
256,192,220650,1,8,0:0:0:0:
256,192,220708,1,8,0:0:0:0:
256,192,220765,1,0,0:0:0:0:
256,192,220823,1,0,0:0:0:0:
256,192,220880,1,8,0:0:0:0:
256,192,221053,1,0,0:0:0:0:
256,192,221110,1,0,0:0:0:0:
256,192,221167,1,0,0:0:0:0:
256,192,221225,1,8,0:0:0:0:
256,192,221311,1,0,0:0:0:0:
256,192,221397,1,8,0:0:0:0:
256,192,221455,1,0,0:0:0:0:
256,192,221512,1,0,0:0:0:0:
256,192,221570,1,8,0:0:0:0:
256,192,221627,1,0,0:0:0:0:
256,192,221685,1,0,0:0:0:0:
256,192,221742,1,8,0:0:0:0:
256,192,221828,1,0,0:0:0:0:
256,192,221915,1,8,0:0:0:0:
256,192,221972,1,0,0:0:0:0:
256,192,222030,1,0,0:0:0:0:
256,192,222087,1,8,0:0:0:0:
256,192,222144,1,8,0:0:0:0:
256,192,222202,1,8,0:0:0:0:
256,192,222259,1,8,0:0:0:0:
256,192,222346,1,0,0:0:0:0:
256,192,222432,1,8,0:0:0:0:
256,192,222518,1,8,0:0:0:0:
256,192,222604,1,0,0:0:0:0:
256,192,222647,1,0,0:0:0:0:
256,192,222777,1,8,0:0:0:0:
256,192,222820,1,8,0:0:0:0:
256,192,222949,1,0,0:0:0:0:
256,192,222992,1,0,0:0:0:0:
256,192,223121,1,8,0:0:0:0:
256,192,223179,1,8,0:0:0:0:
256,192,223236,1,8,0:0:0:0:
256,192,223294,1,0,0:0:0:0:
256,192,223380,1,0,0:0:0:0:
256,192,223466,1,8,0:0:0:0:
256,192,223524,1,0,0:0:0:0:
256,192,223581,1,0,0:0:0:0:
256,192,223639,1,8,0:0:0:0:
256,192,223725,1,0,0:0:0:0:
256,192,223811,1,8,0:0:0:0:
256,192,223869,1,8,0:0:0:0:
256,192,223926,1,8,0:0:0:0:
256,192,223984,1,0,0:0:0:0:
256,192,224070,1,0,0:0:0:0:
256,192,224156,1,8,0:0:0:0:
256,192,224213,1,8,0:0:0:0:
256,192,224271,1,8,0:0:0:0:
256,192,224328,1,8,0:0:0:0:
256,192,224386,1,8,0:0:0:0:
256,192,224443,1,8,0:0:0:0:
256,192,224501,1,0,0:0:0:0:
256,192,224673,5,0,0:0:0:0:
256,192,224731,1,0,0:0:0:0:
256,192,224788,1,0,0:0:0:0:
256,192,224846,1,8,0:0:0:0:
256,192,225018,1,8,0:0:0:0:
256,192,225104,1,0,0:0:0:0:
256,192,225162,1,8,0:0:0:0:
256,192,225219,1,8,0:0:0:0:
256,192,225277,1,0,0:0:0:0:
256,192,225363,1,8,0:0:0:0:
256,192,225420,1,8,0:0:0:0:
256,192,225478,1,8,0:0:0:0:
256,192,225535,1,8,0:0:0:0:
256,192,225708,1,8,0:0:0:0:
256,192,225794,1,8,0:0:0:0:
256,192,225880,1,0,0:0:0:0:
256,192,226053,1,8,0:0:0:0:
256,192,226110,1,8,0:0:0:0:
256,192,226167,1,8,0:0:0:0:
256,192,226225,1,8,0:0:0:0:
256,192,226282,1,0,0:0:0:0:
256,192,226340,1,0,0:0:0:0:
256,192,226397,1,8,0:0:0:0:
256,192,226484,1,0,0:0:0:0:
256,192,226570,1,8,0:0:0:0:
256,192,226627,1,8,0:0:0:0:
256,192,226685,1,8,0:0:0:0:
256,192,226742,1,0,0:0:0:0:
256,192,226828,1,0,0:0:0:0:
256,192,226915,1,8,0:0:0:0:
256,192,226972,1,0,0:0:0:0:
256,192,227030,1,0,0:0:0:0:
256,192,227087,1,8,0:0:0:0:
256,192,227259,1,0,0:0:0:0:
256,192,227432,1,8,0:0:0:0:
256,192,227489,1,0,0:0:0:0:
256,192,227547,1,0,0:0:0:0:
256,192,227604,1,8,0:0:0:0:
256,192,227777,1,8,0:0:0:0:
256,192,227863,1,0,0:0:0:0:
256,192,227920,1,0,0:0:0:0:
256,192,227978,1,0,0:0:0:0:
256,192,228035,1,8,0:0:0:0:
256,192,228121,1,8,0:0:0:0:
256,192,228179,1,0,0:0:0:0:
256,192,228236,1,0,0:0:0:0:
256,192,228294,1,8,0:0:0:0:
256,192,228380,1,8,0:0:0:0:
256,192,228466,1,8,0:0:0:0:
256,192,228553,1,8,0:0:0:0:
256,192,228639,1,0,0:0:0:0:
256,192,228811,1,8,0:0:0:0:
256,192,228869,1,0,0:0:0:0:
256,192,228926,1,0,0:0:0:0:
256,192,228984,1,8,0:0:0:0:
256,192,229041,1,8,0:0:0:0:
256,192,229098,1,8,0:0:0:0:
256,192,229156,1,0,0:0:0:0:
256,192,229242,1,0,0:0:0:0:
256,192,229328,1,8,0:0:0:0:
256,192,229415,1,8,0:0:0:0:
256,192,229501,1,0,0:0:0:0:
256,192,229587,1,0,0:0:0:0:
256,192,229673,1,8,0:0:0:0:
256,192,229731,1,8,0:0:0:0:
256,192,229788,1,8,0:0:0:0:
256,192,229846,1,8,0:0:0:0:
256,192,229903,1,8,0:0:0:0:
256,192,229961,1,8,0:0:0:0:
256,192,230018,1,0,0:0:0:0:
256,192,230190,1,8,0:0:0:0:
256,192,230248,1,0,0:0:0:0:
256,192,230305,1,0,0:0:0:0:
256,192,230363,1,8,0:0:0:0:
256,192,230535,1,8,0:0:0:0:
256,192,230621,1,0,0:0:0:0:
256,192,230679,1,8,0:0:0:0:
256,192,230736,1,8,0:0:0:0:
256,192,230794,1,0,0:0:0:0:
256,192,230880,1,8,0:0:0:0:
256,192,230938,1,0,0:0:0:0:
256,192,230995,1,0,0:0:0:0:
256,192,231053,1,8,0:0:0:0:
256,192,231225,1,8,0:0:0:0:
256,192,231311,1,8,0:0:0:0:
256,192,231397,1,0,0:0:0:0:
256,192,231570,1,8,0:0:0:0:
256,192,231627,1,8,0:0:0:0:
256,192,231685,1,8,0:0:0:0:
256,192,231742,1,8,0:0:0:0:
256,192,231800,1,0,0:0:0:0:
256,192,231857,1,0,0:0:0:0:
256,192,231915,1,8,0:0:0:0:
256,192,232001,1,0,0:0:0:0:
256,192,232087,1,8,0:0:0:0:
256,192,232144,1,8,0:0:0:0:
256,192,232202,1,8,0:0:0:0:
256,192,232259,1,0,0:0:0:0:
256,192,232346,1,0,0:0:0:0:
256,192,232432,1,8,0:0:0:0:
256,192,232489,1,8,0:0:0:0:
256,192,232547,1,8,0:0:0:0:
256,192,232604,1,8,0:0:0:0:
256,192,232777,1,0,0:0:0:0:
256,192,232949,1,0,0:0:0:0:
256,192,233007,1,0,0:0:0:0:
256,192,233064,1,0,0:0:0:0:
256,192,233121,1,8,0:0:0:0:
256,192,233294,1,8,0:0:0:0:
256,192,233380,1,0,0:0:0:0:
256,192,233438,1,8,0:0:0:0:
256,192,233495,1,8,0:0:0:0:
256,192,233553,1,0,0:0:0:0:
256,192,233639,1,0,0:0:0:0:
256,192,233696,1,0,0:0:0:0:
256,192,233754,1,0,0:0:0:0:
256,192,233811,1,8,0:0:0:0:
256,192,233984,1,8,0:0:0:0:
256,192,234041,1,8,0:0:0:0:
256,192,234098,1,8,0:0:0:0:
256,192,234156,1,0,0:0:0:0:
256,192,234213,1,0,0:0:0:0:
256,192,234271,1,0,0:0:0:0:
256,192,234328,1,8,0:0:0:0:
256,192,234386,1,0,0:0:0:0:
256,192,234443,1,0,0:0:0:0:
256,192,234501,1,8,0:0:0:0:
256,192,234587,1,8,0:0:0:0:
256,192,234673,1,8,0:0:0:0:
256,192,234759,1,0,0:0:0:0:
256,192,234846,1,8,0:0:0:0:
256,192,234903,1,8,0:0:0:0:
256,192,234961,1,8,0:0:0:0:
256,192,235018,1,0,0:0:0:0:
256,192,235075,1,0,0:0:0:0:
256,192,235133,1,0,0:0:0:0:
256,192,235190,1,8,0:0:0:0:
256,192,235277,1,8,0:0:0:0:
256,192,235363,1,8,0:0:0:0:
256,192,235449,1,8,0:0:0:0:
256,192,235535,5,0,0:0:0:0:
256,192,235708,1,8,0:0:0:0:
256,192,235765,1,0,0:0:0:0:
256,192,235823,1,0,0:0:0:0:
256,192,235880,1,8,0:0:0:0:
256,192,236053,1,8,0:0:0:0:
256,192,236139,1,0,0:0:0:0:
256,192,236196,1,8,0:0:0:0:
256,192,236254,1,8,0:0:0:0:
256,192,236311,1,0,0:0:0:0:
256,192,236397,1,8,0:0:0:0:
256,192,236455,1,8,0:0:0:0:
256,192,236512,1,8,0:0:0:0:
256,192,236570,1,8,0:0:0:0:
256,192,236742,1,8,0:0:0:0:
256,192,236828,1,8,0:0:0:0:
256,192,236915,1,0,0:0:0:0:
256,192,237087,1,8,0:0:0:0:
256,192,237144,1,0,0:0:0:0:
256,192,237202,1,0,0:0:0:0:
256,192,237259,1,8,0:0:0:0:
256,192,237317,1,0,0:0:0:0:
256,192,237374,1,0,0:0:0:0:
256,192,237432,1,8,0:0:0:0:
256,192,237518,1,0,0:0:0:0:
256,192,237604,1,8,0:0:0:0:
256,192,237662,1,8,0:0:0:0:
256,192,237719,1,8,0:0:0:0:
256,192,237777,1,0,0:0:0:0:
256,192,237863,1,0,0:0:0:0:
256,192,237949,1,8,0:0:0:0:
256,192,238007,1,8,0:0:0:0:
256,192,238064,1,8,0:0:0:0:
256,192,238121,1,8,0:0:0:0:
256,192,238294,1,0,0:0:0:0:
256,192,238466,1,0,0:0:0:0:
256,192,238524,1,0,0:0:0:0:
256,192,238581,1,0,0:0:0:0:
256,192,238639,1,8,0:0:0:0:
256,192,238811,1,8,0:0:0:0:
256,192,238897,1,0,0:0:0:0:
256,192,238955,1,8,0:0:0:0:
256,192,239012,1,8,0:0:0:0:
256,192,239070,1,0,0:0:0:0:
256,192,239156,1,8,0:0:0:0:
256,192,239213,1,0,0:0:0:0:
256,192,239271,1,0,0:0:0:0:
256,192,239328,1,8,0:0:0:0:
256,192,239415,1,8,0:0:0:0:
256,192,239501,1,8,0:0:0:0:
256,192,239587,1,8,0:0:0:0:
256,192,239673,1,0,0:0:0:0:
256,192,239846,1,8,0:0:0:0:
256,192,239903,1,8,0:0:0:0:
256,192,239961,1,0,0:0:0:0:
256,192,240018,1,8,0:0:0:0:
256,192,240075,1,0,0:0:0:0:
256,192,240133,1,8,0:0:0:0:
256,192,240190,1,8,0:0:0:0:
256,192,240277,1,0,0:0:0:0:
256,192,240363,1,8,0:0:0:0:
256,192,240449,1,8,0:0:0:0:
256,192,240535,1,0,0:0:0:0:
256,192,240621,1,0,0:0:0:0:
256,192,240708,1,8,0:0:0:0:
256,192,240765,1,8,0:0:0:0:
256,192,240823,1,8,0:0:0:0:
256,192,240880,1,8,0:0:0:0:
256,192,240938,1,8,0:0:0:0:
256,192,240995,1,8,0:0:0:0:
256,192,241053,1,0,0:0:0:0:
256,192,241225,1,8,0:0:0:0:
256,192,241282,1,0,0:0:0:0:
256,192,241340,1,0,0:0:0:0:
256,192,241397,1,8,0:0:0:0:
256,192,241570,1,8,0:0:0:0:
256,192,241656,1,0,0:0:0:0:
256,192,241713,1,8,0:0:0:0:
256,192,241771,1,8,0:0:0:0:
256,192,241828,1,0,0:0:0:0:
256,192,241915,1,8,0:0:0:0:
256,192,241972,1,8,0:0:0:0:
256,192,242030,1,8,0:0:0:0:
256,192,242087,1,8,0:0:0:0:
256,192,242259,1,8,0:0:0:0:
256,192,242346,1,8,0:0:0:0:
256,192,242432,1,0,0:0:0:0:
256,192,242604,1,8,0:0:0:0:
256,192,242662,1,0,0:0:0:0:
256,192,242719,1,0,0:0:0:0:
256,192,242777,1,8,0:0:0:0:
256,192,242834,1,0,0:0:0:0:
256,192,242892,1,0,0:0:0:0:
256,192,242949,1,8,0:0:0:0:
256,192,243035,1,0,0:0:0:0:
256,192,243121,1,0,0:0:0:0:
256,192,243179,1,8,0:0:0:0:
256,192,243236,1,8,0:0:0:0:
256,192,243294,1,0,0:0:0:0:
256,192,243380,1,0,0:0:0:0:
256,192,243466,1,8,0:0:0:0:
256,192,243524,1,8,0:0:0:0:
256,192,243581,1,8,0:0:0:0:
256,192,243639,1,8,0:0:0:0:
256,192,243811,1,0,0:0:0:0:
256,192,243984,12,0,246397,0:0:0:0:
256,192,246570,5,12,0:0:0:0:
256,192,246742,1,8,0:0:0:0:
256,192,246800,1,0,0:0:0:0:
256,192,246857,1,0,0:0:0:0:
256,192,246915,1,8,0:0:0:0:
256,192,247087,1,0,0:0:0:0:
256,192,247173,1,0,0:0:0:0:
256,192,247216,1,0,0:0:0:0:
256,192,247259,1,8,0:0:0:0:
256,192,247432,1,8,0:0:0:0:
256,192,247489,1,8,0:0:0:0:
256,192,247547,1,8,0:0:0:0:
256,192,247604,1,0,0:0:0:0:
256,192,247690,1,0,0:0:0:0:
256,192,247777,1,8,0:0:0:0:
256,192,247863,1,8,0:0:0:0:
256,192,247949,1,0,0:0:0:0:
256,192,248294,1,0,0:0:0:0:
256,192,248380,1,8,0:0:0:0:
256,192,248466,1,8,0:0:0:0:
256,192,248524,1,0,0:0:0:0:
256,192,248581,1,0,0:0:0:0:
256,192,248639,1,8,0:0:0:0:
256,192,248811,1,0,0:0:0:0:
256,192,248897,1,8,0:0:0:0:
256,192,248984,1,8,0:0:0:0:
256,192,249041,1,0,0:0:0:0:
256,192,249098,1,0,0:0:0:0:
256,192,249156,1,8,0:0:0:0:
256,192,249328,1,0,0:0:0:0:
256,192,249501,1,0,0:0:0:0:
256,192,249558,1,0,0:0:0:0:
256,192,249616,1,0,0:0:0:0:
256,192,249673,1,8,0:0:0:0:
256,192,249731,1,0,0:0:0:0:
256,192,249788,1,0,0:0:0:0:
256,192,249846,1,8,0:0:0:0:
256,192,249932,1,8,0:0:0:0:
256,192,250018,1,0,0:0:0:0:
256,192,250190,1,0,0:0:0:0:
256,192,250248,1,8,0:0:0:0:
256,192,250305,1,8,0:0:0:0:
256,192,250363,1,8,0:0:0:0:
256,192,250420,1,8,0:0:0:0:
256,192,250478,1,8,0:0:0:0:
256,192,250535,1,0,0:0:0:0:
256,192,250621,1,0,0:0:0:0:
256,192,250708,1,8,0:0:0:0:
256,192,250880,1,8,0:0:0:0:
256,192,250966,1,8,0:0:0:0:
256,192,251053,1,0,0:0:0:0:
256,192,251139,1,0,0:0:0:0:
256,192,251225,1,8,0:0:0:0:
256,192,251282,1,0,0:0:0:0:
256,192,251340,1,0,0:0:0:0:
256,192,251397,1,8,0:0:0:0:
256,192,251570,1,8,0:0:0:0:
256,192,251656,1,8,0:0:0:0:
256,192,251742,1,0,0:0:0:0:
256,192,251828,1,0,0:0:0:0:
256,192,251915,1,8,0:0:0:0:
256,192,252001,1,8,0:0:0:0:
256,192,252087,5,4,0:0:0:0:
256,192,252259,1,0,0:0:0:0:
256,192,252317,1,0,0:0:0:0:
256,192,252374,1,0,0:0:0:0:
256,192,252432,1,8,0:0:0:0:
256,192,252604,1,0,0:0:0:0:
256,192,252690,1,8,0:0:0:0:
256,192,252734,1,8,0:0:0:0:
256,192,252777,1,8,0:0:0:0:
256,192,253035,1,0,0:0:0:0:
256,192,253093,1,0,0:0:0:0:
256,192,253150,1,0,0:0:0:0:
256,192,253208,1,0,0:0:0:0:
256,192,253294,1,8,0:0:0:0:
256,192,253380,1,8,0:0:0:0:
256,192,253466,1,0,0:0:0:0:
256,192,253524,1,0,0:0:0:0:
256,192,253581,1,0,0:0:0:0:
256,192,253639,1,8,0:0:0:0:
256,192,253696,1,8,0:0:0:0:
256,192,253754,1,8,0:0:0:0:
256,192,253811,1,0,0:0:0:0:
256,192,253984,1,0,0:0:0:0:
256,192,254156,1,8,0:0:0:0:
256,192,254328,1,0,0:0:0:0:
256,192,254415,1,8,0:0:0:0:
256,192,254501,1,0,0:0:0:0:
256,192,254558,1,0,0:0:0:0:
256,192,254616,1,0,0:0:0:0:
256,192,254673,1,8,0:0:0:0:
256,192,254846,1,0,0:0:0:0:
256,192,255018,1,8,0:0:0:0:
256,192,255075,1,0,0:0:0:0:
256,192,255133,1,0,0:0:0:0:
256,192,255190,1,8,0:0:0:0:
256,192,255248,1,8,0:0:0:0:
256,192,255305,1,8,0:0:0:0:
256,192,255363,1,0,0:0:0:0:
256,192,255449,1,0,0:0:0:0:
256,192,255535,1,8,0:0:0:0:
256,192,255708,1,0,0:0:0:0:
256,192,255765,1,0,0:0:0:0:
256,192,255823,1,0,0:0:0:0:
256,192,255880,1,8,0:0:0:0:
256,192,255938,1,8,0:0:0:0:
256,192,255995,1,8,0:0:0:0:
256,192,256053,1,0,0:0:0:0:
256,192,256139,1,8,0:0:0:0:
256,192,256225,1,0,0:0:0:0:
256,192,256397,1,8,0:0:0:0:
256,192,256484,1,0,0:0:0:0:
256,192,256570,1,8,0:0:0:0:
256,192,256627,1,8,0:0:0:0:
256,192,256685,1,8,0:0:0:0:
256,192,256742,1,0,0:0:0:0:
256,192,256828,1,0,0:0:0:0:
256,192,256915,1,8,0:0:0:0:
256,192,256972,1,8,0:0:0:0:
256,192,257030,1,8,0:0:0:0:
256,192,257087,1,0,0:0:0:0:
256,192,257173,1,8,0:0:0:0:
256,192,257259,1,0,0:0:0:0:
256,192,257346,1,0,0:0:0:0:
256,192,257432,1,8,0:0:0:0:
256,192,257518,1,8,0:0:0:0:
256,192,257604,5,4,0:0:0:0:
256,192,257777,1,0,0:0:0:0:
256,192,257834,1,0,0:0:0:0:
256,192,257892,1,0,0:0:0:0:
256,192,257949,1,8,0:0:0:0:
256,192,258121,1,0,0:0:0:0:
256,192,258208,1,8,0:0:0:0:
256,192,258251,1,8,0:0:0:0:
256,192,258294,1,8,0:0:0:0:
256,192,258466,1,8,0:0:0:0:
256,192,258524,1,8,0:0:0:0:
256,192,258581,1,8,0:0:0:0:
256,192,258639,1,0,0:0:0:0:
256,192,258725,1,0,0:0:0:0:
256,192,258811,1,8,0:0:0:0:
256,192,258897,1,8,0:0:0:0:
256,192,258984,1,0,0:0:0:0:
256,192,259328,1,0,0:0:0:0:
256,192,259415,1,8,0:0:0:0:
256,192,259501,1,0,0:0:0:0:
256,192,259558,1,8,0:0:0:0:
256,192,259616,1,8,0:0:0:0:
256,192,259673,1,8,0:0:0:0:
256,192,259846,1,0,0:0:0:0:
256,192,259932,1,8,0:0:0:0:
256,192,260018,1,8,0:0:0:0:
256,192,260075,1,0,0:0:0:0:
256,192,260133,1,0,0:0:0:0:
256,192,260190,1,8,0:0:0:0:
256,192,260363,1,0,0:0:0:0:
256,192,260535,1,8,0:0:0:0:
256,192,260593,1,0,0:0:0:0:
256,192,260650,1,0,0:0:0:0:
256,192,260708,1,8,0:0:0:0:
256,192,260765,1,0,0:0:0:0:
256,192,260823,1,0,0:0:0:0:
256,192,260880,1,8,0:0:0:0:
256,192,260966,1,8,0:0:0:0:
256,192,261053,1,0,0:0:0:0:
256,192,261225,1,0,0:0:0:0:
256,192,261282,1,8,0:0:0:0:
256,192,261340,1,8,0:0:0:0:
256,192,261397,1,0,0:0:0:0:
256,192,261455,1,8,0:0:0:0:
256,192,261512,1,8,0:0:0:0:
256,192,261570,1,0,0:0:0:0:
256,192,261656,1,0,0:0:0:0:
256,192,261742,1,8,0:0:0:0:
256,192,261915,1,8,0:0:0:0:
256,192,262001,1,8,0:0:0:0:
256,192,262087,1,0,0:0:0:0:
256,192,262173,1,0,0:0:0:0:
256,192,262259,1,8,0:0:0:0:
256,192,262317,1,8,0:0:0:0:
256,192,262374,1,8,0:0:0:0:
256,192,262432,1,8,0:0:0:0:
256,192,262604,1,8,0:0:0:0:
256,192,262690,1,8,0:0:0:0:
256,192,262777,1,0,0:0:0:0:
256,192,262863,1,0,0:0:0:0:
256,192,262949,1,8,0:0:0:0:
256,192,263035,1,8,0:0:0:0:
256,192,263121,5,4,0:0:0:0:
256,192,263294,1,8,0:0:0:0:
256,192,263351,1,0,0:0:0:0:
256,192,263409,1,0,0:0:0:0:
256,192,263466,1,8,0:0:0:0:
256,192,263639,1,0,0:0:0:0:
256,192,263725,1,0,0:0:0:0:
256,192,263768,1,0,0:0:0:0:
256,192,263811,1,8,0:0:0:0:
256,192,264070,1,8,0:0:0:0:
256,192,264127,1,8,0:0:0:0:
256,192,264185,1,8,0:0:0:0:
256,192,264242,1,0,0:0:0:0:
256,192,264328,1,8,0:0:0:0:
256,192,264415,1,8,0:0:0:0:
256,192,264501,1,0,0:0:0:0:
256,192,264558,1,0,0:0:0:0:
256,192,264616,1,0,0:0:0:0:
256,192,264673,1,8,0:0:0:0:
256,192,264731,1,8,0:0:0:0:
256,192,264788,1,8,0:0:0:0:
256,192,264846,1,0,0:0:0:0:
256,192,265018,1,0,0:0:0:0:
256,192,265190,1,8,0:0:0:0:
256,192,265363,1,0,0:0:0:0:
256,192,265449,1,8,0:0:0:0:
256,192,265535,1,8,0:0:0:0:
256,192,265593,1,0,0:0:0:0:
256,192,265650,1,0,0:0:0:0:
256,192,265708,1,8,0:0:0:0:
256,192,265880,1,0,0:0:0:0:
256,192,266053,1,0,0:0:0:0:
256,192,266110,1,0,0:0:0:0:
256,192,266167,1,0,0:0:0:0:
256,192,266225,1,8,0:0:0:0:
256,192,266282,1,8,0:0:0:0:
256,192,266340,1,8,0:0:0:0:
256,192,266397,1,0,0:0:0:0:
256,192,266484,1,0,0:0:0:0:
256,192,266570,1,8,0:0:0:0:
256,192,266742,1,8,0:0:0:0:
256,192,266800,1,0,0:0:0:0:
256,192,266857,1,0,0:0:0:0:
256,192,266915,1,8,0:0:0:0:
256,192,266972,1,8,0:0:0:0:
256,192,267030,1,8,0:0:0:0:
256,192,267087,1,0,0:0:0:0:
256,192,267173,1,8,0:0:0:0:
256,192,267259,1,0,0:0:0:0:
256,192,267432,1,8,0:0:0:0:
256,192,267518,1,0,0:0:0:0:
256,192,267604,1,8,0:0:0:0:
256,192,267662,1,8,0:0:0:0:
256,192,267719,1,8,0:0:0:0:
256,192,267777,1,0,0:0:0:0:
256,192,267863,1,0,0:0:0:0:
256,192,267949,1,8,0:0:0:0:
256,192,268007,1,8,0:0:0:0:
256,192,268064,1,8,0:0:0:0:
256,192,268121,1,0,0:0:0:0:
256,192,268208,1,8,0:0:0:0:
256,192,268294,1,0,0:0:0:0:
256,192,268380,1,0,0:0:0:0:
256,192,268466,1,8,0:0:0:0:
256,192,268553,1,8,0:0:0:0:
256,192,268639,5,0,0:0:0:0:
256,192,268811,1,8,0:0:0:0:
256,192,268984,1,0,0:0:0:0:
256,192,269242,1,8,0:0:0:0:
256,192,269501,1,0,0:0:0:0:
256,192,269673,1,0,0:0:0:0:
256,192,269846,1,8,0:0:0:0:
256,192,270190,1,0,0:0:0:0:
256,192,270363,1,0,0:0:0:0:
256,192,270621,1,8,0:0:0:0:
256,192,270794,1,8,0:0:0:0:
256,192,270966,1,0,0:0:0:0:
256,192,271225,1,0,0:0:0:0:
256,192,271570,1,8,0:0:0:0:
256,192,271742,1,0,0:0:0:0:
256,192,272001,1,8,0:0:0:0:
256,192,272259,1,0,0:0:0:0:
256,192,272432,1,8,0:0:0:0:
256,192,272604,1,8,0:0:0:0:
256,192,272949,1,0,0:0:0:0:
256,192,273121,1,0,0:0:0:0:
256,192,273380,1,8,0:0:0:0:
256,192,273553,1,8,0:0:0:0:
256,192,273725,1,0,0:0:0:0:
256,192,273984,1,0,0:0:0:0:
256,192,274328,1,8,0:0:0:0:
256,192,274501,1,0,0:0:0:0:
256,192,274759,1,8,0:0:0:0:
256,192,275018,1,0,0:0:0:0:
256,192,275190,1,0,0:0:0:0:
256,192,275363,1,8,0:0:0:0:
256,192,275708,1,0,0:0:0:0:
256,192,275880,1,0,0:0:0:0:
256,192,276139,1,8,0:0:0:0:
256,192,276311,1,8,0:0:0:0:
256,192,276484,1,0,0:0:0:0:
256,192,276742,1,0,0:0:0:0:
256,192,277087,1,8,0:0:0:0:
256,192,277259,1,0,0:0:0:0:
256,192,277518,1,8,0:0:0:0:
256,192,277777,1,0,0:0:0:0:
256,192,277949,1,8,0:0:0:0:
256,192,278121,1,8,0:0:0:0:
256,192,278466,1,0,0:0:0:0:
256,192,278639,1,0,0:0:0:0:
256,192,278897,1,8,0:0:0:0:
256,192,279070,1,8,0:0:0:0:
256,192,279242,1,0,0:0:0:0:
256,192,279501,1,0,0:0:0:0:
256,192,279846,1,0,0:0:0:0:
256,192,280018,1,0,0:0:0:0:
256,192,280277,1,8,0:0:0:0:
256,192,280535,1,0,0:0:0:0:
256,192,280708,1,0,0:0:0:0:
256,192,280880,1,8,0:0:0:0:
256,192,281225,1,0,0:0:0:0:
256,192,281397,1,0,0:0:0:0:
256,192,281656,1,0,0:0:0:0:
256,192,281828,1,8,0:0:0:0:
256,192,282001,1,0,0:0:0:0:
256,192,282259,1,0,0:0:0:0:
256,192,282604,1,0,0:0:0:0:
256,192,282777,1,0,0:0:0:0:
256,192,283035,1,8,0:0:0:0:
256,192,283294,1,0,0:0:0:0:
256,192,283466,1,8,0:0:0:0:
256,192,283639,1,8,0:0:0:0:
256,192,283984,1,0,0:0:0:0:
256,192,284156,1,0,0:0:0:0:
256,192,284415,1,0,0:0:0:0:
256,192,284587,1,8,0:0:0:0:
256,192,284759,1,0,0:0:0:0:
256,192,285018,1,0,0:0:0:0:
256,192,285363,1,0,0:0:0:0:
256,192,285535,1,0,0:0:0:0:
256,192,285794,1,8,0:0:0:0:
256,192,286053,1,0,0:0:0:0:
256,192,286225,1,0,0:0:0:0:
256,192,286397,1,8,0:0:0:0:
256,192,286742,1,0,0:0:0:0:
256,192,286915,1,0,0:0:0:0:
256,192,287173,1,0,0:0:0:0:
256,192,287346,1,8,0:0:0:0:
256,192,287518,1,0,0:0:0:0:
256,192,287777,1,0,0:0:0:0:
256,192,288121,1,0,0:0:0:0:
256,192,288294,1,0,0:0:0:0:
256,192,288553,1,8,0:0:0:0:
256,192,288811,1,0,0:0:0:0:
256,192,288984,1,8,0:0:0:0:
256,192,289156,1,8,0:0:0:0:
256,192,289501,1,0,0:0:0:0:
256,192,289673,1,0,0:0:0:0:
256,192,289932,1,0,0:0:0:0:
256,192,290104,1,8,0:0:0:0:
256,192,290277,1,0,0:0:0:0:
256,192,290535,1,0,0:0:0:0:
256,192,290708,1,0,0:0:0:0:
256,192,291340,1,0,0:0:0:0:
256,192,291397,1,8,0:0:0:0:
256,192,291742,1,0,0:0:0:0:
256,192,292949,1,0,0:0:0:0:
256,192,293121,1,0,0:0:0:0:
256,192,293208,1,8,0:0:0:0:
256,192,293380,1,8,0:0:0:0:
256,192,296225,5,0,0:0:0:0:
256,192,296800,1,0,0:0:0:0:
256,192,296857,1,0,0:0:0:0:
256,192,296972,1,8,0:0:0:0:
256,192,297259,1,0,0:0:0:0:
256,192,298466,1,0,0:0:0:0:
256,192,298553,1,0,0:0:0:0:
256,192,298639,1,0,0:0:0:0:
256,192,298725,1,8,0:0:0:0:
256,192,298897,1,8,0:0:0:0:
256,192,301742,5,0,0:0:0:0:
256,192,302374,1,0,0:0:0:0:
256,192,302432,1,8,0:0:0:0:
256,192,302777,1,0,0:0:0:0:
256,192,303984,1,0,0:0:0:0:
256,192,304156,1,0,0:0:0:0:
256,192,304242,1,8,0:0:0:0:
256,192,304415,1,8,0:0:0:0:
256,192,307259,5,0,0:0:0:0:
256,192,307834,1,0,0:0:0:0:
256,192,307892,1,8,0:0:0:0:
256,192,308007,1,8,0:0:0:0:
256,192,308294,1,0,0:0:0:0:
256,192,309501,1,0,0:0:0:0:
256,192,309587,1,0,0:0:0:0:
256,192,309673,1,8,0:0:0:0:
256,192,309759,1,8,0:0:0:0:
256,192,309932,1,8,0:0:0:0:
