osu file format v14

[General]
AudioFilename: audio.mp3
AudioLeadIn: 0
PreviewTime: 210256
Countdown: 0
SampleSet: Soft
StackLeniency: 0.2
Mode: 0
LetterboxInBreaks: 0
WidescreenStoryboard: 0

[Editor]
Bookmarks: 1205
DistanceSpacing: 1.9
BeatDivisor: 4
GridSize: 8
TimelineZoom: 2.6

[Metadata]
Title:d:for the DELTA
TitleUnicode:δ:for the DELTA
Artist:Camellia
ArtistUnicode:Camellia
Creator:iPhone X
Version:Amnesic
Source:
Tags:professional box
BeatmapID:1437993
BeatmapSetID:680051

[Difficulty]
HPDrainRate:6
CircleSize:4
OverallDifficulty:8
ApproachRate:9.5
SliderMultiplier:1.7
SliderTickRate:1

[Events]
//Background and Video events
0,0,"c9feb6ab58969c5b2c37c1e75e800134.jpg",0,0
//Break Periods
2,134594,153180
//Storyboard Layer 0 (Background)
//Storyboard Layer 1 (Fail)
//Storyboard Layer 2 (Pass)
//Storyboard Layer 3 (Foreground)
//Storyboard Sound Samples

[TimingPoints]
1981,344.827586206897,4,2,0,75,1,0
1981,-100,4,2,0,5,0,0
3360,-100,4,2,0,7,0,0
4739,-100,4,2,0,10,0,0
6118,-100,4,2,0,13,0,0
7498,-100,4,2,0,15,0,0
8877,-100,4,2,0,17,0,0
10256,-100,4,2,0,19,0,0
11636,-100,4,2,0,20,0,0
11981,-121.951219512195,4,2,0,20,0,0
13015,-102.040816326531,4,2,0,15,0,0
14394,-102.040816326531,4,2,0,17,0,0
15774,-102.040816326531,4,2,0,20,0,0
17153,-102.040816326531,4,2,0,22,0,0
24049,-86.9565217391304,4,2,0,30,0,0
31636,-74.0740740740741,4,2,0,22,0,0
31981,-64.5161290322581,4,2,0,22,0,0
33705,-86.9565217391304,4,2,0,22,0,0
44739,-55.5555555555556,4,2,0,45,0,0
46118,-83.3333333333333,4,2,0,30,0,0
57153,-83.3333333333333,4,2,0,40,0,0
68187,-66.6666666666667,4,2,0,20,0,1
73360,-60.6060606060606,4,2,0,20,0,1
73705,-66.6666666666667,4,2,0,20,0,1
74049,-60.6060606060606,4,2,0,20,0,1
76118,-54.054054054054,4,2,0,20,0,1
76463,-66.6666666666667,4,2,0,20,0,1
79222,-66.6666666666667,4,2,0,25,0,1
81981,-125,4,2,0,25,0,1
82325,-66.6666666666667,4,2,0,25,0,1
84739,-54.054054054054,4,2,0,25,0,1
87498,-66.6666666666667,4,2,0,25,0,1
90256,-60.6060606060606,4,2,0,25,0,1
91291,-66.6666666666667,4,2,0,25,0,1
98015,-50,4,2,0,25,0,1
98532,-66.6666666666667,4,2,0,25,0,1
109222,-54.054054054054,4,2,0,25,0,1
109567,-66.6666666666667,4,2,0,25,0,1
110946,-133.333333333333,4,2,0,25,0,0
112325,-66.6666666666667,4,2,0,25,0,1
115084,-76.9230769230769,4,2,0,25,0,1
120601,-33.3333333333333,4,2,0,25,0,1
121981,-100,4,2,0,25,0,1
122325,-33.3333333333333,4,2,0,25,0,1
123360,-66.6666666666667,4,2,0,25,0,1
126118,-133.333333333333,4,2,0,25,0,1
126463,-66.6666666666667,4,2,0,25,0,1
127153,-33.3333333333333,4,2,0,25,0,1
128015,-66.6666666666667,4,2,0,25,0,1
128532,-33.3333333333333,4,2,0,25,0,1
131808,-66.6666666666667,4,2,0,25,0,1
134394,-86.9565217391304,4,2,0,20,0,0
158877,-166.666666666667,4,2,0,20,0,0
160601,-86.9565217391304,4,2,0,20,0,0
161636,-153.846153846154,4,2,0,20,0,0
163705,-100,4,2,0,20,0,0
179912,-86.9565217391304,4,2,0,20,0,0
211636,-66.6666666666667,4,2,0,20,0,1
211981,-71.4285714285714,4,2,0,20,0,1
219567,-58.8235294117647,4,2,0,20,0,1
219912,-71.4285714285714,4,2,0,20,0,1
225429,-250,4,2,0,20,0,1
225774,-71.4285714285714,4,2,0,20,0,1
228187,-50,4,2,0,20,0,1
230946,-86.9565217391304,4,2,0,20,0,0
234049,-44.4444444444445,4,2,0,20,0,1
234394,-80,4,2,0,20,0,1
236118,-25,4,2,0,20,0,1
236463,-80,4,2,0,20,0,1
277843,-86.9565217391304,4,2,0,20,0,0

[HitObjects]
151,73,1980,6,0,P|161:113|160:144,1,42.5
237,115,2153,2,0,P|229:155|216:176,1,42.5
298,187,2325,2,0,B|284:213|225:251|225:251|210:230|187:214|157:207|120:208|80:232,1,255,2|0,0:0|0:0,0:0:0:0:
88,344,3015,6,0,P|129:329|144:284,1,85,0|2,0:0|0:0,0:0:0:0:
265,333,3360,6,0,L|256:288,1,42.5
330,283,3532,2,0,L|320:240,1,42.5
397,238,3705,2,0,B|381:194|381:194|354:167|354:167|400:80|328:0,1,255,2|0,0:0|0:0,0:0:0:0:
224,64,4394,6,0,P|240:90|296:96,1,85,0|2,0:0|0:0,0:0:0:0:
157,154,4739,6,0,B|161:180|161:180|184:200,1,42.5
132,255,4912,2,0,B|156:264|156:264|184:256,1,42.5
205,330,5084,2,0,B|228:317|228:317|239:292|239:292|304:96,1,255,2|0,0:0|0:0,0:0:0:0:
340,222,5774,6,0,L|312:312,1,85,0|2,0:0|0:0,0:0:0:0:
448,160,6118,5,0,0:0:0:0:
404,149,6205,1,0,0:0:0:0:
358,93,6291,5,0,0:0:0:0:
313,98,6377,1,0,0:0:0:0:
260,163,6463,2,0,P|236:134|240:48,1,127.5,2|0,0:0|0:0,0:0:0:0:
185,202,6808,1,0,0:0:0:0:
352,280,6981,5,0,0:0:0:0:
256,264,7153,1,0,0:0:0:0:
185,202,7325,1,2,0:0:0:0:
88,184,7498,5,0,0:0:0:0:
64,232,7584,1,0,0:0:0:0:
88,280,7670,1,0,0:0:0:0:
112,328,7756,1,0,0:0:0:0:
136,376,7843,2,0,P|208:288|144:168,1,255,2|0,0:0|0:0,0:0:0:0:
264,176,8532,6,0,P|288:224|288:280,1,85,0|2,0:0|0:0,0:0:0:0:
424,176,8877,1,0,0:0:0:0:
400,224,8963,1,0,0:0:0:0:
344,232,9049,1,0,0:0:0:0:
288,240,9136,1,0,0:0:0:0:
232,248,9222,6,0,B|264:176|264:176|176:130|196:25,1,255,2|0,0:0|0:0,0:0:0:0:
160,208,9912,1,0,0:0:0:0:
280,80,10084,1,2,0:0:0:0:
256,200,10256,5,0,0:0:0:0:
232,248,10343,1,0,0:0:0:0:
208,296,10429,1,0,0:0:0:0:
184,344,10515,1,0,0:0:0:0:
136,320,10601,2,0,B|105:255|157:207|157:207|90:177|100:102,1,255,2|0,0:0|0:0,0:0:0:0:
176,56,11291,6,0,P|176:120|168:136,1,70,0|2,0:0|0:0,0:0:0:0:
160,208,11636,5,0,0:0:0:0:
216,232,11722,1,0,0:0:0:0:
272,256,11808,1,0,0:0:0:0:
264,200,11894,1,0,0:0:0:0:
208,176,11981,2,0,B|184:160|184:160|280:128,1,104.550001595306,2|0,0:0|0:0,0:0:0:0:
328,104,12325,1,0,0:0:0:0:
272,256,12498,5,2,0:0:0:0:
256,136,12670,1,0,0:0:0:0:
368,176,12843,1,2,0:0:0:0:
184,272,13015,6,0,P|211:301|236:314,1,40.2500007677078,4|0,0:0|0:0,0:0:0:0:
256,136,13187,2,0,P|228:165|217:192,1,40.2500007677078
336,266,13360,2,0,P|322:227|305:204,1,40.2500007677078
128,184,13532,6,0,L|112:224,1,40.2500007677078
128,184,13705,2,0,L|108:235,1,40.2500007677078
168,16,13877,6,0,L|184:80,1,40.2500007677078
238,175,14049,2,0,L|254:111,1,40.2500007677078
296,16,14222,2,0,L|312:80,1,40.2500007677078
440,152,14394,6,0,P|424:176|408:184,1,40.2500007677078
432,256,14567,2,0,P|407:270|389:271,1,40.2500007677078
368,344,14739,2,0,P|339:347|322:340,1,40.2500007677078
304,208,14912,6,0,P|296:168|296:160,1,40.2500007677078
304,208,15084,2,0,P|296:168|296:160,1,40.2500007677078
296,16,15256,6,0,B|288:48|288:48|272:64,1,40.2500007677078
192,192,15429,2,0,B|200:160|200:160|216:144,1,40.2500007677078
144,16,15601,2,0,B|136:48|136:48|130:53,1,40.2500007677078
40,144,15774,6,0,L|64:208,1,40.2500007677078
168,272,15946,2,0,L|120:232,1,40.2500007677078
16,312,16118,2,0,L|32:264,1,40.2500007677078
205,154,16291,6,0,B|200:128|200:128|160:112,1,40.2500007677078
205,154,16463,2,0,B|200:128|200:128|160:112,1,40.2500007677078
368,248,16636,6,0,L|312:232,1,40.2500007677078
129,260,16808,2,0,L|167:271,1,40.2500007677078
328,384,16981,2,0,L|289:372,1,40.2500007677078
129,260,17153,6,0,P|152:232|168:224,1,40.2500007677078
112,168,17325,2,0,P|144:152|162:151,1,40.2500007677078
136,80,17498,2,0,P|172:79|188:86,1,40.2500007677078
248,184,17670,6,0,P|280:168|288:160,1,40.2500007677078
248,184,17843,2,0,P|280:168|288:160,1,40.2500007677078
408,264,18015,6,0,P|385:236|369:228,1,40.2500007677078
432,166,18187,2,0,P|400:150|382:149,1,40.2500007677078
408,64,18360,2,0,P|372:63|356:70,1,40.2500007677078
248,184,18532,6,0,L|264:144,1,40.2500007677078
168,208,18705,2,0,L|165:164,1,40.2500007677078
104,264,18877,2,0,L|83:226,1,40.2500007677078
224,280,19049,5,0,0:0:0:0:
224,280,19222,1,0,0:0:0:0:
297,184,19394,1,0,0:0:0:0:
177,168,19567,1,0,0:0:0:0:
224,280,19739,1,0,0:0:0:0:
345,296,19912,6,0,L|334:242,1,40.2500007677078
417,252,20084,2,0,L|406:198,1,40.2500007677078
488,208,20256,2,0,L|477:154,1,40.2500007677078
417,252,20429,5,0,0:0:0:0:
417,252,20601,1,0,0:0:0:0:
455,114,20774,1,0,0:0:0:0:
317,76,20946,1,0,0:0:0:0:
279,214,21118,1,0,0:0:0:0:
380,316,21291,6,0,L|318:328,1,40.2500007677078
242,353,21463,2,8,L|262:293,1,40.2500007677078
279,214,21636,2,0,L|309:260,1,40.2500007677078
140,251,21808,5,0,0:0:0:0:
140,251,21981,1,0,0:0:0:0:
113,117,22153,1,0,0:0:0:0:
140,251,22325,1,0,0:0:0:0:
216,88,22498,1,0,0:0:0:0:
319,235,22670,6,0,P|326:208|321:183,1,40.2500007677078
403,183,22843,2,0,P|393:156|374:139,1,40.2500007677078
463,105,23015,2,0,P|440:89|414:85,1,40.2500007677078
315,61,23187,5,0,0:0:0:0:
315,61,23360,1,0,0:0:0:0:
377,286,23532,1,0,0:0:0:0:
281,191,23705,1,0,0:0:0:0:
315,61,23877,1,0,0:0:0:0:
152,228,24049,5,4,0:0:0:0:
152,228,25429,6,0,P|184:272|224:288,1,97.7500018644333
232,200,25774,1,0,0:0:0:0:
248,117,25946,6,0,P|193:122|163:151,1,97.7500018644333
232,200,26291,1,0,0:0:0:0:
296,256,26463,6,0,P|318:206|308:165,1,97.7500018644333
248,96,28187,6,0,L|272:192,1,80.5000015354157
296,256,28532,1,0,0:0:0:0:
459,295,28705,6,0,L|360:272,1,80.5000015354157
296,256,29049,1,0,0:0:0:0:
181,378,29222,6,0,L|248:304,1,80.5000015354157,0|0,3:0|3:0,3:0:0:0:
315,334,31291,6,0,L|291:238,1,97.7500018644333
315,334,31636,2,0,L|280:200,1,114.750000437737
315,334,31981,2,0,L|280:200,1,131.750001005173
168,112,33705,6,0,P|160:184|168:208,1,97.7500018644333
264,160,34049,1,0,0:0:0:0:
360,208,34222,6,0,P|368:136|360:112,1,97.7500018644333
264,160,34567,1,0,0:0:0:0:
215,256,34739,1,0,0:0:0:0:
311,305,34912,1,0,0:0:0:0:
360,208,35084,1,0,3:0:0:0:
360,208,36463,5,0,0:0:0:0:
315,134,36636,1,0,0:0:0:0:
228,136,36808,1,0,0:0:0:0:
360,208,36981,5,0,0:0:0:0:
228,136,37153,1,0,0:0:0:0:
100,215,37325,1,0,0:0:0:0:
360,208,37498,5,0,0:0:0:0:
100,215,39222,5,0,0:0:0:0:
269,187,39394,1,0,0:0:0:0:
176,152,39567,1,0,0:0:0:0:
100,215,39739,5,0,0:0:0:0:
378,320,39912,1,0,0:0:0:0:
269,187,40084,1,0,0:0:0:0:
100,215,40256,5,0,0:0:0:0:
256,192,40601,12,0,44394,0:0:0:0:
344,64,44567,6,0,P|352:96|352:120,1,48.8750009322167,8|8,0:0|0:0,0:0:0:0:
272,104,44739,6,0,P|264:200|416:136,1,305.999990661621,4|4,0:0|0:0,0:0:0:0:
432,368,45256,6,0,B|104:288,1,305.999990661621,4|4,0:0|0:0,0:0:0:0:
112,48,45774,6,8,P|96:96|120:160,1,76.4999976654054
176,104,45946,6,8,P|181:154|230:202,1,76.4999976654054
264,136,46118,5,4,0:0:0:0:
264,136,46463,1,0,0:0:0:0:
264,136,46808,1,0,0:0:0:0:
264,136,47153,1,0,0:0:0:0:
264,136,47498,6,0,P|288:232|216:224,1,203.999993774414
217,225,48877,6,0,L|240:176,1,50.9999984436036
216,224,49222,1,0,0:0:0:0:
216,224,49567,1,0,0:0:0:0:
216,224,49912,1,0,0:0:0:0:
216,224,50256,2,0,B|232:161|216:120|216:120|251:152|328:160,1,203.999993774414
336,312,51636,6,0,P|336:280|328:256,1,50.9999984436036
336,312,51981,1,0,0:0:0:0:
336,312,52325,1,0,0:0:0:0:
336,312,52670,1,0,0:0:0:0:
336,312,53015,2,0,B|272:280|280:208|280:208|264:243|224:264,1,203.999993774414
384,104,54739,6,0,P|384:136|376:160,1,50.9999984436036
384,104,55084,1,0,0:0:0:0:
384,104,55429,1,0,0:0:0:0:
384,104,55774,1,0,0:0:0:0:
384,104,56118,1,0,0:0:0:0:
384,104,56291,6,0,P|384:136|376:160,2,50.9999984436036
384,104,56636,1,0,0:0:0:0:
296,128,56808,6,0,L|312:184,1,50.9999984436036
232,64,56981,2,0,L|216:8,1,50.9999984436036
209,152,57153,5,8,0:0:0:0:
120,200,57325,1,0,0:0:0:0:
209,152,57498,1,0,0:0:0:0:
295,205,57670,1,0,0:0:0:0:
209,152,57843,5,8,0:0:0:0:
96,232,58015,1,0,0:0:0:0:
209,152,58187,1,0,0:0:0:0:
320,240,58360,1,0,0:0:0:0:
209,152,58532,5,8,0:0:0:0:
80,272,58705,1,0,0:0:0:0:
209,152,58877,1,0,0:0:0:0:
336,280,59049,1,0,0:0:0:0:
209,152,59222,5,8,0:0:0:0:
72,312,59394,1,0,0:0:0:0:
209,152,59567,1,0,0:0:0:0:
344,320,59739,1,0,0:0:0:0:
422,120,59912,5,8,0:0:0:0:
296,128,60084,1,0,0:0:0:0:
422,120,60256,1,0,0:0:0:0:
368,184,60429,1,0,0:0:0:0:
422,120,60601,5,8,0:0:0:0:
256,136,60774,1,0,0:0:0:0:
422,120,60946,1,0,0:0:0:0:
336,216,61118,1,0,0:0:0:0:
422,120,61291,5,8,0:0:0:0:
208,144,61463,1,0,0:0:0:0:
422,120,61636,1,0,0:0:0:0:
304,248,61808,1,0,0:0:0:0:
422,120,61981,5,8,0:0:0:0:
144,160,62153,1,0,0:0:0:0:
422,120,62325,1,0,0:0:0:0:
264,288,62498,1,0,0:0:0:0:
77,31,62670,5,8,0:0:0:0:
40,60,62756,1,0,0:0:0:0:
16,100,62843,1,0,0:0:0:0:
8,148,62929,1,0,0:0:0:0:
18,196,63015,5,0,0:0:0:0:
66,188,63101,1,0,0:0:0:0:
114,196,63187,1,0,0:0:0:0:
154,220,63274,1,0,0:0:0:0:
190,258,63360,5,8,0:0:0:0:
216,217,63446,1,0,0:0:0:0:
222,169,63532,1,0,0:0:0:0:
201,125,63618,1,0,0:0:0:0:
242,104,63705,5,0,0:0:0:0:
288,95,63791,1,0,0:0:0:0:
336,104,63877,1,0,0:0:0:0:
376,135,63963,1,0,0:0:0:0:
432,192,64049,6,0,L|400:256,1,50.9999984436036,8|0,0:0|0:0,0:0:0:0:
348,350,64222,2,0,L|380:294,1,50.9999984436036
376,135,64394,6,0,L|336:208,1,50.9999984436036
269,332,64567,2,0,L|309:260,1,50.9999984436036
316,84,64739,6,0,L|268:164,1,50.9999984436036,8|0,0:0|0:0,0:0:0:0:
184,315,64912,2,0,L|232:235,1,50.9999984436036
248,39,65084,6,0,L|208:111,1,50.9999984436036
101,294,65256,2,0,L|149:214,1,50.9999984436036
121,105,65429,5,0,0:0:0:0:
117,151,65515,1,0,0:0:0:0:
125,196,65601,1,0,0:0:0:0:
155,232,65687,1,0,0:0:0:0:
195,254,65774,5,0,0:0:0:0:
245,270,65860,1,0,0:0:0:0:
281,307,65946,1,0,0:0:0:0:
302,354,66032,1,0,0:0:0:0:
345,384,66118,5,0,0:0:0:0:
412,377,66205,1,0,0:0:0:0:
461,326,66291,1,0,0:0:0:0:
466,256,66377,1,0,0:0:0:0:
440,186,66463,5,0,0:0:0:0:
374,154,66549,1,0,0:0:0:0:
301,161,66636,1,0,0:0:0:0:
256,220,66722,1,0,0:0:0:0:
216,280,66808,6,0,P|216:240|176:272,1,101.999996887207
400,240,67153,1,0,0:0:0:0:
264,80,67325,5,0,0:0:0:0:
254,91,67412,1,0,0:0:0:0:
270,91,67498,1,0,0:0:0:0:
400,240,67670,5,0,0:0:0:0:
277,172,67756,1,0,0:0:0:0:
280,312,67843,1,8,0:0:0:0:
277,172,68187,6,0,P|200:200|272:232,1,191.250007295609,4|0,0:0|0:0,0:0:0:0:
368,240,68532,6,0,P|384:296|384:312,1,63.7500024318696,2|0,0:0|0:0,0:0:0:0:
416,176,68705,2,0,P|450:223|455:238,1,63.7500024318696,8|0,0:0|0:0,0:0:0:0:
432,96,68877,2,0,P|480:128|490:140,1,63.7500024318696,8|0,0:0|0:0,0:0:0:0:
352,120,69049,5,0,0:0:0:0:
352,120,69136,1,0,0:0:0:0:
352,120,69222,2,0,P|288:96|280:80,1,63.7500024318696,8|0,0:0|0:0,0:0:0:0:
280,16,69394,2,0,P|344:40|352:56,1,63.7500024318696
293,102,69567,5,0,0:0:0:0:
293,102,69739,2,0,L|240:160,1,63.7500024318696
176,224,69912,2,8,L|280:264,1,63.7500024318696
341,265,70084,2,0,L|317:190,1,63.7500024318696
176,224,70256,5,0,0:0:0:0:
199,265,70343,1,0,0:0:0:0:
234,295,70429,1,0,0:0:0:0:
279,314,70515,1,0,0:0:0:0:
320,312,70601,6,0,P|352:296|384:248,1,63.7500024318696,8|0,0:0|0:0,0:0:0:0:
360,152,70774,2,0,P|328:168|296:216,1,63.7500024318696
320,312,70946,5,0,0:0:0:0:
320,312,71118,6,0,L|304:248,1,63.7500024318696
368,184,71291,2,0,L|384:120,1,63.7500024318696,8|0,0:0|0:0,0:0:0:0:
296,88,71463,2,0,L|280:24,1,63.7500024318696
383,122,71636,5,0,0:0:0:0:
416,160,71722,1,0,0:0:0:0:
432,208,71808,1,0,0:0:0:0:
424,256,71894,1,0,0:0:0:0:
384,224,71981,6,0,P|344:216|312:224,1,63.7500024318696,8|0,0:0|0:0,0:0:0:0:
256,312,72153,6,0,P|296:320|328:312,1,63.7500024318696
321,220,72325,5,0,0:0:0:0:
273,228,72412,1,0,0:0:0:0:
225,228,72498,1,0,0:0:0:0:
185,204,72584,1,0,0:0:0:0:
144,104,72670,6,0,P|152:160|176:184,1,63.7500024318696,8|0,0:0|0:0,0:0:0:0:
236,288,72843,2,0,P|228:232|204:208,1,63.7500024318696
144,104,73015,5,8,0:0:0:0:
192,80,73101,1,0,0:0:0:0:
248,80,73187,1,0,0:0:0:0:
304,96,73274,1,0,0:0:0:0:
392,184,73360,6,0,P|368:144|336:120,1,70.1250006687641,8|0,0:0|0:0,0:0:0:0:
206,24,73532,6,0,P|222:54|247:79,1,70.1250006687641
427,130,73705,6,0,L|379:202,1,63.7500024318696,8|0,0:0|0:0,0:0:0:0:
427,130,73877,2,0,L|379:202,1,63.7500024318696
264,192,74049,6,0,P|280:240|304:264,1,70.1250006687641,8|0,0:0|0:0,0:0:0:0:
240,112,74222,2,0,P|224:64|200:40,1,70.1250006687641
216,192,74394,6,0,P|188:262|192:313,1,70.1250006687641
265,76,74567,2,0,P|292:5|288:-45,1,70.1250006687641
264,192,74739,5,8,0:0:0:0:
264,192,74912,6,0,P|240:240|240:280,1,70.1250006687641
320,256,75084,1,0,0:0:0:0:
376,320,75256,6,0,P|400:272|400:232,1,70.1250006687641
320,256,75428,1,0,0:0:0:0:
408,120,75601,6,0,L|368:184,1,70.1250006687641
320,256,75774,1,0,0:0:0:0:
246,111,75946,5,0,0:0:0:0:
246,111,76032,1,0,0:0:0:0:
246,111,76118,2,0,B|152:144|152:144|176:224|240:264|240:264|256:208,1,235.874999100208
226,254,76463,6,0,P|280:240|296:224,1,63.7500024318696
304,88,76636,6,0,P|250:102|238:120,1,63.7500024318696
296,224,76808,1,0,0:0:0:0:
432,168,76981,5,0,0:0:0:0:
384,168,77067,1,0,0:0:0:0:
344,192,77153,1,0,0:0:0:0:
320,232,77239,1,0,0:0:0:0:
328,280,77325,1,0,0:0:0:0:
344,192,77498,6,0,P|384:224|400:248,1,63.7500024318696
360,120,77670,2,0,P|409:132|434:147,1,63.7500024318696
280,136,77843,5,0,0:0:0:0:
280,136,77929,1,0,0:0:0:0:
280,136,78015,2,0,P|232:128|192:144,1,63.7500024318696
120,200,78187,2,0,P|128:152|112:112,1,63.7500024318696
144,29,78360,2,0,P|181:59|224:66,1,63.7500024318696
120,200,78532,5,0,0:0:0:0:
120,200,78618,1,0,0:0:0:0:
120,200,78705,2,0,P|128:152|120:120,1,63.7500024318696
216,160,78877,5,0,0:0:0:0:
288,144,78963,1,0,0:0:0:0:
352,184,79049,1,0,0:0:0:0:
376,256,79136,1,0,0:0:0:0:
352,328,79222,1,0,0:0:0:0:
352,328,79394,6,0,P|328:288|304:272,1,63.7500024318696
248,352,79567,2,0,P|243:305|228:280,1,63.7500024318696
144,336,79739,2,0,P|159:291|156:263,1,63.7500024318696
64,136,79912,5,0,0:0:0:0:
108,148,79998,1,0,0:0:0:0:
142,181,80084,1,0,0:0:0:0:
154,227,80170,1,0,0:0:0:0:
158,275,80256,6,0,L|226:223,1,63.7500024318696
272,128,80429,2,0,L|204:180,1,63.7500024318696
158,109,80601,5,0,0:0:0:0:
158,109,80774,6,0,P|184:72|192:40,1,63.7500024318696
272,128,80946,2,0,P|287:85|286:52,1,63.7500024318696
376,144,81118,2,0,P|380:98|370:67,1,63.7500024318696,0|0,3:0|3:0,3:0:0:0:
272,128,81291,5,0,0:0:0:0:
296,168,81377,1,0,0:0:0:0:
304,216,81463,1,0,0:0:0:0:
288,256,81549,1,0,0:0:0:0:
256,288,81636,6,0,P|224:256|216:224,1,63.7500024318696
272,128,81808,2,0,P|304:160|312:192,1,63.7500024318696
344,247,81981,6,0,B|312:279|312:279|256:287,1,102
152,200,82325,6,0,P|176:240|176:264,1,63.7500024318696
256,225,82498,2,0,P|260:271|250:293,1,63.7500024318696
176,256,82670,5,0,0:0:0:0:
184,296,82756,1,0,0:0:0:0:
168,336,82843,1,0,0:0:0:0:
136,360,82929,1,0,0:0:0:0:
176,256,83015,6,0,L|144:192,1,63.7500024318696
232,184,83187,2,0,L|264:120,1,63.7500024318696
147,198,83360,5,0,0:0:0:0:
147,150,83446,1,0,0:0:0:0:
163,102,83532,1,0,0:0:0:0:
203,70,83618,1,0,0:0:0:0:
256,64,83705,6,0,P|288:64|336:80,1,63.7500024318696
352,176,83877,2,0,P|320:176|272:160,1,63.7500024318696
318,71,84049,5,0,0:0:0:0:
368,128,84136,1,0,0:0:0:0:
384,200,84222,1,0,0:0:0:0:
360,272,84308,1,0,0:0:0:0:
296,320,84394,6,0,P|264:280|264:240,1,63.7500024318696
368,128,84567,2,0,P|400:168|400:208,1,63.7500024318696
166,162,84739,6,0,P|216:154|168:88,1,157.249999400139
181,84,84998,1,0,0:0:0:0:
181,84,85084,1,0,0:0:0:0:
120,248,85256,6,0,B|159:271|176:312|176:312|187:268|222:245,1,157.249999400139
262,316,85601,6,0,P|358:292|238:212,1,314.499998800278
250,198,86118,6,0,P|302:182|355:207,1,78.6249997000694
262,316,86291,5,0,0:0:0:0:
262,316,86377,1,0,0:0:0:0:
262,316,86463,2,0,P|210:334|162:302,1,78.6249997000694
128,240,86636,6,0,L|184:80,1,157.249999400139
88,40,86981,6,0,P|184:0|264:168,1,314.499998800278
179,91,87498,5,0,0:0:0:0:
179,91,87843,6,0,L|160:160,1,63.7500024318696
240,160,88016,2,0,L|259:229,1,63.7500024318696
176,232,88187,6,0,L|157:301,1,63.7500024318696
237,301,88360,2,0,L|256:370,1,63.7500024318696
176,232,88532,6,0,P|152:168|160:136,1,63.7500024318696
216,102,88705,2,0,P|240:166|232:198,1,63.7500024318696
237,301,88877,5,0,0:0:0:0:
281,290,88964,1,0,0:0:0:0:
327,234,89050,5,0,0:0:0:0:
372,239,89136,1,0,0:0:0:0:
440,272,89222,6,0,P|456:216|448:192,1,63.7500024318696
400,96,89394,2,0,P|384:152|392:176,1,63.7500024318696
327,234,89567,5,0,0:0:0:0:
304,184,89653,1,0,0:0:0:0:
264,144,89739,1,0,0:0:0:0:
208,128,89825,1,0,0:0:0:0:
136,144,89912,5,0,0:0:0:0:
104,208,89998,1,0,0:0:0:0:
112,280,90084,1,0,0:0:0:0:
168,328,90170,1,0,0:0:0:0:
240,336,90256,6,0,P|216:256|184:344,1,210.375002006292,4|0,0:0|0:0,0:0:0:0:
327,234,90601,2,0,P|311:186|271:162,1,70.1250006687641
168,328,90774,5,0,0:0:0:0:
152,288,90860,1,0,0:0:0:0:
168,248,90946,1,0,0:0:0:0:
208,232,91032,1,0,0:0:0:0:
248,248,91118,1,0,0:0:0:0:
297,173,91291,6,0,P|265:149|240:104,1,63.7500024318696
272,24,91463,2,0,P|304:48|329:93,1,63.7500024318696
438,225,91636,6,0,P|401:240|349:239,1,63.7500024318696
400,320,91808,2,0,P|360:318|313:296,1,63.7500024318696
312,384,91981,2,0,P|276:365|243:325,1,63.7500024318696
438,225,92153,5,0,0:0:0:0:
414,185,92239,1,0,0:0:0:0:
374,153,92325,1,0,0:0:0:0:
326,153,92412,1,0,0:0:0:0:
286,177,92498,1,0,0:0:0:0:
360,240,92670,5,0,0:0:0:0:
312,248,92756,1,0,0:0:0:0:
256,304,92843,1,0,0:0:0:0:
208,296,92929,1,0,0:0:0:0:
136,256,93015,2,0,P|128:152|184:248,1,255.000009727478
168,64,93532,5,0,0:0:0:0:
214,62,93618,1,0,0:0:0:0:
256,82,93705,1,0,0:0:0:0:
282,123,93791,1,0,0:0:0:0:
284,169,93877,1,0,0:0:0:0:
200,320,94049,6,0,P|208:256|224:232,1,63.7500024318696
284,169,94222,2,0,P|276:233|260:257,1,63.7500024318696
200,320,94394,6,0,P|208:256|224:232,1,63.7500024318696
284,169,94567,1,0,0:0:0:0:
112,172,94739,1,0,0:0:0:0:
284,169,94912,6,0,P|224:194|195:192,1,63.7500024318696
200,320,95084,1,0,0:0:0:0:
112,172,95256,1,0,0:0:0:0:
284,169,95429,5,0,0:0:0:0:
320,200,95515,1,0,0:0:0:0:
344,240,95601,1,0,0:0:0:0:
352,288,95687,1,0,0:0:0:0:
344,336,95774,2,0,B|264:224|264:224|248:280|248:280,1,191.250007295609
264,224,96118,6,0,P|280:272|304:296,1,70.1250006687641
240,144,96291,2,0,P|224:96|200:72,1,70.1250006687641
216,216,96463,6,0,P|188:286|192:337,1,70.1250006687641
265,100,96636,2,0,P|292:29|288:-21,1,70.1250006687641
344,240,96808,5,0,0:0:0:0:
344,240,96981,6,0,P|320:288|320:328,1,70.1250006687641
400,304,97153,1,0,0:0:0:0:
456,368,97325,6,0,P|480:320|480:280,1,70.1250006687641
400,304,97497,1,0,0:0:0:0:
488,168,97670,6,0,L|448:232,1,70.1250006687641
400,304,97843,1,0,0:0:0:0:
326,159,98015,5,0,0:0:0:0:
326,159,98101,1,0,0:0:0:0:
326,159,98187,2,0,B|248:136|248:136|344:248|256:336|256:336,1,255
216,248,98532,6,0,P|200:200|184:184,1,63.7500024318696
144,288,98705,2,0,P|109:251|87:243,1,63.7500024318696
96,352,98877,2,0,P|48:333|26:335,1,63.7500024318696
144,288,99049,5,0,0:0:0:0:
120,248,99136,1,0,0:0:0:0:
120,200,99222,1,0,0:0:0:0:
144,160,99308,1,0,0:0:0:0:
184,136,99394,1,0,0:0:0:0:
208,224,99567,5,0,0:0:0:0:
256,232,99653,1,0,0:0:0:0:
312,288,99740,1,0,0:0:0:0:
360,280,99826,1,0,0:0:0:0:
432,256,99912,6,0,P|448:200|440:176,1,63.7500024318696
320,152,100084,2,0,P|360:193|385:198,1,63.7500024318696
466,107,100256,2,0,P|409:121|392:140,1,63.7500024318696
432,256,100429,2,0,P|448:200|440:176,1,63.7500024318696
320,152,100601,5,0,0:0:0:0:
320,152,100687,1,0,0:0:0:0:
320,152,100774,2,0,P|360:193|385:198,1,63.7500024318696
304,32,100946,5,0,0:0:0:0:
240,72,101032,1,0,0:0:0:0:
208,136,101118,1,0,0:0:0:0:
216,208,101205,1,0,0:0:0:0:
264,264,101291,6,0,P|296:200|264:216,1,191.250007295609
288,128,101636,2,0,P|344:136|368:160,1,63.7500024318696
264,264,101808,5,0,0:0:0:0:
216,256,101894,1,0,0:0:0:0:
176,232,101981,1,0,0:0:0:0:
152,192,102067,1,0,0:0:0:0:
144,144,102153,1,0,0:0:0:0:
192,8,102325,6,0,P|208:48|208:80,1,63.7500024318696
144,144,102498,2,0,P|128:104|128:72,1,63.7500024318696
288,128,102670,6,0,P|250:154|246:205,1,63.7500024318696
339,214,102843,2,0,P|293:221|268:266,1,63.7500024318696
346,314,103015,2,0,P|301:301|260:331,1,63.7500024318696
240,176,103187,5,0,0:0:0:0:
208,216,103274,1,0,0:0:0:0:
192,264,103360,1,0,0:0:0:0:
200,312,103446,1,0,0:0:0:0:
232,352,103532,1,0,0:0:0:0:
240,176,103705,5,0,0:0:0:0:
284,187,103792,1,0,0:0:0:0:
330,243,103878,5,0,0:0:0:0:
375,238,103964,1,0,0:0:0:0:
456,248,104049,6,0,P|432:152|400:256,1,255.000009727478
240,176,104567,5,0,0:0:0:0:
188,167,104653,1,0,0:0:0:0:
142,188,104739,1,0,0:0:0:0:
113,227,104825,1,0,0:0:0:0:
106,278,104911,1,0,0:0:0:0:
200,256,105084,6,0,P|264:296|272:296,1,63.7500024318696
352,256,105256,2,0,P|288:216|280:216,1,63.7500024318696
200,256,105429,6,0,P|216:182|222:176,1,63.7500024318696
208,96,105601,1,0,0:0:0:0:
352,256,105774,1,0,0:0:0:0:
208,96,105946,6,0,P|263:147|265:155,1,63.7500024318696
342,182,106118,1,0,0:0:0:0:
132,227,106291,1,0,0:0:0:0:
342,182,106463,5,0,0:0:0:0:
346,226,106549,1,0,0:0:0:0:
339,267,106636,1,0,0:0:0:0:
316,303,106722,1,0,0:0:0:0:
275,323,106808,2,0,P|227:333|268:256,1,191.250007295609
208,96,107153,6,0,L|178:182,1,63.7500024318696
208,96,107325,2,0,L|238:182,1,63.7500024318696
208,96,107498,2,2,L|178:10,1,63.7500024318696
208,96,107670,2,2,L|238:10,1,63.7500024318696
342,182,107843,1,0,0:0:0:0:
452,103,108015,6,0,P|473:150|473:174,1,63.7500024318696
342,182,108187,1,0,0:0:0:0:
422,292,108360,6,0,P|374:312|351:313,1,63.7500024318696
342,182,108532,1,0,0:0:0:0:
232,262,108705,6,0,P|211:214|211:191,1,63.7500024318696
342,182,108877,1,0,0:0:0:0:
262,72,109049,5,0,0:0:0:0:
262,72,109136,1,0,0:0:0:0:
262,72,109222,2,0,B|247:137|191:157|191:157|247:195|231:268,1,235.874999100208
145,235,109567,6,0,P|107:270|92:300,1,63.7500024318696
182,307,109739,2,0,P|154:350|147:383,1,63.7500024318696
263,318,109912,2,0,P|247:367|249:400,1,63.7500024318696
145,235,110084,5,0,0:0:0:0:
175,207,110170,1,0,0:0:0:0:
213,193,110256,1,0,0:0:0:0:
254,194,110343,1,0,0:0:0:0:
293,207,110429,1,0,0:0:0:0:
355,145,110601,5,0,0:0:0:0:
311,134,110688,1,0,0:0:0:0:
265,78,110774,5,0,0:0:0:0:
220,83,110860,1,0,0:0:0:0:
150,106,110946,6,0,P|79:135|186:191,1,255.000009727478
174,206,112325,6,0,P|190:110|318:78,1,191.250007295609
408,72,112670,6,0,L|352:112,1,63.7500024318696
440,176,112843,2,0,L|372:188,1,63.7500024318696
424,280,113015,2,0,L|357:262,1,63.7500024318696
376,376,113187,2,0,L|320:336,1,63.7500024318696
200,232,113360,6,0,L|267:266,1,63.7500024318696
200,232,113532,2,0,L|267:266,1,63.7500024318696
440,176,113705,6,0,L|336:136,1,63.7500024318696
194,73,113877,2,0,L|298:121,1,63.7500024318696
440,176,114049,2,0,L|336:136,1,63.7500024318696
129,136,114222,6,0,L|228:179,1,63.7500024318696
448,272,114394,2,0,L|345:232,1,63.7500024318696
129,136,114567,2,0,L|228:179,1,63.7500024318696
460,370,114739,6,0,L|354:331,1,63.7500024318696
61,201,114912,2,0,L|154:245,1,63.7500024318696
248,280,115084,6,0,P|309:291|271:229,1,165.749992412568
277,230,115429,6,0,P|304:168|296:160,1,55.2499974708558
384,216,115601,2,0,P|381:148|370:144,1,55.2499974708558
472,152,115774,2,0,P|440:91|429:92,1,55.2499974708558
499,64,115946,6,0,P|472:126|480:134,1,55.2499974708558
392,78,116118,2,0,P|394:145|405:149,1,55.2499974708558
304,142,116291,2,0,P|335:202|346:201,1,55.2499974708558
304,142,116636,6,0,P|335:202|346:201,1,55.2499974708558
275,258,116808,2,0,P|207:255|202:265,1,55.2499974708558
188,174,116981,2,0,P|224:117|218:107,1,55.2499974708558
275,258,117153,5,0,0:0:0:0:
259,298,117239,1,0,0:0:0:0:
227,322,117325,1,0,0:0:0:0:
187,322,117412,1,0,0:0:0:0:
152,304,117498,6,0,P|128:264|112:256,1,55.2499974708558
24,272,117670,2,0,P|48:312|64:320,1,55.2499974708558
115,177,117843,6,0,P|68:177|129:132,1,165.749992412568
208,157,118187,6,0,L|198:218,1,55.2499974708558
284,90,118360,2,0,L|294:29,1,55.2499974708558
304,189,118532,2,0,L|294:250,1,55.2499974708558
380,122,118705,2,0,L|390:61,1,55.2499974708558
400,221,118877,6,0,L|390:282,1,55.2499974708558
400,221,119049,2,0,L|390:282,1,55.2499974708558
284,90,119222,6,0,P|283:128|299:157,1,55.2499974708558
400,221,119394,2,0,P|401:183|385:154,1,55.2499974708558
284,90,119567,1,0,0:0:0:0:
85,160,119739,6,0,P|74:120|91:76,1,55.2499974708558
284,90,119911,2,0,P|295:130|278:174,1,55.2499974708558
85,160,120084,1,0,0:0:0:0:
246,298,120256,5,0,0:0:0:0:
264,252,120343,1,0,0:0:0:0:
266,204,120429,1,0,0:0:0:0:
240,164,120515,1,0,0:0:0:0:
200,143,120601,6,0,P|184:177|239:163,1,127.500004863739
276,72,120774,2,0,P|292:38|237:52,1,127.500004863739
266,204,120946,6,0,B|340:232|340:232|312:150|367:64,1,255.000009727478
415,149,121205,2,0,P|488:196|408:165,1,255.000009727478
266,204,121463,5,0,0:0:0:0:
371,308,121636,2,0,B|299:294|253:343|253:343|209:288|106:309,1,255.000009727478
138,304,121981,6,0,P|99:318|88:328,1,42.5
146,201,122153,2,0,P|187:190|195:184,1,42.5
137,114,122325,6,0,B|176:75|184:27|184:27|191:120|281:159,1,255.000009727478
279,57,122584,6,0,B|340:89|340:89|332:178|408:274,1,255.000009727478
398,261,122843,2,0,P|346:157|338:108,1,127.500004863739
285,266,123015,6,0,P|285:297|275:334,1,63.7500024318696
266,266,123101,6,0,P|260:296|244:331,1,63.7500024318696
244,261,123187,6,0,P|233:290|211:321,1,63.7500024318696
222,255,123274,6,0,P|206:281|179:308,1,63.7500024318696
204,248,123360,6,0,B|162:310|107:313|107:313|130:278|121:229,1,191.250007295609
132,159,123705,6,0,P|91:126|88:90,1,63.7500024318696
201,50,123877,2,0,P|234:9|270:6,1,63.7500024318696,0|0,2:0|2:0,2:0:0:0:
310,119,124049,2,0,P|351:152|354:188,1,63.7500024318696,0|0,2:0|2:0,2:0:0:0:
241,228,124222,2,0,P|208:269|172:272,1,63.7500024318696,0|0,2:0|2:0,2:0:0:0:
223,141,124394,6,0,L|240:220,1,63.7500024318696
223,141,124567,2,0,L|240:220,1,63.7500024318696
275,346,124739,6,0,L|258:267,1,63.7500024318696
278,110,124912,2,0,L|212:146,1,63.7500024318696
73,226,125084,2,0,L|149:250,1,63.7500024318696
348,222,125256,6,0,P|316:173|296:166,1,63.7500024318696
127,102,125429,2,0,P|110:158|117:177,1,63.7500024318696
134,354,125601,2,0,P|192:350|208:336,1,63.7500024318696
348,222,125774,5,0,0:0:0:0:
309,199,125860,1,0,0:0:0:0:
266,188,125946,1,0,0:0:0:0:
221,192,126032,1,0,0:0:0:0:
180,212,126118,6,0,P|154:230|133:278,1,63.7500024318696
221,285,126463,6,0,P|239:316|243:357,1,63.7500024318696
290,232,126636,2,0,P|317:254|335:292,1,63.7500024318696
318,155,126808,2,8,P|351:167|381:196,1,63.7500024318696
290,232,126981,2,0,P|317:254|335:292,1,63.7500024318696
221,285,127153,6,0,B|155:329|155:329|212:244|165:119,1,255.000009727478
171,114,127412,6,0,P|223:82|170:142,1,255.000009727478
216,129,127670,5,0,0:0:0:0:
265,19,127843,6,0,P|330:82|330:167,1,127.500004863739
290,232,128015,2,0,P|266:185|273:135,1,63.7500024318696
398,177,128187,5,0,0:0:0:0:
398,177,128274,1,0,0:0:0:0:
398,177,128360,1,0,0:0:0:0:
348,368,128532,6,0,L|358:298,1,63.7500024318696
357,304,128618,6,0,L|347:234,1,63.7500024318696
347,240,128705,6,0,L|357:170,1,63.7500024318696
356,176,128791,6,0,L|346:106,1,63.7500024318696
220,166,128877,5,0,0:0:0:0:
356,176,129049,1,0,0:0:0:0:
356,176,129222,1,0,0:0:0:0:
192,273,129394,5,0,0:0:0:0:
356,176,129567,1,0,0:0:0:0:
356,176,129740,1,0,0:0:0:0:
155,179,129912,5,0,0:0:0:0:
356,176,130084,1,0,0:0:0:0:
258,351,130256,5,0,0:0:0:0:
299,232,130429,1,0,0:0:0:0:
176,256,130601,1,0,0:0:0:0:
339,316,130774,5,0,0:0:0:0:
258,151,130947,1,0,0:0:0:0:
156,302,131119,1,0,0:0:0:0:
299,232,131291,5,0,0:0:0:0:
71,253,131463,1,0,0:0:0:0:
164,44,131636,5,0,0:0:0:0:
258,151,131808,2,0,P|272:189|267:229,2,63.7500024318696
398,124,132153,5,0,0:0:0:0:
398,124,132239,1,0,0:0:0:0:
398,124,132325,1,0,0:0:0:0:
271,211,132498,2,0,P|270:180|258:151,2,63.7500024318696
166,204,132843,1,0,0:0:0:0:
166,204,132929,1,0,0:0:0:0:
166,204,133015,5,0,0:0:0:0:
273,212,133187,1,0,0:0:0:0:
212,300,133360,1,0,0:0:0:0:
227,115,133532,5,0,0:0:0:0:
379,220,133705,1,0,0:0:0:0:
212,300,133877,5,0,0:0:0:0:
216,254,133963,1,0,0:0:0:0:
245,214,134049,1,0,0:0:0:0:
291,199,134136,1,0,0:0:0:0:
338,200,134222,1,0,0:0:0:0:
379,220,134308,1,0,0:0:0:0:
404,263,134394,5,0,0:0:0:0:
256,192,153705,12,0,156463,0:0:0:0:
167,46,157843,6,0,P|127:113|252:179,1,244.375004661083
209,115,158360,6,0,B|260:120|295:98|295:98|300:164|344:205|344:205|317:224|312:266,1,244.375004661083
397,278,158877,6,0,B|320:338|249:276|249:276|217:247|168:263|168:263|144:200|84:202|37:272|113:313|113:313|132:329|135:353,1,484.499985214234
212,347,160601,6,0,P|266:263|410:293,1,244.375004661083
315,337,161118,6,0,B|286:283|286:283|302:243|295:213|295:213|246:167|244:108|244:108,1,244.375004661083
311,73,161636,6,0,B|278:27|221:15|221:15|136:75|164:166|164:166|212:210|211:257|171:299|131:308|82:280|70:236|88:197,1,552.499974708558
311,73,163705,6,0,P|301:128|276:160,1,85
383,158,164049,2,0,P|350:203|314:222,1,85
424,268,164394,1,0,0:0:0:0:
424,268,164567,6,0,B|358:312|289:283|289:283|251:324|221:318|221:318|186:256|106:268|106:268|75:302|6:279|-3:231|16:183|68:162|111:198,1,595
111,198,166118,6,0,B|184:196|206:118|206:118|211:177|261:199,1,212.5
283,124,166636,6,0,B|354:134|380:197|380:197|324:252|226:264|226:264|294:277|306:339|306:339,1,382.5
370,300,167498,1,0,0:0:0:0:
370,300,168877,6,0,P|424:235|333:262,1,212.5
377,253,169394,6,0,B|334:248|312:272|312:272|274:262|244:289|244:289|193:275|157:317|157:317,1,212.5
225,364,169912,6,0,P|115:380|312:199,1,807.5
233,183,171636,6,0,P|273:234|366:133,1,212.5
304,166,172153,6,0,L|320:381,1,212.5
392,268,172670,6,0,B|371:69|371:69|318:98|264:74|264:74|252:118|206:133|206:133|219:191|177:223|177:223|108:273|102:354|102:354|164:313|231:371,1,765
206,353,174739,6,0,P|196:289|180:263,1,85
274,262,175084,2,8,P|237:208|212:191,1,85
310,157,175429,1,0,0:0:0:0:
310,157,175601,2,8,P|254:123|224:119,1,85
141,98,175946,6,0,P|109:90|86:94,13,42.5
106,168,177153,5,0,0:0:0:0:
95,186,177239,1,0,0:0:0:0:
86,205,177325,1,0,0:0:0:0:
79,230,177412,1,0,0:0:0:0:
80,263,177498,1,0,0:0:0:0:
95,300,177584,1,0,0:0:0:0:
129,327,177670,1,0,0:0:0:0:
172,342,177756,1,0,0:0:0:0:
216,340,177843,5,0,0:0:0:0:
256,313,177929,1,0,0:0:0:0:
284,271,178015,1,0,0:0:0:0:
293,220,178101,1,0,0:0:0:0:
287,168,178187,1,0,0:0:0:0:
260,119,178274,1,0,0:0:0:0:
218,83,178360,1,0,0:0:0:0:
158,62,178446,1,0,0:0:0:0:
89,86,178532,5,0,0:0:0:0:
89,86,178877,1,0,0:0:0:0:
89,86,179222,1,0,0:0:0:0:
89,86,179567,1,0,0:0:0:0:
89,86,179912,2,0,P|53:142|142:122,1,195.500003728867
351,96,181291,6,0,L|327:151,1,48.8750009322167
351,96,181636,1,0,0:0:0:0:
351,96,181981,1,0,0:0:0:0:
351,96,182325,1,0,0:0:0:0:
351,96,182670,2,0,B|331:145|281:163|281:163|338:185|344:246,1,195.500003728867
178,337,184049,6,0,L|184:281,1,48.8750009322167
178,337,184394,1,0,0:0:0:0:
178,337,184739,1,0,0:0:0:0:
178,337,185084,1,0,0:0:0:0:
178,337,185429,2,0,B|237:318|237:318|176:278|185:204|215:167,1,195.500003728867
308,339,187153,6,0,L|292:276,1,48.8750009322167
308,339,187498,1,0,0:0:0:0:
308,339,187843,1,0,0:0:0:0:
308,339,188187,1,0,0:0:0:0:
308,339,188532,1,0,0:0:0:0:
308,339,188705,2,0,L|292:276,2,48.8750009322167
392,291,189049,1,0,0:0:0:0:
393,195,189222,6,0,L|325:216,1,48.8750009322167
350,112,189394,2,0,L|418:91,1,48.8750009322167
393,195,189567,5,0,0:0:0:0:
393,195,189912,5,0,0:0:0:0:
393,195,190256,5,0,0:0:0:0:
393,195,190601,5,0,0:0:0:0:
393,195,190946,5,0,0:0:0:0:
393,195,191291,5,0,0:0:0:0:
393,195,191636,5,0,0:0:0:0:
393,195,191981,5,0,0:0:0:0:
161,71,192325,5,0,0:0:0:0:
161,71,192670,5,0,0:0:0:0:
161,71,193015,5,0,0:0:0:0:
161,71,193360,5,0,0:0:0:0:
161,71,193705,5,0,0:0:0:0:
161,71,194050,5,0,0:0:0:0:
161,71,194394,5,0,0:0:0:0:
161,71,194739,5,0,0:0:0:0:
179,326,195084,5,0,0:0:0:0:
179,326,195429,5,0,0:0:0:0:
179,326,195774,5,0,0:0:0:0:
179,326,196119,5,0,0:0:0:0:
179,326,196463,5,0,0:0:0:0:
179,326,196808,5,0,0:0:0:0:
179,326,197153,5,0,0:0:0:0:
179,326,197498,5,0,0:0:0:0:
317,34,197843,5,0,0:0:0:0:
317,34,198187,5,0,0:0:0:0:
317,34,198532,5,0,0:0:0:0:
317,34,198876,5,0,0:0:0:0:
317,34,199222,5,0,0:0:0:0:
317,34,199566,5,0,0:0:0:0:
317,34,199739,6,0,L|259:64,2,48.8750009322167
317,34,200084,1,0,0:0:0:0:
283,146,200256,6,0,L|326:123,1,48.8750009322167
317,34,200429,2,0,L|274:57,1,48.8750009322167
411,86,200601,6,0,P|418:149|375:194,1,97.7500018644333
439,282,200946,2,0,P|376:289|331:246,1,97.7500018644333
243,310,201291,2,8,P|236:247|279:202,1,97.7500018644333
215,114,201636,2,8,P|278:107|323:150,1,97.7500018644333
411,86,201981,6,0,B|421:140|421:140|396:217,1,97.7500018644333
439,282,202325,2,0,B|385:292|385:292|308:267,1,97.7500018644333
243,310,202670,2,0,B|233:256|233:256|258:179,1,97.7500018644333
215,114,203015,2,0,B|269:104|269:104|346:129,1,97.7500018644333
411,86,203360,5,0,0:0:0:0:
439,282,203532,1,0,0:0:0:0:
301,111,203705,5,0,0:0:0:0:
362,299,203877,1,0,0:0:0:0:
202,162,204049,5,0,0:0:0:0:
294,336,204221,1,0,0:0:0:0:
114,227,204394,5,0,0:0:0:0:
234,382,204566,1,0,0:0:0:0:
202,162,204739,5,0,0:0:0:0:
234,382,204912,1,0,0:0:0:0:
114,227,205084,5,0,0:0:0:0:
294,336,205256,1,0,0:0:0:0:
301,111,205429,5,0,0:0:0:0:
439,282,205601,1,0,0:0:0:0:
411,86,205774,5,0,0:0:0:0:
362,299,205946,1,0,0:0:0:0:
411,86,206118,5,0,0:0:0:0:
376,74,206205,1,0,0:0:0:0:
348,71,206291,1,0,0:0:0:0:
321,84,206377,1,0,0:0:0:0:
345,113,206463,5,0,0:0:0:0:
358,148,206549,1,0,0:0:0:0:
363,186,206636,1,0,0:0:0:0:
354,225,206722,1,0,0:0:0:0:
321,203,206808,5,0,0:0:0:0:
281,192,206894,1,0,0:0:0:0:
238,188,206981,1,0,0:0:0:0:
196,194,207067,1,0,0:0:0:0:
221,223,207153,5,0,0:0:0:0:
235,266,207239,1,0,0:0:0:0:
237,312,207325,1,0,0:0:0:0:
221,353,207412,1,0,0:0:0:0:
155,307,207498,6,0,P|124:278|117:243,1,48.8750009322167
77,137,207670,2,0,P|108:166|115:201,1,48.8750009322167
137,316,207843,6,0,P|108:278|108:239,1,48.8750009322167
84,116,208015,2,0,P|112:153|112:192,1,48.8750009322167
114,324,208187,6,0,P|90:278|97:235,1,48.8750009322167,0|0,2:0|2:0,2:0:0:0:
94,97,208359,2,0,P|117:142|110:185,1,48.8750009322167,0|0,2:0|2:0,2:0:0:0:
86,331,208532,6,0,P|69:276|79:242,1,48.8750009322167,0|0,2:0|2:0,2:0:0:0:
107,80,208704,2,0,P|123:134|113:168,1,48.8750009322167,0|0,2:0|2:0,2:0:0:0:
58,338,208877,5,0,0:0:0:0:
46,297,208963,1,0,0:0:0:0:
46,251,209049,1,0,0:0:0:0:
61,208,209136,1,0,0:0:0:0:
91,245,209222,5,0,0:0:0:0:
133,269,209308,1,0,0:0:0:0:
179,276,209394,1,0,0:0:0:0:
225,271,209481,1,0,0:0:0:0:
197,233,209567,5,0,0:0:0:0:
187,181,209653,1,0,0:0:0:0:
194,129,209739,1,0,0:0:0:0:
216,81,209825,1,0,0:0:0:0:
240,137,209912,5,0,0:0:0:0:
289,183,209998,1,0,0:0:0:0:
353,207,210084,1,0,0:0:0:0:
419,197,210170,1,0,0:0:0:0:
467,149,210256,6,0,P|426:110|444:192,1,195.500003728867
289,183,210774,5,0,0:0:0:0:
279,167,210860,1,0,0:0:0:0:
271,184,210946,1,0,0:0:0:0:
467,149,211118,5,0,0:0:0:0:
408,321,211205,1,0,0:0:0:0:
289,183,211291,1,0,0:0:0:0:
408,321,211636,6,0,P|462:304|384:267,1,191.250007295609
316,300,211981,2,0,P|313:332|321:359,1,59.4999981842042
248,254,212153,2,0,P|231:281|227:309,1,59.4999981842042
207,179,212325,2,0,P|180:197|165:220,1,59.4999981842042
248,254,212498,5,0,0:0:0:0:
248,254,212584,1,0,0:0:0:0:
248,254,212670,2,0,P|231:284|231:331,1,59.4999981842042
310,187,212843,2,0,P|327:157|327:110,1,59.4999981842042
413,190,213015,5,0,0:0:0:0:
413,190,213187,6,0,P|414:147|404:128,1,59.4999981842042
358,40,213360,2,0,P|330:52|311:74,1,59.4999981842042
256,162,213532,2,0,P|280:180|309:186,1,59.4999981842042
413,190,213705,5,0,0:0:0:0:
394,149,213791,1,0,0:0:0:0:
361,119,213877,1,0,0:0:0:0:
318,101,213963,1,0,0:0:0:0:
271,100,214049,6,0,P|225:116|211:162,1,59.4999981842042
204,243,214222,2,0,P|250:227|264:181,1,59.4999981842042
271,100,214394,5,0,0:0:0:0:
271,100,214567,6,0,L|252:169,1,59.4999981842042
335,274,214739,2,0,L|284:223,1,59.4999981842042
152,242,214912,2,0,L|221:223,1,59.4999981842042
271,100,215084,5,0,0:0:0:0:
281,147,215170,1,0,0:0:0:0:
265,192,215256,1,0,0:0:0:0:
281,235,215343,1,0,0:0:0:0:
261,275,215429,6,0,B|254:310|254:310|269:358,1,59.4999981842042
400,307,215601,2,0,P|362:300|340:304,1,59.4999981842042
367,383,215774,5,0,0:0:0:0:
355,335,215860,1,0,0:0:0:0:
356,285,215946,1,0,0:0:0:0:
372,239,216032,1,0,0:0:0:0:
403,202,216118,6,0,P|441:181|470:184,1,59.4999981842042
339,111,216291,2,0,P|301:132|272:129,1,59.4999981842042
291,53,216463,5,0,0:0:0:0:
303,101,216549,1,0,0:0:0:0:
302,151,216635,1,0,0:0:0:0:
286,197,216721,1,0,0:0:0:0:
252,229,216808,6,0,P|214:250|185:247,1,59.4999981842042
131,186,216981,2,0,P|154:168|184:164,1,59.4999981842042
156,306,217153,5,0,0:0:0:0:
156,306,217325,1,0,0:0:0:0:
156,306,217498,6,0,P|143:282|106:272,1,59.4999981842042
156,306,217670,2,0,P|180:293|190:256,1,59.4999981842042
156,306,217843,2,0,P|169:330|206:340,1,59.4999981842042
156,306,218015,2,0,P|132:319|122:356,1,59.4999981842042
283,288,218187,5,0,0:0:0:0:
267,125,218360,6,0,P|290:154|271:202,1,59.4999981842042
283,288,218532,1,0,0:0:0:0:
446,272,218705,6,0,P|417:295|369:276,1,59.4999981842042
283,288,218877,1,0,0:0:0:0:
120,304,219049,6,0,P|149:281|197:300,1,59.4999981842042
283,288,219221,1,0,0:0:0:0:
283,288,219394,5,0,0:0:0:0:
283,288,219481,1,0,0:0:0:0:
283,288,219567,2,0,B|276:221|306:163|306:163|270:207|175:232,1,216.750004134178
231,126,219912,6,0,P|243:88|267:63,1,59.4999981842042
147,158,220084,2,0,P|145:118|159:86,1,59.4999981842042
79,210,220256,2,0,P|63:173|66:138,1,59.4999981842042
147,158,220429,5,0,0:0:0:0:
177,191,220515,1,0,0:0:0:0:
199,230,220601,1,0,0:0:0:0:
202,275,220687,1,0,0:0:0:0:
190,317,220774,1,0,0:0:0:0:
324,328,220946,5,0,0:0:0:0:
285,308,221032,1,0,0:0:0:0:
243,299,221118,2,0,P|215:299|184:325,1,59.4999981842042
324,328,221291,6,0,P|348:294|349:267,1,59.4999981842042
379,196,221463,2,0,P|345:172|318:171,1,59.4999981842042
247,141,221636,2,0,P|223:175|222:202,1,59.4999981842042
192,273,221808,2,0,P|226:297|253:298,1,59.4999981842042
324,328,221981,5,0,0:0:0:0:
324,328,222067,1,0,0:0:0:0:
324,328,222153,2,0,P|348:294|349:267,1,59.4999981842042
379,196,222325,5,0,0:0:0:0:
324,144,222412,1,0,0:0:0:0:
247,141,222498,1,0,0:0:0:0:
188,187,222584,1,0,0:0:0:0:
183,261,222670,1,0,0:0:0:0:
183,261,222843,6,0,P|151:284|109:287,1,59.4999981842042
188,187,223015,2,0,P|149:194|109:179,1,59.4999981842042
212,116,223187,2,0,P|173:106|144:76,1,59.4999981842042
265,61,223360,5,0,0:0:0:0:
309,39,223446,1,0,0:0:0:0:
356,35,223532,1,0,0:0:0:0:
401,49,223618,1,0,0:0:0:0:
436,79,223705,6,0,P|456:111|443:167,1,59.4999981842042
397,226,223877,2,0,P|377:194|390:138,1,59.4999981842042
289,118,224049,1,0,0:0:0:0:
289,118,224222,6,0,L|225:166,1,59.4999981842042
164,215,224394,2,0,L|237:246,1,59.4999981842042
311,274,224567,2,0,L|301:194,1,59.4999981842042
289,118,224739,5,0,0:0:0:0:
295,159,224825,1,0,0:0:0:0:
299,201,224912,1,0,0:0:0:0:
307,245,224998,1,0,0:0:0:0:
313,286,225084,6,0,L|324:358,1,59.4999981842042
172,273,225256,2,0,L|161:201,1,59.4999981842042
253,157,225429,6,0,P|283:176|311:179,1,51
446,149,225774,6,0,P|416:130|387:127,1,59.4999981842042
425,252,225946,2,0,P|403:223|377:211,1,59.4999981842042
357,322,226118,5,0,0:0:0:0:
336,282,226205,1,0,0:0:0:0:
300,256,226291,1,0,0:0:0:0:
258,244,226377,1,0,0:0:0:0:
211,248,226463,6,0,P|169:262|152:292,1,59.4999981842042
128,384,226636,2,0,P|170:370|187:340,1,59.4999981842042
211,248,226808,5,0,0:0:0:0:
235,199,226895,1,0,0:0:0:0:
279,168,226981,1,0,0:0:0:0:
329,154,227067,1,0,0:0:0:0:
382,154,227153,6,0,P|432:170|452:206,1,59.4999981842042
433,42,227325,2,0,P|391:28|374:-2,1,59.4999981842042
382,154,227498,5,0,0:0:0:0:
351,95,227585,1,0,0:0:0:0:
299,58,227671,1,0,0:0:0:0:
238,40,227757,1,0,0:0:0:0:
176,40,227843,6,0,P|115:60|91:103,1,59.4999981842042
47,194,228015,2,0,P|107:173|131:130,1,59.4999981842042
176,40,228187,6,0,L|176:140,1,85
299,58,228360,1,0,0:0:0:0:
299,58,228446,1,0,0:0:0:0:
299,58,228532,2,0,P|293:88|323:69,1,85
443,85,228705,6,0,B|425:135|423:142|415:142|415:142|421:146|420:151|410:182|408:188|414:192|414:192|406:193|404:201|381:256,1,170
469,276,229049,6,0,P|370:361|356:121,1,510
356,232,229739,5,0,0:0:0:0:
356,232,229825,1,0,0:0:0:0:
356,232,229912,2,0,P|344:273|369:251,1,85
329,120,230084,6,0,P|266:158|233:257,1,170
300,15,230429,6,0,B|215:44|215:44|160:99|103:95|103:95|188:149|155:244|155:244|126:310|138:363,1,510
230,317,231291,6,0,L|296:299,1,48.8750009322167
435,261,231464,2,0,L|369:279,1,48.8750009322167
223,337,231636,6,0,L|288:306,1,48.8750009322167
426,241,231809,2,0,L|360:271,1,48.8750009322167
218,359,231981,6,0,L|281:313,1,48.8750009322167
416,218,232154,2,0,L|352:263,1,48.8750009322167
217,381,232325,5,0,0:0:0:0:
218,359,232412,1,0,0:0:0:0:
219,324,232498,1,0,0:0:0:0:
221,278,232584,1,0,0:0:0:0:
224,228,232670,1,0,0:0:0:0:
226,175,232756,1,0,0:0:0:0:
229,117,232843,1,0,0:0:0:0:
233,55,232929,1,0,0:0:0:0:
310,93,233015,6,0,B|322:150|322:150|347:92|394:73|435:87|469:115|476:142|488:181|457:214|434:244|370:240,1,391.000007457733
394,164,234049,6,0,B|311:192|317:258|317:258|253:126|114:251|114:251,1,286.875010943413
231,274,234394,2,0,P|188:297|172:328,1,53.125
253,353,234567,1,0,0:0:0:0:
231,274,234739,5,0,0:0:0:0:
244,233,234825,1,0,0:0:0:0:
277,207,234912,1,0,0:0:0:0:
319,201,234998,1,0,0:0:0:0:
363,208,235084,6,0,P|401:238|406:279,1,53.125
372,133,235256,2,0,P|417:148|436:185,1,53.125
361,61,235429,5,0,0:0:0:0:
321,44,235515,1,0,0:0:0:0:
276,42,235601,1,0,0:0:0:0:
233,59,235687,1,0,0:0:0:0:
207,96,235774,1,0,0:0:0:0:
202,140,235860,1,0,0:0:0:0:
215,182,235946,1,0,0:0:0:0:
299,128,236118,6,0,P|307:215|114:154,1,340
115,211,236463,2,0,P|92:162|38:249,1,212.5
110,308,236981,5,0,0:0:0:0:
156,297,237067,1,0,0:0:0:0:
202,310,237153,1,0,0:0:0:0:
246,294,237239,1,0,0:0:0:0:
289,315,237325,1,0,0:0:0:0:
332,294,237498,5,0,0:0:0:0:
354,253,237584,1,0,0:0:0:0:
356,204,237670,1,0,0:0:0:0:
336,160,237756,1,0,0:0:0:0:
318,128,237843,2,0,P|207:80|174:191,1,265.625
