osu file format v14

[General]
AudioFilename: audio.mp3
AudioLeadIn: 0
PreviewTime: 89929
Countdown: 0
SampleSet: Soft
StackLeniency: 0.7
Mode: 3
LetterboxInBreaks: 0
SpecialStyle: 0
WidescreenStoryboard: 0

[Editor]
DistanceSpacing: 1
BeatDivisor: 4
GridSize: 32
TimelineZoom: 3.299999

[Metadata]
Title:d:for the DELTA
TitleUnicode:σ:for the DELTA
Artist:Camellia
ArtistUnicode:かめりあ
Creator:- Jeremayer -
Version:Astrology
Source:
Tags:drum and bass dnb dubstep drumstep electronic 4k planet//shaper planet shaper
BeatmapID:1074228
BeatmapSetID:504948

[Difficulty]
HPDrainRate:9
CircleSize:4
OverallDifficulty:8
ApproachRate:5
SliderMultiplier:1.4
SliderTickRate:1

[Events]
//Background and Video events
0,0,"BG.jpg",0,0
//Break Periods
//Storyboard Layer 0 (Background)
//Storyboard Layer 1 (Fail)
//Storyboard Layer 2 (Pass)
//Storyboard Layer 3 (Foreground)
//Storyboard Sound Samples

[TimingPoints]
1998,344.827586206897,4,2,1,25,1,0
67860,-10,4,2,1,25,0,0
67881,-10000,4,2,1,25,0,0
68118,-66.6666666666667,4,2,1,25,0,0
68204,-100,4,2,1,25,0,0
81998,-10000,4,2,1,25,0,0
82041,-47.6190476190476,4,2,1,25,0,0
82084,-10000,4,2,1,25,0,0
82127,-47.6190476190476,4,2,1,25,0,0
82170,-10000,4,2,1,25,0,0
82213,-47.6190476190476,4,2,1,25,0,0
82256,-10000,4,2,1,25,0,0
82299,-47.6190476190476,4,2,1,25,0,0
82342,-100,4,2,1,25,0,0
87515,-117.647058823529,4,2,1,25,0,0
87773,-116.279069767442,4,2,1,25,0,0
88032,-114.942528735632,4,2,1,25,0,0
88204,-113.636363636364,4,2,1,25,0,0
88377,-112.359550561798,4,2,1,25,0,0
88549,-111.111111111111,4,2,1,25,0,0
88722,-108.695652173913,4,2,1,25,0,0
88894,-105.263157894737,4,2,1,25,0,0
89066,-103.092783505155,4,2,1,25,0,0
89239,-100,4,2,1,25,0,0
89325,-97.0873786407767,4,2,1,25,0,0
89411,-94.3396226415094,4,2,1,25,0,0
89498,-90.9090909090909,4,2,1,25,0,0
89584,-88.4955752212389,4,2,1,25,0,0
89670,-86.2068965517241,4,2,1,25,0,0
89756,-83.3333333333333,4,2,1,25,0,0
89842,-86.9565217391304,4,2,1,25,0,0
89929,-93.4579439252336,4,2,1,25,0,0
90015,-96.1538461538461,4,2,1,25,0,0
90101,-98.0392156862745,4,2,1,25,0,0
90187,-100,4,2,1,25,0,1
111998,-10,4,2,1,25,0,0
112019,-10000,4,2,1,25,0,0
112256,-66.6666666666667,4,2,1,25,0,0
112299,-66.6666666666667,4,2,1,25,0,0
112342,-100,4,2,1,25,0,0
116480,-10,4,2,1,25,0,0
116502,-10000,4,2,1,25,0,0
116631,-66.6666666666667,4,2,1,25,0,0
116653,-100,4,2,1,25,0,0
116825,-100,4,2,1,25,0,0
122170,-500,4,2,1,25,0,0
122256,-50,4,2,1,25,0,0
122342,-125,4,2,1,25,0,0
122515,-100,4,2,1,25,0,0
126135,-500,4,2,1,25,0,0
126286,-14.2857142857143,4,2,1,25,0,0
126308,-500,4,2,1,25,0,0
126394,-58.8235294117647,4,2,1,25,0,0
126480,-100,4,2,1,25,0,0
127429,-133.333333333333,4,2,1,25,0,0
127601,-100,4,2,1,25,0,0
127687,-100,4,2,1,25,0,0
133032,-10,4,2,1,25,0,0
133054,-400,4,2,1,25,0,0
133204,-285.714285714286,4,2,1,25,0,0
133377,-222.222222222223,4,2,1,25,0,0
133549,-153.846153846154,4,2,1,25,0,0
133722,-133.333333333334,4,2,1,25,0,0
133894,-117.647058823529,4,2,1,25,0,0
134066,-111.111111111111,4,2,1,25,0,0
134239,-105.263157894737,4,2,1,25,0,0
134411,-100,4,2,1,25,0,0
156135,-10000,4,2,1,25,0,0
156179,-500,4,2,1,25,0,0
156222,-250,4,2,1,25,0,0
156265,-166.666666666667,4,2,1,25,0,0
156308,-125,4,2,1,25,0,0
156351,-100,4,2,1,25,0,0
156394,-83.3333333333334,4,2,1,25,0,0
156437,-71.4285714285714,4,2,1,25,0,0
156480,-166.666666666667,4,2,1,25,0,0
157773,-100,4,2,1,25,0,0
157860,-166.666666666667,4,2,1,25,0,0
158291,-100,4,2,1,25,0,0
158377,-166.666666666667,4,2,1,25,0,0
158808,-100,4,2,1,25,0,0
158894,-166.666666666667,4,2,1,25,0,0
160532,-100,4,2,1,25,0,0
160618,-166.666666666667,4,2,1,25,0,0
161049,-100,4,2,1,25,0,0
161135,-166.666666666667,4,2,1,25,0,0
161566,-100,4,2,1,25,0,0
161653,-166.666666666667,4,2,1,25,0,0
163377,-100,4,2,1,25,0,0
166653,-166.666666666667,4,2,1,25,0,0
167429,-100,4,2,1,25,0,0
167515,-166.666666666667,4,2,1,25,0,0
168808,-100,4,2,1,25,0,0
168894,-166.666666666667,4,2,1,25,0,0
169325,-100,4,2,1,25,0,0
169411,-166.666666666667,4,2,1,25,0,0
169842,-100,4,2,1,25,0,0
169929,-166.666666666667,4,2,1,25,0,0
171566,-100,4,2,1,25,0,0
171653,-166.666666666667,4,2,1,25,0,0
172084,-100,4,2,1,25,0,0
172170,-166.666666666667,4,2,1,25,0,0
172601,-100,4,2,1,25,0,0
172687,-166.666666666667,4,2,1,25,0,0
174411,-100,4,2,1,25,0,0
211308,-10,4,2,1,25,0,0
211329,-10000,4,2,1,25,0,0
211566,-50,4,2,1,25,0,0
211653,-100,4,2,1,25,0,0
225446,-10000,4,2,1,25,0,0
225489,-66.6666666666667,4,2,1,25,0,0
225532,-10000,4,2,1,25,0,0
225575,-47.6190476190476,4,2,1,25,0,0
225618,-10000,4,2,1,25,0,0
225661,-47.6190476190476,4,2,1,25,0,0
225704,-10000,4,2,1,25,0,0
225748,-47.6190476190476,4,2,1,25,0,0
225791,-100,4,2,1,25,0,0
230963,-133.333333333334,4,2,1,25,0,0
231135,-125,4,2,1,25,0,0
231308,-117.64705882353,4,2,1,25,0,0
231480,-111.111111111111,4,2,1,25,0,0
231653,-108.695652173913,4,2,1,25,0,0
231825,-106.382978723404,4,2,1,25,0,0
231998,-104.166666666667,4,2,1,25,0,0
232170,-102.040816326531,4,2,1,25,0,0
232342,-100,4,2,1,25,0,0
233032,-133.333333333333,4,2,1,25,0,0
233635,-100,4,2,1,25,0,0
233722,-10,4,2,1,25,0,0
233808,-10000,4,2,1,25,0,0
233980,-66.6666666666667,4,2,1,25,0,0
234066,-100,4,2,1,25,0,1
254411,-100,4,2,1,25,0,0
277860,-100,4,2,1,25,0,0

[HitObjects]
192,192,1998,5,0,0:0:0:0:
64,192,1998,128,0,2041:0:0:0:0:
320,192,2170,1,0,0:0:0:0:
448,192,2342,1,0,0:0:0:0:
64,192,2515,1,0,0:0:0:0:
320,192,2515,128,0,2558:0:0:0:0:
192,192,2687,1,0,0:0:0:0:
320,192,2860,1,0,0:0:0:0:
320,192,3032,1,0,0:0:0:0:
192,192,3204,1,0,0:0:0:0:
64,192,3377,1,0,0:0:0:0:
448,192,3377,128,0,3420:0:0:0:0:
192,192,3549,1,0,0:0:0:0:
320,192,3722,1,0,0:0:0:0:
192,192,3894,1,0,0:0:0:0:
448,192,3894,128,0,3937:0:0:0:0:
320,192,4066,1,0,0:0:0:0:
448,192,4239,1,0,0:0:0:0:
448,192,4411,1,0,0:0:0:0:
320,192,4584,1,0,0:0:0:0:
64,192,4756,1,0,0:0:0:0:
448,192,4756,128,0,4799:0:0:0:0:
192,192,4929,1,0,0:0:0:0:
320,192,5101,1,0,0:0:0:0:
64,192,5273,1,0,0:0:0:0:
192,192,5273,128,0,5316:0:0:0:0:
448,192,5446,1,0,0:0:0:0:
192,192,5618,1,0,0:0:0:0:
192,192,5791,1,0,0:0:0:0:
320,192,5963,1,0,0:0:0:0:
64,192,6135,1,0,0:0:0:0:
448,192,6135,128,0,6179:0:0:0:0:
192,192,6308,1,0,0:0:0:0:
320,192,6480,1,0,0:0:0:0:
64,192,6653,1,0,0:0:0:0:
192,192,6653,128,0,6696:0:0:0:0:
448,192,6825,1,0,0:0:0:0:
320,192,6998,1,0,0:0:0:0:
192,192,7170,1,0,0:0:0:0:
64,192,7342,1,0,0:0:0:0:
320,192,7515,128,0,7946:0:0:0:0:
192,192,7515,1,0,0:0:0:0:
448,192,7687,1,0,0:0:0:0:
64,192,7860,1,0,0:0:0:0:
320,192,8032,128,0,8808:0:0:0:0:
448,192,8032,1,0,0:0:0:0:
64,192,8204,1,0,0:0:0:0:
192,192,8377,1,0,0:0:0:0:
192,192,8549,1,0,0:0:0:0:
64,192,8722,1,0,0:0:0:0:
320,192,8894,128,0,9325:0:0:0:0:
192,192,8894,1,0,0:0:0:0:
64,192,9066,1,0,0:0:0:0:
448,192,9239,1,0,0:0:0:0:
320,192,9411,128,0,10187:0:0:0:0:
64,192,9411,1,0,0:0:0:0:
192,192,9584,1,0,0:0:0:0:
448,192,9756,1,0,0:0:0:0:
448,192,9929,1,0,0:0:0:0:
192,192,10101,1,0,0:0:0:0:
64,192,10273,128,0,10704:0:0:0:0:
448,192,10273,1,0,0:0:0:0:
192,192,10446,1,0,0:0:0:0:
320,192,10618,1,0,0:0:0:0:
64,192,10791,128,0,11566:0:0:0:0:
192,192,10791,1,0,0:0:0:0:
192,192,10963,1,0,0:0:0:0:
320,192,11135,1,0,0:0:0:0:
320,192,11308,1,0,0:0:0:0:
192,192,11480,1,0,0:0:0:0:
64,192,11653,128,0,12084:0:0:0:0:
448,192,11653,1,0,0:0:0:0:
320,192,11825,1,0,0:0:0:0:
448,192,11998,1,0,0:0:0:0:
192,192,12170,128,0,12946:0:0:0:0:
320,192,12170,1,0,0:0:0:0:
448,192,12342,1,0,0:0:0:0:
448,192,12515,1,0,0:0:0:0:
320,192,12687,1,0,0:0:0:0:
64,192,12860,1,0,0:0:0:0:
64,192,13032,1,0,0:0:0:0:
448,192,13032,128,0,13075:0:0:0:0:
192,192,13204,1,0,0:0:0:0:
448,192,13377,1,0,0:0:0:0:
64,192,13549,1,0,0:0:0:0:
320,192,13549,128,0,13592:0:0:0:0:
192,192,13722,1,0,0:0:0:0:
320,192,13894,1,0,0:0:0:0:
320,192,14066,1,0,0:0:0:0:
192,192,14239,1,0,0:0:0:0:
192,192,14411,1,0,0:0:0:0:
64,192,14411,128,0,14454:0:0:0:0:
320,192,14584,1,0,0:0:0:0:
448,192,14756,1,0,0:0:0:0:
320,192,14929,1,0,0:0:0:0:
64,192,14929,128,0,14972:0:0:0:0:
192,192,15101,1,0,0:0:0:0:
448,192,15273,1,0,0:0:0:0:
448,192,15446,1,0,0:0:0:0:
320,192,15618,1,0,0:0:0:0:
64,192,15791,1,0,0:0:0:0:
448,192,15791,128,0,15834:0:0:0:0:
192,192,15963,1,0,0:0:0:0:
448,192,16135,1,0,0:0:0:0:
192,192,16308,1,0,0:0:0:0:
320,192,16308,128,0,16351:0:0:0:0:
64,192,16480,1,0,0:0:0:0:
320,192,16653,1,0,0:0:0:0:
320,192,16825,1,0,0:0:0:0:
192,192,16998,1,0,0:0:0:0:
64,192,17170,1,0,0:0:0:0:
320,192,17170,128,0,17213:0:0:0:0:
192,192,17342,1,0,0:0:0:0:
448,192,17515,1,0,0:0:0:0:
64,192,17687,1,0,0:0:0:0:
192,192,17687,128,0,17730:0:0:0:0:
448,192,17860,1,0,0:0:0:0:
320,192,18032,1,0,0:0:0:0:
192,192,18204,1,0,0:0:0:0:
64,192,18377,1,0,0:0:0:0:
64,192,18549,128,0,23980:0:0:0:0:
192,192,18549,1,0,0:0:0:0:
320,192,18722,1,0,0:0:0:0:
448,192,18894,1,0,0:0:0:0:
320,192,19066,1,0,0:0:0:0:
192,192,19066,128,0,19110:0:0:0:0:
192,192,19239,1,0,0:0:0:0:
320,192,19411,1,0,0:0:0:0:
320,192,19584,1,0,0:0:0:0:
192,192,19756,1,0,0:0:0:0:
320,192,19929,1,0,0:0:0:0:
448,192,19929,128,0,19972:0:0:0:0:
192,192,20101,1,0,0:0:0:0:
448,192,20273,1,0,0:0:0:0:
192,192,20446,1,0,0:0:0:0:
320,192,20446,128,0,20489:0:0:0:0:
192,192,20618,1,0,0:0:0:0:
320,192,20791,1,0,0:0:0:0:
448,192,20963,1,0,0:0:0:0:
448,192,21135,1,0,0:0:0:0:
320,192,21308,128,0,21351:0:0:0:0:
192,192,21308,1,0,0:0:0:0:
320,192,21480,1,0,0:0:0:0:
448,192,21653,1,0,0:0:0:0:
320,192,21825,1,0,0:0:0:0:
192,192,21825,128,0,21868:0:0:0:0:
192,192,21998,1,0,0:0:0:0:
448,192,22170,1,0,0:0:0:0:
192,192,22342,1,0,0:0:0:0:
448,192,22515,1,0,0:0:0:0:
192,192,22687,128,0,23980:0:0:0:0:
320,192,22687,1,0,0:0:0:0:
320,192,22860,1,0,0:0:0:0:
448,192,23032,1,0,0:0:0:0:
320,192,23204,1,0,0:0:0:0:
448,192,23377,1,0,0:0:0:0:
320,192,23549,1,0,0:0:0:0:
448,192,23722,1,0,0:0:0:0:
320,192,23894,1,0,0:0:0:0:
320,192,24066,1,0,0:0:0:0:
448,192,24066,1,0,0:0:0:0:
64,192,24066,1,0,0:0:0:0:
192,192,24066,1,0,0:0:0:0:
192,192,24239,1,0,0:0:0:0:
448,192,24411,1,0,0:0:0:0:
64,192,24584,1,0,0:0:0:0:
64,192,24756,1,0,0:0:0:0:
320,192,24929,1,0,0:0:0:0:
448,192,25101,1,0,0:0:0:0:
192,192,25273,1,0,0:0:0:0:
320,192,25446,128,0,25791:0:0:0:0:
64,192,25446,1,0,0:0:0:0:
192,192,25618,1,0,0:0:0:0:
448,192,25791,1,0,0:0:0:0:
192,192,25963,128,0,26308:0:0:0:0:
320,192,25963,1,0,0:0:0:0:
64,192,26135,1,0,0:0:0:0:
320,192,26308,1,0,0:0:0:0:
448,192,26480,128,0,27860:0:0:0:0:
320,192,26480,1,0,0:0:0:0:
192,192,26653,1,0,0:0:0:0:
64,192,26825,1,0,0:0:0:0:
192,192,26998,1,0,0:0:0:0:
320,192,27170,1,0,0:0:0:0:
64,192,27342,1,0,0:0:0:0:
64,192,27515,1,0,0:0:0:0:
192,192,27687,1,0,0:0:0:0:
320,192,27860,1,0,0:0:0:0:
64,192,28032,1,0,0:0:0:0:
192,192,28204,128,0,28549:0:0:0:0:
320,192,28204,1,0,0:0:0:0:
64,192,28377,1,0,0:0:0:0:
448,192,28549,1,0,0:0:0:0:
320,192,28722,128,0,29066:0:0:0:0:
192,192,28722,1,0,0:0:0:0:
64,192,28894,1,0,0:0:0:0:
448,192,29066,1,0,0:0:0:0:
64,192,29239,128,0,30963:0:0:0:0:
320,192,29239,1,0,0:0:0:0:
192,192,29411,1,0,0:0:0:0:
192,192,29584,1,0,0:0:0:0:
320,192,29756,1,0,0:0:0:0:
448,192,29929,1,0,0:0:0:0:
192,192,30101,1,0,0:0:0:0:
192,192,30273,1,0,0:0:0:0:
320,192,30446,1,0,0:0:0:0:
448,192,30618,1,0,0:0:0:0:
192,192,30791,1,0,0:0:0:0:
448,192,30963,1,0,0:0:0:0:
320,192,31135,1,0,0:0:0:0:
64,192,31308,128,0,31653:0:0:0:0:
192,192,31308,1,0,0:0:0:0:
320,192,31480,1,0,0:0:0:0:
192,192,31653,128,0,31998:0:0:0:0:
448,192,31653,1,0,0:0:0:0:
64,192,31825,1,0,0:0:0:0:
320,192,31998,128,0,33377:0:0:0:0:
448,192,31998,1,0,0:0:0:0:
192,192,32170,1,0,0:0:0:0:
64,192,32342,1,0,0:0:0:0:
192,192,32515,1,0,0:0:0:0:
448,192,32687,1,0,0:0:0:0:
64,192,32860,1,0,0:0:0:0:
64,192,33032,1,0,0:0:0:0:
448,192,33204,1,0,0:0:0:0:
448,192,33377,1,0,0:0:0:0:
192,192,33549,1,0,0:0:0:0:
64,192,33722,128,0,34066:0:0:0:0:
448,192,33722,1,0,0:0:0:0:
192,192,33894,1,0,0:0:0:0:
320,192,34066,1,0,0:0:0:0:
448,192,34239,128,0,35101:0:0:0:0:
64,192,34239,1,0,0:0:0:0:
320,192,34411,1,0,0:0:0:0:
192,192,34584,1,0,0:0:0:0:
320,192,34756,1,0,0:0:0:0:
192,192,34929,1,0,0:0:0:0:
192,192,35101,128,0,36135:0:0:0:0:
320,192,35101,128,0,36135:0:0:0:0:
64,192,35101,1,0,0:0:0:0:
64,192,35273,1,0,0:0:0:0:
448,192,35446,1,0,0:0:0:0:
64,192,35618,1,0,0:0:0:0:
64,192,35791,1,0,0:0:0:0:
448,192,35963,1,0,0:0:0:0:
448,192,36135,1,0,0:0:0:0:
320,192,36308,1,0,0:0:0:0:
192,192,36480,128,0,36825:0:0:0:0:
320,192,36480,128,0,36825:0:0:0:0:
64,192,36480,1,0,0:0:0:0:
64,192,36653,1,0,0:0:0:0:
448,192,36825,1,0,0:0:0:0:
64,192,36998,128,0,37342:0:0:0:0:
192,192,36998,128,0,37342:0:0:0:0:
320,192,36998,1,0,0:0:0:0:
448,192,37170,1,0,0:0:0:0:
320,192,37342,1,0,0:0:0:0:
192,192,37515,128,0,38894:0:0:0:0:
448,192,37515,128,0,38894:0:0:0:0:
64,192,37515,1,0,0:0:0:0:
320,192,37687,1,0,0:0:0:0:
64,192,37860,1,0,0:0:0:0:
64,192,38032,1,0,0:0:0:0:
320,192,38204,1,0,0:0:0:0:
64,192,38377,1,0,0:0:0:0:
320,192,38549,1,0,0:0:0:0:
64,192,38722,1,0,0:0:0:0:
320,192,38894,1,0,0:0:0:0:
448,192,39066,1,0,0:0:0:0:
192,192,39239,128,0,39584:0:0:0:0:
320,192,39239,128,0,39584:0:0:0:0:
64,192,39239,1,0,0:0:0:0:
448,192,39411,1,0,0:0:0:0:
64,192,39584,1,0,0:0:0:0:
192,192,39756,128,0,40101:0:0:0:0:
448,192,39756,128,0,40101:0:0:0:0:
320,192,39756,1,0,0:0:0:0:
64,192,39929,1,0,0:0:0:0:
320,192,40101,1,0,0:0:0:0:
64,192,40273,128,0,41998:0:0:0:0:
192,192,40273,128,0,41998:0:0:0:0:
320,192,40273,1,0,0:0:0:0:
448,192,40446,1,0,0:0:0:0:
320,192,40618,1,0,0:0:0:0:
320,192,40791,1,0,0:0:0:0:
448,192,40963,1,0,0:0:0:0:
320,192,41135,1,0,0:0:0:0:
320,192,41308,1,0,0:0:0:0:
448,192,41480,1,0,0:0:0:0:
320,192,41653,1,0,0:0:0:0:
448,192,41825,1,0,0:0:0:0:
320,192,41998,1,0,0:0:0:0:
64,192,42170,1,0,0:0:0:0:
192,192,42342,1,0,0:0:0:0:
320,192,42342,1,0,0:0:0:0:
448,192,42515,1,0,0:0:0:0:
64,192,42687,1,0,0:0:0:0:
192,192,42687,1,0,0:0:0:0:
320,192,42860,1,0,0:0:0:0:
192,192,43032,1,0,0:0:0:0:
448,192,43032,1,0,0:0:0:0:
320,192,43204,1,0,0:0:0:0:
64,192,43377,128,0,46135:0:0:0:0:
192,192,43377,1,0,0:0:0:0:
320,192,43549,1,0,0:0:0:0:
448,192,43722,1,0,0:0:0:0:
192,192,43894,1,0,0:0:0:0:
192,192,44066,1,0,0:0:0:0:
320,192,44239,1,0,0:0:0:0:
448,192,44411,1,0,0:0:0:0:
192,192,44584,1,0,0:0:0:0:
320,192,44670,1,0,0:0:0:0:
448,192,44756,1,0,0:0:0:0:
192,192,44756,1,0,0:0:0:0:
192,192,45101,1,0,0:0:0:0:
448,192,45273,1,0,0:0:0:0:
192,192,45273,1,0,0:0:0:0:
192,192,45618,1,0,0:0:0:0:
448,192,45791,1,0,0:0:0:0:
192,192,45791,1,0,0:0:0:0:
448,192,45963,1,0,0:0:0:0:
192,192,46135,1,0,0:0:0:0:
448,192,46135,128,0,46308:0:0:0:0:
320,192,46135,1,0,0:0:0:0:
192,192,46480,1,0,0:0:0:0:
448,192,46480,1,0,0:0:0:0:
64,192,46480,128,0,46653:0:0:0:0:
320,192,46825,1,0,0:0:0:0:
448,192,46825,1,0,0:0:0:0:
192,192,46825,128,0,46998:0:0:0:0:
448,192,47170,1,0,0:0:0:0:
192,192,47170,1,0,0:0:0:0:
320,192,47170,128,0,47342:0:0:0:0:
320,192,47515,1,0,0:0:0:0:
64,192,47515,1,0,0:0:0:0:
448,192,47515,128,0,47687:0:0:0:0:
320,192,47860,1,0,0:0:0:0:
448,192,47860,1,0,0:0:0:0:
320,192,48204,128,0,48377:0:0:0:0:
64,192,48204,1,0,0:0:0:0:
448,192,48204,1,0,0:0:0:0:
192,192,48377,128,0,48549:0:0:0:0:
448,192,48549,128,0,48722:0:0:0:0:
320,192,48549,1,0,0:0:0:0:
64,192,48549,1,0,0:0:0:0:
64,192,48722,1,0,0:0:0:0:
320,192,48894,128,0,49066:0:0:0:0:
192,192,48894,1,0,0:0:0:0:
448,192,48894,1,0,0:0:0:0:
192,192,49239,128,0,49411:0:0:0:0:
448,192,49239,1,0,0:0:0:0:
320,192,49239,1,0,0:0:0:0:
64,192,49584,1,0,0:0:0:0:
448,192,49584,1,0,0:0:0:0:
192,192,49584,128,0,49756:0:0:0:0:
192,192,49929,1,0,0:0:0:0:
320,192,49929,128,0,50101:0:0:0:0:
448,192,49929,1,0,0:0:0:0:
192,192,50273,128,0,50618:0:0:0:0:
320,192,50273,1,0,0:0:0:0:
448,192,50273,1,0,0:0:0:0:
320,192,50618,128,0,50791:0:0:0:0:
448,192,50618,1,0,0:0:0:0:
64,192,50618,1,0,0:0:0:0:
448,192,50963,1,0,0:0:0:0:
64,192,50963,1,0,0:0:0:0:
320,192,50963,1,0,0:0:0:0:
448,192,51135,1,0,0:0:0:0:
64,192,51308,1,0,0:0:0:0:
320,192,51308,1,0,0:0:0:0:
192,192,51308,1,0,0:0:0:0:
64,192,51480,1,0,0:0:0:0:
320,192,51653,128,0,51825:0:0:0:0:
448,192,51653,1,0,0:0:0:0:
192,192,51653,1,0,0:0:0:0:
64,192,51998,128,0,52170:0:0:0:0:
320,192,51998,1,0,0:0:0:0:
448,192,51998,1,0,0:0:0:0:
192,192,52342,128,0,52515:0:0:0:0:
64,192,52342,1,0,0:0:0:0:
448,192,52342,1,0,0:0:0:0:
448,192,52687,1,0,0:0:0:0:
320,192,52687,128,0,52860:0:0:0:0:
192,192,52687,1,0,0:0:0:0:
448,192,53032,128,0,53204:0:0:0:0:
64,192,53032,1,0,0:0:0:0:
192,192,53032,1,0,0:0:0:0:
320,192,53377,128,0,53549:0:0:0:0:
448,192,53377,1,0,0:0:0:0:
192,192,53377,1,0,0:0:0:0:
192,192,53722,128,0,53894:0:0:0:0:
448,192,53722,1,0,0:0:0:0:
64,192,53722,1,0,0:0:0:0:
64,192,53894,128,0,54066:0:0:0:0:
448,192,54066,128,0,54239:0:0:0:0:
192,192,54066,1,0,0:0:0:0:
320,192,54066,1,0,0:0:0:0:
192,192,54411,1,0,0:0:0:0:
64,192,54411,1,0,0:0:0:0:
64,192,54756,128,0,54929:0:0:0:0:
192,192,54756,1,0,0:0:0:0:
448,192,54756,1,0,0:0:0:0:
192,192,55101,1,0,0:0:0:0:
320,192,55101,1,0,0:0:0:0:
64,192,55101,128,0,55273:0:0:0:0:
320,192,55446,128,0,55618:0:0:0:0:
448,192,55446,1,0,0:0:0:0:
64,192,55446,1,0,0:0:0:0:
448,192,55791,128,0,55963:0:0:0:0:
320,192,55791,1,0,0:0:0:0:
192,192,55791,1,0,0:0:0:0:
64,192,56135,128,0,56308:0:0:0:0:
192,192,56135,1,0,0:0:0:0:
64,192,56480,1,0,0:0:0:0:
192,192,56480,1,0,0:0:0:0:
320,192,56653,128,0,56998:0:0:0:0:
64,192,56825,1,0,0:0:0:0:
320,192,57170,128,0,57342:0:0:0:0:
192,192,57170,1,0,0:0:0:0:
448,192,57342,1,0,0:0:0:0:
192,192,57515,128,0,57687:0:0:0:0:
320,192,57515,1,0,0:0:0:0:
64,192,57687,1,0,0:0:0:0:
64,192,57860,128,0,58032:0:0:0:0:
320,192,57860,1,0,0:0:0:0:
192,192,58032,1,0,0:0:0:0:
192,192,58204,128,0,58377:0:0:0:0:
320,192,58204,1,0,0:0:0:0:
448,192,58377,1,0,0:0:0:0:
448,192,58549,128,0,58722:0:0:0:0:
320,192,58549,1,0,0:0:0:0:
192,192,58722,1,0,0:0:0:0:
64,192,58894,1,0,0:0:0:0:
320,192,58894,1,0,0:0:0:0:
192,192,59066,1,0,0:0:0:0:
320,192,59066,1,0,0:0:0:0:
448,192,59239,1,0,0:0:0:0:
192,192,59239,1,0,0:0:0:0:
320,192,59411,1,0,0:0:0:0:
448,192,59411,1,0,0:0:0:0:
64,192,59584,1,0,0:0:0:0:
448,192,59584,1,0,0:0:0:0:
192,192,59756,1,0,0:0:0:0:
320,192,59756,1,0,0:0:0:0:
320,192,59929,128,0,60101:0:0:0:0:
448,192,59929,1,0,0:0:0:0:
192,192,60101,1,0,0:0:0:0:
192,192,60273,128,0,60446:0:0:0:0:
448,192,60273,1,0,0:0:0:0:
64,192,60446,1,0,0:0:0:0:
64,192,60618,128,0,60791:0:0:0:0:
320,192,60618,1,0,0:0:0:0:
192,192,60791,1,0,0:0:0:0:
192,192,60963,128,0,61135:0:0:0:0:
320,192,60963,1,0,0:0:0:0:
448,192,61135,1,0,0:0:0:0:
320,192,61308,128,0,61653:0:0:0:0:
64,192,61308,1,0,0:0:0:0:
192,192,61480,1,0,0:0:0:0:
448,192,61653,128,0,61825:0:0:0:0:
64,192,61653,1,0,0:0:0:0:
192,192,61825,1,0,0:0:0:0:
64,192,61998,1,0,0:0:0:0:
448,192,61998,1,0,0:0:0:0:
64,192,62170,1,0,0:0:0:0:
192,192,62170,1,0,0:0:0:0:
192,192,62342,1,0,0:0:0:0:
448,192,62342,1,0,0:0:0:0:
448,192,62515,1,0,0:0:0:0:
320,192,62515,1,0,0:0:0:0:
64,192,62687,1,0,0:0:0:0:
448,192,62687,1,0,0:0:0:0:
192,192,62773,1,0,0:0:0:0:
320,192,62860,1,0,0:0:0:0:
192,192,62946,1,0,0:0:0:0:
64,192,63032,1,0,0:0:0:0:
448,192,63032,1,0,0:0:0:0:
320,192,63118,1,0,0:0:0:0:
192,192,63204,1,0,0:0:0:0:
320,192,63291,1,0,0:0:0:0:
64,192,63377,1,0,0:0:0:0:
448,192,63377,1,0,0:0:0:0:
192,192,63463,1,0,0:0:0:0:
320,192,63549,1,0,0:0:0:0:
192,192,63635,1,0,0:0:0:0:
64,192,63722,1,0,0:0:0:0:
448,192,63722,1,0,0:0:0:0:
320,192,63808,1,0,0:0:0:0:
192,192,63894,1,0,0:0:0:0:
320,192,63980,1,0,0:0:0:0:
448,192,64066,1,0,0:0:0:0:
192,192,64066,1,0,0:0:0:0:
320,192,64153,1,0,0:0:0:0:
192,192,64239,1,0,0:0:0:0:
64,192,64325,1,0,0:0:0:0:
192,192,64411,1,0,0:0:0:0:
448,192,64411,1,0,0:0:0:0:
320,192,64498,1,0,0:0:0:0:
192,192,64584,1,0,0:0:0:0:
64,192,64670,1,0,0:0:0:0:
320,192,64756,1,0,0:0:0:0:
448,192,64756,1,0,0:0:0:0:
192,192,64842,1,0,0:0:0:0:
64,192,64929,1,0,0:0:0:0:
448,192,65015,1,0,0:0:0:0:
320,192,65101,1,0,0:0:0:0:
192,192,65101,1,0,0:0:0:0:
64,192,65187,1,0,0:0:0:0:
448,192,65273,1,0,0:0:0:0:
320,192,65360,1,0,0:0:0:0:
192,192,65446,1,0,0:0:0:0:
64,192,65446,1,0,0:0:0:0:
320,192,65532,1,0,0:0:0:0:
448,192,65532,1,0,0:0:0:0:
192,192,65618,1,0,0:0:0:0:
64,192,65618,1,0,0:0:0:0:
320,192,65704,1,0,0:0:0:0:
448,192,65704,1,0,0:0:0:0:
192,192,65791,1,0,0:0:0:0:
64,192,65791,1,0,0:0:0:0:
320,192,65877,1,0,0:0:0:0:
448,192,65877,1,0,0:0:0:0:
192,192,65963,1,0,0:0:0:0:
64,192,65963,1,0,0:0:0:0:
320,192,66049,1,0,0:0:0:0:
448,192,66049,1,0,0:0:0:0:
192,192,66135,1,0,0:0:0:0:
64,192,66135,1,0,0:0:0:0:
320,192,66222,1,0,0:0:0:0:
448,192,66222,1,0,0:0:0:0:
192,192,66308,1,0,0:0:0:0:
64,192,66308,1,0,0:0:0:0:
320,192,66394,1,0,0:0:0:0:
448,192,66394,1,0,0:0:0:0:
192,192,66480,1,0,0:0:0:0:
64,192,66480,1,0,0:0:0:0:
320,192,66566,1,0,0:0:0:0:
448,192,66566,1,0,0:0:0:0:
192,192,66653,1,0,0:0:0:0:
64,192,66653,1,0,0:0:0:0:
320,192,66739,1,0,0:0:0:0:
448,192,66739,1,0,0:0:0:0:
64,192,66825,1,0,0:0:0:0:
192,192,66868,1,0,0:0:0:0:
320,192,66911,1,0,0:0:0:0:
448,192,66954,1,0,0:0:0:0:
64,192,66998,1,0,0:0:0:0:
192,192,67041,1,0,0:0:0:0:
320,192,67084,1,0,0:0:0:0:
64,192,67170,1,0,0:0:0:0:
192,192,67170,1,0,0:0:0:0:
64,192,67342,1,0,0:0:0:0:
192,192,67429,1,0,0:0:0:0:
320,192,67515,1,0,0:0:0:0:
192,192,67687,1,0,0:0:0:0:
64,192,67687,1,0,0:0:0:0:
320,192,67773,1,0,0:0:0:0:
448,192,67860,1,0,0:0:0:0:
64,192,67860,1,0,0:0:0:0:
64,192,68204,1,0,0:0:0:0:
448,192,68204,1,0,0:0:0:0:
320,192,68204,1,0,0:0:0:0:
192,192,68377,128,0,68549:0:0:0:0:
320,192,68549,128,0,68722:0:0:0:0:
448,192,68549,1,0,0:0:0:0:
64,192,68549,1,0,0:0:0:0:
192,192,68722,1,0,0:0:0:0:
448,192,68808,1,0,0:0:0:0:
320,192,68894,1,0,0:0:0:0:
64,192,68980,1,0,0:0:0:0:
192,192,69066,1,0,0:0:0:0:
448,192,69066,1,0,0:0:0:0:
448,192,69239,1,0,0:0:0:0:
64,192,69239,1,0,0:0:0:0:
192,192,69325,1,0,0:0:0:0:
320,192,69411,1,0,0:0:0:0:
448,192,69498,1,0,0:0:0:0:
320,192,69584,1,0,0:0:0:0:
192,192,69584,1,0,0:0:0:0:
192,192,69756,1,0,0:0:0:0:
64,192,69842,1,0,0:0:0:0:
320,192,69929,128,0,70101:0:0:0:0:
448,192,69929,1,0,0:0:0:0:
192,192,69929,1,0,0:0:0:0:
192,192,70101,128,0,70273:0:0:0:0:
64,192,70101,1,0,0:0:0:0:
448,192,70187,1,0,0:0:0:0:
320,192,70273,1,0,0:0:0:0:
320,192,70446,1,0,0:0:0:0:
448,192,70446,1,0,0:0:0:0:
64,192,70532,1,0,0:0:0:0:
192,192,70618,1,0,0:0:0:0:
448,192,70618,128,0,70791:0:0:0:0:
320,192,70618,1,0,0:0:0:0:
64,192,70791,128,0,70963:0:0:0:0:
320,192,70791,1,0,0:0:0:0:
192,192,70877,1,0,0:0:0:0:
320,192,70963,1,0,0:0:0:0:
448,192,70963,1,0,0:0:0:0:
192,192,71135,1,0,0:0:0:0:
64,192,71308,1,0,0:0:0:0:
448,192,71308,1,0,0:0:0:0:
192,192,71394,1,0,0:0:0:0:
320,192,71480,1,0,0:0:0:0:
192,192,71566,1,0,0:0:0:0:
448,192,71653,1,0,0:0:0:0:
320,192,71739,1,0,0:0:0:0:
192,192,71825,1,0,0:0:0:0:
64,192,71825,1,0,0:0:0:0:
64,192,71998,1,0,0:0:0:0:
448,192,71998,1,0,0:0:0:0:
320,192,72084,1,0,0:0:0:0:
192,192,72170,1,0,0:0:0:0:
320,192,72256,1,0,0:0:0:0:
64,192,72342,1,0,0:0:0:0:
192,192,72515,1,0,0:0:0:0:
320,192,72515,1,0,0:0:0:0:
64,192,72515,1,0,0:0:0:0:
192,192,72687,1,0,0:0:0:0:
448,192,72687,1,0,0:0:0:0:
64,192,72860,1,0,0:0:0:0:
192,192,72860,1,0,0:0:0:0:
192,192,73032,1,0,0:0:0:0:
448,192,73032,1,0,0:0:0:0:
448,192,73204,1,0,0:0:0:0:
320,192,73204,1,0,0:0:0:0:
64,192,73204,1,0,0:0:0:0:
64,192,73377,1,0,0:0:0:0:
448,192,73377,1,0,0:0:0:0:
192,192,73549,1,0,0:0:0:0:
448,192,73635,1,0,0:0:0:0:
320,192,73635,1,0,0:0:0:0:
192,192,73722,1,0,0:0:0:0:
64,192,73722,1,0,0:0:0:0:
64,192,73894,128,0,73980:0:0:0:0:
320,192,73894,1,0,0:0:0:0:
448,192,74066,128,0,74153:0:0:0:0:
192,192,74066,1,0,0:0:0:0:
192,192,74239,128,0,74325:0:0:0:0:
320,192,74239,1,0,0:0:0:0:
320,192,74411,128,0,74584:0:0:0:0:
64,192,74411,1,0,0:0:0:0:
192,192,74584,1,0,0:0:0:0:
64,192,74584,1,0,0:0:0:0:
448,192,74756,1,0,0:0:0:0:
192,192,74756,1,0,0:0:0:0:
320,192,74842,1,0,0:0:0:0:
64,192,74929,128,0,75101:0:0:0:0:
448,192,74929,1,0,0:0:0:0:
320,192,75015,1,0,0:0:0:0:
192,192,75101,1,0,0:0:0:0:
448,192,75101,1,0,0:0:0:0:
320,192,75273,128,0,75446:0:0:0:0:
192,192,75360,1,0,0:0:0:0:
64,192,75446,1,0,0:0:0:0:
448,192,75446,1,0,0:0:0:0:
192,192,75618,128,0,75791:0:0:0:0:
320,192,75704,1,0,0:0:0:0:
448,192,75791,1,0,0:0:0:0:
64,192,75877,1,0,0:0:0:0:
192,192,75963,1,0,0:0:0:0:
320,192,75963,1,0,0:0:0:0:
448,192,76135,1,0,0:0:0:0:
64,192,76135,1,0,0:0:0:0:
320,192,76179,1,0,0:0:0:0:
192,192,76222,1,0,0:0:0:0:
64,192,76265,1,0,0:0:0:0:
448,192,76308,1,0,0:0:0:0:
320,192,76351,1,0,0:0:0:0:
192,192,76394,1,0,0:0:0:0:
64,192,76437,1,0,0:0:0:0:
320,192,76480,1,0,0:0:0:0:
448,192,76480,1,0,0:0:0:0:
64,192,76653,1,0,0:0:0:0:
192,192,76696,1,0,0:0:0:0:
320,192,76739,1,0,0:0:0:0:
448,192,76782,1,0,0:0:0:0:
64,192,76825,1,0,0:0:0:0:
192,192,76868,1,0,0:0:0:0:
448,192,76911,1,0,0:0:0:0:
320,192,76954,1,0,0:0:0:0:
192,192,76998,1,0,0:0:0:0:
64,192,77041,1,0,0:0:0:0:
448,192,77084,1,0,0:0:0:0:
320,192,77127,1,0,0:0:0:0:
64,192,77170,128,0,77342:0:0:0:0:
192,192,77170,1,0,0:0:0:0:
320,192,77342,1,0,0:0:0:0:
448,192,77342,1,0,0:0:0:0:
448,192,77515,1,0,0:0:0:0:
64,192,77515,128,0,77601:0:0:0:0:
448,192,77687,128,0,77860:0:0:0:0:
192,192,77687,1,0,0:0:0:0:
192,192,78032,1,0,0:0:0:0:
320,192,78032,1,0,0:0:0:0:
448,192,78204,1,0,0:0:0:0:
192,192,78204,1,0,0:0:0:0:
64,192,78377,1,0,0:0:0:0:
192,192,78463,1,0,0:0:0:0:
448,192,78549,1,0,0:0:0:0:
320,192,78549,1,0,0:0:0:0:
192,192,78635,1,0,0:0:0:0:
64,192,78635,1,0,0:0:0:0:
320,192,78722,1,0,0:0:0:0:
448,192,78722,1,0,0:0:0:0:
64,192,78894,1,0,0:0:0:0:
192,192,78937,1,0,0:0:0:0:
448,192,78980,1,0,0:0:0:0:
320,192,79023,1,0,0:0:0:0:
64,192,79066,1,0,0:0:0:0:
192,192,79110,1,0,0:0:0:0:
448,192,79153,1,0,0:0:0:0:
320,192,79196,1,0,0:0:0:0:
64,192,79239,1,0,0:0:0:0:
192,192,79239,1,0,0:0:0:0:
192,192,79411,1,0,0:0:0:0:
448,192,79584,1,0,0:0:0:0:
64,192,79584,1,0,0:0:0:0:
192,192,79670,1,0,0:0:0:0:
320,192,79756,1,0,0:0:0:0:
64,192,79842,1,0,0:0:0:0:
448,192,79929,1,0,0:0:0:0:
320,192,80015,1,0,0:0:0:0:
64,192,80101,1,0,0:0:0:0:
192,192,80101,1,0,0:0:0:0:
448,192,80273,1,0,0:0:0:0:
64,192,80273,1,0,0:0:0:0:
320,192,80446,1,0,0:0:0:0:
192,192,80532,1,0,0:0:0:0:
320,192,80618,1,0,0:0:0:0:
448,192,80618,1,0,0:0:0:0:
192,192,80791,1,0,0:0:0:0:
64,192,80877,1,0,0:0:0:0:
320,192,80963,128,0,81135:0:0:0:0:
192,192,81135,128,0,81308:0:0:0:0:
64,192,81135,1,0,0:0:0:0:
448,192,81222,1,0,0:0:0:0:
320,192,81308,1,0,0:0:0:0:
64,192,81480,1,0,0:0:0:0:
192,192,81480,1,0,0:0:0:0:
320,192,81653,1,0,0:0:0:0:
448,192,81653,128,0,81825:0:0:0:0:
192,192,81825,128,0,81998:0:0:0:0:
64,192,81998,128,0,82342:0:0:0:0:
320,192,81998,1,0,0:0:0:0:
192,192,82342,1,0,0:0:0:0:
448,192,82342,1,0,0:0:0:0:
320,192,82429,1,0,0:0:0:0:
192,192,82515,1,0,0:0:0:0:
448,192,82601,1,0,0:0:0:0:
320,192,82687,1,0,0:0:0:0:
192,192,82773,1,0,0:0:0:0:
64,192,82860,1,0,0:0:0:0:
320,192,82860,1,0,0:0:0:0:
64,192,83032,1,0,0:0:0:0:
448,192,83032,1,0,0:0:0:0:
320,192,83118,1,0,0:0:0:0:
192,192,83204,1,0,0:0:0:0:
448,192,83291,1,0,0:0:0:0:
320,192,83377,1,0,0:0:0:0:
320,192,83549,1,0,0:0:0:0:
64,192,83549,1,0,0:0:0:0:
192,192,83722,1,0,0:0:0:0:
448,192,83722,1,0,0:0:0:0:
320,192,83808,1,0,0:0:0:0:
64,192,83894,1,0,0:0:0:0:
192,192,83980,1,0,0:0:0:0:
64,192,84066,1,0,0:0:0:0:
320,192,84066,1,0,0:0:0:0:
448,192,84153,1,0,0:0:0:0:
192,192,84239,1,0,0:0:0:0:
320,192,84239,1,0,0:0:0:0:
448,192,84411,1,0,0:0:0:0:
192,192,84411,1,0,0:0:0:0:
320,192,84498,1,0,0:0:0:0:
192,192,84584,1,0,0:0:0:0:
448,192,84670,1,0,0:0:0:0:
320,192,84670,1,0,0:0:0:0:
192,192,84756,1,0,0:0:0:0:
64,192,84756,1,0,0:0:0:0:
320,192,84929,1,0,0:0:0:0:
448,192,85015,1,0,0:0:0:0:
64,192,85015,1,0,0:0:0:0:
192,192,85273,1,0,0:0:0:0:
448,192,85273,1,0,0:0:0:0:
64,192,85618,1,0,0:0:0:0:
448,192,85618,1,0,0:0:0:0:
320,192,85661,1,0,0:0:0:0:
192,192,85704,1,0,0:0:0:0:
64,192,85748,1,0,0:0:0:0:
448,192,85791,1,0,0:0:0:0:
320,192,85834,1,0,0:0:0:0:
192,192,85877,1,0,0:0:0:0:
64,192,85920,1,0,0:0:0:0:
448,192,85963,1,0,0:0:0:0:
320,192,86006,1,0,0:0:0:0:
64,192,86049,1,0,0:0:0:0:
192,192,86092,1,0,0:0:0:0:
320,192,86135,1,0,0:0:0:0:
448,192,86135,1,0,0:0:0:0:
192,192,86308,1,0,0:0:0:0:
448,192,86394,1,0,0:0:0:0:
64,192,86394,1,0,0:0:0:0:
64,192,86653,1,0,0:0:0:0:
320,192,86653,1,0,0:0:0:0:
64,192,86998,1,0,0:0:0:0:
448,192,86998,1,0,0:0:0:0:
320,192,87041,1,0,0:0:0:0:
192,192,87084,1,0,0:0:0:0:
64,192,87127,1,0,0:0:0:0:
448,192,87170,1,0,0:0:0:0:
320,192,87213,1,0,0:0:0:0:
192,192,87256,1,0,0:0:0:0:
64,192,87299,1,0,0:0:0:0:
448,192,87342,1,0,0:0:0:0:
320,192,87385,1,0,0:0:0:0:
192,192,87429,1,0,0:0:0:0:
64,192,87472,1,0,0:0:0:0:
320,192,87515,1,0,0:0:0:0:
448,192,87515,1,0,0:0:0:0:
192,192,87860,1,0,0:0:0:0:
320,192,88032,1,0,0:0:0:0:
192,192,88204,1,0,0:0:0:0:
320,192,88377,1,0,0:0:0:0:
192,192,88549,1,0,0:0:0:0:
320,192,88722,1,0,0:0:0:0:
192,192,88894,1,0,0:0:0:0:
64,192,88894,1,0,0:0:0:0:
320,192,88980,1,0,0:0:0:0:
448,192,88980,1,0,0:0:0:0:
192,192,89066,1,0,0:0:0:0:
64,192,89066,1,0,0:0:0:0:
320,192,89153,1,0,0:0:0:0:
448,192,89153,1,0,0:0:0:0:
192,192,89239,1,0,0:0:0:0:
64,192,89239,1,0,0:0:0:0:
320,192,89325,1,0,0:0:0:0:
448,192,89325,1,0,0:0:0:0:
192,192,89411,1,0,0:0:0:0:
64,192,89411,1,0,0:0:0:0:
320,192,89498,1,0,0:0:0:0:
448,192,89498,1,0,0:0:0:0:
192,192,89584,1,0,0:0:0:0:
64,192,89584,1,0,0:0:0:0:
320,192,89670,1,0,0:0:0:0:
448,192,89670,1,0,0:0:0:0:
192,192,89756,1,0,0:0:0:0:
64,192,89756,1,0,0:0:0:0:
320,192,89842,1,0,0:0:0:0:
448,192,89842,1,0,0:0:0:0:
64,192,89929,1,0,0:0:0:0:
192,192,90015,1,0,0:0:0:0:
448,192,90101,1,0,0:0:0:0:
320,192,90187,1,0,0:0:0:0:
192,192,90273,1,0,0:0:0:0:
64,192,90273,1,0,0:0:0:0:
448,192,90273,1,0,0:0:0:0:
320,192,90446,1,0,0:0:0:0:
192,192,90618,1,0,0:0:0:0:
448,192,90618,1,0,0:0:0:0:
320,192,90704,1,0,0:0:0:0:
64,192,90791,1,0,0:0:0:0:
320,192,90877,1,0,0:0:0:0:
192,192,90963,1,0,0:0:0:0:
448,192,91049,1,0,0:0:0:0:
320,192,91135,1,0,0:0:0:0:
192,192,91135,1,0,0:0:0:0:
64,192,91135,1,0,0:0:0:0:
64,192,91308,1,0,0:0:0:0:
320,192,91308,1,0,0:0:0:0:
192,192,91394,1,0,0:0:0:0:
448,192,91480,1,0,0:0:0:0:
320,192,91566,1,0,0:0:0:0:
192,192,91653,1,0,0:0:0:0:
64,192,91653,1,0,0:0:0:0:
448,192,91653,1,0,0:0:0:0:
192,192,91825,1,0,0:0:0:0:
448,192,91998,1,0,0:0:0:0:
64,192,91998,1,0,0:0:0:0:
192,192,92084,1,0,0:0:0:0:
320,192,92170,1,0,0:0:0:0:
448,192,92256,1,0,0:0:0:0:
192,192,92342,1,0,0:0:0:0:
64,192,92429,1,0,0:0:0:0:
448,192,92515,1,0,0:0:0:0:
192,192,92515,1,0,0:0:0:0:
320,192,92515,1,0,0:0:0:0:
64,192,92687,1,0,0:0:0:0:
320,192,92687,1,0,0:0:0:0:
192,192,92773,1,0,0:0:0:0:
448,192,92860,1,0,0:0:0:0:
320,192,92946,1,0,0:0:0:0:
64,192,93032,1,0,0:0:0:0:
192,192,93032,1,0,0:0:0:0:
448,192,93032,1,0,0:0:0:0:
192,192,93204,1,0,0:0:0:0:
64,192,93377,1,0,0:0:0:0:
320,192,93377,1,0,0:0:0:0:
192,192,93463,1,0,0:0:0:0:
64,192,93549,1,0,0:0:0:0:
448,192,93635,1,0,0:0:0:0:
320,192,93722,1,0,0:0:0:0:
64,192,93808,1,0,0:0:0:0:
448,192,93894,1,0,0:0:0:0:
320,192,93894,1,0,0:0:0:0:
192,192,93894,1,0,0:0:0:0:
64,192,94066,1,0,0:0:0:0:
320,192,94066,1,0,0:0:0:0:
192,192,94153,1,0,0:0:0:0:
448,192,94239,1,0,0:0:0:0:
320,192,94325,1,0,0:0:0:0:
192,192,94411,1,0,0:0:0:0:
320,192,94584,1,0,0:0:0:0:
448,192,94584,1,0,0:0:0:0:
64,192,94584,1,0,0:0:0:0:
192,192,94756,1,0,0:0:0:0:
448,192,94756,1,0,0:0:0:0:
320,192,94842,1,0,0:0:0:0:
192,192,94929,1,0,0:0:0:0:
64,192,95015,1,0,0:0:0:0:
448,192,95101,1,0,0:0:0:0:
320,192,95187,1,0,0:0:0:0:
64,192,95273,1,0,0:0:0:0:
192,192,95273,1,0,0:0:0:0:
448,192,95273,1,0,0:0:0:0:
64,192,95446,1,0,0:0:0:0:
320,192,95446,1,0,0:0:0:0:
192,192,95532,1,0,0:0:0:0:
64,192,95618,1,0,0:0:0:0:
320,192,95704,1,0,0:0:0:0:
448,192,95704,1,0,0:0:0:0:
192,192,95791,1,0,0:0:0:0:
64,192,95791,1,0,0:0:0:0:
320,192,95963,128,0,96049:0:0:0:0:
64,192,95963,1,0,0:0:0:0:
448,192,96135,128,0,96222:0:0:0:0:
192,192,96135,1,0,0:0:0:0:
64,192,96308,128,0,96394:0:0:0:0:
320,192,96308,1,0,0:0:0:0:
448,192,96394,1,0,0:0:0:0:
192,192,96480,128,0,96653:0:0:0:0:
320,192,96480,1,0,0:0:0:0:
64,192,96653,1,0,0:0:0:0:
192,192,96825,1,0,0:0:0:0:
320,192,96911,1,0,0:0:0:0:
192,192,96998,128,0,97170:0:0:0:0:
448,192,96998,1,0,0:0:0:0:
64,192,97170,1,0,0:0:0:0:
320,192,97342,128,0,97515:0:0:0:0:
192,192,97429,1,0,0:0:0:0:
64,192,97515,1,0,0:0:0:0:
448,192,97515,1,0,0:0:0:0:
192,192,97687,128,0,97860:0:0:0:0:
320,192,97773,1,0,0:0:0:0:
448,192,97860,1,0,0:0:0:0:
64,192,97860,1,0,0:0:0:0:
192,192,98032,1,0,0:0:0:0:
320,192,98032,1,0,0:0:0:0:
64,192,98204,1,0,0:0:0:0:
448,192,98204,1,0,0:0:0:0:
320,192,98248,1,0,0:0:0:0:
192,192,98291,1,0,0:0:0:0:
64,192,98334,1,0,0:0:0:0:
448,192,98377,1,0,0:0:0:0:
320,192,98420,1,0,0:0:0:0:
192,192,98463,1,0,0:0:0:0:
64,192,98506,1,0,0:0:0:0:
320,192,98549,1,0,0:0:0:0:
448,192,98549,1,0,0:0:0:0:
64,192,98722,1,0,0:0:0:0:
192,192,98765,1,0,0:0:0:0:
320,192,98808,1,0,0:0:0:0:
448,192,98851,1,0,0:0:0:0:
64,192,98894,1,0,0:0:0:0:
192,192,98937,1,0,0:0:0:0:
320,192,98980,1,0,0:0:0:0:
448,192,99023,1,0,0:0:0:0:
192,192,99066,1,0,0:0:0:0:
64,192,99110,1,0,0:0:0:0:
448,192,99153,1,0,0:0:0:0:
320,192,99196,1,0,0:0:0:0:
192,192,99239,128,0,99411:0:0:0:0:
448,192,99411,1,0,0:0:0:0:
320,192,99411,1,0,0:0:0:0:
64,192,99584,128,0,99670:0:0:0:0:
192,192,99584,1,0,0:0:0:0:
448,192,99584,1,0,0:0:0:0:
192,192,99756,128,0,99929:0:0:0:0:
320,192,99842,1,0,0:0:0:0:
448,192,99929,1,0,0:0:0:0:
64,192,100101,1,0,0:0:0:0:
192,192,100101,1,0,0:0:0:0:
192,192,100273,1,0,0:0:0:0:
448,192,100273,1,0,0:0:0:0:
320,192,100446,1,0,0:0:0:0:
64,192,100618,1,0,0:0:0:0:
192,192,100618,1,0,0:0:0:0:
448,192,100704,1,0,0:0:0:0:
320,192,100704,1,0,0:0:0:0:
64,192,100791,1,0,0:0:0:0:
192,192,100791,1,0,0:0:0:0:
320,192,100963,1,0,0:0:0:0:
448,192,100963,1,0,0:0:0:0:
64,192,101049,1,0,0:0:0:0:
192,192,101092,1,0,0:0:0:0:
448,192,101135,1,0,0:0:0:0:
320,192,101179,1,0,0:0:0:0:
64,192,101222,1,0,0:0:0:0:
192,192,101265,1,0,0:0:0:0:
320,192,101308,1,0,0:0:0:0:
448,192,101308,1,0,0:0:0:0:
192,192,101480,1,0,0:0:0:0:
448,192,101653,1,0,0:0:0:0:
64,192,101653,1,0,0:0:0:0:
192,192,101825,1,0,0:0:0:0:
320,192,101911,1,0,0:0:0:0:
448,192,101998,1,0,0:0:0:0:
320,192,102084,1,0,0:0:0:0:
64,192,102170,1,0,0:0:0:0:
192,192,102170,1,0,0:0:0:0:
448,192,102170,1,0,0:0:0:0:
192,192,102342,1,0,0:0:0:0:
448,192,102342,1,0,0:0:0:0:
64,192,102515,1,0,0:0:0:0:
448,192,102601,1,0,0:0:0:0:
192,192,102687,1,0,0:0:0:0:
64,192,102687,1,0,0:0:0:0:
320,192,102687,1,0,0:0:0:0:
320,192,102860,1,0,0:0:0:0:
192,192,102946,1,0,0:0:0:0:
448,192,103032,1,0,0:0:0:0:
64,192,103032,1,0,0:0:0:0:
320,192,103204,1,0,0:0:0:0:
448,192,103291,1,0,0:0:0:0:
192,192,103377,1,0,0:0:0:0:
320,192,103463,1,0,0:0:0:0:
192,192,103549,1,0,0:0:0:0:
64,192,103549,1,0,0:0:0:0:
448,192,103549,1,0,0:0:0:0:
320,192,103722,1,0,0:0:0:0:
64,192,103722,1,0,0:0:0:0:
448,192,103894,1,0,0:0:0:0:
320,192,103980,1,0,0:0:0:0:
192,192,104066,1,0,0:0:0:0:
64,192,104066,1,0,0:0:0:0:
448,192,104066,1,0,0:0:0:0:
192,192,104239,1,0,0:0:0:0:
320,192,104325,1,0,0:0:0:0:
192,192,104411,1,0,0:0:0:0:
448,192,104411,1,0,0:0:0:0:
320,192,104584,1,0,0:0:0:0:
192,192,104670,1,0,0:0:0:0:
64,192,104756,1,0,0:0:0:0:
448,192,104842,1,0,0:0:0:0:
320,192,104929,1,0,0:0:0:0:
192,192,104929,1,0,0:0:0:0:
64,192,104929,1,0,0:0:0:0:
448,192,105101,1,0,0:0:0:0:
192,192,105101,1,0,0:0:0:0:
320,192,105187,1,0,0:0:0:0:
64,192,105273,1,0,0:0:0:0:
192,192,105360,1,0,0:0:0:0:
320,192,105446,1,0,0:0:0:0:
192,192,105618,1,0,0:0:0:0:
64,192,105618,1,0,0:0:0:0:
448,192,105618,1,0,0:0:0:0:
64,192,105791,1,0,0:0:0:0:
320,192,105791,1,0,0:0:0:0:
192,192,105877,1,0,0:0:0:0:
64,192,105963,1,0,0:0:0:0:
448,192,106049,1,0,0:0:0:0:
320,192,106135,1,0,0:0:0:0:
192,192,106222,1,0,0:0:0:0:
448,192,106308,1,0,0:0:0:0:
320,192,106308,1,0,0:0:0:0:
64,192,106308,1,0,0:0:0:0:
64,192,106480,1,0,0:0:0:0:
448,192,106480,1,0,0:0:0:0:
320,192,106566,1,0,0:0:0:0:
192,192,106653,1,0,0:0:0:0:
320,192,106739,1,0,0:0:0:0:
448,192,106739,1,0,0:0:0:0:
192,192,106825,1,0,0:0:0:0:
64,192,106825,1,0,0:0:0:0:
320,192,106998,128,0,107084:0:0:0:0:
448,192,106998,1,0,0:0:0:0:
64,192,107170,128,0,107256:0:0:0:0:
192,192,107170,1,0,0:0:0:0:
192,192,107342,128,0,107429:0:0:0:0:
448,192,107342,1,0,0:0:0:0:
448,192,107515,128,0,107687:0:0:0:0:
64,192,107515,1,0,0:0:0:0:
320,192,107687,1,0,0:0:0:0:
192,192,107687,1,0,0:0:0:0:
64,192,107860,1,0,0:0:0:0:
192,192,107946,1,0,0:0:0:0:
448,192,108032,128,0,108204:0:0:0:0:
320,192,108032,1,0,0:0:0:0:
64,192,108204,1,0,0:0:0:0:
192,192,108377,128,0,108549:0:0:0:0:
320,192,108377,1,0,0:0:0:0:
64,192,108549,1,0,0:0:0:0:
320,192,108722,128,0,108894:0:0:0:0:
192,192,108722,1,0,0:0:0:0:
448,192,108894,1,0,0:0:0:0:
192,192,109066,1,0,0:0:0:0:
320,192,109066,1,0,0:0:0:0:
448,192,109239,1,0,0:0:0:0:
64,192,109239,1,0,0:0:0:0:
320,192,109282,1,0,0:0:0:0:
192,192,109325,1,0,0:0:0:0:
64,192,109368,1,0,0:0:0:0:
448,192,109411,1,0,0:0:0:0:
320,192,109454,1,0,0:0:0:0:
192,192,109498,1,0,0:0:0:0:
64,192,109541,1,0,0:0:0:0:
320,192,109584,1,0,0:0:0:0:
448,192,109584,1,0,0:0:0:0:
64,192,109756,1,0,0:0:0:0:
192,192,109799,1,0,0:0:0:0:
320,192,109842,1,0,0:0:0:0:
448,192,109885,1,0,0:0:0:0:
64,192,109929,1,0,0:0:0:0:
192,192,109972,1,0,0:0:0:0:
320,192,110015,1,0,0:0:0:0:
448,192,110058,1,0,0:0:0:0:
192,192,110101,1,0,0:0:0:0:
64,192,110144,1,0,0:0:0:0:
448,192,110187,1,0,0:0:0:0:
320,192,110230,1,0,0:0:0:0:
192,192,110273,128,0,110446:0:0:0:0:
448,192,110446,1,0,0:0:0:0:
320,192,110446,1,0,0:0:0:0:
64,192,110618,128,0,110704:0:0:0:0:
192,192,110618,1,0,0:0:0:0:
192,192,110791,128,0,110963:0:0:0:0:
320,192,110877,1,0,0:0:0:0:
448,192,110963,1,0,0:0:0:0:
64,192,110963,128,0,111653:0:0:0:0:
320,192,111308,128,0,111653:0:0:0:0:
448,192,111653,1,0,0:0:0:0:
192,192,111653,1,0,0:0:0:0:
320,192,111825,1,0,0:0:0:0:
448,192,111825,1,0,0:0:0:0:
192,192,111911,1,0,0:0:0:0:
64,192,111911,1,0,0:0:0:0:
320,192,111998,1,0,0:0:0:0:
448,192,111998,1,0,0:0:0:0:
64,192,112342,128,0,112385:0:0:0:0:
192,192,112342,1,0,0:0:0:0:
448,192,112342,1,0,0:0:0:0:
320,192,112515,128,0,112558:0:0:0:0:
64,192,112515,1,0,0:0:0:0:
448,192,112687,128,0,112730:0:0:0:0:
320,192,112687,1,0,0:0:0:0:
192,192,112860,128,0,112903:0:0:0:0:
448,192,112860,1,0,0:0:0:0:
320,192,113032,128,0,113075:0:0:0:0:
192,192,113032,1,0,0:0:0:0:
64,192,113204,128,0,113248:0:0:0:0:
320,192,113204,1,0,0:0:0:0:
320,192,113377,128,0,113420:0:0:0:0:
64,192,113377,1,0,0:0:0:0:
192,192,113549,128,0,113592:0:0:0:0:
320,192,113549,1,0,0:0:0:0:
448,192,113722,128,0,113765:0:0:0:0:
192,192,113722,1,0,0:0:0:0:
320,192,113894,128,0,113937:0:0:0:0:
448,192,113894,1,0,0:0:0:0:
192,192,114066,128,0,114110:0:0:0:0:
320,192,114066,1,0,0:0:0:0:
448,192,114239,128,0,114282:0:0:0:0:
192,192,114239,1,0,0:0:0:0:
320,192,114411,128,0,114454:0:0:0:0:
448,192,114411,1,0,0:0:0:0:
192,192,114584,128,0,114627:0:0:0:0:
320,192,114584,1,0,0:0:0:0:
64,192,114756,128,0,115101:0:0:0:0:
192,192,114756,1,0,0:0:0:0:
448,192,115101,128,0,115446:0:0:0:0:
192,192,115101,1,0,0:0:0:0:
320,192,115101,1,0,0:0:0:0:
192,192,115446,128,0,115532:0:0:0:0:
320,192,115446,1,0,0:0:0:0:
64,192,115618,128,0,115704:0:0:0:0:
320,192,115618,1,0,0:0:0:0:
320,192,115791,128,0,115877:0:0:0:0:
192,192,115791,1,0,0:0:0:0:
64,192,115963,128,0,116049:0:0:0:0:
448,192,115963,1,0,0:0:0:0:
192,192,116135,128,0,116480:0:0:0:0:
64,192,116135,1,0,0:0:0:0:
448,192,116135,1,0,0:0:0:0:
320,192,116308,128,0,116480:0:0:0:0:
192,192,116825,1,0,0:0:0:0:
448,192,116825,1,0,0:0:0:0:
320,192,116825,128,0,116998:0:0:0:0:
64,192,116998,128,0,117170:0:0:0:0:
320,192,117170,128,0,117256:0:0:0:0:
448,192,117170,1,0,0:0:0:0:
192,192,117342,128,0,117429:0:0:0:0:
64,192,117342,1,0,0:0:0:0:
448,192,117515,128,0,117773:0:0:0:0:
320,192,117515,1,0,0:0:0:0:
64,192,117515,1,0,0:0:0:0:
320,192,117773,1,0,0:0:0:0:
192,192,117860,1,0,0:0:0:0:
64,192,117860,128,0,117903:0:0:0:0:
192,192,118032,128,0,118204:0:0:0:0:
64,192,118032,1,0,0:0:0:0:
320,192,118204,128,0,118248:0:0:0:0:
448,192,118204,1,0,0:0:0:0:
64,192,118377,128,0,118420:0:0:0:0:
320,192,118377,1,0,0:0:0:0:
64,192,118549,1,0,0:0:0:0:
448,192,118549,128,0,118592:0:0:0:0:
64,192,118722,128,0,118765:0:0:0:0:
448,192,118722,1,0,0:0:0:0:
320,192,118894,128,0,118937:0:0:0:0:
64,192,118894,1,0,0:0:0:0:
192,192,119066,128,0,119110:0:0:0:0:
320,192,119066,1,0,0:0:0:0:
320,192,119239,128,0,119282:0:0:0:0:
192,192,119239,1,0,0:0:0:0:
64,192,119411,128,0,119454:0:0:0:0:
320,192,119411,1,0,0:0:0:0:
192,192,119584,128,0,119627:0:0:0:0:
64,192,119584,1,0,0:0:0:0:
448,192,119756,128,0,119799:0:0:0:0:
192,192,119756,1,0,0:0:0:0:
192,192,119929,128,0,119972:0:0:0:0:
448,192,119929,1,0,0:0:0:0:
448,192,120101,128,0,120144:0:0:0:0:
192,192,120101,1,0,0:0:0:0:
64,192,120273,128,0,120618:0:0:0:0:
448,192,120273,1,0,0:0:0:0:
448,192,120618,128,0,120791:0:0:0:0:
192,192,120618,1,0,0:0:0:0:
192,192,120791,128,0,120963:0:0:0:0:
320,192,120791,1,0,0:0:0:0:
64,192,120963,1,0,0:0:0:0:
320,192,120963,128,0,121135:0:0:0:0:
64,192,121135,1,0,0:0:0:0:
192,192,121222,128,0,121480:0:0:0:0:
448,192,121222,1,0,0:0:0:0:
320,192,121222,1,0,0:0:0:0:
320,192,121480,1,0,0:0:0:0:
448,192,121480,1,0,0:0:0:0:
64,192,121653,1,0,0:0:0:0:
448,192,121653,1,0,0:0:0:0:
192,192,121696,1,0,0:0:0:0:
320,192,121739,1,0,0:0:0:0:
448,192,121782,1,0,0:0:0:0:
64,192,121825,1,0,0:0:0:0:
192,192,121868,1,0,0:0:0:0:
320,192,121911,1,0,0:0:0:0:
448,192,121954,1,0,0:0:0:0:
64,192,121998,128,0,122084:0:0:0:0:
448,192,122170,1,0,0:0:0:0:
320,192,122170,1,0,0:0:0:0:
64,192,122342,1,0,0:0:0:0:
320,192,122342,1,0,0:0:0:0:
64,192,122515,1,0,0:0:0:0:
320,192,122601,1,0,0:0:0:0:
448,192,122601,128,0,122860:0:0:0:0:
192,192,122601,1,0,0:0:0:0:
192,192,122860,1,0,0:0:0:0:
64,192,122860,1,0,0:0:0:0:
448,192,122946,1,0,0:0:0:0:
320,192,122989,1,0,0:0:0:0:
64,192,123032,1,0,0:0:0:0:
192,192,123075,1,0,0:0:0:0:
448,192,123118,1,0,0:0:0:0:
320,192,123161,1,0,0:0:0:0:
64,192,123204,1,0,0:0:0:0:
192,192,123248,1,0,0:0:0:0:
448,192,123291,1,0,0:0:0:0:
320,192,123334,1,0,0:0:0:0:
64,192,123377,128,0,123420:0:0:0:0:
192,192,123377,1,0,0:0:0:0:
320,192,123549,128,0,123592:0:0:0:0:
64,192,123549,1,0,0:0:0:0:
448,192,123722,128,0,123765:0:0:0:0:
320,192,123722,1,0,0:0:0:0:
320,192,123894,128,0,123937:0:0:0:0:
448,192,123894,1,0,0:0:0:0:
448,192,124066,128,0,124110:0:0:0:0:
320,192,124066,1,0,0:0:0:0:
192,192,124239,128,0,124282:0:0:0:0:
448,192,124239,1,0,0:0:0:0:
448,192,124411,128,0,124454:0:0:0:0:
192,192,124411,1,0,0:0:0:0:
64,192,124584,128,0,124627:0:0:0:0:
448,192,124584,1,0,0:0:0:0:
320,192,124756,128,0,124799:0:0:0:0:
64,192,124756,1,0,0:0:0:0:
64,192,124929,128,0,124972:0:0:0:0:
320,192,124929,1,0,0:0:0:0:
448,192,125101,128,0,125144:0:0:0:0:
64,192,125101,1,0,0:0:0:0:
320,192,125273,128,0,125316:0:0:0:0:
448,192,125273,1,0,0:0:0:0:
192,192,125446,128,0,125489:0:0:0:0:
320,192,125446,1,0,0:0:0:0:
320,192,125618,128,0,125661:0:0:0:0:
192,192,125618,1,0,0:0:0:0:
64,192,125791,128,0,126135:0:0:0:0:
320,192,125791,1,0,0:0:0:0:
448,192,126135,1,0,0:0:0:0:
192,192,126135,1,0,0:0:0:0:
320,192,126480,128,0,126566:0:0:0:0:
64,192,126480,1,0,0:0:0:0:
448,192,126653,128,0,126739:0:0:0:0:
192,192,126653,1,0,0:0:0:0:
64,192,126825,128,0,126911:0:0:0:0:
320,192,126825,1,0,0:0:0:0:
320,192,126998,128,0,127084:0:0:0:0:
192,192,126998,1,0,0:0:0:0:
64,192,127170,1,0,0:0:0:0:
448,192,127170,128,0,127342:0:0:0:0:
192,192,127342,1,0,0:0:0:0:
64,192,127429,128,0,127687:0:0:0:0:
448,192,127687,1,0,0:0:0:0:
192,192,127687,1,0,0:0:0:0:
192,192,127860,128,0,128032:0:0:0:0:
320,192,127860,1,0,0:0:0:0:
64,192,128032,128,0,128204:0:0:0:0:
448,192,128204,128,0,128377:0:0:0:0:
192,192,128377,128,0,128549:0:0:0:0:
64,192,128377,1,0,0:0:0:0:
448,192,128549,1,0,0:0:0:0:
320,192,128592,1,0,0:0:0:0:
64,192,128635,1,0,0:0:0:0:
192,192,128679,1,0,0:0:0:0:
448,192,128722,1,0,0:0:0:0:
320,192,128765,1,0,0:0:0:0:
64,192,128808,1,0,0:0:0:0:
192,192,128851,1,0,0:0:0:0:
448,192,128894,1,0,0:0:0:0:
320,192,128894,1,0,0:0:0:0:
64,192,128894,1,0,0:0:0:0:
192,192,129066,1,0,0:0:0:0:
64,192,129066,1,0,0:0:0:0:
192,192,129239,1,0,0:0:0:0:
64,192,129239,1,0,0:0:0:0:
448,192,129411,1,0,0:0:0:0:
64,192,129411,1,0,0:0:0:0:
320,192,129411,1,0,0:0:0:0:
320,192,129584,1,0,0:0:0:0:
192,192,129584,1,0,0:0:0:0:
320,192,129756,1,0,0:0:0:0:
192,192,129756,1,0,0:0:0:0:
64,192,129929,1,0,0:0:0:0:
192,192,129929,1,0,0:0:0:0:
448,192,129929,1,0,0:0:0:0:
192,192,130101,1,0,0:0:0:0:
64,192,130101,1,0,0:0:0:0:
448,192,130273,1,0,0:0:0:0:
320,192,130273,1,0,0:0:0:0:
64,192,130273,1,0,0:0:0:0:
320,192,130446,1,0,0:0:0:0:
448,192,130446,1,0,0:0:0:0:
320,192,130618,1,0,0:0:0:0:
448,192,130618,1,0,0:0:0:0:
64,192,130791,1,0,0:0:0:0:
448,192,130791,1,0,0:0:0:0:
192,192,130791,1,0,0:0:0:0:
192,192,130963,1,0,0:0:0:0:
320,192,130963,1,0,0:0:0:0:
192,192,131135,1,0,0:0:0:0:
320,192,131135,1,0,0:0:0:0:
64,192,131308,1,0,0:0:0:0:
448,192,131308,1,0,0:0:0:0:
320,192,131308,1,0,0:0:0:0:
192,192,131480,1,0,0:0:0:0:
320,192,131480,1,0,0:0:0:0:
320,192,131653,1,0,0:0:0:0:
448,192,131653,1,0,0:0:0:0:
64,192,131653,1,0,0:0:0:0:
192,192,131825,1,0,0:0:0:0:
64,192,131911,1,0,0:0:0:0:
192,192,131998,1,0,0:0:0:0:
448,192,131998,1,0,0:0:0:0:
320,192,132170,1,0,0:0:0:0:
192,192,132256,1,0,0:0:0:0:
64,192,132342,1,0,0:0:0:0:
320,192,132342,1,0,0:0:0:0:
320,192,132515,1,0,0:0:0:0:
448,192,132601,1,0,0:0:0:0:
64,192,132687,1,0,0:0:0:0:
320,192,132687,1,0,0:0:0:0:
192,192,132860,1,0,0:0:0:0:
320,192,132946,1,0,0:0:0:0:
448,192,133032,1,0,0:0:0:0:
192,192,133032,1,0,0:0:0:0:
64,192,133722,1,0,0:0:0:0:
192,192,133808,1,0,0:0:0:0:
448,192,133894,1,0,0:0:0:0:
320,192,133980,1,0,0:0:0:0:
192,192,134066,1,0,0:0:0:0:
320,192,134153,1,0,0:0:0:0:
192,192,134239,1,0,0:0:0:0:
320,192,134325,1,0,0:0:0:0:
64,192,134411,1,0,0:0:0:0:
448,192,134411,1,0,0:0:0:0:
192,192,134411,128,0,134454:0:0:0:0:
192,192,134584,1,0,0:0:0:0:
320,192,134756,1,0,0:0:0:0:
64,192,134929,1,0,0:0:0:0:
192,192,134929,128,0,134972:0:0:0:0:
320,192,135101,1,0,0:0:0:0:
448,192,135273,1,0,0:0:0:0:
192,192,135273,128,0,135316:0:0:0:0:
448,192,135446,1,0,0:0:0:0:
320,192,135618,1,0,0:0:0:0:
64,192,135791,1,0,0:0:0:0:
448,192,135791,128,0,135834:0:0:0:0:
192,192,135963,1,0,0:0:0:0:
320,192,136135,1,0,0:0:0:0:
64,192,136308,1,0,0:0:0:0:
448,192,136308,128,0,136351:0:0:0:0:
192,192,136480,1,0,0:0:0:0:
448,192,136653,1,0,0:0:0:0:
448,192,136825,1,0,0:0:0:0:
320,192,136998,1,0,0:0:0:0:
64,192,137170,1,0,0:0:0:0:
448,192,137170,128,0,137213:0:0:0:0:
192,192,137342,1,0,0:0:0:0:
448,192,137515,1,0,0:0:0:0:
64,192,137687,1,0,0:0:0:0:
320,192,137687,128,0,137730:0:0:0:0:
192,192,137860,1,0,0:0:0:0:
320,192,138032,1,0,0:0:0:0:
320,192,138204,1,0,0:0:0:0:
192,192,138377,1,0,0:0:0:0:
64,192,138549,1,0,0:0:0:0:
320,192,138549,128,0,138592:0:0:0:0:
192,192,138722,1,0,0:0:0:0:
320,192,138894,1,0,0:0:0:0:
64,192,139066,1,0,0:0:0:0:
192,192,139066,128,0,139110:0:0:0:0:
448,192,139239,1,0,0:0:0:0:
320,192,139411,1,0,0:0:0:0:
192,192,139584,1,0,0:0:0:0:
64,192,139756,1,0,0:0:0:0:
320,192,139929,128,0,140360:0:0:0:0:
448,192,139929,1,0,0:0:0:0:
64,192,140101,1,0,0:0:0:0:
192,192,140273,1,0,0:0:0:0:
320,192,140446,128,0,141222:0:0:0:0:
64,192,140446,1,0,0:0:0:0:
64,192,140618,1,0,0:0:0:0:
192,192,140791,1,0,0:0:0:0:
192,192,140963,1,0,0:0:0:0:
64,192,141135,1,0,0:0:0:0:
320,192,141308,128,0,141739:0:0:0:0:
448,192,141308,1,0,0:0:0:0:
192,192,141480,1,0,0:0:0:0:
448,192,141653,1,0,0:0:0:0:
320,192,141825,128,0,142601:0:0:0:0:
64,192,141825,1,0,0:0:0:0:
192,192,141998,1,0,0:0:0:0:
448,192,142170,1,0,0:0:0:0:
448,192,142342,1,0,0:0:0:0:
192,192,142515,1,0,0:0:0:0:
64,192,142687,128,0,143118:0:0:0:0:
448,192,142687,1,0,0:0:0:0:
192,192,142860,1,0,0:0:0:0:
320,192,143032,1,0,0:0:0:0:
64,192,143204,128,0,143980:0:0:0:0:
192,192,143204,1,0,0:0:0:0:
192,192,143377,1,0,0:0:0:0:
320,192,143549,1,0,0:0:0:0:
320,192,143722,1,0,0:0:0:0:
192,192,143894,1,0,0:0:0:0:
64,192,144066,128,0,144498:0:0:0:0:
320,192,144066,1,0,0:0:0:0:
192,192,144239,1,0,0:0:0:0:
448,192,144411,1,0,0:0:0:0:
192,192,144584,128,0,145360:0:0:0:0:
320,192,144584,1,0,0:0:0:0:
320,192,144756,1,0,0:0:0:0:
448,192,144929,1,0,0:0:0:0:
320,192,145101,1,0,0:0:0:0:
64,192,145273,1,0,0:0:0:0:
448,192,145446,128,0,145489:0:0:0:0:
192,192,145446,1,0,0:0:0:0:
64,192,145618,1,0,0:0:0:0:
320,192,145791,1,0,0:0:0:0:
64,192,145963,1,0,0:0:0:0:
192,192,145963,128,0,146006:0:0:0:0:
192,192,146135,1,0,0:0:0:0:
320,192,146308,1,0,0:0:0:0:
320,192,146480,1,0,0:0:0:0:
192,192,146653,1,0,0:0:0:0:
64,192,146825,1,0,0:0:0:0:
320,192,146825,128,0,146868:0:0:0:0:
192,192,146998,1,0,0:0:0:0:
320,192,147170,1,0,0:0:0:0:
192,192,147342,1,0,0:0:0:0:
64,192,147342,128,0,147385:0:0:0:0:
320,192,147515,1,0,0:0:0:0:
448,192,147687,1,0,0:0:0:0:
448,192,147860,1,0,0:0:0:0:
320,192,148032,1,0,0:0:0:0:
64,192,148204,1,0,0:0:0:0:
448,192,148204,128,0,148248:0:0:0:0:
192,192,148377,1,0,0:0:0:0:
320,192,148549,1,0,0:0:0:0:
64,192,148722,1,0,0:0:0:0:
192,192,148722,128,0,148765:0:0:0:0:
192,192,148894,1,0,0:0:0:0:
320,192,149066,1,0,0:0:0:0:
320,192,149239,1,0,0:0:0:0:
192,192,149411,1,0,0:0:0:0:
64,192,149584,1,0,0:0:0:0:
320,192,149584,128,0,149627:0:0:0:0:
192,192,149756,1,0,0:0:0:0:
320,192,149929,1,0,0:0:0:0:
64,192,150101,1,0,0:0:0:0:
192,192,150101,128,0,150144:0:0:0:0:
448,192,150273,1,0,0:0:0:0:
320,192,150446,1,0,0:0:0:0:
192,192,150618,1,0,0:0:0:0:
64,192,150791,1,0,0:0:0:0:
192,192,150963,1,0,0:0:0:0:
448,192,150963,128,0,151006:0:0:0:0:
320,192,151135,1,0,0:0:0:0:
448,192,151308,1,0,0:0:0:0:
64,192,151480,1,0,0:0:0:0:
448,192,151480,128,0,151523:0:0:0:0:
192,192,151653,1,0,0:0:0:0:
320,192,151825,1,0,0:0:0:0:
320,192,151998,1,0,0:0:0:0:
192,192,152170,1,0,0:0:0:0:
64,192,152342,1,0,0:0:0:0:
320,192,152342,128,0,152385:0:0:0:0:
192,192,152515,1,0,0:0:0:0:
320,192,152687,1,0,0:0:0:0:
192,192,152860,1,0,0:0:0:0:
64,192,152860,128,0,152903:0:0:0:0:
320,192,153032,1,0,0:0:0:0:
448,192,153204,1,0,0:0:0:0:
448,192,153377,1,0,0:0:0:0:
320,192,153549,1,0,0:0:0:0:
64,192,153722,128,0,156135:0:0:0:0:
192,192,153722,1,0,0:0:0:0:
320,192,153894,1,0,0:0:0:0:
448,192,154066,1,0,0:0:0:0:
192,192,154239,1,0,0:0:0:0:
320,192,154239,128,0,154282:0:0:0:0:
192,192,154411,1,0,0:0:0:0:
448,192,154584,1,0,0:0:0:0:
448,192,154756,1,0,0:0:0:0:
320,192,154929,1,0,0:0:0:0:
192,192,155101,128,0,156135:0:0:0:0:
448,192,155101,1,0,0:0:0:0:
320,192,155273,1,0,0:0:0:0:
448,192,155446,1,0,0:0:0:0:
320,192,155618,1,0,0:0:0:0:
448,192,155791,1,0,0:0:0:0:
448,192,155963,1,0,0:0:0:0:
448,192,156480,128,0,157773:0:0:0:0:
64,192,156480,1,0,0:0:0:0:
192,192,156480,1,0,0:0:0:0:
320,192,156480,128,0,157773:0:0:0:0:
64,192,157515,128,0,157773:0:0:0:0:
320,192,157860,1,0,0:0:0:0:
64,192,157860,1,0,0:0:0:0:
448,192,157860,128,0,158291:0:0:0:0:
192,192,157860,128,0,158291:0:0:0:0:
448,192,158377,1,0,0:0:0:0:
64,192,158377,128,0,158808:0:0:0:0:
192,192,158377,128,0,158808:0:0:0:0:
320,192,158377,1,0,0:0:0:0:
448,192,158894,128,0,160532:0:0:0:0:
192,192,158894,1,0,0:0:0:0:
64,192,158894,1,0,0:0:0:0:
320,192,158894,128,0,160532:0:0:0:0:
192,192,159239,128,0,160532:0:0:0:0:
64,192,160273,128,0,160532:0:0:0:0:
192,192,160618,128,0,161049:0:0:0:0:
64,192,160618,1,0,0:0:0:0:
448,192,160618,1,0,0:0:0:0:
320,192,160618,128,0,161049:0:0:0:0:
448,192,161135,128,0,161566:0:0:0:0:
64,192,161135,128,0,161566:0:0:0:0:
192,192,161135,1,0,0:0:0:0:
320,192,161135,1,0,0:0:0:0:
64,192,161653,128,0,163377:0:0:0:0:
320,192,161653,128,0,163377:0:0:0:0:
192,192,161653,1,0,0:0:0:0:
448,192,161653,1,0,0:0:0:0:
64,192,163722,128,0,164066:0:0:0:0:
192,192,164066,128,0,164411:0:0:0:0:
320,192,164411,128,0,164670:0:0:0:0:
320,192,164756,128,0,165963:0:0:0:0:
64,192,166135,128,0,166653:0:0:0:0:
320,192,166480,128,0,166653:0:0:0:0:
448,192,166653,128,0,167429:0:0:0:0:
192,192,166653,128,0,167429:0:0:0:0:
320,192,167515,1,0,0:0:0:0:
64,192,167515,128,0,168808:0:0:0:0:
448,192,167515,1,0,0:0:0:0:
192,192,167515,128,0,168808:0:0:0:0:
320,192,168549,128,0,168808:0:0:0:0:
448,192,168894,128,0,169325:0:0:0:0:
192,192,168894,128,0,169325:0:0:0:0:
64,192,168894,1,0,0:0:0:0:
320,192,168894,1,0,0:0:0:0:
192,192,169411,128,0,169842:0:0:0:0:
320,192,169411,128,0,169842:0:0:0:0:
64,192,169411,1,0,0:0:0:0:
448,192,169411,1,0,0:0:0:0:
64,192,169929,128,0,171566:0:0:0:0:
448,192,169929,128,0,171566:0:0:0:0:
192,192,169929,1,0,0:0:0:0:
320,192,169929,1,0,0:0:0:0:
320,192,170273,128,0,171566:0:0:0:0:
192,192,171308,128,0,171566:0:0:0:0:
64,192,171653,1,0,0:0:0:0:
192,192,171653,128,0,172084:0:0:0:0:
448,192,171653,128,0,172084:0:0:0:0:
320,192,171653,1,0,0:0:0:0:
320,192,172170,128,0,172601:0:0:0:0:
448,192,172170,128,0,172601:0:0:0:0:
192,192,172170,1,0,0:0:0:0:
64,192,172170,1,0,0:0:0:0:
64,192,172687,128,0,174411:0:0:0:0:
192,192,172687,128,0,174411:0:0:0:0:
320,192,172687,1,0,0:0:0:0:
448,192,172687,1,0,0:0:0:0:
64,192,174756,128,0,175101:0:0:0:0:
192,192,175101,128,0,175446:0:0:0:0:
320,192,175446,128,0,175791:0:0:0:0:
448,192,175791,128,0,177170:0:0:0:0:
64,192,175791,1,0,0:0:0:0:
64,192,176135,1,0,0:0:0:0:
192,192,176222,1,0,0:0:0:0:
320,192,176308,1,0,0:0:0:0:
192,192,176394,1,0,0:0:0:0:
64,192,176480,1,0,0:0:0:0:
192,192,176566,1,0,0:0:0:0:
320,192,176653,1,0,0:0:0:0:
192,192,176739,1,0,0:0:0:0:
64,192,176825,1,0,0:0:0:0:
192,192,176911,1,0,0:0:0:0:
320,192,176998,1,0,0:0:0:0:
192,192,177084,1,0,0:0:0:0:
64,192,177170,1,0,0:0:0:0:
192,192,177256,1,0,0:0:0:0:
448,192,177342,1,0,0:0:0:0:
320,192,177429,1,0,0:0:0:0:
64,192,177515,1,0,0:0:0:0:
192,192,177601,1,0,0:0:0:0:
448,192,177687,1,0,0:0:0:0:
320,192,177773,1,0,0:0:0:0:
64,192,177860,1,0,0:0:0:0:
192,192,177860,1,0,0:0:0:0:
320,192,177946,1,0,0:0:0:0:
448,192,177946,1,0,0:0:0:0:
192,192,178032,1,0,0:0:0:0:
64,192,178032,1,0,0:0:0:0:
320,192,178118,1,0,0:0:0:0:
448,192,178118,1,0,0:0:0:0:
192,192,178204,1,0,0:0:0:0:
64,192,178204,1,0,0:0:0:0:
320,192,178291,1,0,0:0:0:0:
448,192,178291,1,0,0:0:0:0:
192,192,178377,1,0,0:0:0:0:
64,192,178377,1,0,0:0:0:0:
320,192,178463,1,0,0:0:0:0:
448,192,178463,1,0,0:0:0:0:
192,192,178549,1,0,0:0:0:0:
64,192,178549,1,0,0:0:0:0:
320,192,178549,1,0,0:0:0:0:
448,192,178549,128,0,178722:0:0:0:0:
64,192,178894,128,0,179066:0:0:0:0:
192,192,178894,1,0,0:0:0:0:
448,192,178894,1,0,0:0:0:0:
320,192,179239,128,0,179411:0:0:0:0:
448,192,179239,1,0,0:0:0:0:
192,192,179239,1,0,0:0:0:0:
192,192,179584,128,0,179756:0:0:0:0:
64,192,179584,1,0,0:0:0:0:
448,192,179584,1,0,0:0:0:0:
448,192,179929,128,0,180101:0:0:0:0:
320,192,179929,1,0,0:0:0:0:
192,192,179929,1,0,0:0:0:0:
64,192,180273,1,0,0:0:0:0:
320,192,180273,1,0,0:0:0:0:
192,192,180446,1,0,0:0:0:0:
448,192,180618,1,0,0:0:0:0:
64,192,180618,1,0,0:0:0:0:
192,192,180791,1,0,0:0:0:0:
320,192,180963,1,0,0:0:0:0:
448,192,180963,1,0,0:0:0:0:
64,192,181135,1,0,0:0:0:0:
320,192,181308,128,0,181480:0:0:0:0:
448,192,181308,1,0,0:0:0:0:
192,192,181308,1,0,0:0:0:0:
64,192,181653,128,0,181825:0:0:0:0:
192,192,181653,1,0,0:0:0:0:
448,192,181653,1,0,0:0:0:0:
448,192,181998,128,0,182170:0:0:0:0:
64,192,181998,1,0,0:0:0:0:
192,192,181998,1,0,0:0:0:0:
192,192,182342,128,0,182515:0:0:0:0:
64,192,182342,1,0,0:0:0:0:
320,192,182342,1,0,0:0:0:0:
320,192,182687,128,0,183032:0:0:0:0:
64,192,182687,1,0,0:0:0:0:
448,192,182687,1,0,0:0:0:0:
192,192,183032,128,0,183204:0:0:0:0:
64,192,183032,1,0,0:0:0:0:
448,192,183032,1,0,0:0:0:0:
448,192,183377,1,0,0:0:0:0:
192,192,183377,1,0,0:0:0:0:
448,192,183549,1,0,0:0:0:0:
64,192,183722,1,0,0:0:0:0:
320,192,183722,1,0,0:0:0:0:
64,192,183894,1,0,0:0:0:0:
448,192,184066,128,0,184239:0:0:0:0:
320,192,184066,1,0,0:0:0:0:
192,192,184066,1,0,0:0:0:0:
320,192,184411,128,0,184584:0:0:0:0:
192,192,184411,1,0,0:0:0:0:
448,192,184411,1,0,0:0:0:0:
448,192,184756,128,0,184929:0:0:0:0:
320,192,184756,1,0,0:0:0:0:
64,192,184756,1,0,0:0:0:0:
64,192,185101,128,0,185273:0:0:0:0:
192,192,185101,1,0,0:0:0:0:
320,192,185101,1,0,0:0:0:0:
192,192,185446,128,0,185618:0:0:0:0:
320,192,185446,1,0,0:0:0:0:
64,192,185446,1,0,0:0:0:0:
320,192,185791,128,0,185963:0:0:0:0:
64,192,185791,1,0,0:0:0:0:
448,192,185791,1,0,0:0:0:0:
320,192,186135,128,0,186308:0:0:0:0:
448,192,186135,1,0,0:0:0:0:
192,192,186308,128,0,186480:0:0:0:0:
448,192,186480,128,0,186653:0:0:0:0:
320,192,186480,1,0,0:0:0:0:
64,192,186653,128,0,186825:0:0:0:0:
320,192,186825,1,0,0:0:0:0:
448,192,186825,1,0,0:0:0:0:
320,192,187170,128,0,187342:0:0:0:0:
192,192,187170,1,0,0:0:0:0:
448,192,187170,1,0,0:0:0:0:
192,192,187515,128,0,187687:0:0:0:0:
64,192,187515,1,0,0:0:0:0:
448,192,187515,1,0,0:0:0:0:
448,192,187860,128,0,188032:0:0:0:0:
320,192,187860,1,0,0:0:0:0:
192,192,187860,1,0,0:0:0:0:
320,192,188204,128,0,188377:0:0:0:0:
192,192,188204,1,0,0:0:0:0:
448,192,188204,1,0,0:0:0:0:
192,192,188549,128,0,188722:0:0:0:0:
320,192,188549,1,0,0:0:0:0:
448,192,188549,1,0,0:0:0:0:
64,192,188894,1,0,0:0:0:0:
192,192,188894,1,0,0:0:0:0:
320,192,189066,1,0,0:0:0:0:
448,192,189153,1,0,0:0:0:0:
64,192,189239,1,0,0:0:0:0:
448,192,189411,1,0,0:0:0:0:
320,192,189584,128,0,189756:0:0:0:0:
192,192,189584,1,0,0:0:0:0:
64,192,189584,1,0,0:0:0:0:
64,192,189929,128,0,190101:0:0:0:0:
192,192,189929,1,0,0:0:0:0:
448,192,189929,1,0,0:0:0:0:
192,192,190273,128,0,190446:0:0:0:0:
64,192,190273,1,0,0:0:0:0:
320,192,190273,1,0,0:0:0:0:
320,192,190618,128,0,190791:0:0:0:0:
448,192,190618,1,0,0:0:0:0:
64,192,190618,1,0,0:0:0:0:
448,192,190963,128,0,191135:0:0:0:0:
64,192,190963,1,0,0:0:0:0:
192,192,190963,1,0,0:0:0:0:
64,192,191308,1,0,0:0:0:0:
192,192,191308,128,0,191480:0:0:0:0:
320,192,191308,1,0,0:0:0:0:
192,192,191653,128,0,191825:0:0:0:0:
64,192,191653,1,0,0:0:0:0:
320,192,191825,128,0,191998:0:0:0:0:
448,192,191998,128,0,192170:0:0:0:0:
192,192,191998,1,0,0:0:0:0:
64,192,192170,1,0,0:0:0:0:
192,192,192342,1,0,0:0:0:0:
64,192,192342,128,0,192515:0:0:0:0:
320,192,192342,1,0,0:0:0:0:
192,192,192687,128,0,192860:0:0:0:0:
320,192,192687,1,0,0:0:0:0:
448,192,192687,1,0,0:0:0:0:
320,192,193032,128,0,193204:0:0:0:0:
192,192,193032,1,0,0:0:0:0:
448,192,193032,1,0,0:0:0:0:
448,192,193377,128,0,193549:0:0:0:0:
192,192,193377,1,0,0:0:0:0:
64,192,193377,1,0,0:0:0:0:
192,192,193722,128,0,194066:0:0:0:0:
64,192,193722,1,0,0:0:0:0:
320,192,193722,1,0,0:0:0:0:
320,192,194066,128,0,194239:0:0:0:0:
448,192,194066,1,0,0:0:0:0:
448,192,194411,128,0,194584:0:0:0:0:
192,192,194411,1,0,0:0:0:0:
64,192,194411,1,0,0:0:0:0:
320,192,194584,128,0,194756:0:0:0:0:
192,192,194756,128,0,194929:0:0:0:0:
448,192,194756,1,0,0:0:0:0:
64,192,194929,128,0,195101:0:0:0:0:
320,192,194929,1,0,0:0:0:0:
320,192,195101,1,0,0:0:0:0:
448,192,195101,128,0,195273:0:0:0:0:
192,192,195101,1,0,0:0:0:0:
64,192,195446,128,0,195618:0:0:0:0:
192,192,195446,1,0,0:0:0:0:
320,192,195446,1,0,0:0:0:0:
192,192,195791,1,0,0:0:0:0:
448,192,195791,1,0,0:0:0:0:
320,192,195791,128,0,195963:0:0:0:0:
192,192,196135,128,0,196308:0:0:0:0:
64,192,196135,1,0,0:0:0:0:
448,192,196135,1,0,0:0:0:0:
320,192,196480,128,0,196653:0:0:0:0:
192,192,196480,1,0,0:0:0:0:
448,192,196480,1,0,0:0:0:0:
448,192,196825,128,0,196998:0:0:0:0:
192,192,196825,1,0,0:0:0:0:
64,192,196825,1,0,0:0:0:0:
64,192,197170,1,0,0:0:0:0:
320,192,197170,1,0,0:0:0:0:
192,192,197342,1,0,0:0:0:0:
448,192,197515,1,0,0:0:0:0:
64,192,197515,1,0,0:0:0:0:
320,192,197687,1,0,0:0:0:0:
192,192,197687,1,0,0:0:0:0:
448,192,197860,1,0,0:0:0:0:
192,192,197860,1,0,0:0:0:0:
320,192,198204,128,0,198377:0:0:0:0:
448,192,198204,1,0,0:0:0:0:
192,192,198204,1,0,0:0:0:0:
192,192,198549,128,0,198722:0:0:0:0:
64,192,198549,1,0,0:0:0:0:
448,192,198549,1,0,0:0:0:0:
448,192,198894,128,0,199066:0:0:0:0:
320,192,198894,1,0,0:0:0:0:
192,192,198894,1,0,0:0:0:0:
192,192,199239,128,0,199584:0:0:0:0:
64,192,199239,1,0,0:0:0:0:
320,192,199239,1,0,0:0:0:0:
320,192,199584,1,0,0:0:0:0:
448,192,199584,1,0,0:0:0:0:
192,192,199929,1,0,0:0:0:0:
320,192,199929,1,0,0:0:0:0:
192,192,200101,1,0,0:0:0:0:
320,192,200273,1,0,0:0:0:0:
448,192,200273,1,0,0:0:0:0:
320,192,200446,1,0,0:0:0:0:
192,192,200618,128,0,200791:0:0:0:0:
64,192,200618,1,0,0:0:0:0:
448,192,200618,1,0,0:0:0:0:
320,192,200791,1,0,0:0:0:0:
320,192,200963,128,0,201135:0:0:0:0:
448,192,200963,1,0,0:0:0:0:
64,192,200963,1,0,0:0:0:0:
192,192,201135,1,0,0:0:0:0:
64,192,201308,128,0,201480:0:0:0:0:
448,192,201308,1,0,0:0:0:0:
320,192,201308,1,0,0:0:0:0:
192,192,201480,1,0,0:0:0:0:
448,192,201653,128,0,201825:0:0:0:0:
320,192,201653,1,0,0:0:0:0:
64,192,201653,1,0,0:0:0:0:
64,192,201825,1,0,0:0:0:0:
192,192,201998,128,0,202170:0:0:0:0:
320,192,201998,1,0,0:0:0:0:
448,192,201998,1,0,0:0:0:0:
64,192,202170,1,0,0:0:0:0:
448,192,202342,128,0,202515:0:0:0:0:
64,192,202342,1,0,0:0:0:0:
320,192,202342,1,0,0:0:0:0:
192,192,202515,1,0,0:0:0:0:
64,192,202687,128,0,202860:0:0:0:0:
320,192,202687,1,0,0:0:0:0:
448,192,202687,1,0,0:0:0:0:
192,192,202860,1,0,0:0:0:0:
320,192,203032,128,0,203204:0:0:0:0:
448,192,203032,1,0,0:0:0:0:
64,192,203032,1,0,0:0:0:0:
192,192,203204,1,0,0:0:0:0:
320,192,203377,128,0,203549:0:0:0:0:
64,192,203377,1,0,0:0:0:0:
192,192,203377,1,0,0:0:0:0:
448,192,203549,1,0,0:0:0:0:
64,192,203722,128,0,203894:0:0:0:0:
192,192,203722,1,0,0:0:0:0:
320,192,203722,1,0,0:0:0:0:
448,192,203894,1,0,0:0:0:0:
192,192,204066,128,0,204239:0:0:0:0:
448,192,204066,1,0,0:0:0:0:
320,192,204066,1,0,0:0:0:0:
64,192,204239,1,0,0:0:0:0:
320,192,204411,128,0,204584:0:0:0:0:
448,192,204411,1,0,0:0:0:0:
64,192,204411,1,0,0:0:0:0:
192,192,204584,1,0,0:0:0:0:
448,192,204756,128,0,205101:0:0:0:0:
64,192,204756,1,0,0:0:0:0:
320,192,204929,1,0,0:0:0:0:
192,192,205101,128,0,205446:0:0:0:0:
64,192,205101,1,0,0:0:0:0:
448,192,205273,1,0,0:0:0:0:
320,192,205446,128,0,205791:0:0:0:0:
64,192,205446,1,0,0:0:0:0:
192,192,205618,1,0,0:0:0:0:
64,192,205791,128,0,206135:0:0:0:0:
448,192,205791,1,0,0:0:0:0:
192,192,205963,1,0,0:0:0:0:
448,192,206135,1,0,0:0:0:0:
320,192,206222,1,0,0:0:0:0:
192,192,206308,1,0,0:0:0:0:
320,192,206394,1,0,0:0:0:0:
448,192,206480,1,0,0:0:0:0:
64,192,206480,1,0,0:0:0:0:
192,192,206566,1,0,0:0:0:0:
320,192,206653,1,0,0:0:0:0:
192,192,206739,1,0,0:0:0:0:
64,192,206825,1,0,0:0:0:0:
448,192,206825,1,0,0:0:0:0:
320,192,206911,1,0,0:0:0:0:
192,192,206998,1,0,0:0:0:0:
320,192,207084,1,0,0:0:0:0:
448,192,207170,1,0,0:0:0:0:
64,192,207170,1,0,0:0:0:0:
192,192,207256,1,0,0:0:0:0:
320,192,207342,1,0,0:0:0:0:
192,192,207429,1,0,0:0:0:0:
64,192,207515,1,0,0:0:0:0:
448,192,207515,1,0,0:0:0:0:
192,192,207601,1,0,0:0:0:0:
320,192,207687,1,0,0:0:0:0:
448,192,207773,1,0,0:0:0:0:
64,192,207860,1,0,0:0:0:0:
320,192,207860,1,0,0:0:0:0:
192,192,207946,1,0,0:0:0:0:
320,192,208032,1,0,0:0:0:0:
448,192,208118,1,0,0:0:0:0:
64,192,208204,1,0,0:0:0:0:
192,192,208204,1,0,0:0:0:0:
320,192,208291,1,0,0:0:0:0:
192,192,208377,1,0,0:0:0:0:
64,192,208463,1,0,0:0:0:0:
192,192,208549,1,0,0:0:0:0:
448,192,208549,1,0,0:0:0:0:
320,192,208635,1,0,0:0:0:0:
192,192,208722,1,0,0:0:0:0:
64,192,208808,1,0,0:0:0:0:
320,192,208894,1,0,0:0:0:0:
448,192,208894,1,0,0:0:0:0:
192,192,208980,1,0,0:0:0:0:
64,192,208980,1,0,0:0:0:0:
320,192,209066,1,0,0:0:0:0:
448,192,209066,1,0,0:0:0:0:
192,192,209153,1,0,0:0:0:0:
64,192,209153,1,0,0:0:0:0:
320,192,209239,1,0,0:0:0:0:
448,192,209239,1,0,0:0:0:0:
192,192,209325,1,0,0:0:0:0:
64,192,209325,1,0,0:0:0:0:
320,192,209411,1,0,0:0:0:0:
448,192,209411,1,0,0:0:0:0:
192,192,209498,1,0,0:0:0:0:
64,192,209498,1,0,0:0:0:0:
320,192,209584,1,0,0:0:0:0:
448,192,209584,1,0,0:0:0:0:
192,192,209670,1,0,0:0:0:0:
64,192,209670,1,0,0:0:0:0:
320,192,209756,1,0,0:0:0:0:
448,192,209756,1,0,0:0:0:0:
192,192,209842,1,0,0:0:0:0:
64,192,209842,1,0,0:0:0:0:
320,192,209929,1,0,0:0:0:0:
448,192,209929,1,0,0:0:0:0:
192,192,210015,1,0,0:0:0:0:
64,192,210015,1,0,0:0:0:0:
448,192,210101,1,0,0:0:0:0:
320,192,210101,1,0,0:0:0:0:
192,192,210187,1,0,0:0:0:0:
64,192,210187,1,0,0:0:0:0:
448,192,210273,1,0,0:0:0:0:
320,192,210316,1,0,0:0:0:0:
192,192,210360,1,0,0:0:0:0:
64,192,210403,1,0,0:0:0:0:
448,192,210446,1,0,0:0:0:0:
320,192,210489,1,0,0:0:0:0:
64,192,210532,1,0,0:0:0:0:
192,192,210575,1,0,0:0:0:0:
320,192,210618,1,0,0:0:0:0:
448,192,210618,1,0,0:0:0:0:
64,192,210791,1,0,0:0:0:0:
192,192,210877,1,0,0:0:0:0:
320,192,210963,1,0,0:0:0:0:
448,192,211135,1,0,0:0:0:0:
64,192,211135,1,0,0:0:0:0:
320,192,211222,1,0,0:0:0:0:
192,192,211222,1,0,0:0:0:0:
448,192,211308,1,0,0:0:0:0:
64,192,211308,1,0,0:0:0:0:
64,192,211653,1,0,0:0:0:0:
320,192,211653,1,0,0:0:0:0:
448,192,211653,1,0,0:0:0:0:
192,192,211825,1,0,0:0:0:0:
64,192,211998,1,0,0:0:0:0:
448,192,211998,1,0,0:0:0:0:
320,192,212170,1,0,0:0:0:0:
448,192,212256,1,0,0:0:0:0:
192,192,212342,1,0,0:0:0:0:
320,192,212429,1,0,0:0:0:0:
64,192,212515,1,0,0:0:0:0:
192,192,212515,1,0,0:0:0:0:
192,192,212687,1,0,0:0:0:0:
448,192,212687,1,0,0:0:0:0:
448,192,212860,1,0,0:0:0:0:
320,192,212946,1,0,0:0:0:0:
64,192,213032,1,0,0:0:0:0:
192,192,213032,1,0,0:0:0:0:
320,192,213204,1,0,0:0:0:0:
192,192,213291,1,0,0:0:0:0:
320,192,213377,128,0,213549:0:0:0:0:
448,192,213377,1,0,0:0:0:0:
64,192,213549,128,0,213722:0:0:0:0:
192,192,213549,1,0,0:0:0:0:
448,192,213635,1,0,0:0:0:0:
320,192,213722,1,0,0:0:0:0:
64,192,213894,1,0,0:0:0:0:
192,192,213894,1,0,0:0:0:0:
320,192,213980,1,0,0:0:0:0:
448,192,214066,128,0,214239:0:0:0:0:
64,192,214066,1,0,0:0:0:0:
64,192,214239,128,0,214411:0:0:0:0:
320,192,214239,1,0,0:0:0:0:
192,192,214411,1,0,0:0:0:0:
320,192,214411,1,0,0:0:0:0:
192,192,214584,1,0,0:0:0:0:
320,192,214756,1,0,0:0:0:0:
64,192,214756,1,0,0:0:0:0:
448,192,214842,1,0,0:0:0:0:
320,192,214929,1,0,0:0:0:0:
64,192,215015,1,0,0:0:0:0:
192,192,215101,1,0,0:0:0:0:
320,192,215187,1,0,0:0:0:0:
64,192,215273,1,0,0:0:0:0:
192,192,215273,1,0,0:0:0:0:
192,192,215446,1,0,0:0:0:0:
448,192,215446,1,0,0:0:0:0:
64,192,215532,1,0,0:0:0:0:
320,192,215618,1,0,0:0:0:0:
448,192,215704,1,0,0:0:0:0:
64,192,215791,1,0,0:0:0:0:
192,192,215963,1,0,0:0:0:0:
320,192,215963,1,0,0:0:0:0:
448,192,215963,1,0,0:0:0:0:
448,192,216135,128,0,216308:0:0:0:0:
64,192,216135,1,0,0:0:0:0:
320,192,216135,1,0,0:0:0:0:
64,192,216308,128,0,216480:0:0:0:0:
192,192,216308,1,0,0:0:0:0:
320,192,216480,128,0,216653:0:0:0:0:
448,192,216480,1,0,0:0:0:0:
192,192,216653,128,0,216825:0:0:0:0:
64,192,216653,1,0,0:0:0:0:
448,192,216653,1,0,0:0:0:0:
448,192,216825,128,0,216998:0:0:0:0:
320,192,216825,1,0,0:0:0:0:
64,192,216825,1,0,0:0:0:0:
320,192,216998,1,0,0:0:0:0:
192,192,217084,1,0,0:0:0:0:
64,192,217084,1,0,0:0:0:0:
320,192,217170,1,0,0:0:0:0:
448,192,217170,1,0,0:0:0:0:
448,192,217342,128,0,217429:0:0:0:0:
192,192,217342,1,0,0:0:0:0:
320,192,217515,128,0,217601:0:0:0:0:
448,192,217515,1,0,0:0:0:0:
64,192,217687,128,0,217773:0:0:0:0:
192,192,217687,1,0,0:0:0:0:
192,192,217860,128,0,218032:0:0:0:0:
320,192,217860,1,0,0:0:0:0:
320,192,218204,1,0,0:0:0:0:
192,192,218291,1,0,0:0:0:0:
448,192,218377,128,0,218549:0:0:0:0:
64,192,218377,1,0,0:0:0:0:
64,192,218549,1,0,0:0:0:0:
192,192,218549,1,0,0:0:0:0:
192,192,218722,128,0,218894:0:0:0:0:
320,192,218808,1,0,0:0:0:0:
448,192,218894,1,0,0:0:0:0:
64,192,218894,1,0,0:0:0:0:
320,192,219066,128,0,219239:0:0:0:0:
192,192,219153,1,0,0:0:0:0:
64,192,219239,1,0,0:0:0:0:
448,192,219325,1,0,0:0:0:0:
320,192,219411,1,0,0:0:0:0:
192,192,219411,1,0,0:0:0:0:
448,192,219584,1,0,0:0:0:0:
320,192,219627,1,0,0:0:0:0:
192,192,219670,1,0,0:0:0:0:
64,192,219713,1,0,0:0:0:0:
448,192,219756,1,0,0:0:0:0:
320,192,219799,1,0,0:0:0:0:
192,192,219842,1,0,0:0:0:0:
64,192,219885,1,0,0:0:0:0:
320,192,219929,1,0,0:0:0:0:
448,192,219929,1,0,0:0:0:0:
448,192,220101,1,0,0:0:0:0:
320,192,220144,1,0,0:0:0:0:
192,192,220187,1,0,0:0:0:0:
64,192,220230,1,0,0:0:0:0:
448,192,220273,1,0,0:0:0:0:
320,192,220316,1,0,0:0:0:0:
64,192,220360,1,0,0:0:0:0:
192,192,220403,1,0,0:0:0:0:
320,192,220446,1,0,0:0:0:0:
448,192,220489,1,0,0:0:0:0:
64,192,220532,1,0,0:0:0:0:
192,192,220575,1,0,0:0:0:0:
448,192,220618,128,0,220704:0:0:0:0:
320,192,220618,1,0,0:0:0:0:
64,192,220791,1,0,0:0:0:0:
192,192,220791,1,0,0:0:0:0:
320,192,220877,1,0,0:0:0:0:
448,192,220963,128,0,221049:0:0:0:0:
64,192,220963,1,0,0:0:0:0:
192,192,221049,1,0,0:0:0:0:
64,192,221135,128,0,221222:0:0:0:0:
320,192,221135,1,0,0:0:0:0:
320,192,221480,1,0,0:0:0:0:
192,192,221480,1,0,0:0:0:0:
448,192,221566,1,0,0:0:0:0:
320,192,221653,1,0,0:0:0:0:
64,192,221653,1,0,0:0:0:0:
64,192,221825,1,0,0:0:0:0:
192,192,221911,1,0,0:0:0:0:
320,192,221998,1,0,0:0:0:0:
448,192,221998,1,0,0:0:0:0:
192,192,222084,1,0,0:0:0:0:
64,192,222084,1,0,0:0:0:0:
320,192,222170,1,0,0:0:0:0:
448,192,222170,1,0,0:0:0:0:
448,192,222342,1,0,0:0:0:0:
320,192,222385,1,0,0:0:0:0:
64,192,222429,1,0,0:0:0:0:
192,192,222472,1,0,0:0:0:0:
448,192,222515,1,0,0:0:0:0:
320,192,222558,1,0,0:0:0:0:
64,192,222601,1,0,0:0:0:0:
192,192,222644,1,0,0:0:0:0:
320,192,222687,1,0,0:0:0:0:
448,192,222687,1,0,0:0:0:0:
192,192,222860,1,0,0:0:0:0:
320,192,222860,1,0,0:0:0:0:
64,192,223032,1,0,0:0:0:0:
448,192,223032,1,0,0:0:0:0:
448,192,223204,1,0,0:0:0:0:
320,192,223291,1,0,0:0:0:0:
64,192,223377,1,0,0:0:0:0:
192,192,223463,1,0,0:0:0:0:
320,192,223549,1,0,0:0:0:0:
448,192,223549,1,0,0:0:0:0:
64,192,223722,1,0,0:0:0:0:
320,192,223722,1,0,0:0:0:0:
448,192,223894,1,0,0:0:0:0:
320,192,223980,1,0,0:0:0:0:
192,192,224066,1,0,0:0:0:0:
64,192,224066,1,0,0:0:0:0:
192,192,224239,1,0,0:0:0:0:
320,192,224325,1,0,0:0:0:0:
192,192,224411,128,0,224584:0:0:0:0:
448,192,224411,1,0,0:0:0:0:
64,192,224584,128,0,224756:0:0:0:0:
320,192,224584,1,0,0:0:0:0:
448,192,224670,1,0,0:0:0:0:
192,192,224756,1,0,0:0:0:0:
192,192,224929,1,0,0:0:0:0:
320,192,224929,1,0,0:0:0:0:
64,192,225015,1,0,0:0:0:0:
448,192,225101,128,0,225273:0:0:0:0:
192,192,225101,1,0,0:0:0:0:
64,192,225273,128,0,225446:0:0:0:0:
320,192,225273,1,0,0:0:0:0:
192,192,225360,1,0,0:0:0:0:
448,192,225446,128,0,225791:0:0:0:0:
320,192,225446,1,0,0:0:0:0:
64,192,225791,1,0,0:0:0:0:
320,192,225791,1,0,0:0:0:0:
192,192,225963,1,0,0:0:0:0:
320,192,226049,1,0,0:0:0:0:
448,192,226135,1,0,0:0:0:0:
192,192,226222,1,0,0:0:0:0:
320,192,226308,1,0,0:0:0:0:
64,192,226308,1,0,0:0:0:0:
64,192,226480,1,0,0:0:0:0:
448,192,226480,1,0,0:0:0:0:
192,192,226653,1,0,0:0:0:0:
320,192,226739,1,0,0:0:0:0:
64,192,226825,1,0,0:0:0:0:
192,192,226998,1,0,0:0:0:0:
320,192,226998,1,0,0:0:0:0:
448,192,227170,1,0,0:0:0:0:
64,192,227170,1,0,0:0:0:0:
320,192,227256,1,0,0:0:0:0:
192,192,227342,1,0,0:0:0:0:
64,192,227429,1,0,0:0:0:0:
448,192,227515,1,0,0:0:0:0:
192,192,227515,1,0,0:0:0:0:
320,192,227601,1,0,0:0:0:0:
192,192,227687,1,0,0:0:0:0:
64,192,227687,1,0,0:0:0:0:
64,192,227860,1,0,0:0:0:0:
448,192,227860,1,0,0:0:0:0:
320,192,228032,1,0,0:0:0:0:
192,192,228118,1,0,0:0:0:0:
64,192,228118,1,0,0:0:0:0:
320,192,228204,1,0,0:0:0:0:
448,192,228204,1,0,0:0:0:0:
192,192,228377,1,0,0:0:0:0:
64,192,228463,1,0,0:0:0:0:
448,192,228463,1,0,0:0:0:0:
192,192,228722,1,0,0:0:0:0:
448,192,228722,1,0,0:0:0:0:
64,192,229066,1,0,0:0:0:0:
192,192,229110,1,0,0:0:0:0:
320,192,229153,1,0,0:0:0:0:
448,192,229196,1,0,0:0:0:0:
64,192,229239,1,0,0:0:0:0:
192,192,229282,1,0,0:0:0:0:
320,192,229325,1,0,0:0:0:0:
448,192,229368,1,0,0:0:0:0:
192,192,229411,1,0,0:0:0:0:
64,192,229454,1,0,0:0:0:0:
448,192,229498,1,0,0:0:0:0:
320,192,229541,1,0,0:0:0:0:
192,192,229584,1,0,0:0:0:0:
64,192,229584,1,0,0:0:0:0:
320,192,229756,1,0,0:0:0:0:
64,192,229842,1,0,0:0:0:0:
448,192,229842,1,0,0:0:0:0:
192,192,230101,1,0,0:0:0:0:
320,192,230101,1,0,0:0:0:0:
448,192,230446,1,0,0:0:0:0:
64,192,230446,1,0,0:0:0:0:
320,192,230489,1,0,0:0:0:0:
192,192,230532,1,0,0:0:0:0:
64,192,230575,1,0,0:0:0:0:
448,192,230618,1,0,0:0:0:0:
320,192,230661,1,0,0:0:0:0:
192,192,230704,1,0,0:0:0:0:
64,192,230748,1,0,0:0:0:0:
448,192,230791,1,0,0:0:0:0:
320,192,230834,1,0,0:0:0:0:
192,192,230877,1,0,0:0:0:0:
64,192,230920,1,0,0:0:0:0:
320,192,230963,1,0,0:0:0:0:
448,192,230963,1,0,0:0:0:0:
192,192,231308,1,0,0:0:0:0:
320,192,231480,1,0,0:0:0:0:
192,192,231653,1,0,0:0:0:0:
320,192,231825,1,0,0:0:0:0:
192,192,231998,1,0,0:0:0:0:
320,192,232170,1,0,0:0:0:0:
192,192,232342,1,0,0:0:0:0:
64,192,232342,1,0,0:0:0:0:
320,192,232429,1,0,0:0:0:0:
448,192,232429,1,0,0:0:0:0:
192,192,232515,1,0,0:0:0:0:
64,192,232515,1,0,0:0:0:0:
320,192,232601,1,0,0:0:0:0:
448,192,232601,1,0,0:0:0:0:
192,192,232687,1,0,0:0:0:0:
64,192,232687,1,0,0:0:0:0:
320,192,232773,1,0,0:0:0:0:
448,192,232773,1,0,0:0:0:0:
192,192,232860,1,0,0:0:0:0:
64,192,232860,1,0,0:0:0:0:
320,192,232946,1,0,0:0:0:0:
448,192,232946,1,0,0:0:0:0:
64,192,233032,128,0,233635:0:0:0:0:
192,192,233032,128,0,233635:0:0:0:0:
320,192,233204,128,0,233635:0:0:0:0:
448,192,233377,128,0,233635:0:0:0:0:
64,192,233722,1,0,0:0:0:0:
192,192,233722,1,0,0:0:0:0:
320,192,233722,1,0,0:0:0:0:
448,192,233722,1,0,0:0:0:0:
192,192,234066,1,0,0:0:0:0:
448,192,234066,1,0,0:0:0:0:
192,192,234411,1,0,0:0:0:0:
320,192,234498,1,0,0:0:0:0:
192,192,234584,1,0,0:0:0:0:
64,192,234584,1,0,0:0:0:0:
448,192,234584,1,0,0:0:0:0:
192,192,234756,1,0,0:0:0:0:
448,192,234756,1,0,0:0:0:0:
64,192,234929,1,0,0:0:0:0:
192,192,235015,1,0,0:0:0:0:
320,192,235101,1,0,0:0:0:0:
448,192,235101,1,0,0:0:0:0:
64,192,235101,1,0,0:0:0:0:
192,192,235273,1,0,0:0:0:0:
320,192,235360,1,0,0:0:0:0:
192,192,235446,1,0,0:0:0:0:
448,192,235446,1,0,0:0:0:0:
320,192,235532,1,0,0:0:0:0:
192,192,235618,1,0,0:0:0:0:
64,192,235704,1,0,0:0:0:0:
320,192,235791,1,0,0:0:0:0:
448,192,235877,1,0,0:0:0:0:
192,192,235963,1,0,0:0:0:0:
64,192,235963,1,0,0:0:0:0:
320,192,235963,1,0,0:0:0:0:
448,192,236135,1,0,0:0:0:0:
64,192,236135,1,0,0:0:0:0:
192,192,236222,1,0,0:0:0:0:
320,192,236308,1,0,0:0:0:0:
192,192,236394,1,0,0:0:0:0:
320,192,236480,1,0,0:0:0:0:
448,192,236480,1,0,0:0:0:0:
192,192,236653,1,0,0:0:0:0:
64,192,236825,1,0,0:0:0:0:
448,192,236825,1,0,0:0:0:0:
320,192,236911,1,0,0:0:0:0:
448,192,236998,1,0,0:0:0:0:
320,192,237084,1,0,0:0:0:0:
192,192,237170,1,0,0:0:0:0:
448,192,237256,1,0,0:0:0:0:
320,192,237342,1,0,0:0:0:0:
192,192,237342,1,0,0:0:0:0:
64,192,237342,1,0,0:0:0:0:
64,192,237515,1,0,0:0:0:0:
448,192,237515,1,0,0:0:0:0:
320,192,237601,1,0,0:0:0:0:
192,192,237687,1,0,0:0:0:0:
320,192,237773,1,0,0:0:0:0:
192,192,237860,1,0,0:0:0:0:
320,192,238032,1,0,0:0:0:0:
448,192,238032,1,0,0:0:0:0:
64,192,238032,1,0,0:0:0:0:
64,192,238204,1,0,0:0:0:0:
448,192,238204,1,0,0:0:0:0:
192,192,238291,1,0,0:0:0:0:
320,192,238377,1,0,0:0:0:0:
192,192,238463,1,0,0:0:0:0:
320,192,238549,1,0,0:0:0:0:
448,192,238635,1,0,0:0:0:0:
320,192,238722,1,0,0:0:0:0:
192,192,238722,1,0,0:0:0:0:
64,192,238722,1,0,0:0:0:0:
448,192,238894,1,0,0:0:0:0:
192,192,238894,1,0,0:0:0:0:
320,192,238980,1,0,0:0:0:0:
64,192,239066,1,0,0:0:0:0:
320,192,239153,1,0,0:0:0:0:
448,192,239153,1,0,0:0:0:0:
192,192,239239,1,0,0:0:0:0:
64,192,239239,1,0,0:0:0:0:
320,192,239411,128,0,239498:0:0:0:0:
192,192,239411,1,0,0:0:0:0:
448,192,239584,128,0,239670:0:0:0:0:
64,192,239584,1,0,0:0:0:0:
64,192,239756,128,0,239842:0:0:0:0:
320,192,239756,1,0,0:0:0:0:
192,192,239929,128,0,240101:0:0:0:0:
320,192,240015,1,0,0:0:0:0:
448,192,240101,1,0,0:0:0:0:
320,192,240273,1,0,0:0:0:0:
192,192,240360,1,0,0:0:0:0:
320,192,240446,128,0,240618:0:0:0:0:
64,192,240446,1,0,0:0:0:0:
192,192,240618,1,0,0:0:0:0:
448,192,240618,1,0,0:0:0:0:
448,192,240791,128,0,240963:0:0:0:0:
320,192,240877,1,0,0:0:0:0:
64,192,240963,1,0,0:0:0:0:
192,192,240963,1,0,0:0:0:0:
192,192,241135,128,0,241308:0:0:0:0:
320,192,241222,1,0,0:0:0:0:
448,192,241308,1,0,0:0:0:0:
64,192,241308,1,0,0:0:0:0:
192,192,241480,1,0,0:0:0:0:
320,192,241480,1,0,0:0:0:0:
448,192,241653,1,0,0:0:0:0:
64,192,241653,1,0,0:0:0:0:
320,192,241696,1,0,0:0:0:0:
192,192,241739,1,0,0:0:0:0:
64,192,241782,1,0,0:0:0:0:
448,192,241825,1,0,0:0:0:0:
320,192,241868,1,0,0:0:0:0:
192,192,241911,1,0,0:0:0:0:
64,192,241954,1,0,0:0:0:0:
320,192,241998,1,0,0:0:0:0:
448,192,241998,1,0,0:0:0:0:
64,192,242170,1,0,0:0:0:0:
192,192,242213,1,0,0:0:0:0:
320,192,242256,1,0,0:0:0:0:
448,192,242299,1,0,0:0:0:0:
64,192,242342,1,0,0:0:0:0:
192,192,242385,1,0,0:0:0:0:
320,192,242429,1,0,0:0:0:0:
448,192,242472,1,0,0:0:0:0:
192,192,242515,1,0,0:0:0:0:
64,192,242558,1,0,0:0:0:0:
448,192,242601,1,0,0:0:0:0:
320,192,242644,1,0,0:0:0:0:
192,192,242687,128,0,242860:0:0:0:0:
320,192,242860,1,0,0:0:0:0:
448,192,242860,1,0,0:0:0:0:
64,192,243032,128,0,243118:0:0:0:0:
192,192,243032,1,0,0:0:0:0:
448,192,243032,1,0,0:0:0:0:
192,192,243204,128,0,243377:0:0:0:0:
320,192,243291,1,0,0:0:0:0:
448,192,243377,1,0,0:0:0:0:
64,192,243377,1,0,0:0:0:0:
64,192,243549,1,0,0:0:0:0:
192,192,243549,1,0,0:0:0:0:
192,192,243722,1,0,0:0:0:0:
448,192,243722,1,0,0:0:0:0:
320,192,243894,1,0,0:0:0:0:
320,192,244066,1,0,0:0:0:0:
448,192,244066,1,0,0:0:0:0:
192,192,244153,1,0,0:0:0:0:
64,192,244153,1,0,0:0:0:0:
320,192,244239,1,0,0:0:0:0:
448,192,244239,1,0,0:0:0:0:
64,192,244411,1,0,0:0:0:0:
192,192,244454,1,0,0:0:0:0:
448,192,244498,1,0,0:0:0:0:
320,192,244541,1,0,0:0:0:0:
64,192,244584,1,0,0:0:0:0:
192,192,244627,1,0,0:0:0:0:
448,192,244670,1,0,0:0:0:0:
320,192,244713,1,0,0:0:0:0:
192,192,244756,1,0,0:0:0:0:
64,192,244756,1,0,0:0:0:0:
192,192,244929,1,0,0:0:0:0:
320,192,245015,1,0,0:0:0:0:
448,192,245101,1,0,0:0:0:0:
64,192,245101,1,0,0:0:0:0:
320,192,245273,1,0,0:0:0:0:
192,192,245360,1,0,0:0:0:0:
448,192,245446,1,0,0:0:0:0:
64,192,245532,1,0,0:0:0:0:
192,192,245618,1,0,0:0:0:0:
320,192,245618,1,0,0:0:0:0:
448,192,245618,1,0,0:0:0:0:
320,192,245791,1,0,0:0:0:0:
64,192,245791,1,0,0:0:0:0:
448,192,245963,1,0,0:0:0:0:
320,192,246049,1,0,0:0:0:0:
192,192,246135,1,0,0:0:0:0:
64,192,246135,1,0,0:0:0:0:
448,192,246135,1,0,0:0:0:0:
192,192,246308,1,0,0:0:0:0:
64,192,246394,1,0,0:0:0:0:
192,192,246480,1,0,0:0:0:0:
448,192,246480,1,0,0:0:0:0:
320,192,246566,1,0,0:0:0:0:
64,192,246653,1,0,0:0:0:0:
192,192,246739,1,0,0:0:0:0:
320,192,246825,1,0,0:0:0:0:
192,192,246911,1,0,0:0:0:0:
320,192,246998,1,0,0:0:0:0:
448,192,246998,1,0,0:0:0:0:
64,192,246998,1,0,0:0:0:0:
64,192,247170,1,0,0:0:0:0:
448,192,247170,1,0,0:0:0:0:
448,192,247342,1,0,0:0:0:0:
320,192,247429,1,0,0:0:0:0:
192,192,247515,1,0,0:0:0:0:
64,192,247515,1,0,0:0:0:0:
448,192,247515,1,0,0:0:0:0:
192,192,247687,1,0,0:0:0:0:
320,192,247773,1,0,0:0:0:0:
448,192,247860,1,0,0:0:0:0:
64,192,247860,1,0,0:0:0:0:
320,192,247946,1,0,0:0:0:0:
192,192,248032,1,0,0:0:0:0:
320,192,248118,1,0,0:0:0:0:
448,192,248204,1,0,0:0:0:0:
320,192,248291,1,0,0:0:0:0:
64,192,248377,1,0,0:0:0:0:
192,192,248377,1,0,0:0:0:0:
448,192,248377,1,0,0:0:0:0:
64,192,248549,1,0,0:0:0:0:
448,192,248549,1,0,0:0:0:0:
320,192,248635,1,0,0:0:0:0:
192,192,248722,1,0,0:0:0:0:
320,192,248808,1,0,0:0:0:0:
192,192,248894,1,0,0:0:0:0:
320,192,248980,1,0,0:0:0:0:
192,192,249066,1,0,0:0:0:0:
64,192,249066,1,0,0:0:0:0:
448,192,249066,1,0,0:0:0:0:
448,192,249239,1,0,0:0:0:0:
64,192,249239,1,0,0:0:0:0:
192,192,249325,1,0,0:0:0:0:
320,192,249411,1,0,0:0:0:0:
192,192,249498,1,0,0:0:0:0:
320,192,249584,1,0,0:0:0:0:
192,192,249670,1,0,0:0:0:0:
320,192,249756,1,0,0:0:0:0:
448,192,249756,1,0,0:0:0:0:
64,192,249756,1,0,0:0:0:0:
64,192,249929,1,0,0:0:0:0:
320,192,249929,1,0,0:0:0:0:
192,192,250015,1,0,0:0:0:0:
448,192,250101,1,0,0:0:0:0:
192,192,250187,1,0,0:0:0:0:
64,192,250187,1,0,0:0:0:0:
320,192,250273,1,0,0:0:0:0:
448,192,250273,1,0,0:0:0:0:
192,192,250446,128,0,250532:0:0:0:0:
64,192,250446,1,0,0:0:0:0:
448,192,250618,128,0,250704:0:0:0:0:
320,192,250618,1,0,0:0:0:0:
320,192,250791,128,0,250877:0:0:0:0:
64,192,250791,1,0,0:0:0:0:
64,192,250963,128,0,251135:0:0:0:0:
448,192,250963,1,0,0:0:0:0:
192,192,251049,1,0,0:0:0:0:
320,192,251135,1,0,0:0:0:0:
320,192,251308,1,0,0:0:0:0:
192,192,251394,1,0,0:0:0:0:
320,192,251480,128,0,251653:0:0:0:0:
64,192,251480,1,0,0:0:0:0:
192,192,251653,1,0,0:0:0:0:
448,192,251653,1,0,0:0:0:0:
192,192,251825,128,0,251998:0:0:0:0:
320,192,251911,1,0,0:0:0:0:
448,192,251998,1,0,0:0:0:0:
64,192,251998,1,0,0:0:0:0:
320,192,252170,128,0,252342:0:0:0:0:
192,192,252256,1,0,0:0:0:0:
64,192,252342,1,0,0:0:0:0:
448,192,252342,1,0,0:0:0:0:
192,192,252515,1,0,0:0:0:0:
320,192,252515,1,0,0:0:0:0:
64,192,252687,1,0,0:0:0:0:
448,192,252687,1,0,0:0:0:0:
320,192,252730,1,0,0:0:0:0:
192,192,252773,1,0,0:0:0:0:
64,192,252816,1,0,0:0:0:0:
448,192,252860,1,0,0:0:0:0:
320,192,252903,1,0,0:0:0:0:
192,192,252946,1,0,0:0:0:0:
64,192,252989,1,0,0:0:0:0:
320,192,253032,1,0,0:0:0:0:
448,192,253032,1,0,0:0:0:0:
64,192,253204,1,0,0:0:0:0:
192,192,253248,1,0,0:0:0:0:
320,192,253291,1,0,0:0:0:0:
448,192,253334,1,0,0:0:0:0:
192,192,253377,1,0,0:0:0:0:
64,192,253420,1,0,0:0:0:0:
448,192,253463,1,0,0:0:0:0:
320,192,253506,1,0,0:0:0:0:
192,192,253549,1,0,0:0:0:0:
64,192,253592,1,0,0:0:0:0:
448,192,253635,1,0,0:0:0:0:
320,192,253679,1,0,0:0:0:0:
192,192,253722,1,0,0:0:0:0:
64,192,253894,1,0,0:0:0:0:
192,192,253980,1,0,0:0:0:0:
320,192,254066,1,0,0:0:0:0:
64,192,254153,1,0,0:0:0:0:
192,192,254239,1,0,0:0:0:0:
320,192,254325,1,0,0:0:0:0:
448,192,254411,128,0,254929:0:0:0:0:
64,192,254411,1,0,0:0:0:0:
192,192,254929,128,0,255791:0:0:0:0:
64,192,255446,128,0,255791:0:0:0:0:
320,192,255791,1,0,0:0:0:0:
448,192,255791,1,0,0:0:0:0:
320,192,255963,1,0,0:0:0:0:
192,192,256049,1,0,0:0:0:0:
64,192,256135,1,0,0:0:0:0:
320,192,256135,1,0,0:0:0:0:
64,192,256308,1,0,0:0:0:0:
192,192,256394,1,0,0:0:0:0:
448,192,256480,1,0,0:0:0:0:
320,192,256566,1,0,0:0:0:0:
64,192,256653,1,0,0:0:0:0:
192,192,256653,1,0,0:0:0:0:
192,192,256825,1,0,0:0:0:0:
448,192,256825,1,0,0:0:0:0:
64,192,256911,1,0,0:0:0:0:
448,192,256998,1,0,0:0:0:0:
320,192,257084,1,0,0:0:0:0:
192,192,257170,1,0,0:0:0:0:
64,192,257170,1,0,0:0:0:0:
192,192,257342,1,0,0:0:0:0:
320,192,257429,1,0,0:0:0:0:
448,192,257515,1,0,0:0:0:0:
192,192,257515,1,0,0:0:0:0:
64,192,257601,1,0,0:0:0:0:
320,192,257687,1,0,0:0:0:0:
192,192,257773,1,0,0:0:0:0:
448,192,257860,1,0,0:0:0:0:
320,192,257946,1,0,0:0:0:0:
192,192,258032,1,0,0:0:0:0:
64,192,258032,1,0,0:0:0:0:
192,192,258204,1,0,0:0:0:0:
448,192,258204,1,0,0:0:0:0:
320,192,258291,1,0,0:0:0:0:
192,192,258377,1,0,0:0:0:0:
64,192,258463,1,0,0:0:0:0:
192,192,258549,1,0,0:0:0:0:
320,192,258549,1,0,0:0:0:0:
320,192,258722,1,0,0:0:0:0:
448,192,258808,1,0,0:0:0:0:
64,192,258894,1,0,0:0:0:0:
320,192,258894,1,0,0:0:0:0:
448,192,258980,1,0,0:0:0:0:
192,192,259066,1,0,0:0:0:0:
64,192,259153,1,0,0:0:0:0:
320,192,259239,1,0,0:0:0:0:
192,192,259325,1,0,0:0:0:0:
320,192,259411,1,0,0:0:0:0:
448,192,259411,1,0,0:0:0:0:
64,192,259584,1,0,0:0:0:0:
320,192,259584,1,0,0:0:0:0:
448,192,259670,1,0,0:0:0:0:
192,192,259756,1,0,0:0:0:0:
320,192,259842,1,0,0:0:0:0:
192,192,259929,1,0,0:0:0:0:
64,192,260101,1,0,0:0:0:0:
320,192,260101,1,0,0:0:0:0:
64,192,260273,1,0,0:0:0:0:
448,192,260273,1,0,0:0:0:0:
320,192,260360,1,0,0:0:0:0:
192,192,260446,1,0,0:0:0:0:
64,192,260532,1,0,0:0:0:0:
192,192,260618,1,0,0:0:0:0:
320,192,260704,1,0,0:0:0:0:
192,192,260791,1,0,0:0:0:0:
448,192,260791,1,0,0:0:0:0:
64,192,260963,1,0,0:0:0:0:
448,192,260963,1,0,0:0:0:0:
320,192,261049,1,0,0:0:0:0:
192,192,261135,1,0,0:0:0:0:
320,192,261222,1,0,0:0:0:0:
448,192,261222,1,0,0:0:0:0:
192,192,261308,1,0,0:0:0:0:
64,192,261308,1,0,0:0:0:0:
320,192,261480,128,0,261566:0:0:0:0:
192,192,261480,1,0,0:0:0:0:
448,192,261653,128,0,261739:0:0:0:0:
64,192,261653,1,0,0:0:0:0:
192,192,261825,128,0,261911:0:0:0:0:
320,192,261825,1,0,0:0:0:0:
64,192,261998,128,0,262170:0:0:0:0:
448,192,261998,1,0,0:0:0:0:
192,192,262170,1,0,0:0:0:0:
320,192,262170,1,0,0:0:0:0:
192,192,262342,1,0,0:0:0:0:
320,192,262429,1,0,0:0:0:0:
192,192,262515,128,0,262687:0:0:0:0:
448,192,262515,1,0,0:0:0:0:
320,192,262601,1,0,0:0:0:0:
64,192,262687,1,0,0:0:0:0:
320,192,262860,128,0,263032:0:0:0:0:
192,192,262860,1,0,0:0:0:0:
64,192,262946,1,0,0:0:0:0:
448,192,263032,1,0,0:0:0:0:
192,192,263204,128,0,263377:0:0:0:0:
320,192,263204,1,0,0:0:0:0:
448,192,263291,1,0,0:0:0:0:
64,192,263377,1,0,0:0:0:0:
192,192,263549,1,0,0:0:0:0:
64,192,263549,1,0,0:0:0:0:
448,192,263722,1,0,0:0:0:0:
64,192,263722,1,0,0:0:0:0:
320,192,263765,1,0,0:0:0:0:
192,192,263808,1,0,0:0:0:0:
64,192,263851,1,0,0:0:0:0:
448,192,263894,1,0,0:0:0:0:
320,192,263937,1,0,0:0:0:0:
192,192,263980,1,0,0:0:0:0:
64,192,264023,1,0,0:0:0:0:
320,192,264066,1,0,0:0:0:0:
448,192,264066,1,0,0:0:0:0:
64,192,264239,1,0,0:0:0:0:
192,192,264282,1,0,0:0:0:0:
320,192,264325,1,0,0:0:0:0:
448,192,264368,1,0,0:0:0:0:
64,192,264411,1,0,0:0:0:0:
192,192,264454,1,0,0:0:0:0:
320,192,264498,1,0,0:0:0:0:
448,192,264541,1,0,0:0:0:0:
192,192,264584,1,0,0:0:0:0:
64,192,264627,1,0,0:0:0:0:
448,192,264670,1,0,0:0:0:0:
320,192,264713,1,0,0:0:0:0:
192,192,264756,128,0,264929:0:0:0:0:
64,192,264929,1,0,0:0:0:0:
448,192,264929,1,0,0:0:0:0:
320,192,265101,128,0,265187:0:0:0:0:
192,192,265101,1,0,0:0:0:0:
448,192,265273,128,0,265446:0:0:0:0:
64,192,265273,1,0,0:0:0:0:
320,192,265360,1,0,0:0:0:0:
192,192,265446,1,0,0:0:0:0:
320,192,265618,1,0,0:0:0:0:
448,192,265618,1,0,0:0:0:0:
64,192,265791,1,0,0:0:0:0:
320,192,265791,1,0,0:0:0:0:
448,192,265877,1,0,0:0:0:0:
192,192,265963,1,0,0:0:0:0:
64,192,266049,1,0,0:0:0:0:
320,192,266135,1,0,0:0:0:0:
192,192,266222,1,0,0:0:0:0:
320,192,266308,1,0,0:0:0:0:
448,192,266308,1,0,0:0:0:0:
64,192,266480,1,0,0:0:0:0:
192,192,266523,1,0,0:0:0:0:
448,192,266566,1,0,0:0:0:0:
320,192,266610,1,0,0:0:0:0:
64,192,266653,1,0,0:0:0:0:
192,192,266696,1,0,0:0:0:0:
448,192,266739,1,0,0:0:0:0:
320,192,266782,1,0,0:0:0:0:
192,192,266825,1,0,0:0:0:0:
64,192,266825,1,0,0:0:0:0:
192,192,266998,1,0,0:0:0:0:
320,192,267084,1,0,0:0:0:0:
448,192,267170,1,0,0:0:0:0:
192,192,267170,1,0,0:0:0:0:
320,192,267342,1,0,0:0:0:0:
448,192,267429,1,0,0:0:0:0:
64,192,267515,1,0,0:0:0:0:
192,192,267601,1,0,0:0:0:0:
320,192,267687,1,0,0:0:0:0:
448,192,267687,1,0,0:0:0:0:
64,192,267860,1,0,0:0:0:0:
448,192,267860,1,0,0:0:0:0:
320,192,267946,1,0,0:0:0:0:
192,192,268032,1,0,0:0:0:0:
320,192,268118,1,0,0:0:0:0:
192,192,268204,1,0,0:0:0:0:
64,192,268204,1,0,0:0:0:0:
320,192,268377,1,0,0:0:0:0:
192,192,268463,1,0,0:0:0:0:
320,192,268549,1,0,0:0:0:0:
64,192,268549,1,0,0:0:0:0:
448,192,268635,1,0,0:0:0:0:
192,192,268722,1,0,0:0:0:0:
320,192,268808,1,0,0:0:0:0:
448,192,268894,1,0,0:0:0:0:
64,192,268980,1,0,0:0:0:0:
320,192,269066,1,0,0:0:0:0:
192,192,269066,1,0,0:0:0:0:
64,192,269239,1,0,0:0:0:0:
448,192,269239,1,0,0:0:0:0:
192,192,269325,1,0,0:0:0:0:
320,192,269411,1,0,0:0:0:0:
448,192,269498,1,0,0:0:0:0:
320,192,269584,1,0,0:0:0:0:
192,192,269584,1,0,0:0:0:0:
192,192,269756,1,0,0:0:0:0:
320,192,269842,1,0,0:0:0:0:
448,192,269929,1,0,0:0:0:0:
192,192,269929,1,0,0:0:0:0:
64,192,270015,1,0,0:0:0:0:
320,192,270101,1,0,0:0:0:0:
192,192,270187,1,0,0:0:0:0:
64,192,270273,1,0,0:0:0:0:
192,192,270360,1,0,0:0:0:0:
320,192,270446,1,0,0:0:0:0:
64,192,270446,1,0,0:0:0:0:
448,192,270618,1,0,0:0:0:0:
64,192,270618,1,0,0:0:0:0:
192,192,270704,1,0,0:0:0:0:
320,192,270791,1,0,0:0:0:0:
192,192,270877,1,0,0:0:0:0:
448,192,270963,1,0,0:0:0:0:
64,192,271135,1,0,0:0:0:0:
320,192,271135,1,0,0:0:0:0:
448,192,271308,1,0,0:0:0:0:
64,192,271308,1,0,0:0:0:0:
320,192,271394,1,0,0:0:0:0:
192,192,271480,1,0,0:0:0:0:
320,192,271566,1,0,0:0:0:0:
64,192,271653,1,0,0:0:0:0:
192,192,271739,1,0,0:0:0:0:
320,192,271825,1,0,0:0:0:0:
64,192,271825,1,0,0:0:0:0:
64,192,271998,1,0,0:0:0:0:
448,192,271998,1,0,0:0:0:0:
320,192,272084,1,0,0:0:0:0:
192,192,272170,1,0,0:0:0:0:
320,192,272256,1,0,0:0:0:0:
448,192,272256,1,0,0:0:0:0:
192,192,272342,1,0,0:0:0:0:
64,192,272342,1,0,0:0:0:0:
320,192,272515,128,0,272601:0:0:0:0:
64,192,272515,1,0,0:0:0:0:
448,192,272687,128,0,272773:0:0:0:0:
192,192,272687,1,0,0:0:0:0:
64,192,272860,128,0,272946:0:0:0:0:
320,192,272860,1,0,0:0:0:0:
192,192,273032,128,0,273204:0:0:0:0:
448,192,273032,1,0,0:0:0:0:
320,192,273204,1,0,0:0:0:0:
448,192,273204,1,0,0:0:0:0:
448,192,273377,1,0,0:0:0:0:
320,192,273463,1,0,0:0:0:0:
192,192,273549,128,0,273722:0:0:0:0:
64,192,273549,1,0,0:0:0:0:
448,192,273722,1,0,0:0:0:0:
320,192,273894,128,0,274066:0:0:0:0:
64,192,273894,1,0,0:0:0:0:
192,192,274066,1,0,0:0:0:0:
448,192,274239,128,0,274411:0:0:0:0:
320,192,274239,1,0,0:0:0:0:
192,192,274325,1,0,0:0:0:0:
64,192,274411,1,0,0:0:0:0:
192,192,274584,1,0,0:0:0:0:
320,192,274584,1,0,0:0:0:0:
64,192,274756,1,0,0:0:0:0:
192,192,274799,1,0,0:0:0:0:
320,192,274842,1,0,0:0:0:0:
448,192,274885,1,0,0:0:0:0:
192,192,274929,1,0,0:0:0:0:
64,192,274972,1,0,0:0:0:0:
448,192,275015,1,0,0:0:0:0:
320,192,275058,1,0,0:0:0:0:
192,192,275101,1,0,0:0:0:0:
64,192,275101,1,0,0:0:0:0:
320,192,275273,1,0,0:0:0:0:
448,192,275316,1,0,0:0:0:0:
64,192,275360,1,0,0:0:0:0:
192,192,275403,1,0,0:0:0:0:
320,192,275446,1,0,0:0:0:0:
448,192,275489,1,0,0:0:0:0:
192,192,275532,1,0,0:0:0:0:
64,192,275575,1,0,0:0:0:0:
448,192,275618,1,0,0:0:0:0:
320,192,275661,1,0,0:0:0:0:
192,192,275704,1,0,0:0:0:0:
64,192,275748,1,0,0:0:0:0:
448,192,275791,128,0,275963:0:0:0:0:
320,192,275877,1,0,0:0:0:0:
192,192,275963,1,0,0:0:0:0:
64,192,276135,128,0,276222:0:0:0:0:
320,192,276135,1,0,0:0:0:0:
448,192,276308,128,0,276480:0:0:0:0:
192,192,276308,1,0,0:0:0:0:
320,192,276394,1,0,0:0:0:0:
192,192,276653,1,0,0:0:0:0:
320,192,276653,1,0,0:0:0:0:
448,192,276825,128,0,277860:0:0:0:0:
320,192,277342,1,0,0:0:0:0:
64,192,277515,128,0,277860:0:0:0:0:
192,192,277515,1,0,0:0:0:0:
192,192,277687,1,0,0:0:0:0:
192,192,277860,1,0,0:0:0:0:
320,192,277860,1,0,0:0:0:0:
320,192,278032,1,0,0:0:0:0:
192,192,278204,1,0,0:0:0:0:
448,192,278204,1,0,0:0:0:0:
64,192,278291,1,0,0:0:0:0:
320,192,278377,1,0,0:0:0:0:
448,192,278463,1,0,0:0:0:0:
64,192,278549,1,0,0:0:0:0:
192,192,278635,1,0,0:0:0:0:
320,192,278722,1,0,0:0:0:0:
448,192,278722,1,0,0:0:0:0:
64,192,278894,1,0,0:0:0:0:
320,192,278894,1,0,0:0:0:0:
448,192,278980,1,0,0:0:0:0:
192,192,279066,1,0,0:0:0:0:
320,192,279153,1,0,0:0:0:0:
192,192,279239,1,0,0:0:0:0:
64,192,279239,1,0,0:0:0:0:
320,192,279411,1,0,0:0:0:0:
192,192,279584,1,0,0:0:0:0:
448,192,279584,1,0,0:0:0:0:
320,192,279670,1,0,0:0:0:0:
192,192,279756,1,0,0:0:0:0:
64,192,279842,1,0,0:0:0:0:
448,192,279929,1,0,0:0:0:0:
320,192,280015,1,0,0:0:0:0:
192,192,280101,1,0,0:0:0:0:
64,192,280101,1,0,0:0:0:0:
192,192,280273,1,0,0:0:0:0:
448,192,280273,1,0,0:0:0:0:
64,192,280360,1,0,0:0:0:0:
448,192,280446,1,0,0:0:0:0:
320,192,280532,1,0,0:0:0:0:
192,192,280618,1,0,0:0:0:0:
64,192,280618,1,0,0:0:0:0:
448,192,280791,1,0,0:0:0:0:
64,192,280963,1,0,0:0:0:0:
320,192,280963,1,0,0:0:0:0:
448,192,281049,1,0,0:0:0:0:
192,192,281135,1,0,0:0:0:0:
320,192,281222,1,0,0:0:0:0:
64,192,281308,1,0,0:0:0:0:
192,192,281394,1,0,0:0:0:0:
320,192,281480,1,0,0:0:0:0:
448,192,281480,1,0,0:0:0:0:
64,192,281653,1,0,0:0:0:0:
448,192,281653,1,0,0:0:0:0:
192,192,281739,1,0,0:0:0:0:
320,192,281825,1,0,0:0:0:0:
64,192,281911,1,0,0:0:0:0:
320,192,281998,1,0,0:0:0:0:
192,192,282170,1,0,0:0:0:0:
320,192,282170,1,0,0:0:0:0:
64,192,282342,1,0,0:0:0:0:
448,192,282342,1,0,0:0:0:0:
320,192,282429,1,0,0:0:0:0:
192,192,282515,1,0,0:0:0:0:
448,192,282601,1,0,0:0:0:0:
192,192,282687,1,0,0:0:0:0:
448,192,282773,1,0,0:0:0:0:
64,192,282860,1,0,0:0:0:0:
192,192,282860,1,0,0:0:0:0:
64,192,283032,1,0,0:0:0:0:
448,192,283032,1,0,0:0:0:0:
320,192,283118,1,0,0:0:0:0:
448,192,283204,1,0,0:0:0:0:
192,192,283291,1,0,0:0:0:0:
64,192,283291,1,0,0:0:0:0:
320,192,283377,1,0,0:0:0:0:
448,192,283377,1,0,0:0:0:0:
192,192,283549,1,0,0:0:0:0:
64,192,283722,1,0,0:0:0:0:
320,192,283722,1,0,0:0:0:0:
192,192,283808,1,0,0:0:0:0:
448,192,283894,1,0,0:0:0:0:
320,192,283980,1,0,0:0:0:0:
64,192,284066,1,0,0:0:0:0:
192,192,284153,1,0,0:0:0:0:
320,192,284239,1,0,0:0:0:0:
448,192,284239,1,0,0:0:0:0:
64,192,284411,1,0,0:0:0:0:
320,192,284411,1,0,0:0:0:0:
448,192,284498,1,0,0:0:0:0:
192,192,284584,1,0,0:0:0:0:
320,192,284670,1,0,0:0:0:0:
192,192,284756,1,0,0:0:0:0:
64,192,284756,1,0,0:0:0:0:
320,192,284929,1,0,0:0:0:0:
64,192,285101,1,0,0:0:0:0:
448,192,285101,1,0,0:0:0:0:
320,192,285187,1,0,0:0:0:0:
192,192,285273,1,0,0:0:0:0:
320,192,285360,1,0,0:0:0:0:
448,192,285446,1,0,0:0:0:0:
64,192,285532,1,0,0:0:0:0:
192,192,285618,1,0,0:0:0:0:
320,192,285618,1,0,0:0:0:0:
64,192,285791,1,0,0:0:0:0:
320,192,285791,1,0,0:0:0:0:
192,192,285877,1,0,0:0:0:0:
448,192,285963,1,0,0:0:0:0:
320,192,286049,1,0,0:0:0:0:
192,192,286135,1,0,0:0:0:0:
64,192,286135,1,0,0:0:0:0:
320,192,286308,1,0,0:0:0:0:
192,192,286480,1,0,0:0:0:0:
448,192,286480,1,0,0:0:0:0:
64,192,286566,1,0,0:0:0:0:
320,192,286653,1,0,0:0:0:0:
192,192,286739,1,0,0:0:0:0:
448,192,286825,1,0,0:0:0:0:
320,192,286911,1,0,0:0:0:0:
64,192,286998,1,0,0:0:0:0:
192,192,286998,1,0,0:0:0:0:
448,192,287170,1,0,0:0:0:0:
192,192,287170,1,0,0:0:0:0:
64,192,287256,1,0,0:0:0:0:
320,192,287342,1,0,0:0:0:0:
192,192,287429,1,0,0:0:0:0:
64,192,287515,1,0,0:0:0:0:
64,192,287687,1,0,0:0:0:0:
192,192,287687,1,0,0:0:0:0:
192,192,287860,1,0,0:0:0:0:
448,192,287860,1,0,0:0:0:0:
64,192,288032,1,0,0:0:0:0:
192,192,288118,1,0,0:0:0:0:
320,192,288204,1,0,0:0:0:0:
192,192,288291,1,0,0:0:0:0:
64,192,288377,1,0,0:0:0:0:
448,192,288549,1,0,0:0:0:0:
320,192,288592,1,0,0:0:0:0:
64,192,288635,1,0,0:0:0:0:
192,192,288679,1,0,0:0:0:0:
448,192,288722,1,0,0:0:0:0:
320,192,288765,1,0,0:0:0:0:
64,192,288808,1,0,0:0:0:0:
192,192,288851,1,0,0:0:0:0:
320,192,288894,1,0,0:0:0:0:
448,192,288894,1,0,0:0:0:0:
192,192,289066,1,0,0:0:0:0:
448,192,289239,1,0,0:0:0:0:
64,192,289239,1,0,0:0:0:0:
320,192,289325,1,0,0:0:0:0:
192,192,289411,1,0,0:0:0:0:
320,192,289498,1,0,0:0:0:0:
448,192,289584,1,0,0:0:0:0:
64,192,289670,1,0,0:0:0:0:
320,192,289756,1,0,0:0:0:0:
192,192,289756,1,0,0:0:0:0:
448,192,289929,1,0,0:0:0:0:
192,192,289929,1,0,0:0:0:0:
64,192,290015,1,0,0:0:0:0:
448,192,290101,1,0,0:0:0:0:
320,192,290187,1,0,0:0:0:0:
64,192,290273,1,0,0:0:0:0:
192,192,290273,1,0,0:0:0:0:
320,192,290446,1,0,0:0:0:0:
192,192,290618,1,0,0:0:0:0:
448,192,290618,1,0,0:0:0:0:
320,192,290704,1,0,0:0:0:0:
64,192,290791,1,0,0:0:0:0:
192,192,290877,1,0,0:0:0:0:
448,192,290963,1,0,0:0:0:0:
320,192,291049,1,0,0:0:0:0:
192,192,291135,1,0,0:0:0:0:
64,192,291135,1,0,0:0:0:0:
192,192,291308,1,0,0:0:0:0:
448,192,291308,1,0,0:0:0:0:
64,192,291394,1,0,0:0:0:0:
320,192,291480,1,0,0:0:0:0:
192,192,291566,1,0,0:0:0:0:
320,192,291653,1,0,0:0:0:0:
448,192,291653,1,0,0:0:0:0:
64,192,291825,1,0,0:0:0:0:
192,192,291998,1,0,0:0:0:0:
448,192,291998,1,0,0:0:0:0:
64,192,292084,1,0,0:0:0:0:
320,192,292170,1,0,0:0:0:0:
192,192,292256,1,0,0:0:0:0:
448,192,292342,1,0,0:0:0:0:
320,192,292429,1,0,0:0:0:0:
192,192,292515,1,0,0:0:0:0:
64,192,292515,1,0,0:0:0:0:
192,192,292687,1,0,0:0:0:0:
448,192,292687,1,0,0:0:0:0:
64,192,292773,1,0,0:0:0:0:
320,192,292860,1,0,0:0:0:0:
448,192,292946,1,0,0:0:0:0:
320,192,293032,1,0,0:0:0:0:
192,192,293204,1,0,0:0:0:0:
320,192,293204,1,0,0:0:0:0:
64,192,293377,1,0,0:0:0:0:
448,192,293377,1,0,0:0:0:0:
320,192,293463,1,0,0:0:0:0:
192,192,293549,1,0,0:0:0:0:
64,192,293635,1,0,0:0:0:0:
192,192,293722,1,0,0:0:0:0:
320,192,293808,1,0,0:0:0:0:
192,192,293894,1,0,0:0:0:0:
64,192,293894,1,0,0:0:0:0:
192,192,294066,1,0,0:0:0:0:
448,192,294066,1,0,0:0:0:0:
64,192,294153,1,0,0:0:0:0:
320,192,294239,1,0,0:0:0:0:
64,192,294325,1,0,0:0:0:0:
448,192,294325,1,0,0:0:0:0:
192,192,294411,1,0,0:0:0:0:
320,192,294411,1,0,0:0:0:0:
64,192,294584,1,0,0:0:0:0:
192,192,294756,1,0,0:0:0:0:
448,192,294756,1,0,0:0:0:0:
64,192,294842,1,0,0:0:0:0:
320,192,294929,1,0,0:0:0:0:
192,192,295015,1,0,0:0:0:0:
64,192,295101,1,0,0:0:0:0:
448,192,295187,1,0,0:0:0:0:
192,192,295273,1,0,0:0:0:0:
320,192,295273,1,0,0:0:0:0:
448,192,295446,1,0,0:0:0:0:
64,192,295446,1,0,0:0:0:0:
192,192,295532,1,0,0:0:0:0:
320,192,295618,1,0,0:0:0:0:
192,192,295704,1,0,0:0:0:0:
320,192,295791,1,0,0:0:0:0:
448,192,295791,1,0,0:0:0:0:
192,192,295963,1,0,0:0:0:0:
64,192,296135,1,0,0:0:0:0:
320,192,296135,1,0,0:0:0:0:
192,192,296222,1,0,0:0:0:0:
448,192,296308,1,0,0:0:0:0:
64,192,296394,1,0,0:0:0:0:
192,192,296480,1,0,0:0:0:0:
320,192,296566,1,0,0:0:0:0:
192,192,296653,1,0,0:0:0:0:
64,192,296653,1,0,0:0:0:0:
192,192,296825,1,0,0:0:0:0:
448,192,296825,1,0,0:0:0:0:
64,192,296911,1,0,0:0:0:0:
320,192,296998,1,0,0:0:0:0:
448,192,297084,1,0,0:0:0:0:
192,192,297170,1,0,0:0:0:0:
320,192,297170,1,0,0:0:0:0:
64,192,297342,1,0,0:0:0:0:
192,192,297515,1,0,0:0:0:0:
448,192,297515,1,0,0:0:0:0:
64,192,297601,1,0,0:0:0:0:
320,192,297687,1,0,0:0:0:0:
192,192,297773,1,0,0:0:0:0:
448,192,297860,1,0,0:0:0:0:
320,192,297946,1,0,0:0:0:0:
192,192,298032,1,0,0:0:0:0:
64,192,298032,1,0,0:0:0:0:
64,192,298204,1,0,0:0:0:0:
448,192,298204,1,0,0:0:0:0:
320,192,298291,1,0,0:0:0:0:
192,192,298377,1,0,0:0:0:0:
64,192,298377,1,0,0:0:0:0:
320,192,298463,1,0,0:0:0:0:
448,192,298463,1,0,0:0:0:0:
192,192,298549,1,0,0:0:0:0:
64,192,298549,1,0,0:0:0:0:
192,192,298722,1,0,0:0:0:0:
192,192,298894,1,0,0:0:0:0:
64,192,298894,1,0,0:0:0:0:
64,192,299066,1,0,0:0:0:0:
448,192,299066,1,0,0:0:0:0:
320,192,299239,1,0,0:0:0:0:
320,192,299411,1,0,0:0:0:0:
448,192,299411,1,0,0:0:0:0:
64,192,299584,1,0,0:0:0:0:
448,192,299584,1,0,0:0:0:0:
192,192,299756,1,0,0:0:0:0:
320,192,299756,1,0,0:0:0:0:
320,192,299929,1,0,0:0:0:0:
448,192,299929,1,0,0:0:0:0:
192,192,299929,1,0,0:0:0:0:
64,192,299929,128,0,299972:0:0:0:0:
320,192,300101,1,0,0:0:0:0:
448,192,300273,1,0,0:0:0:0:
64,192,300446,1,0,0:0:0:0:
320,192,300446,128,0,300489:0:0:0:0:
192,192,300618,1,0,0:0:0:0:
320,192,300791,1,0,0:0:0:0:
320,192,300963,1,0,0:0:0:0:
192,192,301135,1,0,0:0:0:0:
64,192,301308,1,0,0:0:0:0:
448,192,301308,128,0,301351:0:0:0:0:
192,192,301480,1,0,0:0:0:0:
320,192,301653,1,0,0:0:0:0:
192,192,301825,1,0,0:0:0:0:
64,192,301825,128,0,301868:0:0:0:0:
320,192,301998,1,0,0:0:0:0:
448,192,302170,1,0,0:0:0:0:
448,192,302342,1,0,0:0:0:0:
320,192,302515,1,0,0:0:0:0:
64,192,302687,1,0,0:0:0:0:
448,192,302687,128,0,302730:0:0:0:0:
192,192,302860,1,0,0:0:0:0:
320,192,303032,1,0,0:0:0:0:
64,192,303204,1,0,0:0:0:0:
448,192,303204,128,0,303248:0:0:0:0:
192,192,303377,1,0,0:0:0:0:
320,192,303549,1,0,0:0:0:0:
320,192,303722,1,0,0:0:0:0:
192,192,303894,1,0,0:0:0:0:
64,192,304066,1,0,0:0:0:0:
320,192,304066,128,0,304110:0:0:0:0:
192,192,304239,1,0,0:0:0:0:
320,192,304411,1,0,0:0:0:0:
64,192,304584,1,0,0:0:0:0:
192,192,304584,128,0,304627:0:0:0:0:
448,192,304756,1,0,0:0:0:0:
320,192,304929,1,0,0:0:0:0:
192,192,305101,1,0,0:0:0:0:
64,192,305273,1,0,0:0:0:0:
192,192,305446,128,0,308204:0:0:0:0:
320,192,305446,1,0,0:0:0:0:
64,192,305618,1,0,0:0:0:0:
448,192,305791,1,0,0:0:0:0:
64,192,305963,1,0,0:0:0:0:
64,192,306135,1,0,0:0:0:0:
320,192,306308,1,0,0:0:0:0:
448,192,306480,1,0,0:0:0:0:
320,192,306653,1,0,0:0:0:0:
64,192,306825,1,0,0:0:0:0:
320,192,306998,1,0,0:0:0:0:
448,192,307170,1,0,0:0:0:0:
320,192,307342,1,0,0:0:0:0:
320,192,307515,1,0,0:0:0:0:
448,192,307687,1,0,0:0:0:0:
448,192,307860,1,0,0:0:0:0:
320,192,308032,1,0,0:0:0:0:
64,192,308204,128,0,310963:0:0:0:0:
