osu file format v14

[General]
AudioFilename: audio.mp3
AudioLeadIn: 0
PreviewTime: 87518
Countdown: 0
SampleSet: Soft
StackLeniency: 0.5
Mode: 0
LetterboxInBreaks: 0
WidescreenStoryboard: 0

[Editor]
DistanceSpacing: 1.2
BeatDivisor: 4
GridSize: 4
TimelineZoom: 2.2

[Metadata]
Title:delta:for the DELTA
TitleUnicode:σ:for the DELTA
Artist:Camellia
ArtistUnicode:かめりあ
Creator:Vanilla Vat
Version:Vastness
Source:
Tags:kamelcamellia electronic Drum and Bass Vanilla Vat
BeatmapID:1184731
BeatmapSetID:560207

[Difficulty]
HPDrainRate:7
CircleSize:4.3
OverallDifficulty:8
ApproachRate:9.4
SliderMultiplier:1.4
SliderTickRate:1

[Events]
//Background and Video events
0,0,"thumb-1920-726447.jpg",0,0
//Break Periods
2,141514,153188
//Storyboard Layer 0 (Background)
//Storyboard Layer 1 (Fail)
//Storyboard Layer 2 (Pass)
//Storyboard Layer 3 (Foreground)
//Storyboard Sound Samples

[TimingPoints]
624,344.827586206897,4,1,0,100,1,0
2003,-125,4,2,0,5,0,0
18554,-125,4,2,0,5,0,0
29244,-200,4,2,0,5,0,0
33727,-142.857142857143,4,2,0,5,0,0
35106,-125,4,2,0,5,0,0
37520,-200,4,2,0,5,0,0
42347,-142.857142857143,4,2,0,5,0,0
43037,-125,4,2,0,5,0,0
43727,-111.111111111111,4,2,0,5,0,0
44416,-99.9999999999999,4,2,0,5,0,0
46140,-99.9999999999999,4,2,0,10,0,0
48899,-99.9999999999999,4,2,0,20,0,0
51658,-99.9999999999999,4,2,0,30,0,0
54416,-99.9999999999999,4,2,0,40,0,0
57175,-99.9999999999999,4,2,0,50,0,0
59934,-99.9999999999999,4,2,0,60,0,0
65796,-90.9090909090909,4,2,0,60,0,0
66140,-66.6666666666667,4,2,0,60,0,0
66485,-58.8235294117647,4,2,0,60,0,0
68209,-66.6666666666667,4,2,0,60,0,0
76140,-200,4,2,0,60,0,0
76485,-66.6666666666667,4,2,0,60,0,0
87520,-200,4,2,0,5,0,0
88209,-133.333333333333,4,2,0,20,0,0
88554,-100,4,2,0,30,0,0
88899,-66.6666666666667,4,2,0,40,0,0
90279,-66.6666666666667,4,2,0,60,0,1
110968,-66.6666666666667,4,2,0,50,0,0
112348,-66.6666666666667,4,2,0,60,0,1
116486,-100,4,2,0,20,0,1
116831,-66.6666666666667,4,2,0,60,0,1
126141,-100,4,2,0,20,0,1
126241,-66.6666666666667,4,2,0,60,0,1
133037,-66.6666666666667,4,2,0,60,0,0
133123,-66.6666666666667,4,2,0,20,0,0
134503,-66.6666666666667,4,2,0,5,0,0
141313,-100,4,2,0,5,0,0
156485,-200,4,2,0,5,0,0
157865,-125,4,2,0,5,0,0
158899,-200,4,2,0,5,0,0
160623,-125,4,2,0,5,0,0
161658,-200,4,2,0,5,0,0
163727,-125,4,2,0,5,0,0
164761,-200,4,2,0,5,0,0
166140,-125,4,2,0,5,0,0
167520,-200,4,2,0,5,0,0
168899,-125,4,2,0,5,0,0
169934,-200,4,2,0,5,0,0
171658,-142.857142857143,4,2,0,5,0,0
174761,-125,4,2,0,5,0,0
178554,-125,4,2,0,10,0,0
181313,-125,4,2,0,20,0,0
184072,-125,4,2,0,30,0,0
189589,-125,4,2,0,40,0,0
195106,-100,4,2,0,50,0,0
206140,-100,4,2,0,60,0,0
208899,-66.6666666666667,4,2,0,60,0,0
211658,-66.6666666666667,4,2,0,60,0,0
219589,-200,4,2,0,60,0,0
219934,-66.6666666666667,4,2,0,60,0,0
230968,-200,4,2,0,20,0,0
231313,-100,4,2,0,20,0,0
231658,-76.9230769230769,4,2,0,40,0,0
232175,-76.9230769230769,4,2,0,60,0,0
233037,-200,4,2,0,60,0,0
233727,-66.6666666666667,4,2,0,60,0,0
234072,-66.6666666666667,4,2,0,60,0,1
254417,-66.6666666666667,4,2,0,60,0,0
255796,-66.6666666666667,4,2,0,60,0,1
277865,-100,4,2,0,60,0,0
299934,-100,4,2,0,5,0,0

[HitObjects]
256,192,2003,12,0,7175,0:0:0:0:
128,148,7520,6,0,L|244:92,1,112
372,140,8037,2,0,L|204:220,1,168
120,262,8899,6,0,L|232:206,1,112
176,68,9417,2,0,P|244:108|340:100,1,168
428,40,10279,6,0,L|436:160,1,112
448,312,10796,2,0,L|280:224,1,168
200,184,11658,6,0,L|316:247,1,112
412,280,12175,2,0,P|476:216|452:136,1,168
436,48,13037,6,0,P|396:92|328:96,1,112
236,44,13555,2,0,L|108:172,1,168
44,256,14417,6,0,P|108:256|172:288,1,112
309,266,14934,2,0,P|220:296|141:266,1,168
232,152,15796,6,0,L|292:48,1,112
356,156,16313,2,0,L|272:320,1,168
201,224,17175,6,0,L|289:316,1,112
196,80,17692,2,0,L|324:208,1,168
256,192,18555,12,0,23728,0:0:0:0:
144,244,24073,6,0,B|288:304|288:304|192:200|344:192|256:128,1,336
156,68,25452,1,0,0:0:0:0:
144,244,25969,1,0,0:0:0:0:
324,296,26486,6,0,B|412:184|412:184|348:208|280:192|324:156|328:64|184:56|172:152,1,448
168,248,28210,2,0,P|204:312|248:324,1,112
328,276,28728,2,0,B|300:244|300:244|372:248|388:224,1,112
400,144,29245,2,0,B|308:144|332:68|332:68|248:8|160:104|240:176,1,350
292,272,31314,5,0,0:0:0:0:
316,104,31659,1,0,0:0:0:0:
428,48,32004,2,0,B|488:88|488:88|432:112|464:328|404:184,1,280
348,112,33728,6,0,P|308:72|252:76,1,97.9999970092774
192,108,34245,2,0,P|212:171|170:251,1,146.999995513916
68,248,35107,6,0,B|112:192|112:192|228:296|200:108|364:196|296:256,1,336
112,196,36486,1,0,0:0:0:0:
160,40,37004,1,0,0:0:0:0:
328,104,37521,2,0,B|380:132|380:132|342:163|442:174|336:312|260:224,1,280
168,160,39245,2,0,L|228:104,1,70
224,152,39762,2,0,L|216:224,1,70
379,123,40279,6,0,B|375:195|327:175|327:175|355:243|252:300|215:219,1,280
308,88,42348,2,0,P|352:112|380:168,1,97.9999970092774
309,279,43038,6,0,P|323:179|399:151,1,168
320,64,43728,2,0,L|244:36,1,62.9999980773926
168,104,44073,2,0,L|184:184,1,62.9999980773926
80,176,44417,2,0,L|32:244,1,70
48,272,44676,1,0,0:0:0:0:
88,300,44762,2,0,P|168:296|200:272,1,105
204,184,45107,2,0,P|256:228|264:256,1,70
284,292,45452,1,0,0:0:0:0:
304,148,45624,6,0,L|372:100,1,70
284,48,45969,1,0,0:0:0:0:
284,48,46141,6,0,L|168:96,1,105
128,152,46486,2,0,L|261:171,1,105
192,228,46831,2,0,L|300:147,1,105
360,112,47176,2,0,P|416:144|424:208,1,105
311,231,47521,6,0,P|361:166|353:95,1,140
168,152,48210,2,0,P|118:199|112:268,1,140
204,236,48728,1,0,0:0:0:0:
188,332,48900,6,0,L|304:284,1,105
344,228,49245,2,0,L|210:208,1,105
280,152,49590,2,0,L|171:232,1,105
112,268,49935,2,0,P|56:236|48:172,1,105
128,144,50279,6,0,P|184:108|196:40,1,140
360,164,50969,2,0,P|304:200|292:268,1,140
328,348,51486,1,0,0:0:0:0:
432,191,51659,6,0,L|391:288,1,105
328,348,52004,2,0,L|312:244,1,105
252,284,52349,2,0,L|314:199,1,105
367,115,52692,2,0,P|346:68|299:47,1,105
176,48,53038,6,0,L|240:184,1,140
80,176,53728,2,0,L|188:295,1,140
236,176,54245,1,0,0:0:0:0:
322,257,54417,6,0,L|351:156,1,105
339,69,54762,2,0,L|261:139,1,105
240,71,55107,2,0,L|235:175,1,105
223,275,55452,2,0,P|177:298|127:285,1,105
128,100,55797,6,0,P|160:148|244:180,1,140
268,184,56228,1,0,0:0:0:0:
304,180,56314,1,0,0:0:0:0:
404,112,56486,1,0,0:0:0:0:
276,272,56659,1,0,0:0:0:0:
512,188,56831,1,0,0:0:0:0:
394,227,57004,1,0,0:0:0:0:
300,152,57176,6,0,L|312:76,1,70
212,104,57521,2,0,L|152:52,1,70
128,168,57866,1,0,0:0:0:0:
24,160,58038,1,0,0:0:0:0:
168,264,58210,1,0,0:0:0:0:
96,344,58383,1,0,0:0:0:0:
256,176,58555,6,0,L|308:120,1,70
332,236,58900,2,0,L|280:292,1,70
256,132,59245,1,0,0:0:0:0:
336,264,59417,1,0,0:0:0:0:
340,84,59590,1,0,0:0:0:0:
248,324,59762,1,0,0:0:0:0:
96,208,59935,6,0,L|152:256,1,70
160,80,60279,2,0,L|176:160,1,70
400,208,60624,1,0,0:0:0:0:
280,132,60797,1,0,0:0:0:0:
404,68,60969,1,0,0:0:0:0:
280,272,61141,1,0,0:0:0:0:
160,80,61314,5,0,0:0:0:0:
152,320,61486,1,0,0:0:0:0:
280,132,61659,1,0,0:0:0:0:
64,192,61831,1,0,0:0:0:0:
280,272,62004,1,0,0:0:0:0:
228,44,62176,1,0,0:0:0:0:
416,192,62348,1,0,0:0:0:0:
64,192,62521,1,0,0:0:0:0:
192,160,62693,6,0,L|224:136,3,35
248,192,63038,2,0,L|287:187,3,35
292,240,63383,1,0,0:0:0:0:
320,284,63469,1,0,0:0:0:0:
372,292,63555,1,0,0:0:0:0:
412,260,63641,1,0,0:0:0:0:
416,208,63728,1,0,0:0:0:0:
388,164,63814,1,0,0:0:0:0:
360,120,63900,1,0,0:0:0:0:
376,68,63986,1,0,0:0:0:0:
424,40,64073,6,0,L|464:56,3,35
480,100,64417,2,0,L|472:140,3,35
428,164,64762,1,0,0:0:0:0:
376,144,64848,1,0,0:0:0:0:
336,104,64934,1,0,0:0:0:0:
288,72,65020,1,0,0:0:0:0:
228,72,65106,1,0,0:0:0:0:
176,108,65192,1,0,0:0:0:0:
160,172,65279,1,0,0:0:0:0:
196,232,65365,1,0,0:0:0:0:
248,292,65452,6,0,L|228:328,1,35
328,220,65624,2,0,L|348:264,1,35
344,128,65797,2,0,L|400:164,1,38.5000011749268
236,64,65969,2,0,L|180:32,1,38.5000011749268
136,116,66141,2,0,L|64:100,1,52.5000020027161
344,240,66314,2,0,L|392:312,1,52.5000020027161
120,224,66486,2,0,L|52:232,1,59.5000011348725
248,308,66659,2,0,L|260:368,1,59.5000011348725
224,208,66831,6,0,P|232:140|344:208,1,238.00000453949
312,260,67262,1,0,0:0:0:0:
376,320,67348,2,0,L|444:200,1,119.000002269745
308,108,67693,1,0,0:0:0:0:
340,156,67779,1,0,0:0:0:0:
336,216,67866,1,0,0:0:0:0:
112,64,68210,5,0,0:0:0:0:
112,160,68383,2,0,L|184:116,1,52.5000020027161
192,128,68555,2,0,L|244:132,1,52.5000020027161
276,256,68728,2,0,L|324:204,1,52.5000020027161
404,120,68900,2,0,L|400:176,1,52.5000020027161
396,276,69073,2,0,L|444:256,1,52.5000020027161
288,64,69245,2,0,L|300:132,1,52.5000020027161
156,56,69417,2,0,L|196:100,1,52.5000020027161
256,184,69590,5,0,0:0:0:0:
144,172,69762,1,0,0:0:0:0:
92,172,69848,1,0,0:0:0:0:
44,188,69935,2,0,L|-12:224,1,52.5000020027161
88,288,70107,2,0,L|144:284,1,52.5000020027161
124,123,70279,2,0,L|148:183,1,52.5000020027161
232,96,70452,2,0,L|228:152,1,52.5000020027161
344,112,70624,2,0,L|324:164,1,52.5000020027161
257,323,70797,2,0,L|280:276,1,52.5000020027161
324,164,70969,5,0,0:0:0:0:
280,272,71141,2,0,L|352:280,1,52.5000020027161
376,272,71314,2,0,L|424:240,1,52.5000020027161
412,100,71486,2,0,L|420:160,1,52.5000020027161
312,236,71659,2,0,L|304:176,1,52.5000020027161
312,32,71831,2,0,L|272:88,1,52.5000020027161
132,236,72004,2,0,L|188:204,1,52.5000020027161
412,100,72176,2,0,L|368:128,1,52.5000020027161
248,148,72348,6,0,P|304:176|348:168,1,105.000004005432
392,112,72607,1,0,0:0:0:0:
452,152,72692,2,0,L|424:224,1,52.5000020027161
292,296,72866,2,0,L|364:308,1,52.5000020027161
296,172,73038,2,0,P|264:136|252:68,1,105.000004005432
220,24,73297,1,0,0:0:0:0:
184,84,73383,2,0,L|164:136,1,52.5000020027161
88,176,73555,2,0,L|112:244,1,52.5000020027161
208,168,73728,6,0,P|260:148|316:164,1,105.000004005432
348,188,73986,1,0,0:0:0:0:
356,240,74073,2,0,L|304:260,1,52.5000020027161
433,159,74245,2,0,L|468:101,1,52.5000020027161
258,162,74418,2,0,L|278:243,1,52.5000020027161
431,86,74590,2,0,L|415:19,1,52.5000020027161
310,212,74761,2,0,L|381:255,1,52.5000020027161
379,36,74935,2,0,L|321:0,1,52.5000020027161
364,152,75107,6,0,P|312:172|256:156,1,105.000004005432
224,132,75365,1,0,0:0:0:0:
216,80,75452,2,0,L|268:60,1,52.5000020027161
139,161,75624,2,0,L|103:218,1,52.5000020027161
314,158,75797,2,0,L|293:76,1,52.5000020027161
141,234,75969,2,0,L|156:300,1,52.5000020027161
260,108,76142,6,0,L|216:84,1,35
156,68,76400,1,0,0:0:0:0:
80,76,76486,6,0,P|98:135|142:157,1,105.000004005432
184,156,76745,1,0,0:0:0:0:
232,264,76831,2,0,L|176:288,1,52.5000020027161
88,252,77003,2,0,L|72:192,1,52.5000020027161
168,105,77176,2,0,L|187:166,1,52.5000020027161
232,264,77348,2,0,L|296:240,1,52.5000020027161
364,104,77521,2,0,L|304:128,1,52.5000020027161
132,300,77693,2,0,L|183:284,1,52.5000020027161
252,204,77865,6,0,P|196:176|152:184,1,105.000004005432
108,240,78124,1,0,0:0:0:0:
48,200,78211,2,0,L|76:128,1,52.5000020027161
120,16,78383,5,0,0:0:0:0:
400,40,78555,1,0,0:0:0:0:
354,63,78641,1,0,0:0:0:0:
305,84,78728,1,0,0:0:0:0:
204,128,78900,6,0,P|214:180|271:216,1,105.000004005432
300,236,79159,1,0,0:0:0:0:
332,276,79245,1,0,0:0:0:0:
388,192,79418,1,0,0:0:0:0:
352,152,79504,1,0,0:0:0:0:
304,132,79590,2,0,L|252:136,1,52.5000020027161
224,264,79761,2,0,L|176:212,1,52.5000020027161
96,128,79935,2,0,L|100:184,1,52.5000020027161
104,284,80106,2,0,L|56:264,1,52.5000020027161
212,72,80280,2,0,L|200:140,1,52.5000020027161
344,64,80452,2,0,L|304:108,1,52.5000020027161
244,192,80625,5,0,0:0:0:0:
356,180,80797,1,0,0:0:0:0:
408,180,80883,1,0,0:0:0:0:
456,196,80968,2,0,L|512:232,1,52.5000020027161
412,296,81142,2,0,L|356:292,1,52.5000020027161
376,131,81314,2,0,L|352:191,1,52.5000020027161
268,104,81487,2,0,L|272:160,1,52.5000020027161
156,120,81659,2,0,L|176:172,1,52.5000020027161
242,331,81830,2,0,L|219:283,1,52.5000020027161
196,208,82004,6,0,P|272:232|212:304,1,157.500006008148
124,280,82349,6,0,L|64:276,1,52.5000020027161
88,108,82521,2,0,L|84:168,1,52.5000020027161
257,292,82692,2,0,L|240:224,1,52.5000020027161
188,40,82866,2,0,L|208:112,1,52.5000020027161
368,244,83037,2,0,L|308:216,1,52.5000020027161
88,108,83211,2,0,L|132:136,1,52.5000020027161
252,156,83383,6,0,P|196:184|152:176,1,105.000004005432
116,116,83642,1,0,0:0:0:0:
48,160,83727,2,0,L|76:232,1,52.5000020027161
208,304,83899,2,0,L|136:316,1,52.5000020027161
204,180,84073,2,0,P|236:144|248:76,1,105.000004005432
280,32,84330,1,0,0:0:0:0:
316,92,84418,2,0,L|336:144,1,52.5000020027161
412,184,84590,2,0,L|388:252,1,52.5000020027161
368,312,84762,1,0,0:0:0:0:
232,168,84935,5,0,0:0:0:0:
216,208,85021,1,0,0:0:0:0:
244,240,85107,2,0,P|244:296|204:328,1,105.000004005432
120,248,85452,2,0,B|180:216|160:140|160:140|236:56|328:144,1,315.000012016297
392,248,86141,5,0,0:0:0:0:
264,248,86313,2,0,P|264:304|304:336,1,105.000004005432
392,248,86658,2,0,B|332:216|352:140|352:140|276:56|184:144,1,315.000012016297
152,180,87261,1,0,0:0:0:0:
128,228,87347,1,0,0:0:0:0:
88,252,87521,6,0,P|96:216|88:192,1,52.5
84,124,87866,2,0,L|100:112,1,17.5
164,132,88038,2,0,L|184:132,1,17.5
228,80,88210,2,0,L|260:72,1,26.2500010013581
328,128,88383,2,0,L|368:136,1,26.2500010013581
428,44,88555,2,0,L|428:96,1,35
304,176,88728,2,0,L|352:184,1,35
444,200,88900,5,0,0:0:0:0:
480,240,88986,1,0,0:0:0:0:
460,288,89073,1,0,0:0:0:0:
392,284,89159,1,0,0:0:0:0:
328,244,89245,1,0,0:0:0:0:
252,220,89331,1,0,0:0:0:0:
168,228,89417,1,0,0:0:0:0:
88,268,89504,1,0,0:0:0:0:
68,280,89590,5,0,0:0:0:0:
76,260,89676,1,0,0:0:0:0:
76,244,89762,1,0,0:0:0:0:
72,228,89848,1,0,0:0:0:0:
64,216,89935,1,0,0:0:0:0:
56,204,90021,1,0,0:0:0:0:
48,192,90107,1,0,0:0:0:0:
36,184,90193,1,0,0:0:0:0:
24,176,90279,6,0,P|84:184|132:136,1,105.000004005432
160,124,90538,1,0,0:0:0:0:
196,164,90624,1,0,0:0:0:0:
244,188,90710,1,0,0:0:0:0:
296,196,90797,1,0,0:0:0:0:
348,180,90883,1,0,0:0:0:0:
380,140,90969,2,0,L|348:88,1,52.5000020027161
268,96,91141,2,0,L|244:156,1,52.5000020027161
176,312,91314,2,0,L|196:264,1,52.5000020027161
180,75,91486,2,0,L|159:123,1,52.5000020027161
104,244,91659,6,0,P|168:237|200:273,1,105.000004005432
228,304,91917,1,0,0:0:0:0:
276,328,92004,1,0,0:0:0:0:
328,332,92090,1,0,0:0:0:0:
376,316,92176,1,0,0:0:0:0:
420,288,92262,1,0,0:0:0:0:
444,240,92348,2,0,L|436:184,1,52.5000020027161
352,112,92521,2,0,L|340:180,1,52.5000020027161
228,192,92693,2,0,L|236:132,1,52.5000020027161
140,64,92866,2,0,L|128:132,1,52.5000020027161
100,304,93038,6,0,L|120:192,1,105.000004005432
148,244,93297,1,0,0:0:0:0:
192,276,93383,1,0,0:0:0:0:
244,288,93469,1,0,0:0:0:0:
296,284,93555,1,0,0:0:0:0:
344,264,93641,1,0,0:0:0:0:
380,224,93728,2,0,L|416:172,1,52.5000020027161
324,132,93900,2,0,L|324:72,1,52.5000020027161
216,88,94073,2,0,L|200:32,1,52.5000020027161
80,56,94245,2,0,L|100:112,1,52.5000020027161
136,204,94417,6,0,P|128:264|80:296,1,105.000004005432
48,312,94676,1,0,0:0:0:0:
92,344,94762,2,0,L|172:356,1,52.5000020027161
180,220,94935,2,0,L|216:276,1,52.5000020027161
312,160,95107,2,0,L|328:228,1,52.5000020027161
352,352,95279,2,0,L|340:296,1,52.5000020027161
463,83,95452,2,0,L|443:135,1,52.5000020027161
426,183,95624,1,0,0:0:0:0:
407,231,95710,1,0,0:0:0:0:
368,192,95797,6,0,P|316:144|264:144,1,105.000004005432
232,140,96055,1,0,0:0:0:0:
184,156,96141,2,0,P|140:200|140:260,1,105.000004005432
160,288,96400,1,0,0:0:0:0:
176,240,96486,1,0,0:0:0:0:
156,192,96573,1,0,0:0:0:0:
116,160,96659,1,0,0:0:0:0:
164,68,96831,1,0,0:0:0:0:
236,144,97004,5,0,0:0:0:0:
276,108,97090,1,0,0:0:0:0:
324,88,97176,2,0,P|374:74|427:85,1,105.000004005432
472,108,97435,1,0,0:0:0:0:
456,156,97521,6,0,L|384:148,1,52.5000020027161
192,136,97693,2,0,L|264:144,1,52.5000020027161
432,112,97866,2,0,L|368:96,1,52.5000020027161
168,88,98038,2,0,L|220:92,1,52.5000020027161
240,108,98210,1,0,0:0:0:0:
256,128,98297,1,0,0:0:0:0:
256,156,98383,1,0,0:0:0:0:
244,180,98469,1,0,0:0:0:0:
232,204,98555,6,0,P|236:120|200:84,1,105.000004005432
136,48,98900,1,0,0:0:0:0:
232,8,99073,1,0,0:0:0:0:
284,20,99159,1,0,0:0:0:0:
328,48,99245,1,0,0:0:0:0:
356,92,99330,1,0,0:0:0:0:
372,144,99418,1,0,0:0:0:0:
360,248,99590,1,0,0:0:0:0:
272,304,99762,1,0,0:0:0:0:
288,248,99848,1,0,0:0:0:0:
276,200,99935,1,0,0:0:0:0:
188,156,100107,6,0,L|292:100,1,105.000004005432
188,60,100452,1,0,0:0:0:0:
100,152,100624,2,0,L|52:200,1,52.5000020027161
324,134,100796,2,0,L|376:92,1,52.5000020027161
192,56,100969,2,0,L|132:72,1,52.5000020027161
252,240,101141,2,0,L|312:224,1,52.5000020027161
476,124,101314,6,0,P|444:184|400:204,1,105.000004005432
364,176,101573,1,0,0:0:0:0:
316,152,101659,1,0,0:0:0:0:
264,140,101745,1,0,0:0:0:0:
212,136,101831,1,0,0:0:0:0:
160,144,101917,1,0,0:0:0:0:
116,172,102004,2,0,L|148:228,1,52.5000020027161
252,232,102176,2,0,L|288:288,1,52.5000020027161
388,264,102348,2,0,L|432:316,1,52.5000020027161
480,192,102521,5,0,0:0:0:0:
480,192,102607,1,0,0:0:0:0:
480,192,102693,2,0,P|442:133|382:114,1,105.000004005432
328,104,102952,2,0,L|348:52,1,52.5000020027161
236,120,103124,2,0,L|252:60,1,52.5000020027161
200,48,103297,1,0,0:0:0:0:
148,56,103383,1,0,0:0:0:0:
108,92,103469,1,0,0:0:0:0:
88,140,103555,1,0,0:0:0:0:
84,192,103641,1,0,0:0:0:0:
136,192,103728,2,0,P|176:200|208:224,1,52.5000020027161
252,280,103900,5,0,0:0:0:0:
252,280,103986,1,0,0:0:0:0:
252,280,104073,2,0,P|308:240|372:248,1,105.000004005432
280,104,104417,1,0,0:0:0:0:
280,104,104504,1,0,0:0:0:0:
280,104,104590,2,0,L|316:152,1,52.5000020027161
416,112,104762,2,0,L|412:168,1,52.5000020027161
468,256,104935,2,0,L|428:300,1,52.5000020027161
316,284,105107,2,0,L|260:324,1,52.5000020027161
172,344,105279,5,0,0:0:0:0:
172,344,105366,1,0,0:0:0:0:
172,344,105452,2,0,P|175:286|144:238,1,105.000004005432
76,76,105797,2,0,L|108:136,1,52.5000020027161
228,84,105969,2,0,L|232:160,1,52.5000020027161
332,32,106141,1,0,0:0:0:0:
360,76,106228,1,0,0:0:0:0:
404,104,106314,1,0,0:0:0:0:
456,116,106400,1,0,0:0:0:0:
472,116,106486,5,0,0:0:0:0:
476,131,106573,1,0,0:0:0:0:
475,146,106659,1,0,0:0:0:0:
470,161,106745,1,0,0:0:0:0:
461,174,106831,6,0,P|397:162|337:186,1,105.000004005432
308,188,107090,1,0,0:0:0:0:
260,208,107176,2,0,L|252:148,1,52.5000020027161
236,24,107349,2,0,L|244:88,1,52.5000020027161
136,56,107521,2,0,L|181:82,1,52.5000020027161
358,170,107693,2,0,L|311:145,1,52.5000020027161
142,180,107866,2,0,L|187:154,1,52.5000020027161
351,45,108038,2,0,L|307:73,1,52.5000020027161
260,108,108210,5,0,0:0:0:0:
268,124,108297,1,0,0:0:0:0:
272,140,108383,1,0,0:0:0:0:
272,156,108469,1,0,0:0:0:0:
272,172,108555,2,0,P|260:220|208:260,1,105.000004005432
80,184,108900,2,0,P|92:136|144:96,1,105.000004005432
236,116,109245,1,0,0:0:0:0:
288,124,109331,1,0,0:0:0:0:
340,112,109417,1,0,0:0:0:0:
384,80,109504,1,0,0:0:0:0:
408,32,109590,1,0,0:0:0:0:
436,144,109762,5,0,0:0:0:0:
384,140,109848,1,0,0:0:0:0:
340,112,109935,1,0,0:0:0:0:
268,200,110107,1,0,0:0:0:0:
172,88,110279,5,0,0:0:0:0:
152,136,110366,1,0,0:0:0:0:
148,188,110452,1,0,0:0:0:0:
168,236,110538,1,0,0:0:0:0:
208,268,110624,1,0,0:0:0:0:
220,256,110710,1,0,0:0:0:0:
228,244,110797,1,0,0:0:0:0:
236,232,110883,1,0,0:0:0:0:
244,216,110968,2,0,P|248:156|224:96,1,105.000004005432
144,64,111314,6,0,L|84:88,1,52.5000020027161
368,64,111486,2,0,L|428:88,1,52.5000020027161
200,160,111659,1,0,0:0:0:0:
240,196,111745,1,0,0:0:0:0:
244,248,111831,1,0,0:0:0:0:
208,288,111917,1,0,0:0:0:0:
160,308,112004,2,0,L|232:332,1,52.5000020027161
260,340,112176,1,0,0:0:0:0:
388,160,112348,6,0,L|368:236,1,52.5000020027161
220,236,112521,2,0,L|268:184,1,52.5000020027161
80,204,112693,2,0,L|136:176,1,52.5000020027161
444,48,112866,2,0,L|368:80,1,52.5000020027161
68,48,113038,2,0,L|140:84,1,52.5000020027161
456,192,113210,2,0,L|392:164,1,52.5000020027161
126,180,113383,2,0,L|192:216,1,52.5000020027161
408,328,113555,2,0,L|361:302,1,52.5000020027161
172,205,113728,5,0,0:0:0:0:
256,40,113900,1,0,0:0:0:0:
88,56,114073,1,0,0:0:0:0:
340,205,114245,1,0,0:0:0:0:
104,328,114417,1,0,0:0:0:0:
256,40,114590,1,0,0:0:0:0:
252,344,114762,1,0,0:0:0:0:
424,56,114935,1,0,0:0:0:0:
408,328,115107,5,0,0:0:0:0:
324,264,115279,1,0,0:0:0:0:
276,240,115366,1,0,0:0:0:0:
224,232,115452,1,0,0:0:0:0:
172,236,115538,1,0,0:0:0:0:
124,260,115624,1,0,0:0:0:0:
148,156,115797,1,0,0:0:0:0:
224,92,115969,2,0,L|248:152,1,52.5000020027161
220,192,116141,1,0,0:0:0:0:
324,176,116314,1,0,0:0:0:0:
224,284,116486,6,0,L|308:284,1,70
324,176,116831,5,0,0:0:0:0:
352,196,116917,1,0,0:0:0:0:
376,224,117004,1,0,0:0:0:0:
388,260,117090,1,0,0:0:0:0:
424,224,117176,1,0,0:0:0:0:
444,176,117262,1,0,0:0:0:0:
444,124,117348,1,0,0:0:0:0:
416,80,117435,1,0,0:0:0:0:
372,52,117521,2,0,L|420:16,1,52.5000020027161
232,88,117693,2,0,L|284:52,1,52.5000020027161
116,92,117866,6,0,L|73:61,1,52.5000020027161
396,292,118038,2,0,L|438:322,1,52.5000020027161
368,160,118210,2,0,L|412:131,1,52.5000020027161
204,288,118382,2,0,L|163:320,1,52.5000020027161
232,88,118555,2,0,L|281:56,1,52.5000020027161
132,144,118728,2,0,L|81:177,1,52.5000020027161
416,200,118900,2,0,L|480:160,1,52.5000020027161
163,320,119073,2,0,L|99:356,1,52.5000020027161
324,256,119245,5,0,0:0:0:0:
188,128,119417,1,0,0:0:0:0:
134,332,119590,1,0,0:0:0:0:
377,51,119762,1,0,0:0:0:0:
324,256,119935,1,0,0:0:0:0:
144,68,120107,1,0,0:0:0:0:
419,157,120280,1,0,0:0:0:0:
204,350,120452,1,0,0:0:0:0:
236,256,120624,6,0,P|232:200|200:140,1,105.000004005432
176,120,120883,1,0,0:0:0:0:
132,88,120969,1,0,0:0:0:0:
76,180,121141,2,0,L|128:276,1,105.000004005432
272,120,121486,2,0,L|256:184,1,52.5000020027161
240,256,121659,2,0,L|392:232,1,105.000004005432
308,336,122004,1,0,0:0:0:0:
363,95,122176,1,0,0:0:0:0:
152,152,122348,1,0,0:0:0:0:
343,239,122521,2,0,L|395:255,1,52.5000020027161
444,224,122693,1,0,0:0:0:0:
212,280,122866,1,0,0:0:0:0:
264,76,123038,5,0,0:0:0:0:
304,112,123124,1,0,0:0:0:0:
260,144,123210,1,0,0:0:0:0:
184,124,123297,1,0,0:0:0:0:
108,148,123383,6,0,L|100:220,1,52.5000020027161
404,236,123555,2,0,L|409:183,1,52.5000020027161
220,41,123728,2,0,L|153:70,1,52.5000020027161
291,342,123900,2,0,L|339:321,1,52.5000020027161
368,85,124073,2,0,L|309:42,1,52.5000020027161
143,298,124245,2,0,L|186:329,1,52.5000020027161
240,212,124417,2,0,L|312:204,1,52.5000020027161
280,80,124590,2,0,L|336:48,1,52.5000020027161
372,32,124762,5,0,0:0:0:0:
472,168,124935,1,0,0:0:0:0:
192,56,125107,1,0,0:0:0:0:
368,308,125279,1,0,0:0:0:0:
88,196,125452,1,0,0:0:0:0:
188,332,125624,1,0,0:0:0:0:
272,176,125797,1,0,0:0:0:0:
56,328,125969,1,0,0:0:0:0:
180,204,126141,6,0,L|240:276,1,70
432,68,126486,2,0,L|364:96,1,52.5000020027161
432,216,126659,2,0,L|364:200,1,52.5000020027161
360,348,126831,2,0,L|312:300,1,52.5000020027161
224,257,127004,1,0,0:0:0:0:
296,120,127176,1,0,0:0:0:0:
104,188,127348,6,0,P|128:136|192:116,1,105.000004005432
296,120,127693,6,0,L|364:132,1,52.5000020027161
400,252,127866,2,0,L|337:239,1,52.5000020027161
184,196,128038,2,0,L|248:216,1,52.5000020027161
132,292,128210,2,0,L|74:273,1,52.5000020027161
104,188,128383,2,0,L|64:132,1,52.5000020027161
172,96,128555,2,0,L|172:32,1,52.5000020027161
276,80,128728,2,0,L|320:36,1,52.5000020027161
428,148,128900,5,0,0:0:0:0:
324,308,129073,1,0,0:0:0:0:
236,148,129245,1,0,0:0:0:0:
132,292,129417,1,0,0:0:0:0:
336,200,129590,1,0,0:0:0:0:
336,200,129762,1,0,0:0:0:0:
120,76,129935,1,0,0:0:0:0:
432,148,130107,1,0,0:0:0:0:
132,292,130279,5,0,0:0:0:0:
228,144,130452,1,0,0:0:0:0:
324,308,130624,1,0,0:0:0:0:
120,76,130797,1,0,0:0:0:0:
432,152,130969,1,0,0:0:0:0:
432,152,131141,1,0,0:0:0:0:
132,292,131314,1,0,0:0:0:0:
436,152,131486,1,0,0:0:0:0:
228,144,131659,5,0,0:0:0:0:
48,48,131831,1,0,0:0:0:0:
48,48,131917,1,0,0:0:0:0:
48,48,132004,2,0,L|88:112,1,52.5000020027161
64,208,132176,1,0,0:0:0:0:
64,208,132262,1,0,0:0:0:0:
64,208,132349,2,0,L|136:228,1,52.5000020027161
144,340,132521,1,0,0:0:0:0:
156,348,132607,1,0,0:0:0:0:
168,356,132693,1,0,0:0:0:0:
204,320,132779,1,0,0:0:0:0:
248,292,132866,1,0,0:0:0:0:
300,284,132952,1,0,0:0:0:0:
352,288,133038,1,0,0:0:0:0:
452,324,133210,5,0,0:0:0:0:
432,220,133383,1,0,0:0:0:0:
336,176,133555,1,0,0:0:0:0:
228,172,133728,1,0,0:0:0:0:
221,157,133814,1,0,0:0:0:0:
219,142,133900,1,0,0:0:0:0:
219,117,133986,1,0,0:0:0:0:
236,80,134073,1,0,0:0:0:0:
280,52,134159,1,0,0:0:0:0:
332,56,134245,1,0,0:0:0:0:
256,192,134417,5,0,0:0:0:0:
256,192,134504,12,0,141314,0:0:0:0:
256,192,153728,12,0,156141,0:0:0:0:
256,68,156486,6,0,B|208:144|208:144|288:168|312:252|276:276,1,262.5
292,212,157866,2,0,P|296:160|380:136,1,140
352,192,158383,2,0,P|381:148|464:168,1,140
416,204,158900,6,0,P|464:272|308:272,1,332.5
368,252,160624,2,0,P|324:213|252:248,1,140
308,276,161141,2,0,P|264:237|192:272,1,140
248,312,161659,6,0,B|208:372|108:344|112:296|84:228|128:164|224:204|216:156|148:144,1,350
196,264,163728,6,0,P|232:236|292:236,1,84
252,164,164073,2,0,P|297:169|339:212,1,84
360,132,164417,2,0,P|388:168|388:228,1,84
327,192,164762,2,0,B|316:256|400:284|400:284|407:352|295:336,1,262.5
224,320,166141,2,0,P|232:272|196:172,1,140
148,248,166659,2,0,P|120:200|136:88,1,168
212,40,167521,6,0,P|307:130|335:53,1,262.5
324,116,168900,2,0,P|356:176|320:240,1,140
288,176,169417,2,0,P|285:243|222:281,1,140
226,210,169935,6,8,P|136:128|272:128,1,332.5,0|0,0:0|0:0,0:0:0:0:
204,144,171659,2,0,P|248:192|312:180,1,122.499996261597
272,120,172176,2,0,P|337:122|372:64,1,122.499996261597
304,56,172693,6,0,B|316:4|344:-32|428:-32|504:12|476:84|468:164|388:200|340:160|320:232|360:296|412:272,1,489.999985046387
356,220,174762,2,0,P|324:196|268:204,1,84
288,128,175107,2,0,P|248:137|214:182,1,84
232,244,175452,6,0,P|192:240|200:88,1,224
192,100,176228,1,0,0:0:0:0:
200,104,176314,1,0,0:0:0:0:
212,104,176400,1,0,0:0:0:0:
224,104,176486,1,0,0:0:0:0:
236,100,176573,1,0,0:0:0:0:
248,96,176659,1,0,0:0:0:0:
264,88,176745,1,0,0:0:0:0:
276,76,176831,1,0,0:0:0:0:
288,60,176917,1,0,0:0:0:0:
292,36,177004,5,0,0:0:0:0:
316,32,177090,1,0,0:0:0:0:
344,32,177176,1,0,0:0:0:0:
368,44,177262,1,0,0:0:0:0:
388,68,177348,1,0,0:0:0:0:
400,96,177435,1,0,0:0:0:0:
400,128,177521,1,0,0:0:0:0:
388,160,177607,1,0,0:0:0:0:
352,144,177693,5,0,0:0:0:0:
328,120,177779,1,0,0:0:0:0:
296,104,177866,1,0,0:0:0:0:
260,96,177952,1,0,0:0:0:0:
220,104,178038,1,0,0:0:0:0:
188,124,178124,1,0,0:0:0:0:
164,160,178210,1,0,0:0:0:0:
164,204,178297,1,0,0:0:0:0:
188,244,178383,1,0,0:0:0:0:
232,264,178469,1,0,0:0:0:0:
288,264,178555,6,0,L|388:232,1,84
320,224,178900,2,0,L|388:148,1,84
408,100,179245,2,0,L|320:56,1,84
256,56,179590,2,0,L|164:108,1,84
132,104,179935,6,0,L|256:164,1,112
88,268,180624,2,0,L|188:192,1,112
232,152,181141,1,0,0:0:0:0:
288,216,181314,6,0,L|227:145,1,84
280,160,181659,2,0,L|312:72,1,84
316,120,182004,2,0,P|376:124|400:104,1,84
460,84,182348,2,0,P|461:144|441:167,1,84
368,192,182693,6,0,P|376:244|424:292,1,112
324,120,183383,2,0,P|292:162|292:230,1,112
312,304,183899,1,0,0:0:0:0:
224,272,184073,6,0,L|124:256,1,84
100,248,184417,2,0,L|172:200,1,84
200,172,184762,2,0,L|108:156,1,84
76,148,185107,2,0,L|140:56,1,112
160,24,185797,5,0,0:0:0:0:
220,116,186141,2,0,P|252:144|336:128,1,112
392,100,186659,1,0,0:0:0:0:
428,184,186831,6,0,L|464:280,1,84
408,236,187176,2,0,L|372:320,1,84
344,260,187521,2,0,L|264:304,1,84
288,216,187866,2,0,L|232:284,1,84
228,184,188210,6,0,L|192:272,1,84
160,172,188555,2,0,L|144:256,1,84
136,296,188900,1,0,0:0:0:0:
64,188,189073,1,0,0:0:0:0:
244,244,189245,1,0,0:0:0:0:
208,72,189417,1,0,0:0:0:0:
424,112,189590,6,0,L|324:132,1,84
400,184,189935,2,0,L|312:204,1,84
280,216,190279,2,0,L|372:248,1,84
336,276,190624,2,0,L|424:252,1,84
444,220,190969,1,0,0:0:0:0:
400,60,191314,1,0,0:0:0:0:
264,160,191659,1,0,0:0:0:0:
208,0,192004,1,0,0:0:0:0:
56,68,192348,6,0,L|104:164,1,84
32,128,192693,2,0,L|76:216,1,84
136,192,193038,2,0,L|96:276,1,84
164,256,193383,2,0,L|124:340,1,84
188,308,193728,6,0,P|236:296|308:324,1,112
188,240,194417,2,0,P|236:228|308:256,1,112
372,284,194935,1,0,0:0:0:0:
160,196,195107,6,0,L|201:99,1,105
264,39,195452,2,0,L|280:143,1,105
340,103,195797,2,0,L|278:188,1,105
225,272,196142,2,0,P|246:319|293:340,1,105
416,339,196486,6,0,L|352:203,1,140
512,211,197176,2,0,L|404:92,1,140
356,211,197693,1,0,0:0:0:0:
270,130,197865,6,0,L|241:231,1,105
253,318,198210,2,0,L|331:248,1,105
352,316,198555,2,0,L|357:212,1,105
369,112,198900,2,0,P|415:89|465:102,1,105
464,287,199245,6,0,P|432:239|348:207,1,140
324,203,199676,1,0,0:0:0:0:
288,207,199762,1,0,0:0:0:0:
188,275,199934,1,0,0:0:0:0:
316,115,200107,1,0,0:0:0:0:
80,199,200279,1,0,0:0:0:0:
316,115,200452,1,0,0:0:0:0:
300,248,200624,5,0,0:0:0:0:
198,160,200797,1,0,0:0:0:0:
428,184,200969,1,0,0:0:0:0:
295,158,201142,1,0,0:0:0:0:
508,64,201314,1,0,0:0:0:0:
379,107,201487,1,0,0:0:0:0:
256,68,201659,1,0,0:0:0:0:
127,111,201830,1,0,0:0:0:0:
216,152,202004,5,0,0:0:0:0:
318,240,202175,1,0,0:0:0:0:
88,216,202349,1,0,0:0:0:0:
221,242,202520,1,0,0:0:0:0:
8,336,202692,1,0,0:0:0:0:
136,292,202865,1,0,0:0:0:0:
260,332,203037,1,0,0:0:0:0:
389,289,203210,1,0,0:0:0:0:
240,164,203383,5,0,0:0:0:0:
389,289,203555,1,0,0:0:0:0:
192,292,203728,1,0,0:0:0:0:
344,164,203900,1,0,0:0:0:0:
148,164,204073,1,0,0:0:0:0:
312,56,204245,1,0,0:0:0:0:
180,56,204417,1,0,0:0:0:0:
252,240,204590,1,0,0:0:0:0:
56,224,204762,5,0,0:0:0:0:
96,88,204935,1,0,0:0:0:0:
148,216,205107,1,0,0:0:0:0:
248,68,205279,1,0,0:0:0:0:
252,240,205452,1,0,0:0:0:0:
396,88,205624,1,0,0:0:0:0:
348,292,205797,1,0,0:0:0:0:
404,56,205969,1,0,0:0:0:0:
456,164,206141,5,0,0:0:0:0:
444,196,206228,1,0,0:0:0:0:
412,212,206314,1,0,0:0:0:0:
376,216,206400,1,0,0:0:0:0:
344,200,206486,1,0,0:0:0:0:
312,184,206573,1,0,0:0:0:0:
276,184,206659,1,0,0:0:0:0:
240,192,206745,1,0,0:0:0:0:
208,204,206831,2,0,L|212:169,1,35
108,80,207004,2,0,L|105:114,1,35
92,292,207176,2,0,L|120:244,1,35
208,84,207348,2,0,L|180:136,1,35
176,148,207521,5,0,0:0:0:0:
196,176,207607,1,0,0:0:0:0:
228,184,207693,1,0,0:0:0:0:
264,180,207779,1,0,0:0:0:0:
292,160,207866,1,0,0:0:0:0:
320,140,207952,1,0,0:0:0:0:
356,136,208038,1,0,0:0:0:0:
388,144,208124,1,0,0:0:0:0:
420,160,208210,2,0,L|456:188,1,35
360,240,208383,2,0,L|372:284,1,35
264,288,208555,2,0,L|252:340,1,35
140,296,208728,2,0,L|96:328,1,35
116,208,208900,6,0,L|176:168,1,52.5000020027161
168,80,209073,2,0,L|116:116,1,52.5000020027161
216,248,209245,2,0,L|264:216,1,52.5000020027161
276,104,209417,2,0,L|220:144,1,52.5000020027161
352,164,209590,2,0,L|404:124,1,52.5000020027161
408,16,209762,2,0,L|356:52,1,52.5000020027161
248,36,209935,2,0,L|228:112,1,52.5000020027161
124,109,210107,2,0,L|140:180,1,52.5000020027161
156,248,210279,6,0,P|220:216|340:280,1,210.000008010865
364,320,210710,1,0,0:0:0:0:
364,372,210797,1,0,0:0:0:0:
440,300,210969,1,0,0:0:0:0:
424,192,211141,1,0,0:0:0:0:
380,164,211228,1,0,0:0:0:0:
336,136,211314,1,0,0:0:0:0:
208,64,211659,6,0,L|224:176,1,105.000004005432
116,288,212004,2,0,L|183:244,1,52.5000020027161
288,270,212176,2,0,L|244:202,1,52.5000020027161
271,97,212348,2,0,L|203:140,1,52.5000020027161
97,114,212521,2,0,L|143:185,1,52.5000020027161
72,236,212693,2,0,L|132:232,1,52.5000020027161
120,340,212866,2,0,L|160:304,1,52.5000020027161
224,260,213038,6,0,P|280:248|344:268,1,105.000004005432
372,288,213297,1,0,0:0:0:0:
412,320,213383,1,0,0:0:0:0:
444,276,213469,1,0,0:0:0:0:
452,224,213555,1,0,0:0:0:0:
428,180,213641,1,0,0:0:0:0:
348,148,213728,2,0,L|356:200,1,52.5000020027161
272,160,213900,2,0,L|284:220,1,52.5000020027161
204,132,214073,2,0,L|216:76,1,52.5000020027161
140,96,214245,2,0,L|164:8,1,52.5000020027161
72,64,214417,6,0,P|108:136|96:196,1,105.000004005432
88,208,214676,1,0,0:0:0:0:
48,240,214762,1,0,0:0:0:0:
64,248,214848,1,0,0:0:0:0:
72,260,214935,1,0,0:0:0:0:
80,272,215021,1,0,0:0:0:0:
88,284,215107,2,0,L|132:240,1,52.5000020027161
204,248,215280,2,0,L|248:204,1,52.5000020027161
312,236,215452,2,0,L|352:188,1,52.5000020027161
420,232,215625,2,0,L|456:184,1,52.5000020027161
488,100,215797,6,0,P|436:76|384:100,1,105.000004005432
352,124,216055,1,0,0:0:0:0:
308,156,216141,2,0,P|259:167|194:129,1,105.000004005432
112,112,216486,2,0,L|204:60,1,105.000004005432
256,48,216745,1,0,0:0:0:0:
308,48,216831,1,0,0:0:0:0:
112,112,217004,1,0,0:0:0:0:
152,144,217090,1,0,0:0:0:0:
192,176,217176,6,0,L|224:276,1,105.000004005432
438,190,217521,2,0,L|363:161,1,52.5000020027161
322,61,217693,2,0,L|293:135,1,52.5000020027161
192,176,217865,2,0,L|266:204,1,52.5000020027161
308,307,218038,2,0,L|338:227,1,52.5000020027161
248,80,218210,2,0,L|269:157,1,52.5000020027161
381,287,218383,2,0,L|359:205,1,52.5000020027161
316,184,218555,6,0,L|284:84,1,105.000004005432
70,170,218900,2,0,L|144:198,1,52.5000020027161
186,299,219072,2,0,L|214:224,1,52.5000020027161
316,184,219244,2,0,L|241:155,1,52.5000020027161
200,53,219417,2,0,L|169:132,1,52.5000020027161
252,108,219590,6,0,L|240:152,1,35
180,180,219848,1,0,0:0:0:0:
208,248,219935,6,0,L|320:216,1,105.000004005432
360,204,220193,1,0,0:0:0:0:
412,192,220279,1,0,0:0:0:0:
336,304,220452,1,0,0:0:0:0:
232,108,220624,2,0,L|220:180,1,52.5000020027161
340,156,220797,2,0,L|365:221,1,52.5000020027161
208,248,220969,2,0,L|196:304,1,52.5000020027161
384,292,221141,2,0,L|404:356,1,52.5000020027161
223,159,221314,6,0,P|279:187|323:179,1,105.000004005432
367,123,221573,1,0,0:0:0:0:
427,163,221658,2,0,L|399:235,1,52.5000020027161
355,347,221830,5,0,0:0:0:0:
75,323,222004,1,0,0:0:0:0:
121,300,222090,1,0,0:0:0:0:
170,279,222175,1,0,0:0:0:0:
144,168,222348,1,0,0:0:0:0:
220,72,222521,5,0,0:0:0:0:
272,84,222607,1,0,0:0:0:0:
320,68,222693,6,0,L|304:180,1,105.000004005432
412,292,223038,2,0,L|344:248,1,52.5000020027161
240,274,223210,2,0,L|283:206,1,52.5000020027161
257,101,223382,2,0,L|324:144,1,52.5000020027161
431,118,223555,2,0,L|384:189,1,52.5000020027161
456,240,223727,2,0,L|396:236,1,52.5000020027161
408,344,223900,2,0,L|368:308,1,52.5000020027161
304,268,224072,6,0,P|248:256|184:276,1,105.000004005432
156,296,224331,1,0,0:0:0:0:
116,328,224417,1,0,0:0:0:0:
84,284,224503,1,0,0:0:0:0:
76,232,224589,1,0,0:0:0:0:
100,188,224675,1,0,0:0:0:0:
180,152,224762,2,0,L|172:204,1,52.5000020027161
256,124,224934,2,0,L|244:184,1,52.5000020027161
324,100,225107,2,0,L|312:44,1,52.5000020027161
392,80,225279,2,0,L|368:-8,1,52.5000020027161
464,68,225452,6,0,P|480:156|392:168,1,157.500006008148
368,164,225797,2,0,L|320:200,1,52.5000020027161
280,148,225969,2,0,L|264:204,1,52.5000020027161
142,153,226141,6,0,P|187:118|243:131,1,105.000004005432
280,148,226399,1,0,0:0:0:0:
320,176,226486,2,0,P|380:180|424:122,1,105.000004005432,0|0,2:0|2:0,2:0:0:0:
512,86,226831,2,0,L|396:40,1,105.000004005432
358,53,227089,1,0,0:0:0:0:
307,64,227175,1,0,0:0:0:0:
512,86,227348,1,0,0:0:0:0:
479,126,227434,1,0,0:0:0:0:
436,160,227521,6,0,L|456:220,1,52.5000020027161
380,208,227693,2,0,L|392:264,1,52.5000020027161
300,220,227866,2,0,L|312:164,1,52.5000020027161
232,184,228038,2,0,L|248:120,1,52.5000020027161
268,60,228210,6,0,P|208:40|160:84,1,105.000004005432
136,88,228469,1,0,0:0:0:0:
112,128,228555,1,0,0:0:0:0:
92,220,228728,1,0,0:0:0:0:
176,196,228900,2,0,B|304:156|232:264|352:252|448:164|352:68|288:92,1,315.000012016297
212,292,229590,6,0,P|272:312|320:268,1,105.000004005432
344,264,229849,1,0,0:0:0:0:
368,224,229935,1,0,0:0:0:0:
388,132,230106,1,0,0:0:0:0:
288,160,230279,2,0,B|160:200|232:92|112:104|16:192|112:288|176:264,1,315.000012016297
224,312,230969,6,0,L|300:352,1,70
304,264,231400,2,0,L|360:272,1,35
352,192,231573,2,0,L|392:176,1,35
272,124,231745,2,0,L|224:144,1,45.4999979171754
124,96,231917,2,0,L|180:72,1,45.4999979171754
120,184,232090,2,0,L|76:200,1,45.4999979171754
36,216,232262,5,0,0:0:0:0:
84,224,232348,1,0,0:0:0:0:
128,240,232435,1,0,0:0:0:0:
172,264,232521,1,0,0:0:0:0:
220,292,232607,1,0,0:0:0:0:
280,300,232693,1,0,0:0:0:0:
340,284,232779,1,0,0:0:0:0:
388,236,232866,1,0,0:0:0:0:
412,168,232952,1,0,0:0:0:0:
392,92,233038,2,0,L|256:116,1,122.5
271,113,233728,5,0,0:0:0:0:
144,88,234073,2,0,L|104:140,1,52.5000020027161
196,184,234245,2,0,L|180:240,1,52.5000020027161
280,248,234417,2,0,L|316:304,1,52.5000020027161
400,244,234590,2,0,L|472:284,1,52.5000020027161
300,192,234762,2,0,L|248:168,1,52.5000020027161
376,96,234935,2,0,L|432:120,1,52.5000020027161
256,64,235107,6,0,P|196:64|140:88,1,105.000004005432
108,104,235366,1,0,0:0:0:0:
72,144,235452,1,0,0:0:0:0:
56,192,235538,1,0,0:0:0:0:
72,244,235624,1,0,0:0:0:0:
116,272,235710,1,0,0:0:0:0:
168,264,235797,2,0,L|192:212,1,52.5000020027161
272,192,235969,2,0,L|296:132,1,52.5000020027161
388,136,236141,2,0,L|408:80,1,52.5000020027161
464,208,236314,2,0,L|444:264,1,52.5000020027161
364,224,236486,6,0,P|300:216|256:240,1,105.000004005432
220,260,236745,1,0,0:0:0:0:
180,292,236831,1,0,0:0:0:0:
128,276,236917,1,0,0:0:0:0:
108,228,237004,1,0,0:0:0:0:
124,180,237090,1,0,0:0:0:0:
156,136,237176,2,0,L|184:188,1,52.5000020027161
312,292,237348,2,0,L|277:234,1,52.5000020027161
270,39,237521,2,0,L|221:107,1,52.5000020027161
168,335,237693,2,0,L|220:254,1,52.5000020027161
240,208,237866,6,0,P|288:244|360:212,1,105.000004005432
380,220,238124,1,0,0:0:0:0:
404,172,238210,2,0,P|408:112|372:64,1,105.000004005432
348,112,238469,1,0,0:0:0:0:
296,116,238555,1,0,0:0:0:0:
248,100,238641,1,0,0:0:0:0:
220,56,238728,1,0,0:0:0:0:
316,16,238900,1,0,0:0:0:0:
144,152,239073,2,0,L|188:196,1,52.5000020027161
224,220,239245,6,0,L|338:236,1,105.000004005432
428,204,239590,1,0,0:0:0:0:
464,72,239762,1,0,0:0:0:0:
432,112,239848,1,0,0:0:0:0:
384,132,239935,1,0,0:0:0:0:
332,140,240021,1,0,0:0:0:0:
280,128,240107,1,0,0:0:0:0:
188,80,240279,2,0,P|148:128|148:168,1,105.000004005432,0|0,2:0|2:0,2:0:0:0:
168,216,240538,1,0,0:0:0:0:
208,248,240624,1,0,0:0:0:0:
340,152,240797,6,0,L|340:232,1,52.5000020027161
236,352,240969,2,0,L|296:304,1,52.5000020027161
448,348,241141,2,0,L|384:300,1,52.5000020027161
296,252,241314,1,0,0:0:0:0:
320,204,241400,1,0,0:0:0:0:
308,152,241486,1,0,0:0:0:0:
272,116,241573,1,0,0:0:0:0:
272,144,241659,5,0,0:0:0:0:
260,168,241745,1,0,0:0:0:0:
244,188,241831,1,0,0:0:0:0:
224,204,241917,1,0,0:0:0:0:
200,212,242004,6,0,L|184:276,1,52.5000020027161
88,164,242176,2,0,L|104:96,1,52.5000020027161
176,28,242348,2,0,L|208:88,1,52.5000020027161
304,32,242521,2,0,L|376:72,1,52.5000020027161
444,232,242693,2,0,L|390:202,1,52.5000020027161
240,112,242866,2,0,L|285:137,1,52.5000020027161
472,92,243038,2,0,L|407:135,1,52.5000020027161
219,252,243211,2,0,L|274:214,1,52.5000020027161
368,164,243383,6,0,P|352:108|300:68,1,105.000004005432
272,52,243641,1,0,0:0:0:0:
220,40,243728,2,0,P|148:48|96:88,1,105.000004005432
76,160,244073,1,0,0:0:0:0:
84,212,244159,1,0,0:0:0:0:
96,264,244245,1,0,0:0:0:0:
216,180,244417,1,0,0:0:0:0:
220,284,244590,1,0,0:0:0:0:
256,320,244676,1,0,0:0:0:0:
300,348,244762,6,0,L|404:336,1,105.000004005432
448,308,245021,1,0,0:0:0:0:
460,256,245107,1,0,0:0:0:0:
428,212,245193,1,0,0:0:0:0:
400,168,245279,1,0,0:0:0:0:
400,116,245366,1,0,0:0:0:0:
384,68,245452,2,0,L|336:108,1,52.5000020027161
252,52,245624,2,0,L|228:116,1,52.5000020027161
128,104,245797,2,0,L|132:168,1,52.5000020027161
40,192,245969,2,0,L|64:252,1,52.5000020027161
192,248,246141,6,0,L|124:344,1,105.000004005432
176,308,246400,1,0,0:0:0:0:
228,300,246486,1,0,0:0:0:0:
280,316,246573,1,0,0:0:0:0:
324,340,246659,1,0,0:0:0:0:
376,348,246745,1,0,0:0:0:0:
428,336,246831,2,0,L|468:288,1,52.5000020027161
416,184,247004,2,0,L|380:232,1,52.5000020027161
276,208,247176,2,0,L|308:160,1,52.5000020027161
256,56,247348,2,0,L|224:108,1,52.5000020027161
72,180,247521,6,0,L|132:80,1,105.000004005432
140,140,247780,1,0,0:0:0:0:
164,188,247866,1,0,0:0:0:0:
204,224,247952,1,0,0:0:0:0:
252,248,248038,1,0,0:0:0:0:
304,252,248124,1,0,0:0:0:0:
356,240,248210,2,0,L|326:165,1,52.5000020027161
374,68,248382,2,0,L|298:96,1,52.5000020027161
201,48,248554,2,0,L|228:123,1,52.5000020027161
181,222,248727,2,0,L|260:191,1,52.5000020027161
344,200,248900,5,0,0:0:0:0:
344,200,249073,2,0,P|348:264|328:300,1,105.000004005432
248,248,249331,1,0,0:0:0:0:
240,196,249417,1,0,0:0:0:0:
208,156,249504,1,0,0:0:0:0:
164,128,249590,1,0,0:0:0:0:
112,116,249676,1,0,0:0:0:0:
60,120,249762,2,0,L|180:56,1,105.000004005432
280,112,250107,2,0,L|208:148,1,52.5000020027161
76,208,250279,6,0,L|144:176,1,52.5000020027161
400,116,250452,2,0,L|344:148,1,52.5000020027161
52,72,250624,2,0,L|140:101,1,52.5000020027161
437,286,250797,2,0,L|355:263,1,52.5000020027161
276,240,250969,5,0,0:0:0:0:
232,204,251055,1,0,0:0:0:0:
216,148,251141,1,0,0:0:0:0:
232,92,251228,1,0,0:0:0:0:
280,60,251314,2,0,L|308:128,1,52.5000020027161
400,220,251486,2,0,L|344:244,1,52.5000020027161
304,260,251659,1,0,0:0:0:0:
128,252,251831,6,0,L|212:280,1,52.5000020027161
216,184,252004,2,0,L|288:192,1,52.5000020027161
299,108,252176,2,0,L|352:92,1,52.5000020027161
400,76,252348,1,0,0:0:0:0:
316,200,252521,1,0,0:0:0:0:
432,32,252693,5,0,0:0:0:0:
400,76,252779,1,0,0:0:0:0:
352,100,252866,1,0,0:0:0:0:
299,108,252952,1,0,0:0:0:0:
260,100,253038,2,0,L|144:68,1,105.000004005432
80,132,253383,5,0,0:0:0:0:
128,152,253469,1,0,0:0:0:0:
168,188,253555,1,0,0:0:0:0:
184,236,253641,1,0,0:0:0:0:
176,288,253728,2,0,L|228:236,1,52.5000020027161
256,220,253900,5,0,0:0:0:0:
304,196,253986,1,0,0:0:0:0:
356,200,254073,1,0,0:0:0:0:
400,228,254159,1,0,0:0:0:0:
424,276,254245,1,0,0:0:0:0:
412,328,254331,1,0,0:0:0:0:
360,316,254418,2,0,L|304:292,1,52.5000020027161
164,224,254590,2,0,L|224:256,1,52.5000020027161
60,172,254762,2,0,L|156:92,1,105.000004005432
196,72,255021,5,0,0:0:0:0:
259,60,255107,1,0,0:0:0:0:
320,81,255193,1,0,0:0:0:0:
363,127,255279,1,0,0:0:0:0:
374,190,255366,1,0,0:0:0:0:
361,251,255452,1,0,0:0:0:0:
315,298,255538,1,0,0:0:0:0:
256,313,255624,1,0,0:0:0:0:
195,296,255710,1,0,0:0:0:0:
256,192,255797,12,0,261141,0:0:0:0:
124,164,261314,6,0,P|156:116|208:92,1,105.000004005432
248,88,261573,1,0,0:0:0:0:
300,92,261659,1,0,0:0:0:0:
348,112,261745,1,0,0:0:0:0:
384,148,261831,1,0,0:0:0:0:
284,176,262003,1,0,0:0:0:0:
192,232,262176,1,0,0:0:0:0:
288,276,262349,1,0,0:0:0:0:
340,284,262435,1,0,0:0:0:0:
392,276,262521,1,0,0:0:0:0:
472,208,262693,6,0,P|440:160|388:136,1,105.000004005432
348,132,262952,1,0,0:0:0:0:
296,136,263038,1,0,0:0:0:0:
248,156,263124,1,0,0:0:0:0:
212,192,263210,1,0,0:0:0:0:
312,220,263382,1,0,0:0:0:0:
404,276,263555,1,0,0:0:0:0:
308,320,263728,1,0,0:0:0:0:
256,328,263814,1,0,0:0:0:0:
204,320,263900,1,0,0:0:0:0:
104,272,264073,6,0,L|152:152,1,105.000004005432
188,204,264331,1,0,0:0:0:0:
240,216,264417,1,0,0:0:0:0:
292,204,264504,1,0,0:0:0:0:
336,176,264590,1,0,0:0:0:0:
400,72,264762,2,0,L|464:112,1,52.5000020027161
284,100,264935,2,0,L|228:64,1,52.5000020027161
292,204,265107,2,0,L|353:241,1,52.5000020027161
188,248,265279,2,0,L|136:220,1,52.5000020027161
96,56,265452,6,0,L|64:116,1,52.5000020027161
152,96,265624,2,0,L|136:164,1,52.5000020027161
216,120,265797,2,0,L|224:180,1,52.5000020027161
284,124,265969,2,0,L|312:176,1,52.5000020027161
348,100,266141,1,0,0:0:0:0:
400,100,266228,1,0,0:0:0:0:
444,128,266314,1,0,0:0:0:0:
472,172,266400,1,0,0:0:0:0:
476,224,266486,1,0,0:0:0:0:
456,272,266573,1,0,0:0:0:0:
412,300,266659,1,0,0:0:0:0:
360,308,266745,1,0,0:0:0:0:
312,288,266831,6,0,P|268:260|200:272,1,105.000004005432
168,284,267090,1,0,0:0:0:0:
120,304,267176,1,0,0:0:0:0:
68,304,267262,1,0,0:0:0:0:
24,276,267348,1,0,0:0:0:0:
40,144,267521,2,0,L|64:200,1,52.5000020027161
152,116,267693,2,0,L|148:184,1,52.5000020027161
248,116,267866,1,0,0:0:0:0:
300,116,267952,1,0,0:0:0:0:
348,96,268038,1,0,0:0:0:0:
388,64,268124,1,0,0:0:0:0:
424,28,268210,6,0,P|456:96|456:176,1,105.000004005432
456,176,268469,1,0,0:0:0:0:
436,224,268555,1,0,0:0:0:0:
388,240,268641,1,0,0:0:0:0:
336,236,268728,1,0,0:0:0:0:
200,204,268900,2,0,L|196:264,1,52.5000020027161
92,144,269073,2,0,L|64:188,1,52.5000020027161
172,48,269245,2,0,L|196:116,1,52.5000020027161
296,76,269417,2,0,L|352:128,1,52.5000020027161
424,208,269590,6,0,P|424:264|376:308,1,105.000004005432
344,280,269848,1,0,0:0:0:0:
288,264,269935,1,0,0:0:0:0:
236,272,270021,1,0,0:0:0:0:
192,284,270107,1,0,0:0:0:0:
96,156,270279,2,0,L|120:216,1,52.5000020027161
144,296,270452,1,0,0:0:0:0:
216,196,270624,2,0,L|256:152,1,52.5000020027161
368,172,270797,2,0,L|328:212,1,52.5000020027161
312,248,270969,6,0,P|384:232|432:248,1,105.000004005432
452,256,271228,1,0,0:0:0:0:
484,276,271314,1,0,0:0:0:0:
460,176,271486,1,0,0:0:0:0:
364,124,271659,2,0,L|384:76,1,52.5000020027161
300,124,271831,2,0,L|320:72,1,52.5000020027161
196,76,272004,2,0,L|180:140,1,52.5000020027161
132,72,272176,2,0,L|116:128,1,52.5000020027161
108,172,272348,6,0,P|160:224|224:216,1,105.000004005432
236,208,272607,1,0,0:0:0:0:
288,196,272693,1,0,0:0:0:0:
340,196,272779,1,0,0:0:0:0:
392,212,272866,1,0,0:0:0:0:
352,352,273038,2,0,L|392:308,1,52.5000020027161
436,240,273210,1,0,0:0:0:0:
412,88,273383,2,0,L|432:152,1,52.5000020027161
304,48,273555,2,0,L|328:112,1,52.5000020027161
184,64,273728,6,0,P|112:80|60:148,1,157.500006008148
112,152,274073,1,0,0:0:0:0:
160,172,274159,1,0,0:0:0:0:
188,216,274245,1,0,0:0:0:0:
184,268,274331,1,0,0:0:0:0:
264,316,274417,2,0,L|292:264,1,52.5000020027161
400,204,274590,2,0,L|376:250,1,52.5000020027161
492,224,274762,2,0,P|500:164|440:112,1,105.000004005432
388,64,275107,6,0,P|352:100|280:116,1,105.000004005432
248,124,275366,1,0,0:0:0:0:
196,112,275452,1,0,0:0:0:0:
144,108,275538,1,0,0:0:0:0:
92,108,275624,1,0,0:0:0:0:
44,132,275710,2,0,L|88:176,1,52.5000020027161
116,308,275883,2,0,L|68:265,1,52.5000020027161
196,180,276055,2,0,L|244:220,1,52.5000020027161
364,96,276228,2,0,L|308:53,1,52.5000020027161
432,184,276486,6,0,P|428:256|380:296,1,105.000004005432
364,252,276745,1,0,0:0:0:0:
316,232,276831,2,0,P|237:215|192:234,1,105.000004005432
168,244,277090,1,0,0:0:0:0:
124,276,277176,2,0,L|144:328,1,52.5000020027161
56,192,277348,2,0,L|20:244,1,52.5000020027161
144,116,277521,2,0,L|196:156,1,52.5000020027161
52,32,277693,2,0,L|16:88,1,52.5000020027161
228,68,277866,6,0,P|264:100|280:148,1,70
185,148,278210,1,0,0:0:0:0:
197,172,278297,1,0,0:0:0:0:
197,196,278383,1,0,0:0:0:0:
193,220,278469,1,0,0:0:0:0:
185,244,278555,2,0,L|157:284,1,35
136,348,278728,2,0,L|228:328,1,70
292,204,278986,1,0,0:0:0:0:
296,228,279073,1,0,0:0:0:0:
284,252,279159,1,0,0:0:0:0:
300,92,279245,6,0,P|352:112|384:100,1,70
448,64,279590,1,0,0:0:0:0:
460,84,279676,1,0,0:0:0:0:
468,108,279762,1,0,0:0:0:0:
472,132,279848,1,0,0:0:0:0:
472,156,279935,2,0,L|452:196,1,35
396,136,280107,2,0,L|388:192,1,35
312,132,280280,2,0,L|328:176,1,35
240,156,280452,2,0,L|268:196,1,35
200,232,280624,6,0,L|152:172,1,70
92,96,280969,1,0,0:0:0:0:
116,104,281055,1,0,0:0:0:0:
140,104,281141,1,0,0:0:0:0:
164,100,281228,1,0,0:0:0:0:
188,92,281313,2,0,L|212:56,1,35
289,63,281486,2,0,L|248:152,1,70
232,216,281745,1,0,0:0:0:0:
236,240,281831,1,0,0:0:0:0:
240,264,281917,1,0,0:0:0:0:
244,288,282004,6,0,P|288:320|316:316,1,70
388,296,282348,1,0,0:0:0:0:
384,272,282435,1,0,0:0:0:0:
392,248,282521,1,0,0:0:0:0:
408,228,282607,1,0,0:0:0:0:
420,208,282693,2,0,L|432:168,1,35
368,172,282866,2,0,L|384:124,1,35
276,148,283038,2,0,L|252:200,1,35
216,128,283210,2,0,L|200:172,1,35
156,108,283383,6,0,L|124:184,1,70
104,256,283728,1,0,0:0:0:0:
128,252,283814,1,0,0:0:0:0:
152,252,283900,1,0,0:0:0:0:
176,260,283986,1,0,0:0:0:0:
196,272,284073,2,0,L|228:308,1,35
260,360,284245,2,0,L|344:320,1,70
412,336,284504,1,0,0:0:0:0:
412,312,284590,1,0,0:0:0:0:
412,288,284676,1,0,0:0:0:0:
412,264,284762,6,0,L|408:176,1,70
396,100,285107,1,0,0:0:0:0:
376,116,285193,1,0,0:0:0:0:
356,128,285279,1,0,0:0:0:0:
332,136,285366,1,0,0:0:0:0:
308,140,285452,2,0,L|268:144,1,35
240,72,285624,2,0,L|192:76,1,35
160,148,285797,2,0,L|120:152,1,35
44,80,285969,2,0,L|92:72,1,35
44,80,286141,6,0,P|60:120|56:172,1,70
48,232,286486,1,0,0:0:0:0:
52,256,286573,1,0,0:0:0:0:
64,276,286659,1,0,0:0:0:0:
80,292,286745,1,0,0:0:0:0:
104,304,286831,2,0,L|140:288,1,35
196,332,287004,2,0,L|200:248,1,70
260,276,287262,1,0,0:0:0:0:
248,256,287348,1,0,0:0:0:0:
232,236,287435,1,0,0:0:0:0:
220,216,287521,6,0,L|172:144,1,70
228,85,287866,1,0,0:0:0:0:
241,104,287952,1,0,0:0:0:0:
254,123,288038,1,0,0:0:0:0:
267,143,288124,1,0,0:0:0:0:
280,162,288210,2,0,L|306:201,1,35
375,149,288383,2,0,L|369:189,1,35
465,184,288555,2,0,L|439:210,1,35
494,271,288728,2,0,L|451:289,1,35
384,288,288900,6,0,L|312:260,1,70
280,176,289245,1,0,0:0:0:0:
256,184,289331,1,0,0:0:0:0:
232,192,289417,1,0,0:0:0:0:
208,200,289504,1,0,0:0:0:0:
184,208,289590,2,0,L|184:160,1,35
120,152,289762,2,0,L|188:108,1,70
208,48,290021,1,0,0:0:0:0:
228,64,290107,1,0,0:0:0:0:
248,80,290193,1,0,0:0:0:0:
268,92,290279,6,0,L|328:52,1,70
412,24,290624,1,0,0:0:0:0:
424,44,290710,1,0,0:0:0:0:
428,68,290796,1,0,0:0:0:0:
428,92,290883,1,0,0:0:0:0:
420,116,290969,2,0,L|404:152,1,35
320,192,291141,2,0,L|300:232,1,35
212,228,291314,2,0,L|188:272,1,35
100,272,291486,2,0,L|80:312,1,35
40,236,291659,6,0,L|76:164,1,70
132,116,292004,1,0,0:0:0:0:
156,124,292090,1,0,0:0:0:0:
180,128,292176,1,0,0:0:0:0:
204,128,292262,1,0,0:0:0:0:
228,124,292348,2,0,L|272:104,1,35
312,164,292521,2,0,L|236:200,1,70
172,232,292779,1,0,0:0:0:0:
180,268,292866,1,0,0:0:0:0:
204,292,292952,1,0,0:0:0:0:
236,308,293038,6,0,L|316:268,1,70
400,328,293383,1,0,0:0:0:0:
428,304,293469,1,0,0:0:0:0:
448,276,293555,1,0,0:0:0:0:
452,240,293641,1,0,0:0:0:0:
448,204,293728,2,0,L|436:168,1,35
392,24,293900,2,0,L|408:72,1,35
470,229,294073,2,0,L|438:209,1,35
308,120,294245,2,0,L|352:128,1,35
472,148,294417,6,0,L|436:220,1,70
380,268,294762,1,0,0:0:0:0:
356,260,294848,1,0,0:0:0:0:
332,256,294934,1,0,0:0:0:0:
308,256,295020,1,0,0:0:0:0:
284,260,295106,2,0,L|240:280,1,35
200,220,295279,2,0,L|276:184,1,70
340,152,295537,1,0,0:0:0:0:
332,116,295624,1,0,0:0:0:0:
308,92,295710,1,0,0:0:0:0:
276,76,295796,6,0,L|196:116,1,70
112,56,296141,1,0,0:0:0:0:
84,80,296227,1,0,0:0:0:0:
64,108,296313,1,0,0:0:0:0:
60,144,296399,1,0,0:0:0:0:
64,180,296486,2,0,L|76:216,1,35
200,276,296658,2,0,L|188:230,1,35
348,248,296831,2,0,L|304:228,1,35
416,120,297003,2,0,L|372:136,1,35
256,192,297176,12,0,299762,0:0:0:0:
256,192,299935,12,0,305452,0:0:0:0:
