osu file format v14

[General]
AudioFilename: Camellia - For The Delta.mp3
AudioLeadIn: 0
PreviewTime: 233007
Countdown: 0
SampleSet: Soft
StackLeniency: 0.2
Mode: 0
LetterboxInBreaks: 1
WidescreenStoryboard: 0

[Editor]
Bookmarks: 73698,96369,130248,236542
DistanceSpacing: 2
BeatDivisor: 4
GridSize: 32
TimelineZoom: 4.599998

[Metadata]
Title:d:For The DELTA
TitleUnicode:d:For The DELTA
Artist:Camellia
ArtistUnicode:Camellia
Creator:Dannyy
Version:Oldest version
Source:
Tags:
BeatmapID:1138697
BeatmapSetID:537353

[Difficulty]
HPDrainRate:5
CircleSize:4
OverallDifficulty:8.6
ApproachRate:9.3
SliderMultiplier:2.8
SliderTickRate:1

[Events]
//Background and Video events
0,0,"Yes.jpg",0,0
//Break Periods
2,140104,155902
//Storyboard Layer 0 (Background)
//Storyboard Layer 1 (Fail)
//Storyboard Layer 2 (Pass)
//Storyboard Layer 3 (Foreground)
//Storyboard Layer 4 (Overlay)
//Storyboard Sound Samples

[TimingPoints]
1974,344.827586206897,4,2,0,60,1,0
24042,-400,4,2,0,60,0,0
26455,-555.555555555556,4,2,0,60,0,0
28179,-400,4,2,0,60,0,0
29214,-555.555555555556,4,2,0,60,0,0
36455,-400,4,2,0,60,0,0
37490,-555.555555555556,4,2,0,60,0,0
39214,-400,4,2,0,60,0,0
40249,-555.555555555556,4,2,0,60,0,0
44559,-400,4,2,0,60,0,0
62663,-200,4,2,0,60,0,0
66800,-125,4,2,0,60,0,0
68179,-66.6666666666667,4,2,0,60,0,0
68525,-71.4285714285714,4,2,0,60,0,0
70594,-100,4,2,0,60,0,0
71110,-133.333333333333,4,2,0,60,0,0
72836,-100,4,2,0,60,0,0
76283,-133.333333333333,4,2,0,60,0,0
79214,-76.9230769230769,4,2,0,60,0,0
80593,-100,4,2,0,60,0,0
80765,-76.9230769230769,4,2,0,60,0,0
81972,-400,4,2,0,60,0,0
82231,-133.333333333333,4,2,0,60,0,0
85593,-266.666666666667,4,2,0,60,0,0
86110,-133.333333333333,4,2,0,60,0,0
86972,-266.666666666667,4,2,0,60,0,0
87317,-133.333333333333,4,2,0,60,0,0
87490,-266.666666666667,4,2,0,60,0,0
87662,-133.333333333333,4,2,0,60,0,0
90248,-100,4,2,0,60,0,0
90421,-133.333333333333,4,2,0,60,0,0
91283,-100,4,2,0,60,0,0
91456,-133.333333333333,4,2,0,60,0,0
93007,-100,4,2,0,60,0,0
93179,-133.333333333333,4,2,0,60,0,0
93352,-100,4,2,0,60,0,0
93524,-133.333333333333,4,2,0,60,0,0
94042,-100,4,2,0,60,0,0
94215,-133.333333333333,4,2,0,60,0,0
95422,-100,4,2,0,60,0,0
95594,-133.333333333333,4,2,0,60,0,0
95938,-100,4,2,0,60,0,0
96110,-133.333333333333,4,2,0,60,0,0
96801,-100,4,2,0,60,0,0
96974,-133.333333333333,4,2,0,60,0,0
98180,-100,4,2,0,60,0,0
98353,-133.333333333333,4,2,0,60,0,0
99560,-100,4,2,0,60,0,0
100249,-100,4,2,0,60,0,0
100422,-133.333333333333,4,2,0,60,0,0
100765,-266.666666666667,4,2,0,60,0,0
100938,-133.333333333333,4,2,0,60,0,0
102318,-100,4,2,0,60,0,0
102491,-133.333333333333,4,2,0,60,0,0
103698,-100,4,2,0,60,0,0
103870,-133.333333333333,4,2,0,60,0,0
105077,-100,4,2,0,60,0,0
105249,-133.333333333333,4,2,0,60,0,0
105593,-100,4,2,0,60,0,0
105765,-133.333333333333,4,2,0,60,0,0
106456,-100,4,2,0,60,0,0
106629,-133.333333333333,4,2,0,60,0,0
106972,-100,4,2,0,60,0,0
107059,-133.333333333333,4,2,0,60,0,0
107836,-100,4,2,0,60,0,0
108008,-133.333333333333,4,2,0,60,0,0
109215,-100,4,2,0,60,0,0
109387,-133.333333333333,4,2,0,60,0,0
110594,-100,4,2,0,60,0,0
110938,-200,4,2,0,60,0,0
111627,-100,4,2,0,60,0,0
116111,-66.6666666666667,4,2,0,60,0,0
116455,-266.666666666667,4,2,0,60,0,0
116627,-133.333333333333,4,2,0,60,0,0
120938,-400,4,2,0,60,0,0
121024,-133.333333333333,4,2,0,60,0,0
121196,-400,4,2,0,60,0,0
121283,-133.333333333333,4,2,0,60,0,0
121627,-266.666666666667,4,2,0,60,0,0
121972,-133.333333333333,4,2,0,60,0,0
123007,-133.333333333333,4,2,0,60,0,0
127145,-100,4,2,0,60,0,0
127405,-400,4,2,0,60,0,0
127576,-133.333333333333,4,2,0,60,0,0
133007,-400,4,2,0,60,0,0
139903,-133.333333333333,4,2,0,60,0,0
156455,-266.666666666667,4,2,0,60,0,0
157490,-133.333333333333,4,2,0,60,0,0
158696,-266.666666666667,4,2,0,60,0,0
160248,-133.333333333333,4,2,0,60,0,0
161627,-266.666666666667,4,2,0,60,0,0
168869,-133.333333333333,4,2,0,60,0,0
169903,-266.666666666667,4,2,0,60,0,0
171627,-133.333333333333,4,2,0,60,0,0
172662,-266.666666666667,4,2,0,60,0,0
178524,-400,4,2,0,60,0,0
206111,-200,4,2,0,60,0,0
210249,-148.148148148148,4,2,0,60,0,0
210422,-200,4,2,0,60,0,0
211629,-100,4,2,0,60,0,0
211801,-133.333333333333,4,2,0,60,0,0
213008,-100,4,2,0,60,0,0
213180,-133.333333333333,4,2,0,60,0,0
214387,-100,4,2,0,60,0,0
214560,-133.333333333333,4,2,0,60,0,0
217146,-100,4,2,0,60,0,0
217318,-133.333333333333,4,2,0,60,0,0
218180,-100,4,2,0,60,0,0
218353,-133.333333333333,4,2,0,60,0,0
219560,-100,4,2,0,60,0,0
219732,-133.333333333333,4,2,0,60,0,0
222663,-100,4,2,0,60,0,0
222836,-133.333333333333,4,2,0,60,0,0
224042,-100,4,2,0,60,0,0
224215,-133.333333333333,4,2,0,60,0,0
225422,-200,4,2,0,60,0,0
225680,-133.333333333333,4,2,0,60,0,0
229042,-266.666666666667,4,2,0,60,0,0
229387,-133.333333333333,4,2,0,60,0,0
230422,-266.666666666667,4,2,0,60,0,0
230939,-266.666666666667,4,2,0,60,0,0
231370,-266.666666666667,4,2,0,60,0,0
233008,-133.333333333333,4,2,0,60,0,0
233698,-200,4,2,0,60,0,0
233870,-133.333333333333,4,2,0,60,0,0
236801,-100,4,2,0,60,0,0
237232,-133.333333333333,4,2,0,60,0,0
239560,-100,4,2,0,60,0,0
240163,-133.333333333333,4,2,0,60,0,0
240939,-100,4,2,0,60,0,0
241801,-133.333333333333,4,2,0,60,0,0
242318,-100,4,2,0,60,0,0
243353,-133.333333333333,4,2,0,60,0,0
247836,-100,4,2,0,60,0,0
248267,-133.333333333333,4,2,0,60,0,0
250422,-100,4,2,0,60,0,0
251629,-133.333333333333,4,2,0,60,0,0
253353,-100,4,2,0,60,0,0
254387,-266.666666666667,4,2,0,60,0,0
254387,-266.666666666667,4,2,0,60,0,0
255767,-100,4,2,0,60,0,0
255939,-133.333333333333,4,2,0,60,0,0
257491,-100,4,2,0,60,0,0
258525,-100,4,2,0,60,0,0
258698,-133.333333333333,4,2,0,60,0,0
261284,-100,4,2,0,60,0,0
263698,-133.333333333333,4,2,0,60,0,0
269560,-100,4,2,0,60,0,0
274732,-133.333333333333,4,2,0,60,0,0
275077,-100,4,2,0,60,0,0
276801,-133.333333333333,4,2,0,60,0,0
299905,-353.982300884956,4,2,0,60,0,0

[Colours]
Combo1 : 68,59,186
Combo2 : 248,225,184
Combo3 : 250,82,82
Combo4 : 18,48,154

[HitObjects]
120,136,24042,6,0,B|152:120|152:120|136:192|176:216|176:216|216:192|225:170,1,210
335,167,25421,2,0,P|344:201|336:235,1,70,0|0,3:0|3:0,3:0:0:0:
198,288,25938,2,0,P|189:254|197:220,1,70
358,102,26455,6,0,B|382:150|369:190|369:190|336:167,1,126.000003076172
271,136,28179,6,0,P|256:166|254:201,1,70
393,252,28697,2,0,P|407:220|407:185,1,70
254,201,29215,6,0,B|234:250|250:289|250:289|279:266,1,126.000003076172
336,256,31283,1,0,0:0:0:0:
240,136,31628,1,0,0:0:0:0:
195,271,31973,2,0,B|170:274|170:274|176:326|123:330,1,100.800002460938
176,136,33698,1,0,0:0:0:0:
272,256,34215,1,0,0:0:0:0:
101,261,35076,2,0,B|67:287|67:287|72:309|117:329,1,100.800002460938
200,128,36455,6,0,L|192:40,1,70
280,247,36973,2,0,L|352:256,1,70
192,223,37490,6,0,B|166:242|166:242|159:286|113:287,1,100.800002460938
86,155,39215,6,0,L|150:184,1,70
335,118,39733,2,0,L|293:174,1,70
241,336,40250,6,0,B|270:305|231:270|231:270|228:240,1,100.800002460938
224,256,42318,5,0,0:0:0:0:
128,136,42663,1,0,0:0:0:0:
367,69,43007,2,0,B|397:83|397:83|391:112|354:146,1,100.800002460938
235,41,44559,5,0,0:0:0:0:
241,44,44645,1,0,0:0:0:0:
248,48,44731,2,0,L|300:71,1,52.5
306,74,45077,1,0,0:0:0:0:
466,142,45249,1,0,0:0:0:0:
466,142,45594,5,0,0:0:0:0:
306,74,45765,1,0,0:0:0:0:
466,142,45938,1,0,0:0:0:0:
397,303,46111,6,0,L|363:339,1,35
332,270,46456,2,0,L|300:306,1,35
245,264,46801,2,0,L|268:238,1,35
180,231,47146,2,0,L|204:206,1,35
133,175,47490,2,0,L|89:230,1,70
361,105,48870,6,0,L|382:148,1,35,0|0,2:0|2:0,2:0:0:0:
304,150,49215,2,0,L|325:193,1,35,0|0,2:0|2:0,2:0:0:0:
262,227,49560,2,0,L|248:196,1,35,0|0,2:0|2:0,2:0:0:0:
207,273,49905,2,0,L|193:241,1,35,0|0,2:0|2:0,2:0:0:0:
130,273,50248,6,0,L|152:321,1,52.5
99,372,50593,2,0,L|69:310,1,70
119,80,51629,2,0,L|81:95,1,35
144,176,51974,2,0,L|159:214,1,35
240,152,52318,2,0,L|272:139,1,35
264,248,52663,2,0,L|279:286,1,35
376,216,53007,6,0,L|405:167,1,52.5
377,302,53351,2,0,L|424:356,1,70
320,160,54731,6,0,L|352:184,1,35
264,120,55076,1,0,0:0:0:0:
232,184,55421,1,0,0:0:0:0:
320,208,55767,5,0,0:0:0:0:
272,96,56112,1,0,0:0:0:0:
160,144,56455,1,0,0:0:0:0:
216,245,56800,1,0,0:0:0:0:
325,186,57145,6,0,L|283:183,1,35
330,160,57490,2,0,L|370:159,1,35
358,259,57834,2,0,L|362:225,1,35
304,80,58178,2,0,L|296:128,1,35
266,212,58524,2,0,L|225:209,1,35
409,135,58868,2,0,L|449:142,1,35
381,299,59214,2,0,L|391:266,1,35
307,49,59558,2,0,L|302:84,1,35
259,157,59903,5,0,0:0:0:0:
257,174,60076,1,0,0:0:0:0:
78,206,60248,1,0,0:0:0:0:
62,211,60421,1,0,0:0:0:0:
75,302,60593,1,0,0:0:0:0:
238,229,60765,1,0,0:0:0:0:
169,291,60938,1,0,0:0:0:0:
263,139,61110,1,0,0:0:0:0:
238,229,61283,5,0,0:0:0:0:
201,59,61456,1,0,0:0:0:0:
271,324,61629,1,0,0:0:0:0:
140,94,61801,1,0,0:0:0:0:
333,289,61974,1,0,0:0:0:0:
104,155,62146,1,0,0:0:0:0:
369,228,62319,1,0,0:0:0:0:
103,226,62491,1,0,0:0:0:0:
316,164,62663,6,0,L|282:161,3,35
261,239,63008,2,0,L|227:241,3,35
206,164,63353,2,0,L|170:160,3,35
151,239,63698,2,0,L|115:242,3,35
44,182,64042,6,0,L|106:176,1,35
94,251,64215,2,0,L|157:257,1,35
191,135,64387,2,0,L|244:129,1,35
280,257,64560,2,0,L|334:262,1,35
476,128,64732,6,0,L|414:122,1,35
358,289,64905,2,0,L|309:293,1,35
376,66,65077,2,0,L|321:61,1,35
169,348,65250,2,0,L|126:352,1,35
141,58,65422,5,0,0:0:0:0:
150,102,65508,1,0,0:0:0:0:
181,137,65594,1,0,0:0:0:0:
223,156,65680,1,0,0:0:0:0:
269,156,65766,1,0,0:0:0:0:
311,136,65853,1,0,0:0:0:0:
340,98,65939,1,0,0:0:0:0:
355,50,66025,1,0,0:0:0:0:
332,4,66111,5,0,0:0:0:0:
282,0,66197,1,0,0:0:0:0:
246,33,66283,1,0,0:0:0:0:
246,88,66370,1,0,0:0:0:0:
246,144,66456,1,0,0:0:0:0:
247,201,66543,1,0,0:0:0:0:
256,258,66629,1,0,0:0:0:0:
283,309,66715,1,0,0:0:0:0:
324,348,66801,6,0,B|342:347|352:359|352:359|366:346|366:346|406:344|425:303,1,112
450,240,67146,2,0,B|488:199,1,56
354,231,67318,2,0,B|371:119,1,112
272,62,67662,1,0,0:0:0:0:
272,62,67748,1,0,0:0:0:0:
272,62,67836,2,0,B|271:191,1,112
272,62,68179,6,4,B|310:56|310:56|355:22|355:22|423:33|423:33|391:70,1,210.000008010865,4|4,3:0|3:0,3:0:0:0:
120,129,68525,2,0,P|114:179|141:216,1,97.9999970092774
347,196,68698,2,0,P|353:146|326:109,1,97.9999970092774
140,215,68870,2,0,P|148:270|186:269,1,97.9999970092774
326,109,69042,2,0,P|318:54|280:55,1,97.9999970092774
181,271,69215,2,4,P|200:353|274:312,1,195.999994018555,4|4,2:0|2:0,2:0:0:0:
284,52,69560,6,4,P|265:134|191:93,1,195.999994018555,4|4,2:0|2:0,2:0:0:0:
79,141,69905,2,0,P|101:183|146:217,1,97.9999970092774
407,122,70077,2,0,P|385:164|340:198,1,97.9999970092774
105,221,70249,2,0,P|145:247|201:254,1,97.9999970092774
380,41,70421,2,0,P|382:88|360:140,1,97.9999970092774
239,76,70594,2,0,B|206:133|206:133|265:207,1,140
372,182,70939,6,4,B|316:221|316:221|243:186,1,140,4|4,3:0|3:0,3:0:0:0:
83,126,71284,2,0,L|148:164,1,52.5000020027161
164,332,71456,2,0,L|118:305,1,52.5000020027161
65,24,71629,2,0,L|140:24,1,52.5000020027161
238,161,71801,2,0,L|185:160,1,52.5000020027161
117,24,71974,2,0,P|169:15|219:30,1,105.000004005432
8,118,72318,6,0,P|32:100|56:95,1,52.5000020027161
147,232,72491,1,0,0:0:0:0:
251,4,72663,2,0,P|231:20|219:44,1,52.5000020027161
325,102,72836,2,0,P|358:116|382:141,1,70
269,187,73008,2,0,P|302:201|326:226,1,70
240,272,73180,2,0,P|226:305|201:329,1,70
155,216,73352,2,0,P|141:249|116:273,1,70
80,85,73525,1,0,0:0:0:0:
80,85,73611,1,0,0:0:0:0:
80,85,73698,6,0,L|178:137,1,70
424,289,73870,2,0,L|325:236,1,70
105,160,74042,2,0,L|187:171,1,70
399,216,74214,2,0,L|316:204,1,70
146,224,74387,2,0,L|212:197,1,70
358,151,74559,2,0,L|291:178,1,70
263,189,74732,1,0,0:0:0:0:
263,189,74818,1,0,0:0:0:0:
263,189,74905,1,0,0:0:0:0:
203,288,75077,6,0,L|230:223,1,70
301,87,75249,2,0,L|272:152,1,70
313,324,75422,2,0,L|274:250,1,70
189,50,75594,2,0,L|227:125,1,70
415,303,75767,2,0,L|322:244,1,70
89,71,75939,2,0,L|183:132,1,70
402,187,76111,2,0,B|390:226|390:226|362:244|335:187|274:213,1,140
154,6,76455,6,0,L|129:53,1,52.5000020027161
178,202,76627,2,0,L|201:155,1,52.5000020027161
352,62,76801,2,0,P|341:107|306:154,1,105.000004005432
361,310,77145,1,0,0:0:0:0:
371,341,77231,1,0,0:0:0:0:
380,373,77318,1,0,0:0:0:0:
256,326,77491,2,0,L|137:327,1,105.000004005432
57,106,77834,5,0,0:0:0:0:
301,16,78007,2,0,L|235:27,1,52.5000020027161
57,106,78180,2,0,L|130:101,1,52.5000020027161
354,134,78353,2,0,L|298:144,1,52.5000020027161
302,164,78525,1,0,0:0:0:0:
295,184,78611,1,0,0:0:0:0:
282,200,78697,1,0,0:0:0:0:
263,210,78783,1,0,0:0:0:0:
243,212,78870,1,0,0:0:0:0:
204,177,78956,1,0,0:0:0:0:
154,161,79042,1,0,0:0:0:0:
102,168,79128,1,0,0:0:0:0:
58,194,79215,6,0,P|65:239|84:280,1,90.9999958343508
172,211,79387,2,0,P|179:255|198:296,1,90.9999958343508
285,227,79560,2,0,P|277:182|258:141,1,90.9999958343508
398,243,79732,2,0,P|390:198|371:157,1,90.9999958343508
210,86,79905,2,0,P|218:131|237:172,1,90.9999958343508
479,269,80077,2,0,B|483:224|465:180,1,90.9999958343508
129,59,80249,2,0,B|130:158|185:232,1,181.999991668702
369,89,80594,6,0,P|306:66|256:109,1,140
271,300,80939,2,0,P|256:259|285:227,1,90.9999958343508
424,279,81111,2,0,P|382:272|368:231,1,90.9999958343508
482,135,81284,2,0,P|454:169|411:160,1,90.9999958343508
136,120,81456,2,0,P|163:153|206:145,1,90.9999958343508
482,135,81629,2,0,P|422:166|443:91,1,181.999991668702
424,280,81974,6,0,L|412:331,1,52.5
236,320,82318,2,0,L|210:260,1,52.5000020027161
276,64,82491,2,0,L|302:124,1,52.5000020027161
190,358,82663,2,0,L|193:305,1,52.5000020027161
321,25,82836,2,0,L|317:84,1,52.5000020027161
404,141,83008,2,0,L|358:179,1,52.5000020027161
389,282,83180,2,0,L|270:274,1,105.000004005432
132,110,83525,2,0,L|113:170,1,52.5000020027161
234,116,83698,2,0,L|249:65,1,52.5000020027161
336,122,83870,2,0,L|320:172,1,52.5000020027161
451,114,84041,6,0,P|466:86|463:40,1,52.5000020027161
265,270,84214,2,0,P|249:297|255:337,1,52.5000020027161
325,305,84386,6,0,P|366:274|390:228,1,105.000004005432
385,188,84646,1,0,0:0:0:0:
373,146,84732,2,0,P|331:177|307:223,1,105.000004005432
310,269,84991,1,0,0:0:0:0:
325,306,85077,1,0,0:0:0:0:
451,219,85248,2,0,L|451:101,1,105.000004005432
326,3,85593,6,0,B|327:115|327:115,1,105.000004005432
159,375,86110,6,0,L|159:260,1,105.000004005432
159,248,86369,1,0,0:0:0:0:
158,224,86455,1,0,0:0:0:0:
275,146,86627,6,0,L|272:278,1,105.000004005432
73,131,86974,6,0,L|73:13,1,105.000004005432
256,281,87490,6,0,L|256:334,1,52.5000020027161
158,224,87836,2,0,L|146:288,1,52.5000020027161
354,224,88008,2,0,L|365:288,1,52.5000020027161
138,155,88180,2,0,L|111:216,1,52.5000020027161
373,155,88352,2,0,L|400:216,1,52.5000020027161
118,86,88525,2,0,L|73:142,1,52.5000020027161
393,86,88697,2,0,L|438:142,1,52.5000020027161
411,15,88870,5,0,0:0:0:0:
421,65,88956,1,0,0:0:0:0:
401,113,89042,1,0,0:0:0:0:
358,141,89128,1,0,0:0:0:0:
306,140,89214,1,0,0:0:0:0:
264,110,89301,1,0,0:0:0:0:
245,62,89387,1,0,0:0:0:0:
217,19,89474,1,0,0:0:0:0:
169,0,89560,5,0,0:0:0:0:
118,10,89646,1,0,0:0:0:0:
83,48,89732,1,0,0:0:0:0:
78,109,89818,1,0,0:0:0:0:
112,161,89904,1,0,0:0:0:0:
171,181,89990,1,0,0:0:0:0:
230,161,90076,1,0,0:0:0:0:
264,109,90163,1,0,0:0:0:0:
245,62,90248,6,4,B|234:42|234:42|199:9|199:9|148:6|148:6|118:9,1,140,4|4,3:0|3:0,3:0:0:0:
116,98,90593,2,0,L|80:136,1,52.5000020027161
200,182,90765,2,0,L|200:246,1,52.5000020027161
289,271,90938,2,0,L|328:312,1,52.5000020027161
403,287,91111,1,0,0:0:0:0:
467,349,91284,2,4,P|491:282|456:214,1,140
403,287,91627,6,0,P|353:313|297:300,1,105.000004005432
51,280,91972,2,0,L|104:280,1,52.5000020027161
154,154,92145,2,0,L|193:191,1,52.5000020027161
279,54,92317,2,0,L|277:107,1,52.5000020027161
384,74,92490,1,0,0:0:0:0:
368,315,92662,2,0,P|318:303|282:258,1,105.000004005432
272,248,92921,1,0,0:0:0:0:
258,233,93007,6,0,B|168:256|168:256|112:224,1,140
311,49,93353,2,0,B|297:14|297:14|346:43|346:43|368:37|368:37|390:45,1,140
377,87,93610,1,0,0:0:0:0:
351,132,93696,1,0,0:0:0:0:
308,162,93782,1,0,0:0:0:0:
261,171,93870,1,0,0:0:0:0:
144,280,94042,2,4,P|88:232|72:160,1,140
296,88,94387,5,0,0:0:0:0:
417,111,94560,2,0,P|415:187|389:235,1,105.000004005432
383,245,94817,1,0,0:0:0:0:
352,270,94903,1,0,0:0:0:0:
316,284,94989,1,0,0:0:0:0:
277,287,95075,1,0,0:0:0:0:
145,129,95249,1,0,0:0:0:0:
144,280,95422,2,4,P|213:257|273:172,1,140
278,168,95679,1,0,0:0:0:0:
274,129,95765,5,0,0:0:0:0:
168,80,95938,2,0,P|224:32|264:54,1,70
294,49,96111,1,0,0:0:0:0:
428,160,96283,2,4,L|376:160,1,52.5000020027161
103,252,96455,2,4,L|172:252,1,52.5000020027161
258,209,96629,1,0,0:0:0:0:
18,302,96801,2,4,P|10:219|48:169,1,140
224,128,97145,6,4,L|286:190,1,52.5000020027161
472,344,97318,2,4,L|433:302,1,52.5000020027161
344,240,97491,1,0,0:0:0:0:
410,185,97663,1,0,0:0:0:0:
421,161,97749,1,0,0:0:0:0:
426,135,97835,1,0,0:0:0:0:
424,109,97921,1,0,0:0:0:0:
417,84,98008,1,0,0:0:0:0:
261,60,98180,2,4,P|162:69|100:110,1,140
112,120,98438,1,0,0:0:0:0:
96,152,98524,6,0,L|88:256,1,105.000004005432
192,352,98869,1,0,0:0:0:0:
238,135,99042,1,0,0:0:0:0:
236,108,99128,1,0,0:0:0:0:
234,82,99214,1,0,0:0:0:0:
232,56,99301,1,0,0:0:0:0:
230,30,99387,1,0,0:0:0:0:
134,103,99560,2,0,P|135:168|204:239,1,157.500006008148
248,51,99905,5,0,0:0:0:0:
349,267,100077,1,0,0:0:0:0:
467,188,100249,2,4,P|452:108|408:70,1,140
152,160,100593,1,0,0:0:0:0:
152,176,100679,1,0,0:0:0:0:
152,192,100765,1,0,0:0:0:0:
233,32,100938,1,0,0:0:0:0:
233,32,101283,6,0,P|243:88|315:140,1,105.000004005432
354,30,101627,1,0,0:0:0:0:
416,184,101801,1,0,0:0:0:0:
402,205,101888,1,0,0:0:0:0:
385,225,101974,1,0,0:0:0:0:
366,243,102060,1,0,0:0:0:0:
344,259,102146,1,0,0:0:0:0:
139,89,102318,2,4,P|86:130|76:202,1,140
231,254,102663,6,0,P|177:211|169:149,1,105.000004005432
56,91,103007,2,0,L|52:143,1,52.5000020027161
185,276,103179,2,0,L|185:223,1,52.5000020027161
340,92,103352,2,0,L|287:96,1,52.5000020027161,0|0,0:3|0:0,0:3:0:0:
512,140,103525,1,0,0:0:0:0:
288,97,103698,2,4,P|274:165|303:228,1,140.000005340576
444,311,104042,2,0,B|419:340|408:375|408:375|389:346,1,105.000004005432
320,178,104386,5,0,0:0:0:0:
354,76,104560,1,0,0:0:0:0:
387,95,104647,1,0,0:0:0:0:
412,125,104733,1,0,0:0:0:0:
426,161,104819,1,0,0:0:0:0:
428,201,104905,1,0,0:0:0:0:
320,178,105077,2,4,P|358:258|437:270,1,157.500006008148
511,246,105422,5,0,0:0:0:0:
280,180,105594,2,0,L|348:196,1,70
149,143,105767,1,0,0:0:0:0:
175,281,105939,1,0,0:0:0:0:
211,299,106025,1,0,0:0:0:0:
249,305,106111,1,0,0:0:0:0:
288,299,106197,1,0,0:0:0:0:
321,280,106284,1,0,0:0:0:0:
62,116,106456,2,4,P|76:45|145:15,1,140
146,25,106714,1,0,0:0:0:0:
160,35,106800,6,0,L|206:67,1,52.5000020027161
123,163,106972,2,0,B|152:120|152:120|168:128,1,70
318,29,107145,2,0,L|288:72,1,52.5000020027161
249,290,107317,2,0,L|280:248,1,52.5000020027161
466,146,107490,2,0,L|440:192,1,52.5000020027161
352,296,107663,1,0,0:0:0:0:
335,194,107836,2,4,P|332:113|276:85,1,140
271,84,108093,1,0,0:0:0:0:
252,87,108179,6,0,P|210:125|207:182,1,105.000004005432
352,296,108524,1,0,0:0:0:0:
432,312,108696,1,0,0:0:0:0:
428,273,108782,1,0,0:0:0:0:
409,239,108868,1,0,0:0:0:0:
376,217,108954,1,0,0:0:0:0:
337,214,109042,1,0,0:0:0:0:
352,296,109215,2,4,P|277:273|254:210,1,140
324,10,109559,6,0,P|324:42|310:74,1,52.5000020027161
163,177,109731,2,0,P|163:145|177:113,1,52.5000020027161,0|0,3:0|3:0,3:0:0:0:
479,94,109903,2,0,P|479:126|465:158,1,52.5000020027161
465,176,110076,1,0,0:0:0:0:
450,204,110162,1,0,0:0:0:0:
428,226,110248,1,0,0:0:0:0:
401,242,110334,1,0,0:0:0:0:
371,253,110422,1,0,0:0:0:0:
339,359,110594,2,4,P|271:301|261:248,1,140
352,184,110938,6,0,P|351:166|344:144,1,35
276,156,111110,2,0,P|261:166|240:174,1,35
172,167,111283,2,0,P|166:150|166:132,1,35
96,144,111455,2,0,P|79:149|65:160,1,35
64,288,111627,1,0,0:0:0:0:
93,61,112317,6,0,P|53:93|37:125,1,70
235,180,112490,2,0,P|275:148|291:115,1,70
103,190,112663,2,0,P|123:219|151:240,1,70
222,48,112836,2,0,P|203:20|175:0,1,70
158,126,113007,6,0,P|158:161|168:194,1,70
104,251,113180,2,0,P|130:274|163:288,1,70
247,240,113352,2,0,P|252:206|248:172,1,70
138,111,113524,1,0,0:0:0:0:
138,111,113696,6,0,B|131:155|131:155|116:175,1,70
288,120,113869,2,0,B|253:148|253:148|228:152,1,70
390,230,114041,2,0,B|345:228|345:228|323:214,1,70
329,343,114214,2,0,B|299:310|299:310|293:286,1,70
437,142,114387,2,0,B|467:175|467:175|473:199,1,70
471,341,114560,2,0,B|441:308|441:308|435:284,1,70
360,160,114731,1,0,0:0:0:0:
216,56,115076,5,0,0:0:0:0:
368,71,115248,2,0,P|399:87|423:111,1,70
296,288,115421,2,0,P|265:269|242:244,1,70
381,31,115593,2,0,L|399:100,1,70
303,170,115765,2,0,P|287:138|279:90,1,70
487,114,115938,2,0,P|503:146|511:194,1,70
143,21,116111,2,0,B|103:71|143:116|143:116|109:186|180:221|180:221|172:171|231:164,1,315.000012016297
358,100,116455,6,0,L|331:144,1,52.5000020027161
270,333,116800,2,0,L|295:287,1,52.5000020027161
445,152,116972,2,0,L|419:197,1,52.5000020027161
247,279,117145,2,0,L|272:233,1,52.5000020027161
423,101,117317,2,0,L|397:146,1,52.5000020027161
368,212,117490,1,0,0:0:0:0:
96,288,117748,5,0,0:0:0:0:
96,288,117834,2,0,L|195:240,1,105.000004005432
227,19,118179,2,0,L|158:45,1,52.5000020027161
104,145,118352,2,0,L|165:114,1,52.5000020027161
321,78,118524,2,0,L|252:104,1,52.5000020027161
142,228,118696,2,0,L|214:194,1,52.5000020027161
413,127,118869,2,0,L|344:153,1,52.5000020027161
261,296,119042,2,0,L|321:244,1,52.5000020027161
345,106,119214,6,0,L|296:136,1,52.5000020027161
194,294,119386,2,0,L|224:248,1,52.5000020027161
290,64,119559,2,0,L|256:128,1,52.5000020027161
310,274,119731,2,0,L|280:224,1,52.5000020027161
168,106,119904,2,0,L|200:160,1,52.5000020027161
349,186,120076,2,0,L|296:176,1,52.5000020027161
130,195,120249,2,0,L|184:208,1,52.5000020027161
241,198,120421,1,0,0:0:0:0:
349,119,120593,5,0,0:0:0:0:
323,293,120765,2,0,L|283:365,1,52.5000020027161
370,185,120938,2,0,L|354:153,1,35
465,290,121196,2,0,L|481:329,1,35
416,368,121455,1,0,0:0:0:0:
295,282,121629,6,0,B|317:294|332:256|332:256|294:240|294:215,1,105.000004005432
280,200,122059,1,0,0:0:0:0:
280,200,122145,1,0,0:0:0:0:
145,315,122317,2,0,L|88:209,1,105.000004005432
72,136,122576,2,0,L|104:92,1,52.5000020027161
120,20,122834,6,0,P|147:28|171:40,1,52.5000020027161
205,63,123006,1,0,0:0:0:0:
234,95,123092,1,0,0:0:0:0:
255,134,123178,1,0,0:0:0:0:
267,176,123265,1,0,0:0:0:0:
268,219,123351,6,0,L|253:279,1,52.5000020027161
128,192,123525,2,0,L|143:132,1,52.5000020027161
384,160,123696,2,0,B|402:184|402:184|387:215,1,52.5000020027161
409,320,123870,2,0,L|356:324,1,52.5000020027161
319,180,124042,2,0,L|266:175,1,52.5000020027161
258,350,124215,2,0,L|205:354,1,52.5000020027161
121,137,124387,2,0,L|69:133,1,52.5000020027161
18,280,124560,2,0,L|70:275,1,52.5000020027161
400,295,124731,6,0,P|416:309|444:322,1,52.5000020027161
256,96,124905,2,0,P|240:82|212:69,1,52.5000020027161
228,267,125077,2,0,P|214:283|201:311,1,52.5000020027161
399,249,125251,2,0,P|420:253|451:250,1,52.5000020027161
337,87,125422,2,0,P|341:67|338:36,1,52.5000020027161
174,149,125593,2,0,P|153:145|122:148,1,52.5000020027161
280,56,125765,2,0,B|296:80|296:80|280:104|280:104|312:152|280:208,1,157.500006008148
300,209,126111,6,0,P|315:240|311:274,1,52.5000020027161
270,208,126284,2,0,P|255:239|259:273,1,52.5000020027161
144,304,126455,2,0,P|136:280|136:248,1,52.5000020027161
240,152,126627,2,0,P|262:147|298:149,1,52.5000020027161
424,136,126800,2,0,P|424:158|416:192,1,52.5000020027161
96,160,126972,2,0,P|96:138|104:104,1,52.5000020027161
344,232,127145,6,0,B|355:270|354:299|354:299|309:306|272:289,1,140
242,213,127405,2,0,L|210:189,1,35
152,152,127662,2,0,L|104:120,1,52.5000020027161
32,120,127834,1,0,0:0:0:0:
194,177,128007,6,0,L|250:161,1,52.5000020027161
152,298,128180,2,0,L|203:284,1,52.5000020027161
248,368,128352,2,0,L|320:352,1,52.5000020027161
350,344,128525,1,0,0:0:0:0:
393,316,128611,1,0,0:0:0:0:
424,274,128697,1,0,0:0:0:0:
439,224,128783,1,0,0:0:0:0:
435,171,128870,1,0,0:0:0:0:
308,64,129041,5,0,0:0:0:0:
308,64,129214,1,0,0:0:0:0:
173,283,129386,1,0,0:0:0:0:
449,77,129559,1,0,0:0:0:0:
449,77,129731,1,0,0:0:0:0:
312,352,129903,1,0,0:0:0:0:
309,7,130076,1,0,0:0:0:0:
312,287,130248,5,0,0:0:0:0:
178,68,130420,1,0,0:0:0:0:
178,68,130593,1,0,0:0:0:0:
172,356,130766,1,0,0:0:0:0:
36,81,130938,1,0,0:0:0:0:
36,81,131110,1,0,0:0:0:0:
176,285,131283,1,0,0:0:0:0:
176,11,131455,1,0,0:0:0:0:
411,148,131629,5,0,0:0:0:0:
411,207,131801,5,0,0:0:0:0:
436,201,131887,1,0,0:0:0:0:
461,206,131973,1,0,0:0:0:0:
411,148,132146,5,0,0:0:0:0:
373,141,132232,1,0,0:0:0:0:
336,150,132318,1,0,0:0:0:0:
224,212,132491,5,0,0:0:0:0:
279,198,132577,1,0,0:0:0:0:
336,209,132663,1,0,0:0:0:0:
224,153,132836,5,0,0:0:0:0:
138,136,132922,1,0,0:0:0:0:
56,158,133008,6,0,B|84:138|84:138|95:66|95:66|153:108|153:108|188:91,1,210
201,103,134129,5,0,0:0:0:0:
221,112,134215,5,0,0:0:0:0:
241,121,134301,5,0,0:0:0:0:
261,130,134387,6,0,B|301:154|301:154|256:177|187:133|187:133|244:213|207:324|207:324|76:251|28:291|28:291|29:339|79:377|79:377|132:259|57:178|57:178|132:145|138:75|138:75|74:56|36:108,1,1120
132,72,156456,6,0,B|144:116|110:137|110:137|126:160|159:158|181:127|218:112|218:112|188:172|230:223,1,315.000012016297
408,96,157834,6,0,B|344:128|344:128|398:141,1,105.000004005432
312,304,158179,1,0,0:0:0:0:
248,184,158353,6,0,B|193:137|193:137|202:192,1,105.000004005432
176,312,158696,1,0,0:0:0:0:
360,253,158869,6,0,B|339:239|324:211|324:211|385:173|430:244|430:244|476:169|440:74|440:74|413:97|378:100,1,420.000016021729
192,240,160593,6,0,B|144:288|144:352,1,105.000004005432
280,376,160938,1,0,0:0:0:0:
312,225,161111,6,0,B|360:273|424:272,1,105.000004005432
448,137,161456,1,0,0:0:0:0:
296,102,161627,6,0,B|294:150|363:172|363:172|380:85|328:18|328:18|258:55|179:22,1,420.000016021729
288,224,163696,6,0,P|288:256|272:280,1,52.5000020027161
192,208,164041,2,0,P|192:176|208:152,1,52.5000020027161
304,112,164386,2,0,B|328:136|328:136|360:112,1,52.5000020027161
293,28,164731,2,0,B|253:36|237:60|237:60|205:28|141:36|141:36|173:108|149:180,1,315.000012016297
224,200,166110,6,0,P|232:240|224:256,1,52.5000020027161
140,294,166455,1,0,0:0:0:0:
75,180,166627,2,0,B|102:168|119:137|119:137|159:162|203:152|203:152|200:125|213:83,1,210.000008010865
184,296,167490,2,0,B|216:272|232:240|232:240|250:308|250:308|340:215|428:319,1,341.250013017655
348,152,168869,2,0,B|401:116|411:56,1,105.000004005432
264,24,169214,1,0,0:0:0:0:
202,147,169387,2,0,B|165:94|106:84,1,105.000004005432
74,231,169732,1,0,0:0:0:0:
385,252,169905,2,0,B|383:208|417:190|417:190|431:228|476:253|476:253|530:152|441:78|441:78|432:115|389:123,1,420.000016021729
208,272,171627,6,0,L|184:160,1,105.000004005432
112,32,171972,1,0,0:0:0:0:
320,208,172145,2,0,L|344:88,1,105.000004005432
480,32,172490,1,0,0:0:0:0:
454,213,172662,2,0,B|440:224|432:248|432:248|376:192|246:212|240:281|264:320|264:320|301:323|369:288|336:192|292:194|280:167|280:167|301:142,1,525.000020027161
128,184,174731,6,0,B|114:209|114:209|132:239,1,52.5000020027161
224,184,175076,2,0,B|237:158|237:158|219:128,1,52.5000020027161
128,88,175421,2,0,B|114:62|132:32,1,52.5000020027161
248,56,175765,2,0,B|274:67|287:88|287:88|283:128|298:166|298:166|364:106|417:100|417:100|431:167,1,315.000012016297
160,152,177145,6,0,B|200:136|200:136|208:168,1,52.5000020027161
152,264,177490,1,0,0:0:0:0:
260,342,177662,2,0,B|293:320|325:278|303:224|303:224|245:216|228:268,1,210.000008010865
374,51,178525,6,0,L|369:15,1,35
250,60,178870,2,0,L|214:65,1,35
259,184,179215,2,0,L|263:218,1,35
135,192,179560,2,0,L|99:197,1,35
136,312,179904,2,0,L|194:367,1,70
480,32,181284,6,0,L|503:61,1,35
405,80,181629,2,0,L|428:109,1,35
352,157,181974,2,0,L|330:129,1,35
277,206,182318,2,0,L|255:178,1,35
208,280,182663,2,0,L|158:275,1,35
158,140,183007,2,0,L|82:144,1,70
32,352,184042,6,0,L|8:320,1,35
107,303,184387,2,0,L|83:271,1,35
159,225,184732,2,0,L|180:253,1,35
234,176,185077,2,0,L|255:204,1,35
333,93,185421,2,0,L|335:44,1,35
387,188,185765,2,0,L|464:216,1,70
312,106,187145,6,0,L|361:100,1,35
227,119,187490,1,0,0:0:0:0:
254,203,187835,1,0,0:0:0:0:
338,190,188179,1,0,0:0:0:0:
235,98,188524,5,0,0:0:0:0:
177,236,188869,1,0,0:0:0:0:
314,278,189214,1,0,0:0:0:0:
374,51,189560,6,0,L|368:15,1,35
250,60,189905,2,0,L|214:66,1,35
259,184,190249,2,0,L|264:218,1,35
135,192,190594,2,0,L|99:198,1,35
186,360,190939,2,0,L|136:312,1,70
104,280,192318,6,0,L|128:311,1,35
179,233,192663,2,0,L|203:264,1,35
275,211,193008,2,0,L|254:184,1,35
351,163,193353,2,0,L|330:136,1,35
414,40,193697,6,0,L|380:36,1,35
496,174,194041,2,0,L|427:177,1,70
448,320,195077,6,0,L|426:353,1,35
366,283,195422,2,0,L|344:316,1,35
264,278,195767,2,0,L|284:249,1,35
182,242,196111,2,0,L|202:213,1,35
35,225,196456,2,0,L|66:208,1,35
101,42,196800,2,0,L|117:111,1,70
346,101,198179,6,0,L|312:106,1,35
227,119,198524,1,0,0:0:0:0:
254,203,198869,1,0,0:0:0:0:
338,190,199213,1,0,0:0:0:0:
235,98,199558,5,0,0:0:0:0:
177,236,199903,1,0,0:0:0:0:
314,278,200248,1,0,0:0:0:0:
404,108,200593,6,0,L|429:132,1,35
295,151,200938,2,0,L|270:127,1,35
370,183,201284,2,0,L|347:209,1,35
328,75,201629,2,0,L|352:50,1,35
183,154,201972,6,0,L|159:179,1,35
208,275,202317,2,0,L|232:250,1,35
336,277,202662,2,0,L|312:302,1,35
191,253,203007,2,0,L|231:230,1,35
352,299,203352,6,0,L|313:321,1,35
179,220,203696,2,0,L|227:209,1,35
365,332,204041,2,0,L|318:345,1,35
175,175,204386,2,0,L|224:177,1,35
369,376,204731,6,0,L|321:377,1,35
137,288,205076,2,0,L|130:324,1,35
374,288,205421,2,0,L|381:324,1,35
120,162,205765,2,0,L|111:207,1,35
499,217,206111,6,0,L|495:179,3,35
425,30,206456,2,0,L|428:67,3,35
423,221,206801,2,0,L|419:183,3,35
350,34,207146,2,0,L|353:71,3,35
348,224,207491,6,0,L|344:186,1,35
275,37,207663,2,0,L|278:74,1,35
284,231,207836,2,0,L|272:196,1,35
173,74,208008,2,0,L|184:108,1,35
256,235,208180,2,0,L|231:208,1,35
88,139,208352,2,0,L|112:165,1,35
236,247,208525,2,0,L|202:233,1,35
43,230,208697,2,0,L|76:243,1,35
222,266,208870,2,0,L|185:267,1,35
40,332,209042,2,0,L|76:330,1,35
293,217,209215,1,0,0:0:0:0:
342,199,209301,1,0,0:0:0:0:
370,156,209387,1,0,0:0:0:0:
367,104,209473,1,0,0:0:0:0:
334,65,209560,5,0,0:0:0:0:
311,112,209646,1,0,0:0:0:0:
276,151,209732,1,0,0:0:0:0:
229,174,209818,1,0,0:0:0:0:
177,182,209905,1,0,0:0:0:0:
128,229,209991,1,0,0:0:0:0:
125,298,210077,1,0,0:0:0:0:
169,350,210163,1,0,0:0:0:0:
237,358,210249,6,0,P|279:362|330:342,1,87.5
287,269,210594,2,0,P|264:274|238:274,1,35
221,202,210767,2,0,P|257:198|292:188,1,70
250,111,211111,1,0,0:0:0:0:
250,111,211198,1,0,0:0:0:0:
250,111,211284,2,0,P|226:112|201:120,1,35
169,279,211629,6,0,B|133:316|81:309|81:309|96:284|114:269,1,140
177,103,211974,2,0,L|234:97,1,52.5000020027161
291,272,212146,2,0,L|343:276,1,52.5000020027161
502,160,212318,2,0,L|439:160,1,52.5000020027161
288,185,212491,2,0,P|281:152|288:115,1,52.5000020027161
449,160,212663,2,0,P|459:210|449:266,1,105.000004005432
213,235,213008,6,0,B|264:230|291:185|291:185|262:181|239:185,1,140
87,204,213353,1,4,0:0:0:0:
225,135,213525,1,0,0:0:0:0:
111,292,213698,2,0,L|131:242,1,52.5000020027161
200,46,213870,2,0,L|180:96,1,52.5000020027161
72,132,214042,2,0,B|6:133|6:133|41:175,1,105.000004005432
344,276,214387,6,0,B|366:322|342:368|342:368|323:346|315:324,1,140
192,235,214732,2,0,L|187:182,1,52.5000020027161
382,129,214905,2,0,L|386:76,1,52.5000020027161
270,13,215077,2,0,L|275:66,1,52.5000020027161
263,195,215249,2,0,P|295:196|320:181,1,52.5000020027161
274,65,215422,2,0,P|212:62|165:89,1,105.000004005432
76,196,215767,5,0,0:0:0:0:
141,294,215940,2,0,B|166:337|166:337|219:342,1,105.000004005432
346,272,216283,2,0,P|365:254|371:229,1,52.5000020027161
274,135,216456,2,0,P|255:152|247:176,1,52.5000020027161
458,349,216628,2,0,P|474:328|480:303,1,52.5000020027161
458,245,216801,2,0,B|449:295|449:295|461:358,1,105.000004005432,0|0,0:3|0:3,0:3:0:0:
476,323,217059,1,0,0:0:0:0:
490,299,217146,6,4,P|508:217|472:167,1,140,4|4,3:0|3:0,3:0:0:0:
119,75,217491,2,0,L|183:81,1,52.5000020027161
436,149,217663,2,0,L|383:144,1,52.5000020027161
118,187,217836,2,0,L|207:179,1,52.5000020027161
274,135,218008,1,0,0:0:0:0:
399,355,218180,2,0,B|399:329|380:304|380:304|390:271|390:271|373:242|372:206,1,140
55,129,218525,6,0,P|48:182|74:246,1,105.000004005432
181,269,218870,1,0,0:0:0:0:
92,73,219042,2,0,P|60:116|50:184,1,105.000004005432
181,269,219387,2,0,L|219:311,1,52.5000020027161
268,358,219560,2,0,B|295:362|295:362|308:342|338:346|338:346|340:304|306:269,1,140
147,71,219905,6,0,L|194:127,1,52.5000020027161
390,145,220077,2,0,L|318:157,1,52.5000020027161
195,325,220249,2,0,L|231:225,1,105.000004005432
270,98,220594,1,0,0:0:0:0:
278,73,220680,1,0,0:0:0:0:
287,48,220766,1,0,0:0:0:0:
305,166,220939,6,0,P|248:174|203:125,1,105.000004005432
148,71,221284,1,0,0:0:0:0:
58,147,221456,2,0,L|52:205,1,52.5000020027161,0|0,0:3|0:3,0:3:0:0:
200,359,221629,2,0,L|195:306,1,52.5000020027161,0|0,0:3|0:3,0:3:0:0:
218,176,221801,2,0,P|234:159|261:143,1,52.5000020027161
278,137,221974,1,0,0:0:0:0:
299,120,222060,1,0,0:0:0:0:
320,132,222146,1,0,0:0:0:0:
341,122,222232,1,0,0:0:0:0:
360,140,222318,1,0,0:0:0:0:
347,204,222404,1,0,0:0:0:0:
313,259,222490,1,0,0:0:0:0:
261,299,222576,1,0,0:0:0:0:
199,319,222663,6,0,B|162:323|162:323|147:348|147:348|120:335|120:335|109:353|79:345,1,140
135,125,223008,2,0,P|160:118|186:116,1,52.5000020027161
250,310,223181,2,0,P|224:316|198:318,1,52.5000020027161
62,261,223353,2,0,L|113:250,1,52.5000020027161
328,151,223525,2,0,L|276:161,1,52.5000020027161
62,261,223698,2,0,B|102:247|102:247|127:250|127:250|176:236,1,105.000004005432
450,57,224042,6,0,B|447:77|427:98|427:98|439:134|439:134|414:150|414:150|402:171,1,140
189,275,224387,2,0,L|214:225,1,52.5000020027161
296,47,224560,2,0,L|272:93,1,52.5000020027161
102,112,224732,2,0,P|124:96|148:87,1,52.5000020027161
376,207,224905,2,0,P|353:221|329:230,1,52.5000020027161
102,112,225077,2,0,B|135:102|135:102|153:76|153:76|188:59,1,105.000004005432
251,197,225422,6,0,P|262:248|298:284,1,105
325,184,225767,2,0,P|319:157|300:138,1,52.5
29,107,225939,2,0,L|81:102,1,52.5000020027161
302,139,226111,2,0,L|249:134,1,52.5000020027161
164,123,226284,1,0,0:0:0:0:
140,266,226456,2,0,B|133:343|133:343|166:332,1,105.000004005432
424,287,226801,5,0,0:0:0:0:
251,197,226974,1,0,0:0:0:0:
477,353,227146,2,0,P|506:305|494:244,1,105.000004005432
341,189,227491,2,0,P|341:160|357:129,1,52.5000020027161
462,102,227663,2,0,P|471:77|470:51,1,52.5000020027161
251,38,227836,2,0,P|226:82|220:138,1,105.000004005432
261,301,228180,6,0,B|147:307,1,105.000004005432,0|0,0:3|0:3,0:3:0:0:
186,271,228438,1,0,0:0:0:0:
213,243,228524,2,4,L|269:240,1,52.5000020027161,4|4,3:0|3:0,3:0:0:0:
354,242,228698,2,0,P|363:294|351:354,1,105.000004005432
119,293,229042,2,0,P|110:241|119:189,1,105.000004005432
360,73,229560,6,0,P|369:125|357:185,1,105.000004005432
343,214,229818,1,0,0:0:0:0:
357,249,229905,2,0,P|361:275|355:305,1,52.5000020027161
124,198,230077,2,0,P|115:146|124:94,1,105.000004005432
306,156,230422,2,0,P|314:207|306:259,1,105.000004005432
235,228,230939,6,0,P|173:240|125:200,1,131.25000500679
218,61,231456,2,0,P|230:123|190:172,1,131.25000500679
52,76,231974,2,0,P|114:64|163:106,1,131.25000500679
67,242,232491,2,0,P|55:180|97:133,1,131.25000500679
127,201,233008,2,0,B|199:246|257:208|257:208|297:273|297:273|370:218|450:271,1,367.500014019013
416,126,233698,6,0,P|383:131|351:116,1,70
97,133,234042,2,0,P|152:123|207:149,1,105.000004005432
258,236,234387,1,0,0:0:0:0:
258,236,234474,1,0,0:0:0:0:
258,236,234560,1,0,0:0:0:0:
266,337,234732,2,0,B|280:302|232:273|266:223,1,105.000004005432
89,44,235077,6,0,L|138:67,1,52.5000020027161,0|0,0:0|2:0,0:0:0:0:
232,113,235249,1,0,0:0:0:0:
398,328,235422,2,0,L|386:266,1,52.5000020027161
344,156,235594,2,0,L|387:126,1,52.5000020027161
229,230,235767,1,0,0:0:0:0:
229,230,235853,1,0,0:0:0:0:
229,230,235939,1,0,0:0:0:0:
135,254,236111,2,0,B|186:274|185:204|228:229,1,105.000004005432
382,235,236370,1,0,0:0:0:0:
382,235,236456,6,0,L|340:180,1,52.5000020027161
301,134,236629,1,0,0:0:0:0:
183,66,236801,2,0,L|248:112,1,70
409,55,236974,2,0,P|373:63|352:87,1,70
168,257,237146,2,0,P|194:234|227:229,1,70
370,292,237318,1,0,0:0:0:0:
423,375,237491,2,0,B|375:358|414:318|363:287,1,105.000004005432
94,278,237836,6,0,L|134:238,1,52.5000020027161
207,171,238008,1,0,0:0:0:0:
430,239,238180,1,0,0:0:0:0:
430,239,238267,1,0,0:0:0:0:
430,239,238353,2,0,P|365:207|346:167,1,105.000004005432
301,89,238698,1,0,0:0:0:0:
226,16,238870,2,0,P|199:78|204:121,1,105.000004005432
289,339,239129,1,0,0:0:0:0:
289,339,239215,6,0,P|330:302|326:237,1,105.000004005432
135,50,239560,2,0,L|203:62,1,70
422,135,239732,2,0,L|354:123,1,70
65,130,239905,2,0,L|133:130,1,70
351,215,240077,2,0,L|286:191,1,70
206,170,240249,1,0,0:0:0:0:
206,170,240336,1,0,0:0:0:0:
206,170,240422,1,0,0:0:0:0:
155,262,240594,6,0,L|210:160,1,105.000004005432
376,23,240939,2,0,L|378:96,1,70
437,295,241111,2,0,L|403:229,1,70
227,233,241284,2,0,L|292:184,1,70
444,22,241456,2,0,L|444:95,1,70
477,222,241629,2,0,P|423:178|356:190,1,140
227,234,241887,1,0,0:0:0:0:
227,233,241974,6,0,B|150:215|150:215|185:189,1,105.000004005432
403,86,242318,2,0,L|332:120,1,70
289,287,242491,2,0,L|352:254,1,70
293,56,242663,2,0,L|227:87,1,70
165,265,242836,2,0,L|233:229,1,70
312,185,243008,1,0,0:0:0:0:
348,199,243094,1,0,0:0:0:0:
375,227,243180,1,0,0:0:0:0:
387,264,243266,1,0,0:0:0:0:
382,302,243353,6,0,P|331:297|285:322,1,105.000004005432
141,318,243611,1,0,0:0:0:0:
141,318,243698,2,0,P|112:251|131:198,1,105.000004005432
238,118,244042,1,0,0:0:0:0:
272,97,244129,1,0,0:0:0:0:
285,60,244215,2,0,L|350:106,1,52.5000020027161
324,176,244387,1,0,0:0:0:0:
302,224,244474,1,0,0:0:0:0:
265,249,244560,2,0,L|196:237,1,52.5000020027161
88,175,244732,6,0,B|59:162|59:162|105:138|154:151,1,105.000004005432
265,249,244991,1,0,0:0:0:0:
265,249,245077,2,0,P|246:295|175:328,1,105.000004005432
181,311,245335,1,0,0:0:0:0:
161,298,245421,1,0,0:0:0:0:
141,285,245507,1,0,0:0:0:0:
122,272,245593,1,0,0:0:0:0:
37,343,245767,2,0,L|110:249,1,105.000004005432
228,212,246111,6,0,L|171:181,1,52.5000020027161,0|0,2:0|2:0,2:0:0:0:
112,144,246284,1,0,0:0:0:0:
115,52,246456,2,0,B|127:20|127:20|153:61|196:78,1,105.000004005432
388,91,246801,1,0,0:0:0:0:
388,91,246887,1,0,0:0:0:0:
388,91,246974,1,0,0:0:0:0:
478,37,247146,2,0,L|387:91,1,105.000004005432
253,153,247405,1,0,0:0:0:0:
253,153,247491,6,0,P|280:108|285:57,1,105.000004005432
115,52,247836,2,0,L|88:120,1,70
253,153,248008,2,0,L|181:219,1,70
25,235,248180,2,0,L|78:284,1,70
182,359,248353,1,0,0:0:0:0:
258,286,248525,2,0,L|167:372,1,105.000004005432
181,358,248784,5,0,0:0:0:0:
181,358,248870,1,0,0:0:0:0:
85,153,249042,1,0,0:0:0:0:
115,52,249215,2,0,L|85:153,1,105.000004005432
156,285,249560,1,0,0:0:0:0:
156,285,249646,1,0,0:0:0:0:
156,285,249732,1,0,0:0:0:0:
263,199,249905,2,0,B|213:169|213:169|208:112,1,105.000004005432
453,185,250163,1,0,0:0:0:0:
479,180,250249,6,0,B|497:213|497:213|486:262,1,52.5000020027161
353,239,250422,2,0,B|392:265|392:265|394:320,1,70
236,310,250594,2,0,B|197:284|197:284|194:228,1,70
255,165,250767,2,0,B|215:138|215:138|213:83,1,70
376,85,250939,2,0,B|415:111|415:111|417:166,1,70
400,240,251111,1,0,0:0:0:0:
324,231,251284,2,0,B|338:179|338:179|415:256,1,140
209,317,251629,6,0,B|176:303|176:303|202:285|217:249,1,105.000004005432
255,165,251887,1,0,0:0:0:0:
246,113,251973,1,0,0:0:0:0:
218,69,252059,1,0,0:0:0:0:
172,44,252145,1,0,0:0:0:0:
120,44,252231,1,0,0:0:0:0:
74,69,252318,1,0,0:0:0:0:
45,112,252404,1,0,0:0:0:0:
36,164,252490,1,0,0:0:0:0:
143,142,252663,2,0,B|123:168|123:168|161:183|161:183|144:197|141:216|178:226,1,105.000004005432,0|0,3:0|3:0,3:0:0:0:
255,300,252922,1,0,0:0:0:0:
255,300,253008,6,0,L|317:271,1,52.5000020027161
364,227,253181,1,0,0:0:0:0:
413,23,253353,2,0,P|384:35|348:69,1,70
187,12,253526,2,0,L|249:47,1,70
428,212,253698,2,0,L|359:181,1,70
213,236,253870,1,0,0:0:0:0:
195,278,253956,1,0,0:0:0:0:
198,318,254042,1,0,0:0:0:0:
235,289,254128,1,0,0:0:0:0:
267,255,254214,1,0,0:0:0:0:
286,214,254301,1,0,0:0:0:0:
277,169,254387,6,0,B|258:117|283:67|283:67|367:99|365:46|430:44|474:93|474:93|473:124|473:124|453:138|415:131,1,393.750015020371
397,133,255767,6,0,B|383:136|357:146|345:146|345:146|363:197|327:223,1,140
167,248,256025,1,0,0:0:0:0:
167,248,256111,2,0,P|157:308|190:359,1,105.000004005432
336,302,256370,1,0,0:0:0:0:
336,302,256456,2,0,L|293:254,1,52.5000020027161
223,160,256629,1,0,0:0:0:0:
400,133,256801,2,0,P|358:94|286:127,1,105.000004005432
167,248,257060,1,0,0:0:0:0:
166,247,257146,6,0,P|115:249|80:213,1,105.000004005432
100,42,257491,2,0,L|83:116,1,70
233,211,257663,2,0,L|218:140,1,70
344,42,257836,2,0,L|358:111,1,70
477,211,258008,2,0,L|493:138,1,70
511,58,258180,1,0,0:0:0:0:
511,58,258267,1,0,0:0:0:0:
511,58,258353,1,0,0:0:0:0:
405,310,258525,6,0,P|314:302|245:349,1,140
132,365,258870,2,0,L|121:308,1,52.5000020027161
323,47,259042,2,0,L|284:116,1,52.5000020027161
246,292,259215,2,0,L|257:235,1,52.5000020027161
114,49,259387,2,0,L|153:118,1,52.5000020027161
246,292,259560,1,0,0:0:0:0:
250,266,259646,1,0,0:0:0:0:
255,240,259732,1,0,0:0:0:0:
260,214,259818,1,0,0:0:0:0:
265,188,259905,6,0,L|276:131,1,52.5000020027161
373,84,260077,2,0,L|384:141,1,52.5000020027161
383,136,260249,1,0,0:0:0:0:
387,161,260335,1,0,0:0:0:0:
392,187,260421,1,0,0:0:0:0:
397,213,260507,1,0,0:0:0:0:
402,240,260594,6,0,L|413:297,1,52.5000020027161
263,340,260767,2,0,L|274:283,1,52.5000020027161
124,240,260939,2,0,L|135:297,1,52.5000020027161
37,351,261111,1,0,0:0:0:0:
37,351,261198,1,0,0:0:0:0:
37,351,261284,6,0,L|14:268,1,70
107,189,261456,2,0,L|84:106,1,70
390,0,261629,2,0,P|405:31|408:65,1,70
319,161,261801,2,0,P|334:192|337:226,1,70
210,355,261974,2,0,P|194:323|191:289,1,70
327,130,262146,2,0,P|342:161|345:195,1,70
303,289,262318,1,0,0:0:0:0:
303,289,262405,1,0,0:0:0:0:
303,289,262491,1,0,0:0:0:0:
129,277,262663,6,0,B|121:308|96:320|96:320|93:306,1,70
333,81,262836,2,0,L|264:78,1,70
116,164,263008,2,0,L|185:155,1,70
512,160,263180,2,0,L|442:168,1,70
294,242,263352,2,0,L|364:246,1,70
481,230,263525,1,0,0:0:0:0:
207,197,263698,2,0,P|156:223|79:208,1,105.000004005432
135,113,263956,1,0,0:0:0:0:
135,113,264042,6,0,P|154:98|177:110,1,52.5000020027161
264,78,264215,2,0,B|285:80|285:80|296:62|296:62|309:59|309:59|336:13|336:13|373:56|373:56|433:64,1,210.000008010865
441,90,264646,1,0,0:0:0:0:
452,127,264732,1,0,0:0:0:0:
447,166,264818,1,0,0:0:0:0:
426,199,264904,1,0,0:0:0:0:
334,200,265077,2,0,P|378:177|425:198,1,105.000004005432
408,232,265336,1,0,0:0:0:0:
376,256,265422,5,0,0:0:0:0:
168,324,265594,2,0,P|150:264|106:239,1,105.000004005432
96,224,265853,1,0,0:0:0:0:
85,183,265939,1,0,0:0:0:0:
90,142,266025,1,0,0:0:0:0:
110,105,266111,1,0,0:0:0:0:
142,78,266197,1,0,0:0:0:0:
181,65,266284,2,0,P|224:96|272:96,1,52.5000020027161
265,50,266456,1,0,0:0:0:0:
326,39,266542,1,0,0:0:0:0:
383,64,266628,1,0,0:0:0:0:
415,117,266714,1,0,0:0:0:0:
411,179,266801,6,0,L|385:232,1,52.5000020027161
348,293,266974,1,0,0:0:0:0:
168,320,267146,2,0,L|163:265,1,52.5000020027161
153,237,267318,1,0,0:0:0:0:
154,206,267404,1,0,0:0:0:0:
165,177,267490,1,0,0:0:0:0:
186,154,267576,1,0,0:0:0:0:
213,139,267663,2,0,L|270:140,1,52.5000020027161
417,228,267836,2,0,L|354:229,1,52.5000020027161
168,320,268008,1,0,0:0:0:0:
168,320,268094,1,0,0:0:0:0:
168,320,268180,6,0,L|228:319,1,52.5000020027161
309,277,268353,1,0,0:0:0:0:
222,136,268525,2,0,L|181:168,1,52.5000020027161
129,355,268698,2,0,L|168:320,1,52.5000020027161
35,259,268870,1,0,0:0:0:0:
35,259,268956,1,0,0:0:0:0:
35,259,269042,2,0,L|18:324,1,52.5000020027161
116,123,269215,2,0,L|126:72,1,52.5000020027161
132,211,269387,1,0,0:0:0:0:
132,211,269474,1,0,0:0:0:0:
132,211,269560,6,0,L|203:210,1,70
324,150,269732,1,0,0:0:0:0:
357,259,269905,2,0,L|307:308,1,70
271,330,270077,1,0,0:0:0:0:
231,344,270163,1,0,0:0:0:0:
190,350,270249,1,0,0:0:0:0:
148,348,270335,1,0,0:0:0:0:
108,338,270422,2,0,L|57:287,1,70
94,115,270594,2,0,L|101:196,1,70
170,241,270767,1,0,0:0:0:0:
170,241,270853,1,0,0:0:0:0:
170,241,270939,5,0,0:0:0:0:
418,152,271111,2,0,L|441:85,1,70
427,47,271284,1,0,0:0:0:0:
414,9,271370,1,0,0:0:0:0:
377,22,271456,1,0,0:0:0:0:
347,48,271542,1,0,0:0:0:0:
327,83,271629,1,0,0:0:0:0:
316,121,271715,1,0,0:0:0:0:
312,161,271801,2,0,L|312:246,1,70
199,330,271974,2,0,L|199:246,1,70
203,180,272146,1,0,0:0:0:0:
203,180,272232,1,0,0:0:0:0:
203,180,272318,6,0,L|128:135,1,70
144,3,272491,2,0,L|176:74,1,70
260,297,272663,2,0,L|288:222,1,70
392,72,272836,2,0,L|356:159,1,70
409,366,273008,2,0,L|361:308,1,70
208,15,273181,2,0,L|254:75,1,70
268,173,273353,1,0,0:0:0:0:
268,173,273439,1,0,0:0:0:0:
268,173,273525,1,0,0:0:0:0:
484,186,273698,6,0,L|410:198,1,70
80,184,273871,2,0,L|154:174,1,70
221,303,274042,2,0,L|249:228,1,70
353,78,274215,2,0,L|317:165,1,70
351,303,274387,2,0,L|300:242,1,70
222,77,274560,2,0,L|279:151,1,70
484,186,274732,2,0,P|430:217|370:203,1,105.000004005432
241,154,274991,1,0,0:0:0:0:
241,154,275077,6,0,P|189:152|151:173,1,70
166,265,275249,2,0,P|132:255|105:233,1,70
58,110,275422,2,0,P|25:122|0:146,1,70
38,164,275594,1,0,0:0:0:0:
67,194,275680,1,0,0:0:0:0:
86,231,275766,1,0,0:0:0:0:
92,272,275852,1,0,0:0:0:0:
84,314,275939,2,0,P|113:342|154:348,1,70
156,325,276111,1,0,0:0:0:0:
178,307,276197,1,0,0:0:0:0:
204,298,276283,1,0,0:0:0:0:
232,296,276369,1,0,0:0:0:0:
258,303,276456,6,0,P|273:272|296:245,1,70
382,148,276629,1,0,0:0:0:0:
462,74,276801,2,0,P|486:125|468:210,1,105.000004005432
467,176,277060,1,0,0:0:0:0:
452,184,277146,1,0,0:0:0:0:
438,195,277232,1,0,0:0:0:0:
427,209,277318,1,0,0:0:0:0:
420,222,277405,1,0,0:0:0:0:
413,293,277491,2,0,P|357:327|308:311,1,105.000004005432
216,194,277836,5,0,0:0:0:0:
205,152,277922,1,0,0:0:0:0:
224,113,278008,1,0,0:0:0:0:
263,96,278094,1,0,0:0:0:0:
304,108,278180,1,0,0:0:0:0:
329,143,278267,1,0,0:0:0:0:
324,186,278353,1,0,0:0:0:0:
325,220,278439,1,0,0:0:0:0:
346,247,278525,1,0,0:0:0:0:
379,256,278611,1,0,0:0:0:0:
411,242,278698,2,0,L|396:175,1,52.5000020027161
374,76,278870,1,0,0:0:0:0:
374,76,278956,1,0,0:0:0:0:
374,76,279042,1,0,0:0:0:0:
136,106,279215,6,0,L|123:170,1,52.5000020027161
229,281,279387,2,0,L|236:222,1,52.5000020027161
240,207,279560,1,0,0:0:0:0:
251,187,279646,1,0,0:0:0:0:
265,169,279732,1,0,0:0:0:0:
283,156,279818,1,0,0:0:0:0:
303,146,279905,1,0,0:0:0:0:
325,142,279991,1,0,0:0:0:0:
348,142,280077,2,0,L|416:160,1,52.5000020027161
486,192,280249,1,0,0:0:0:0:
486,192,280336,1,0,0:0:0:0:
486,192,280422,1,0,0:0:0:0:
336,280,280594,6,0,L|322:223,1,52.5000020027161
106,114,280767,2,0,L|126:178,1,52.5000020027161
131,192,280939,1,0,0:0:0:0:
151,213,281025,1,0,0:0:0:0:
179,225,281111,1,0,0:0:0:0:
208,223,281197,1,0,0:0:0:0:
235,210,281284,1,0,0:0:0:0:
253,187,281370,1,0,0:0:0:0:
260,158,281456,2,0,L|247:94,1,52.5000020027161
257,24,281629,1,0,0:0:0:0:
257,24,281715,1,0,0:0:0:0:
257,24,281801,1,0,0:0:0:0:
359,113,281974,6,0,L|346:180,1,52.5000020027161
448,229,282146,2,0,L|392:261,1,52.5000020027161
374,264,282318,1,0,0:0:0:0:
344,265,282404,1,0,0:0:0:0:
315,257,282490,1,0,0:0:0:0:
290,240,282576,1,0,0:0:0:0:
272,216,282663,1,0,0:0:0:0:
262,188,282749,1,0,0:0:0:0:
260,158,282836,2,0,L|259:102,1,52.5000020027161
169,44,283008,1,0,0:0:0:0:
169,44,283094,1,0,0:0:0:0:
169,44,283180,1,0,0:0:0:0:
154,175,283353,6,0,L|126:249,1,52.5000020027161
288,331,283525,2,0,L|265:280,1,52.5000020027161
257,262,283698,1,0,0:0:0:0:
253,240,283784,1,0,0:0:0:0:
256,218,283870,1,0,0:0:0:0:
264,197,283956,1,0,0:0:0:0:
278,179,284043,1,0,0:0:0:0:
296,166,284129,1,0,0:0:0:0:
317,157,284215,2,0,L|378:150,1,52.5000020027161
468,143,284388,1,0,0:0:0:0:
468,143,284474,1,0,0:0:0:0:
468,143,284560,1,0,0:0:0:0:
285,61,284732,6,0,L|216:73,1,52.5000020027161
117,115,284905,2,0,L|179:157,1,52.5000020027161
180,155,285077,1,0,0:0:0:0:
197,169,285163,1,0,0:0:0:0:
210,187,285249,1,0,0:0:0:0:
220,208,285335,1,0,0:0:0:0:
224,230,285422,1,0,0:0:0:0:
224,252,285508,1,0,0:0:0:0:
220,274,285594,2,0,L|199:337,1,52.5000020027161
115,349,285767,1,0,0:0:0:0:
115,349,285853,1,0,0:0:0:0:
115,349,285939,1,0,0:0:0:0:
94,248,286111,6,0,L|160:229,1,52.5000020027161
377,297,286284,2,0,L|328:269,1,52.5000020027161
319,252,286456,1,0,0:0:0:0:
309,231,286542,1,0,0:0:0:0:
303,210,286628,1,0,0:0:0:0:
301,187,286714,1,0,0:0:0:0:
301,165,286801,1,0,0:0:0:0:
305,143,286887,1,0,0:0:0:0:
313,122,286974,2,0,L|377:120,1,52.5000020027161
462,107,287146,1,0,0:0:0:0:
462,107,287232,1,0,0:0:0:0:
462,107,287318,1,0,0:0:0:0:
359,46,287491,6,0,L|297:49,1,52.5000020027161
48,81,287663,2,0,L|116:75,1,52.5000020027161
93,105,287836,1,0,0:0:0:0:
97,134,287922,1,0,0:0:0:0:
111,161,288008,1,0,0:0:0:0:
134,180,288094,1,0,0:0:0:0:
162,189,288181,1,0,0:0:0:0:
192,188,288267,1,0,0:0:0:0:
219,176,288353,1,0,0:0:0:0:
257,140,288440,1,0,0:0:0:0:
307,127,288526,1,0,0:0:0:0:
357,139,288612,1,0,0:0:0:0:
396,174,288698,1,0,0:0:0:0:
413,224,288785,1,0,0:0:0:0:
404,275,288870,6,0,L|458:297,1,52.5000020027161
332,321,289042,2,0,L|300:266,1,52.5000020027161
287,261,289215,1,0,0:0:0:0:
273,244,289301,1,0,0:0:0:0:
262,224,289387,1,0,0:0:0:0:
256,203,289473,1,0,0:0:0:0:
255,180,289560,1,0,0:0:0:0:
258,158,289646,1,0,0:0:0:0:
266,138,289732,2,0,L|302:89,1,52.5000020027161
361,14,289905,1,0,0:0:0:0:
361,14,289991,1,0,0:0:0:0:
361,14,290077,1,0,0:0:0:0:
217,55,290249,6,0,L|156:70,1,52.5000020027161
6,80,290422,2,0,L|80:95,1,52.5000020027161
81,95,290594,1,0,0:0:0:0:
104,105,290680,1,0,0:0:0:0:
124,120,290766,1,0,0:0:0:0:
140,139,290852,1,0,0:0:0:0:
152,161,290939,1,0,0:0:0:0:
158,186,291025,1,0,0:0:0:0:
158,211,291111,2,0,L|137:288,1,52.5000020027161
95,336,291284,1,0,0:0:0:0:
95,336,291370,1,0,0:0:0:0:
95,336,291456,1,0,0:0:0:0:
210,300,291629,6,0,L|276:264,1,52.5000020027161
367,264,291801,2,0,L|317:229,1,52.5000020027161
302,213,291974,1,0,0:0:0:0:
287,187,292060,1,0,0:0:0:0:
280,158,292146,1,0,0:0:0:0:
282,128,292232,1,0,0:0:0:0:
293,100,292319,1,0,0:0:0:0:
311,76,292405,1,0,0:0:0:0:
335,59,292491,2,0,L|388:47,1,52.5000020027161
486,47,292663,1,0,0:0:0:0:
486,47,292749,1,0,0:0:0:0:
486,47,292836,1,0,0:0:0:0:
488,151,293008,6,0,L|509:206,1,52.5000020027161
426,226,293180,2,0,L|412:285,1,52.5000020027161
383,295,293353,1,0,0:0:0:0:
350,304,293439,1,0,0:0:0:0:
315,305,293525,1,0,0:0:0:0:
281,296,293611,1,0,0:0:0:0:
251,279,293698,1,0,0:0:0:0:
226,254,293784,1,0,0:0:0:0:
209,224,293870,2,0,L|201:161,1,52.5000020027161
184,58,294042,1,0,0:0:0:0:
184,58,294129,1,0,0:0:0:0:
184,58,294215,1,0,0:0:0:0:
72,158,294387,6,0,L|19:191,1,52.5000020027161
148,256,294560,2,0,L|184:300,1,52.5000020027161
212,316,294732,1,0,0:0:0:0:
249,325,294818,1,0,0:0:0:0:
286,323,294904,1,0,0:0:0:0:
321,309,294990,1,0,0:0:0:0:
350,286,295077,1,0,0:0:0:0:
370,255,295163,1,0,0:0:0:0:
380,219,295249,2,0,L|375:146,1,52.5000020027161
362,80,295422,1,0,0:0:0:0:
362,80,295508,1,0,0:0:0:0:
362,80,295594,1,0,0:0:0:0:
154,84,295767,6,0,L|205:58,1,52.5000020027161
276,144,295939,2,0,L|241:197,1,52.5000020027161
228,233,296111,1,0,0:0:0:0:
230,283,296197,1,0,0:0:0:0:
252,327,296283,1,0,0:0:0:0:
290,358,296369,1,0,0:0:0:0:
338,371,296456,1,0,0:0:0:0:
387,362,296542,1,0,0:0:0:0:
428,334,296629,2,0,L|400:283,1,52.5000020027161
339,195,296801,1,0,0:0:0:0:
339,195,296887,1,0,0:0:0:0:
339,195,296974,1,0,0:0:0:0:
227,110,297146,6,0,L|172:98,1,52.5000020027161
32,148,297318,2,0,L|59:82,1,52.5000020027161
79,55,297491,1,0,0:0:0:0:
120,23,297577,1,0,0:0:0:0:
170,7,297663,1,0,0:0:0:0:
222,10,297749,1,0,0:0:0:0:
270,30,297836,1,0,0:0:0:0:
308,66,297922,1,0,0:0:0:0:
331,113,298008,2,0,L|332:180,1,52.5000020027161
256,328,298180,2,0,L|225:271,1,52.5000020027161
185,198,298353,1,0,0:0:0:0:
170,175,298439,1,0,0:0:0:0:
156,153,298525,5,0,0:0:0:0:
95,307,298870,1,0,0:0:0:0:
199,107,299042,1,0,0:0:0:0:
186,346,299387,1,0,0:0:0:0:
105,80,299559,1,0,0:0:0:0:
16,272,299732,1,0,0:0:0:0:
76,5,299905,6,0,B|-36:64|34:250|234:171|177:36|177:36|232:55|232:55|256:46|280:53|280:53|314:20|314:20|327:58|327:58|366:50|388:79|388:79|441:62|441:62|442:121|415:139|365:147|369:214|369:214|397:221|416:253|416:253|432:195|466:188|481:164|481:164|506:169|515:236|515:236|463:280|498:344|498:344|440:342|405:359|405:359|389:325|389:325|340:359|340:359|350:286|350:286|289:371|175:386|99:349|99:349|188:321|233:267|103:217|234:111|258:114|409:125|342:311|166:357|125:243|125:243|68:291|6:269,1,2491.65000760391,0|0,0:0|0:0,0:3:0:0:
256,192,310939,12,0,321974,0:0:0:0:
