osu file format v14

[General]
AudioFilename: audio.mp3
AudioLeadIn: 0
PreviewTime: 76898
Countdown: 0
SampleSet: Soft
StackLeniency: 0.7
Mode: 3
LetterboxInBreaks: 0
SpecialStyle: 0
WidescreenStoryboard: 1

[Editor]
DistanceSpacing: 0.5
BeatDivisor: 4
GridSize: 32
TimelineZoom: 2.34

[Metadata]
Title:crystallized
TitleUnicode:crystallized
Artist:Camellia
ArtistUnicode:かめりあ
Creator:od3x
Version:Soft
Source:
Tags:electronic drumstep dubstep progressive aras25
BeatmapID:1234575
BeatmapSetID:583389

[Difficulty]
HPDrainRate:5
CircleSize:4
OverallDifficulty:5
ApproachRate:5
SliderMultiplier:1.4
SliderTickRate:1

[Events]
//Background and Video events
0,0,"background1s.jpg",0,0
//Break Periods
//Storyboard Layer 0 (Background)
//Storyboard Layer 1 (Fail)
//Storyboard Layer 2 (Pass)
//Storyboard Layer 3 (Foreground)
//Storyboard Sound Samples

[TimingPoints]
1028,344.827586206897,4,2,1,30,1,0
23096,-100,4,2,1,40,0,0
42407,-100,4,2,1,80,0,0
45165,-100,4,2,1,100,0,0
78269,-100,4,2,1,100,0,1
99648,-100,4,2,1,100,0,0
122407,-100,4,2,1,40,0,0
141717,-100,4,2,1,100,0,0
166545,-100,4,2,1,100,0,1
188614,-100,4,2,1,100,0,0
223959,-100,4,2,1,60,0,0
232752,-100,4,2,1,30,0,0

[HitObjects]
448,192,1028,128,0,2407:0:0:0:0:soft-hitnormal.wav
192,192,2407,1,0,0:0:0:0:soft-hitnormal.wav
320,192,2579,1,0,0:0:0:0:soft-hitnormal.wav
64,192,2752,1,0,0:0:0:0:soft-hitnormal.wav
192,192,2924,1,0,0:0:0:0:soft-hitnormal.wav
320,192,3096,1,0,0:0:0:0:soft-hitnormal.wav
192,192,3269,1,0,0:0:0:0:soft-hitnormal.wav
448,192,3441,1,0,0:0:0:0:soft-hitnormal.wav
64,192,3614,1,0,0:0:0:0:soft-hitnormal.wav
320,192,3786,128,0,5165:0:0:0:0:soft-hitnormal.wav
192,192,3786,1,0,0:0:0:0:soft-hitnormal.wav
64,192,5165,128,0,5855:0:0:0:0:soft-hitnormal.wav
192,192,5855,128,0,6545:0:0:0:0:soft-hitnormal.wav
320,192,6545,128,0,7924:0:0:0:0:soft-hitnormal.wav
64,192,7924,1,0,0:0:0:0:soft-hitnormal.wav
448,192,8096,1,0,0:0:0:0:soft-hitnormal.wav
192,192,8269,1,0,0:0:0:0:soft-hitnormal.wav
320,192,8441,1,0,0:0:0:0:soft-hitnormal.wav
448,192,8614,1,0,0:0:0:0:soft-hitnormal.wav
64,192,8786,1,0,0:0:0:0:soft-hitnormal.wav
320,192,8959,1,0,0:0:0:0:soft-hitnormal.wav
192,192,9131,1,0,0:0:0:0:soft-hitnormal.wav
320,192,9303,128,0,10683:0:0:0:0:soft-hitnormal.wav
448,192,10683,128,0,12062:0:0:0:0:soft-hitnormal.wav
192,192,12062,128,0,13441:0:0:0:0:soft-hitnormal.wav
448,192,13441,1,0,0:0:0:0:soft-hitnormal.wav
320,192,13614,1,0,0:0:0:0:soft-hitnormal.wav
192,192,13786,1,0,0:0:0:0:soft-hitnormal.wav
64,192,13959,1,0,0:0:0:0:soft-hitnormal.wav
192,192,14131,1,0,0:0:0:0:soft-hitnormal.wav
320,192,14303,1,0,0:0:0:0:soft-hitnormal.wav
448,192,14476,1,0,0:0:0:0:soft-hitnormal.wav
320,192,14648,1,0,0:0:0:0:soft-hitnormal.wav
448,192,14821,128,0,16200:0:0:0:0:soft-hitnormal.wav
320,192,16200,128,0,16890:0:0:0:0:soft-hitnormal.wav
64,192,16890,128,0,17579:0:0:0:0:soft-hitnormal.wav
192,192,17579,1,0,0:0:0:0:soft-hitnormal.wav
320,192,17924,1,0,0:0:0:0:soft-hitnormal.wav
448,192,17924,1,0,0:0:0:0:soft-hitnormal.wav
192,192,18441,1,0,0:0:0:0:soft-hitnormal.wav
320,192,18614,1,0,0:0:0:0:soft-hitnormal.wav
64,192,18614,1,0,0:0:0:0:
448,192,18959,1,0,0:0:0:0:
448,192,19131,1,0,0:0:0:0:
64,192,19476,1,0,0:0:0:0:soft-hitnormal.wav
192,192,19476,1,0,0:0:0:0:
448,192,19821,1,0,0:0:0:0:soft-hitnormal.wav
320,192,19993,1,0,0:0:0:0:soft-hitnormal.wav
192,192,19993,1,0,0:0:0:0:
64,192,20338,1,0,0:0:0:0:soft-hitnormal.wav
448,192,20338,1,0,0:0:0:0:soft-hitnormal.wav
64,192,20683,1,0,0:0:0:0:soft-hitnormal.wav
192,192,20683,1,0,0:0:0:0:soft-hitnormal.wav
320,192,21200,1,0,0:0:0:0:
192,192,21372,1,0,0:0:0:0:
448,192,21372,1,0,0:0:0:0:
448,192,21717,1,0,0:0:0:0:soft-hitnormal.wav
64,192,21717,1,0,0:0:0:0:soft-hitnormal.wav
192,192,21890,1,0,0:0:0:0:
320,192,22062,1,0,0:0:0:0:
64,192,22234,1,0,0:0:0:0:
192,192,22234,1,0,0:0:0:0:
320,192,22493,1,0,0:0:0:0:
448,192,22493,1,0,0:0:0:0:
192,192,22752,1,0,0:0:0:0:
320,192,22752,1,0,0:0:0:0:
64,192,23010,1,0,0:0:0:0:
192,192,23010,1,0,0:0:0:0:
320,192,23096,128,0,25510:0:0:0:0:
448,192,23096,128,0,25510:0:0:0:0:
192,192,25510,128,0,25855:0:0:0:0:
448,192,25855,128,0,27752:0:0:0:0:
192,192,27752,128,0,28269:0:0:0:0:
64,192,28269,128,0,28614:0:0:0:0:
320,192,28614,128,0,31028:0:0:0:0:
192,192,31028,128,0,31372:0:0:0:0:
448,192,31372,128,0,32407:0:0:0:0:
320,192,32407,128,0,32752:0:0:0:0:
64,192,32752,128,0,33441:0:0:0:0:
192,192,33441,128,0,34131:0:0:0:0:
320,192,34131,128,0,36545:0:0:0:0:
64,192,36545,128,0,36890:0:0:0:0:
448,192,36890,128,0,38786:0:0:0:0:
64,192,38786,128,0,39303:0:0:0:0:
192,192,39303,128,0,39648:0:0:0:0:
320,192,39648,128,0,42062:0:0:0:0:
192,192,42062,128,0,42407:0:0:0:0:
448,192,42407,5,0,0:0:0:0:soft-hitnormal.wav
320,192,42579,1,0,0:0:0:0:soft-hitnormal.wav
192,192,42752,1,0,0:0:0:0:soft-hitnormal.wav
64,192,42924,1,0,0:0:0:0:soft-hitnormal.wav
192,192,43096,1,0,0:0:0:0:soft-hitnormal.wav
320,192,43269,1,0,0:0:0:0:soft-hitnormal.wav
448,192,43441,1,0,0:0:0:0:soft-hitnormal.wav
320,192,43614,1,0,0:0:0:0:soft-hitnormal.wav
64,192,43786,128,0,43959:0:0:0:0:soft-hitnormal.wav
448,192,43959,128,0,44131:0:0:0:0:soft-hitnormal.wav
192,192,44131,128,0,44303:0:0:0:0:soft-hitnormal.wav
320,192,44303,128,0,44476:0:0:0:0:soft-hitnormal.wav
192,192,44476,128,0,45165:0:0:0:0:soft-hitnormal.wav
448,192,45165,128,0,45855:0:0:0:0:soft-hitnormal.wav
320,192,45855,128,0,46028:0:0:0:0:soft-hitnormal.wav
192,192,46028,128,0,46200:0:0:0:0:soft-hitnormal.wav
64,192,46200,128,0,46545:0:0:0:0:soft-hitnormal.wav
320,192,46545,128,0,47062:0:0:0:0:soft-hitnormal.wav
448,192,47062,128,0,47579:0:0:0:0:soft-hitnormal.wav
192,192,47579,128,0,48269:0:0:0:0:soft-hitnormal.wav
64,192,48269,128,0,48441:0:0:0:0:soft-hitnormal.wav
192,192,48441,128,0,48614:0:0:0:0:soft-hitnormal.wav
320,192,48614,128,0,48786:0:0:0:0:soft-hitnormal.wav
448,192,48786,128,0,48959:0:0:0:0:soft-hitnormal.wav
192,192,48959,128,0,49131:0:0:0:0:soft-hitnormal.wav
64,192,49131,128,0,49303:0:0:0:0:soft-hitnormal.wav
320,192,49303,128,0,49821:0:0:0:0:soft-hitnormal.wav
448,192,49821,128,0,50338:0:0:0:0:soft-hitnormal.wav
320,192,50338,128,0,51028:0:0:0:0:soft-hitnormal.wav
192,192,51028,128,0,51200:0:0:0:0:soft-hitnormal.wav
64,192,51200,128,0,51372:0:0:0:0:soft-hitnormal.wav
448,192,51372,128,0,51545:0:0:0:0:soft-hitnormal.wav
192,192,51545,128,0,52062:0:0:0:0:soft-hitnormal.wav
320,192,51717,128,0,52062:0:0:0:0:soft-hitnormal.wav
64,192,52062,128,0,52579:0:0:0:0:soft-hitnormal.wav
448,192,52579,128,0,53096:0:0:0:0:soft-hitnormal.wav
320,192,53096,128,0,53614:0:0:0:0:soft-hitnormal.wav
192,192,53614,128,0,53786:0:0:0:0:soft-hitnormal.wav
64,192,53786,128,0,53959:0:0:0:0:soft-hitnormal.wav
448,192,54131,128,0,54821:0:0:0:0:soft-hitnormal.wav
320,192,54821,128,0,55510:0:0:0:0:soft-hitnormal.wav
448,192,55510,128,0,56200:0:0:0:0:soft-hitnormal.wav
192,192,56200,128,0,56890:0:0:0:0:soft-hitnormal.wav
320,192,56890,128,0,57234:0:0:0:0:soft-hitnormal.wav
64,192,57234,128,0,57407:0:0:0:0:soft-hitnormal.wav
192,192,57407,128,0,57579:0:0:0:0:soft-hitnormal.wav
320,192,57579,128,0,58096:0:0:0:0:soft-hitnormal.wav
448,192,58096,128,0,58614:0:0:0:0:soft-hitnormal.wav
192,192,58614,128,0,59303:0:0:0:0:soft-hitnormal.wav
448,192,59303,128,0,59476:0:0:0:0:soft-hitnormal.wav
320,192,59476,128,0,59648:0:0:0:0:soft-hitnormal.wav
192,192,59648,128,0,59821:0:0:0:0:soft-hitnormal.wav
64,192,59821,128,0,59993:0:0:0:0:soft-hitnormal.wav
320,192,59993,128,0,60165:0:0:0:0:soft-hitnormal.wav
192,192,60165,128,0,60338:0:0:0:0:soft-hitnormal.wav
320,192,60338,128,0,60855:0:0:0:0:soft-hitnormal.wav
448,192,60855,128,0,61372:0:0:0:0:soft-hitnormal.wav
192,192,61372,128,0,62062:0:0:0:0:soft-hitnormal.wav
64,192,62062,128,0,62407:0:0:0:0:soft-hitnormal.wav
320,192,62407,128,0,62579:0:0:0:0:soft-hitnormal.wav
448,192,62579,128,0,62752:0:0:0:0:soft-hitnormal.wav
320,192,62752,128,0,62924:0:0:0:0:soft-hitnormal.wav
448,192,62924,128,0,63096:0:0:0:0:soft-hitnormal.wav
192,192,63096,128,0,63614:0:0:0:0:soft-hitnormal.wav
448,192,63614,128,0,64131:0:0:0:0:soft-hitnormal.wav
320,192,64131,128,0,67234:0:0:0:0:soft-hitnormal.wav
64,192,64648,1,0,0:0:0:0:soft-hitnormal.wav
192,192,64821,1,0,0:0:0:0:soft-hitnormal.wav
192,192,65338,1,0,0:0:0:0:soft-hitnormal.wav
64,192,65510,1,0,0:0:0:0:soft-hitnormal.wav
64,192,66028,1,0,0:0:0:0:soft-hitnormal.wav
192,192,66200,1,0,0:0:0:0:soft-hitnormal.wav
448,192,66717,1,0,0:0:0:0:soft-hitnormal.wav
192,192,66890,1,0,0:0:0:0:soft-hitnormal.wav
64,192,67234,1,0,0:0:0:0:soft-hitnormal.wav
192,192,67407,1,0,0:0:0:0:soft-hitnormal.wav
448,192,67579,1,0,0:0:0:0:soft-hitnormal.wav
320,192,67752,1,0,0:0:0:0:soft-hitnormal.wav
192,192,67924,1,0,0:0:0:0:soft-hitnormal.wav
64,192,68096,1,0,0:0:0:0:soft-hitnormal.wav
192,192,68269,1,0,0:0:0:0:soft-hitnormal.wav
320,192,68441,1,0,0:0:0:0:soft-hitnormal.wav
448,192,68614,1,0,0:0:0:0:soft-hitnormal.wav
64,192,68786,1,0,0:0:0:0:soft-hitnormal.wav
192,192,68959,1,0,0:0:0:0:soft-hitnormal.wav
320,192,69131,1,0,0:0:0:0:soft-hitnormal.wav
448,192,69303,1,0,0:0:0:0:soft-hitnormal.wav
192,192,69476,1,0,0:0:0:0:soft-hitnormal.wav
320,192,69648,1,0,0:0:0:0:soft-hitnormal.wav
192,192,69821,1,0,0:0:0:0:soft-hitnormal.wav
64,192,69993,1,0,0:0:0:0:soft-hitnormal.wav
448,192,70165,1,0,0:0:0:0:soft-hitnormal.wav
320,192,70338,1,0,0:0:0:0:soft-hitnormal.wav
192,192,70510,1,0,0:0:0:0:soft-hitnormal.wav
64,192,70683,1,0,0:0:0:0:soft-hitnormal.wav
320,192,70855,1,0,0:0:0:0:soft-hitnormal.wav
192,192,71028,1,0,0:0:0:0:soft-hitnormal.wav
320,192,71200,1,0,0:0:0:0:soft-hitnormal.wav
448,192,71372,1,0,0:0:0:0:soft-hitnormal.wav
320,192,71545,1,0,0:0:0:0:soft-hitnormal.wav
192,192,71717,1,0,0:0:0:0:soft-hitnormal.wav
64,192,71890,1,0,0:0:0:0:soft-hitnormal.wav
320,192,72062,1,0,0:0:0:0:soft-hitnormal.wav
448,192,72234,1,0,0:0:0:0:soft-hitnormal.wav
192,192,72407,1,0,0:0:0:0:soft-hitnormal.wav
320,192,72579,1,0,0:0:0:0:soft-hitnormal.wav
64,192,72752,1,0,0:0:0:0:soft-hitnormal.wav
192,192,72924,1,0,0:0:0:0:soft-hitnormal.wav
64,192,73096,1,0,0:0:0:0:soft-hitnormal.wav
192,192,73269,1,0,0:0:0:0:soft-hitnormal.wav
448,192,73441,1,0,0:0:0:0:soft-hitnormal.wav
320,192,73614,1,0,0:0:0:0:soft-hitnormal.wav
448,192,73786,1,0,0:0:0:0:soft-hitnormal.wav
320,192,73959,1,0,0:0:0:0:soft-hitnormal.wav
192,192,74131,1,0,0:0:0:0:soft-hitnormal.wav
320,192,74303,1,0,0:0:0:0:soft-hitnormal.wav
192,192,74476,1,0,0:0:0:0:soft-hitnormal.wav
320,192,74648,1,0,0:0:0:0:soft-hitnormal.wav
64,192,74821,1,0,0:0:0:0:soft-hitnormal.wav
448,192,74993,1,0,0:0:0:0:soft-hitnormal.wav
64,192,75165,1,0,0:0:0:0:soft-hitnormal.wav
448,192,75338,1,0,0:0:0:0:soft-hitnormal.wav
64,192,75510,128,0,75855:0:0:0:0:soft-hitnormal.wav
192,192,75855,128,0,76200:0:0:0:0:soft-hitnormal.wav
448,192,76200,128,0,76545:0:0:0:0:soft-hitnormal.wav
320,192,76545,128,0,76890:0:0:0:0:soft-hitnormal.wav
192,192,76890,1,0,0:0:0:0:soft-hitnormal.wav
64,192,76890,1,0,0:0:0:0:soft-hitnormal.wav
448,192,77752,1,0,0:0:0:0:soft-hitnormal.wav
320,192,77924,1,0,0:0:0:0:soft-hitnormal.wav
192,192,78096,1,0,0:0:0:0:soft-hitnormal.wav
64,192,78269,1,0,0:0:0:0:soft-hitnormal.wav
448,192,78269,1,0,0:0:0:0:soft-hitnormal.wav
192,192,78614,1,0,0:0:0:0:soft-hitnormal.wav
64,192,78786,1,0,0:0:0:0:soft-hitnormal.wav
192,192,79131,1,0,0:0:0:0:soft-hitnormal.wav
320,192,79303,1,0,0:0:0:0:soft-hitnormal.wav
448,192,79648,1,0,0:0:0:0:soft-hitnormal.wav
320,192,79821,1,0,0:0:0:0:soft-hitnormal.wav
192,192,80165,1,0,0:0:0:0:soft-hitnormal.wav
320,192,80338,1,0,0:0:0:0:soft-hitnormal.wav
64,192,80510,1,0,0:0:0:0:soft-hitnormal.wav
320,192,80683,1,0,0:0:0:0:soft-hitnormal.wav
192,192,80855,1,0,0:0:0:0:soft-hitnormal.wav
64,192,81028,128,0,81372:0:0:0:0:soft-hitnormal.wav
448,192,81028,1,0,0:0:0:0:soft-hitnormal.wav
448,192,81372,128,0,81545:0:0:0:0:soft-hitnormal.wav
320,192,81545,128,0,81717:0:0:0:0:soft-hitnormal.wav
192,192,81717,128,0,82062:0:0:0:0:soft-hitnormal.wav
448,192,82062,128,0,82234:0:0:0:0:soft-hitnormal.wav
320,192,82234,128,0,82407:0:0:0:0:soft-hitnormal.wav
64,192,82407,128,0,82579:0:0:0:0:soft-hitnormal.wav
192,192,82579,128,0,82752:0:0:0:0:soft-hitnormal.wav
448,192,82752,1,0,0:0:0:0:soft-hitnormal.wav
320,192,82924,1,0,0:0:0:0:soft-hitnormal.wav
64,192,83096,1,0,0:0:0:0:soft-hitnormal.wav
192,192,83269,1,0,0:0:0:0:soft-hitnormal.wav
320,192,83441,128,0,83786:0:0:0:0:
64,192,83441,1,0,0:0:0:0:
192,192,83786,1,0,0:0:0:0:soft-hitnormal.wav
448,192,84131,1,0,0:0:0:0:soft-hitnormal.wav
320,192,84303,1,0,0:0:0:0:soft-hitnormal.wav
64,192,84648,1,0,0:0:0:0:soft-hitnormal.wav
192,192,84821,1,0,0:0:0:0:soft-hitnormal.wav
192,192,85165,1,0,0:0:0:0:soft-hitnormal.wav
320,192,85338,1,0,0:0:0:0:soft-hitnormal.wav
448,192,85683,1,0,0:0:0:0:soft-hitnormal.wav
192,192,85855,1,0,0:0:0:0:soft-hitnormal.wav
320,192,86028,1,0,0:0:0:0:soft-hitnormal.wav
448,192,86200,1,0,0:0:0:0:soft-hitnormal.wav
192,192,86372,1,0,0:0:0:0:soft-hitnormal.wav
448,192,86545,128,0,86890:0:0:0:0:soft-hitnormal.wav
64,192,86545,1,0,0:0:0:0:soft-hitnormal.wav
192,192,86890,128,0,87234:0:0:0:0:soft-hitnormal.wav
64,192,87234,128,0,87407:0:0:0:0:soft-hitnormal.wav
448,192,87407,128,0,87579:0:0:0:0:soft-hitnormal.wav
320,192,87579,128,0,87752:0:0:0:0:soft-hitnormal.wav
448,192,87752,128,0,87924:0:0:0:0:soft-hitnormal.wav
192,192,87924,128,0,88269:0:0:0:0:soft-hitnormal.wav
320,192,88269,128,0,88441:0:0:0:0:soft-hitnormal.wav
64,192,88614,128,0,88786:0:0:0:0:soft-hitnormal.wav
192,192,88959,128,0,89131:0:0:0:0:soft-hitnormal.wav
320,192,89131,128,0,89303:0:0:0:0:soft-hitnormal.wav
448,192,89303,1,0,0:0:0:0:soft-hitnormal.wav
192,192,89648,1,0,0:0:0:0:soft-hitnormal.wav
64,192,89821,1,0,0:0:0:0:soft-hitnormal.wav
192,192,90165,1,0,0:0:0:0:soft-hitnormal.wav
320,192,90338,1,0,0:0:0:0:soft-hitnormal.wav
448,192,90683,1,0,0:0:0:0:soft-hitnormal.wav
320,192,90855,1,0,0:0:0:0:soft-hitnormal.wav
192,192,91200,1,0,0:0:0:0:soft-hitnormal.wav
320,192,91372,1,0,0:0:0:0:soft-hitnormal.wav
64,192,91545,1,0,0:0:0:0:soft-hitnormal.wav
320,192,91717,1,0,0:0:0:0:soft-hitnormal.wav
192,192,91890,1,0,0:0:0:0:soft-hitnormal.wav
320,192,92062,128,0,92407:0:0:0:0:soft-hitnormal.wav
64,192,92062,1,0,0:0:0:0:soft-hitnormal.wav
448,192,92407,128,0,92579:0:0:0:0:soft-hitnormal.wav
64,192,92579,128,0,92752:0:0:0:0:soft-hitnormal.wav
192,192,92752,128,0,92924:0:0:0:0:soft-hitnormal.wav
320,192,92924,128,0,93096:0:0:0:0:soft-hitnormal.wav
448,192,93096,128,0,93269:0:0:0:0:soft-hitnormal.wav
320,192,93269,128,0,93441:0:0:0:0:soft-hitnormal.wav
64,192,93441,128,0,93614:0:0:0:0:soft-hitnormal.wav
192,192,93614,128,0,93786:0:0:0:0:soft-hitnormal.wav
448,192,93786,1,0,0:0:0:0:soft-hitnormal.wav
192,192,93959,1,0,0:0:0:0:soft-hitnormal.wav
320,192,94131,1,0,0:0:0:0:soft-hitnormal.wav
64,192,94303,1,0,0:0:0:0:soft-hitnormal.wav
320,192,94476,128,0,94821:0:0:0:0:soft-hitnormal.wav
192,192,94476,1,0,0:0:0:0:soft-hitnormal.wav
64,192,94821,1,0,0:0:0:0:soft-hitnormal.wav
448,192,95165,1,0,0:0:0:0:soft-hitnormal.wav
320,192,95338,1,0,0:0:0:0:soft-hitnormal.wav
64,192,95683,1,0,0:0:0:0:soft-hitnormal.wav
192,192,95855,1,0,0:0:0:0:soft-hitnormal.wav
192,192,96200,1,0,0:0:0:0:soft-hitnormal.wav
320,192,96372,1,0,0:0:0:0:soft-hitnormal.wav
448,192,96717,1,0,0:0:0:0:soft-hitnormal.wav
192,192,96890,1,0,0:0:0:0:soft-hitnormal.wav
320,192,97062,1,0,0:0:0:0:soft-hitnormal.wav
448,192,97234,1,0,0:0:0:0:soft-hitnormal.wav
192,192,97407,1,0,0:0:0:0:soft-hitnormal.wav
64,192,97579,128,0,97924:0:0:0:0:soft-hitnormal.wav
448,192,97924,128,0,98269:0:0:0:0:soft-hitnormal.wav
64,192,98269,128,0,98614:0:0:0:0:soft-hitnormal.wav
448,192,98614,128,0,98959:0:0:0:0:soft-hitnormal.wav
192,192,98959,1,0,0:0:0:0:soft-hitnormal.wav
320,192,99131,1,0,0:0:0:0:soft-hitnormal.wav
64,192,99303,1,0,0:0:0:0:soft-hitnormal.wav
320,192,99476,1,0,0:0:0:0:soft-hitnormal.wav
448,192,99648,1,0,0:0:0:0:soft-hitnormal.wav
64,192,100338,1,0,0:0:0:0:soft-hitnormal.wav
320,192,100338,128,0,101028:0:0:0:0:soft-hitnormal.wav
64,192,101028,1,0,0:0:0:0:soft-hitnormal.wav
192,192,101114,1,0,0:0:0:0:soft-hitnormal.wav
320,192,101200,1,0,0:0:0:0:soft-hitnormal.wav
448,192,101286,1,0,0:0:0:0:soft-hitnormal.wav
192,192,101545,1,0,0:0:0:0:soft-hitnormal.wav
320,192,101631,1,0,0:0:0:0:soft-hitnormal.wav
448,192,101717,1,0,0:0:0:0:soft-hitnormal.wav
64,192,101803,1,0,0:0:0:0:soft-hitnormal.wav
320,192,102062,1,0,0:0:0:0:soft-hitnormal.wav
448,192,102148,1,0,0:0:0:0:soft-hitnormal.wav
64,192,102234,1,0,0:0:0:0:soft-hitnormal.wav
192,192,102321,1,0,0:0:0:0:soft-hitnormal.wav
320,192,102407,128,0,102579:0:0:0:0:soft-hitnormal.wav
448,192,102579,128,0,102752:0:0:0:0:soft-hitnormal.wav
64,192,102752,128,0,102924:0:0:0:0:soft-hitnormal.wav
192,192,102924,128,0,103096:0:0:0:0:soft-hitnormal.wav
448,192,103096,128,0,103441:0:0:0:0:soft-hitnormal.wav
64,192,103441,128,0,103614:0:0:0:0:soft-hitnormal.wav
448,192,103786,128,0,104131:0:0:0:0:soft-hitnormal.wav
320,192,104131,128,0,104476:0:0:0:0:soft-hitnormal.wav
192,192,104476,1,0,0:0:0:0:soft-hitnormal.wav
448,192,104993,1,0,0:0:0:0:soft-hitnormal.wav
320,192,105079,1,0,0:0:0:0:soft-hitnormal.wav
64,192,105165,1,0,0:0:0:0:soft-hitnormal.wav
192,192,105510,1,0,0:0:0:0:soft-hitnormal.wav
64,192,105683,1,0,0:0:0:0:soft-hitnormal.wav
448,192,105855,1,0,0:0:0:0:soft-hitnormal.wav
320,192,105855,128,0,106545:0:0:0:0:soft-hitnormal.wav
64,192,106545,1,0,0:0:0:0:soft-hitnormal.wav
192,192,106631,1,0,0:0:0:0:soft-hitnormal.wav
320,192,106717,1,0,0:0:0:0:soft-hitnormal.wav
448,192,106803,1,0,0:0:0:0:soft-hitnormal.wav
192,192,107062,1,0,0:0:0:0:soft-hitnormal.wav
320,192,107148,1,0,0:0:0:0:soft-hitnormal.wav
448,192,107234,1,0,0:0:0:0:soft-hitnormal.wav
64,192,107321,1,0,0:0:0:0:soft-hitnormal.wav
320,192,107579,1,0,0:0:0:0:soft-hitnormal.wav
448,192,107665,1,0,0:0:0:0:soft-hitnormal.wav
64,192,107752,1,0,0:0:0:0:soft-hitnormal.wav
192,192,107838,1,0,0:0:0:0:soft-hitnormal.wav
320,192,107924,1,0,0:0:0:0:soft-hitnormal.wav
448,192,107924,128,0,108614:0:0:0:0:soft-hitnormal.wav
320,192,108614,128,0,109303:0:0:0:0:soft-hitnormal.wav
64,192,109303,128,0,109476:0:0:0:0:soft-hitnormal.wav
320,192,109476,128,0,109648:0:0:0:0:soft-hitnormal.wav
192,192,109648,128,0,109821:0:0:0:0:soft-hitnormal.wav
64,192,109821,128,0,109993:0:0:0:0:soft-hitnormal.wav
448,192,109993,1,0,0:0:0:0:soft-hitnormal.wav
320,192,110165,1,0,0:0:0:0:soft-hitnormal.wav
64,192,110338,1,0,0:0:0:0:soft-hitnormal.wav
192,192,110510,1,0,0:0:0:0:soft-hitnormal.wav
320,192,110683,1,0,0:0:0:0:soft-hitnormal.wav
448,192,110855,1,0,0:0:0:0:soft-hitnormal.wav
64,192,111028,1,0,0:0:0:0:soft-hitnormal.wav
448,192,111114,1,0,0:0:0:0:soft-hitnormal.wav
320,192,111200,1,0,0:0:0:0:soft-hitnormal.wav
192,192,111286,1,0,0:0:0:0:soft-hitnormal.wav
64,192,111372,1,0,0:0:0:0:soft-hitnormal.wav
192,192,111717,128,0,112062:0:0:0:0:soft-hitnormal.wav
448,192,112062,1,0,0:0:0:0:soft-hitnormal.wav
320,192,112148,1,0,0:0:0:0:soft-hitnormal.wav
192,192,112234,1,0,0:0:0:0:soft-hitnormal.wav
64,192,112321,1,0,0:0:0:0:soft-hitnormal.wav
320,192,112579,1,0,0:0:0:0:soft-hitnormal.wav
192,192,112665,1,0,0:0:0:0:soft-hitnormal.wav
64,192,112752,1,0,0:0:0:0:soft-hitnormal.wav
448,192,112838,1,0,0:0:0:0:soft-hitnormal.wav
192,192,113096,1,0,0:0:0:0:soft-hitnormal.wav
64,192,113183,1,0,0:0:0:0:soft-hitnormal.wav
448,192,113269,1,0,0:0:0:0:soft-hitnormal.wav
320,192,113355,1,0,0:0:0:0:soft-hitnormal.wav
192,192,113441,1,0,0:0:0:0:soft-hitnormal.wav
320,192,113614,128,0,113872:0:0:0:0:soft-hitnormal.wav
448,192,113872,128,0,114131:0:0:0:0:soft-hitnormal.wav
320,192,114131,128,0,114476:0:0:0:0:soft-hitnormal.wav
64,192,114476,128,0,114821:0:0:0:0:soft-hitnormal.wav
320,192,114821,128,0,114907:0:0:0:0:soft-hitnormal.wav
192,192,114993,128,0,115079:0:0:0:0:soft-hitnormal.wav
320,192,115165,128,0,115252:0:0:0:0:soft-hitnormal.wav
192,192,115338,128,0,115424:0:0:0:0:soft-hitnormal.wav
448,192,115510,128,0,115855:0:0:0:0:soft-hitnormal.wav
192,192,116028,1,0,0:0:0:0:soft-hitnormal.wav
320,192,116114,1,0,0:0:0:0:soft-hitnormal.wav
192,192,116200,1,0,0:0:0:0:soft-hitnormal.wav
64,192,116545,1,0,0:0:0:0:soft-hitnormal.wav
448,192,116545,1,0,0:0:0:0:soft-hitnormal.wav
320,192,116717,1,0,0:0:0:0:soft-hitnormal.wav
448,192,116890,1,0,0:0:0:0:soft-hitnormal.wav
192,192,116890,128,0,117579:0:0:0:0:soft-hitnormal.wav
448,192,117579,1,0,0:0:0:0:soft-hitnormal.wav
320,192,117665,1,0,0:0:0:0:soft-hitnormal.wav
192,192,117752,1,0,0:0:0:0:soft-hitnormal.wav
64,192,117838,1,0,0:0:0:0:soft-hitnormal.wav
320,192,118096,1,0,0:0:0:0:soft-hitnormal.wav
192,192,118183,1,0,0:0:0:0:soft-hitnormal.wav
64,192,118269,1,0,0:0:0:0:soft-hitnormal.wav
448,192,118355,1,0,0:0:0:0:soft-hitnormal.wav
192,192,118614,1,0,0:0:0:0:soft-hitnormal.wav
64,192,118700,1,0,0:0:0:0:soft-hitnormal.wav
320,192,118786,1,0,0:0:0:0:soft-hitnormal.wav
192,192,118872,1,0,0:0:0:0:soft-hitnormal.wav
64,192,118959,1,0,0:0:0:0:soft-hitnormal.wav
448,192,118959,128,0,119303:0:0:0:0:soft-hitnormal.wav
192,192,119303,128,0,119648:0:0:0:0:soft-hitnormal.wav
448,192,119648,1,0,0:0:0:0:soft-hitnormal.wav
320,192,119821,1,0,0:0:0:0:soft-hitnormal.wav
192,192,119993,1,0,0:0:0:0:soft-hitnormal.wav
320,192,120165,1,0,0:0:0:0:soft-hitnormal.wav
448,192,120338,1,0,0:0:0:0:soft-hitnormal.wav
320,192,120510,1,0,0:0:0:0:soft-hitnormal.wav
192,192,120683,1,0,0:0:0:0:soft-hitnormal.wav
64,192,120855,1,0,0:0:0:0:soft-hitnormal.wav
192,192,121028,128,0,121372:0:0:0:0:soft-hitnormal.wav
320,192,121372,128,0,121717:0:0:0:0:soft-hitnormal.wav
448,192,121717,128,0,122062:0:0:0:0:soft-hitnormal.wav
192,192,122062,128,0,122407:0:0:0:0:soft-hitnormal.wav
448,192,122407,5,0,0:0:0:0:soft-hitnormal.wav
320,192,122407,128,0,122752:0:0:0:0:soft-hitnormal.wav
64,192,122752,128,0,123096:0:0:0:0:soft-hitnormal.wav
192,192,123096,128,0,123441:0:0:0:0:soft-hitnormal.wav
448,192,123441,128,0,123786:0:0:0:0:soft-hitnormal.wav
320,192,123786,128,0,123959:0:0:0:0:soft-hitnormal.wav
192,192,123959,128,0,124131:0:0:0:0:soft-hitnormal.wav
64,192,124131,128,0,124476:0:0:0:0:soft-hitnormal.wav
320,192,124476,128,0,124821:0:0:0:0:soft-hitnormal.wav
192,192,124821,128,0,125165:0:0:0:0:soft-hitnormal.wav
448,192,125165,128,0,125338:0:0:0:0:soft-hitnormal.wav
320,192,125338,128,0,125510:0:0:0:0:soft-hitnormal.wav
64,192,125510,128,0,125855:0:0:0:0:soft-hitnormal.wav
320,192,125855,128,0,126200:0:0:0:0:soft-hitnormal.wav
192,192,126200,128,0,126545:0:0:0:0:soft-hitnormal.wav
320,192,126545,128,0,126717:0:0:0:0:soft-hitnormal.wav
64,192,126717,128,0,126890:0:0:0:0:soft-hitnormal.wav
448,192,126890,128,0,127234:0:0:0:0:soft-hitnormal.wav
192,192,127234,128,0,127579:0:0:0:0:soft-hitnormal.wav
320,192,127579,128,0,127924:0:0:0:0:soft-hitnormal.wav
448,192,127924,128,0,128096:0:0:0:0:soft-hitnormal.wav
192,192,128096,128,0,128269:0:0:0:0:soft-hitnormal.wav
320,192,128269,128,0,128614:0:0:0:0:soft-hitnormal.wav
64,192,128614,128,0,128959:0:0:0:0:soft-hitnormal.wav
320,192,128959,128,0,129303:0:0:0:0:soft-hitnormal.wav
192,192,129303,128,0,129476:0:0:0:0:soft-hitnormal.wav
448,192,129476,128,0,129648:0:0:0:0:soft-hitnormal.wav
64,192,129648,128,0,129993:0:0:0:0:soft-hitnormal.wav
320,192,129993,128,0,130338:0:0:0:0:soft-hitnormal.wav
192,192,130338,128,0,130683:0:0:0:0:soft-hitnormal.wav
448,192,130683,128,0,130855:0:0:0:0:soft-hitnormal.wav
320,192,130855,128,0,131028:0:0:0:0:soft-hitnormal.wav
192,192,131028,128,0,131372:0:0:0:0:soft-hitnormal.wav
64,192,131372,128,0,131717:0:0:0:0:soft-hitnormal.wav
320,192,131717,128,0,132062:0:0:0:0:soft-hitnormal.wav
64,192,132062,128,0,132234:0:0:0:0:soft-hitnormal.wav
448,192,132234,128,0,132407:0:0:0:0:soft-hitnormal.wav
192,192,132407,128,0,132752:0:0:0:0:soft-hitnormal.wav
320,192,132752,128,0,133096:0:0:0:0:soft-hitnormal.wav
448,192,133096,128,0,133441:0:0:0:0:soft-hitnormal.wav
192,192,133441,128,0,133614:0:0:0:0:soft-hitnormal.wav
64,192,133614,128,0,133786:0:0:0:0:soft-hitnormal.wav
320,192,133786,128,0,134131:0:0:0:0:soft-hitnormal.wav
192,192,134131,128,0,134476:0:0:0:0:soft-hitnormal.wav
448,192,134476,128,0,134821:0:0:0:0:soft-hitnormal.wav
64,192,134821,128,0,134993:0:0:0:0:soft-hitnormal.wav
320,192,134993,128,0,135165:0:0:0:0:soft-hitnormal.wav
192,192,135165,128,0,135510:0:0:0:0:soft-hitnormal.wav
64,192,135510,128,0,135855:0:0:0:0:soft-hitnormal.wav
192,192,135855,128,0,136200:0:0:0:0:soft-hitnormal.wav
448,192,136200,128,0,136372:0:0:0:0:soft-hitnormal.wav
64,192,136372,128,0,136545:0:0:0:0:soft-hitnormal.wav
320,192,136545,128,0,136890:0:0:0:0:soft-hitnormal.wav
192,192,136890,128,0,137234:0:0:0:0:soft-hitnormal.wav
320,192,137234,128,0,137579:0:0:0:0:soft-hitnormal.wav
192,192,137579,128,0,137752:0:0:0:0:soft-hitnormal.wav
320,192,137752,128,0,137924:0:0:0:0:soft-hitnormal.wav
192,192,137924,128,0,138269:0:0:0:0:soft-hitnormal.wav
320,192,138269,128,0,138614:0:0:0:0:soft-hitnormal.wav
448,192,138614,128,0,138959:0:0:0:0:soft-hitnormal.wav
320,192,138959,1,0,0:0:0:0:soft-hitnormal.wav
64,192,139131,1,0,0:0:0:0:soft-hitnormal.wav
192,192,139303,1,0,0:0:0:0:soft-hitnormal.wav
320,192,139476,1,0,0:0:0:0:soft-hitnormal.wav
448,192,139648,1,0,0:0:0:0:soft-hitnormal.wav
320,192,139821,1,0,0:0:0:0:soft-hitnormal.wav
192,192,139993,1,0,0:0:0:0:soft-hitnormal.wav
320,192,140165,1,0,0:0:0:0:soft-hitnormal.wav
192,192,140338,1,0,0:0:0:0:soft-hitnormal.wav
64,192,140510,1,0,0:0:0:0:soft-hitnormal.wav
320,192,140683,1,0,0:0:0:0:soft-hitnormal.wav
192,192,140855,1,0,0:0:0:0:soft-hitnormal.wav
448,192,141028,1,0,0:0:0:0:soft-hitnormal.wav
320,192,141200,1,0,0:0:0:0:soft-hitnormal.wav
192,192,141372,1,0,0:0:0:0:soft-hitnormal.wav
64,192,141545,1,0,0:0:0:0:soft-hitnormal.wav
192,192,141717,128,0,142062:0:0:0:0:soft-hitnormal.wav
320,192,142062,128,0,142407:0:0:0:0:soft-hitnormal.wav
448,192,142407,128,0,142752:0:0:0:0:soft-hitnormal.wav
320,192,142752,128,0,143096:0:0:0:0:soft-hitnormal.wav
64,192,143096,128,0,143269:0:0:0:0:soft-hitnormal.wav
192,192,143269,128,0,143441:0:0:0:0:soft-hitnormal.wav
320,192,143441,128,0,143614:0:0:0:0:soft-hitnormal.wav
448,192,143614,128,0,143786:0:0:0:0:soft-hitnormal.wav
64,192,143786,128,0,144476:0:0:0:0:soft-hitnormal.wav
448,192,144476,128,0,145165:0:0:0:0:soft-hitnormal.wav
192,192,144476,1,0,0:0:0:0:soft-hitnormal.wav
320,192,145165,128,0,145338:0:0:0:0:soft-hitnormal.wav
192,192,145338,128,0,145510:0:0:0:0:soft-hitnormal.wav
64,192,145510,128,0,145855:0:0:0:0:soft-hitnormal.wav
320,192,145855,128,0,146372:0:0:0:0:soft-hitnormal.wav
448,192,146372,128,0,146890:0:0:0:0:soft-hitnormal.wav
192,192,146890,128,0,147579:0:0:0:0:soft-hitnormal.wav
64,192,147579,128,0,147752:0:0:0:0:soft-hitnormal.wav
192,192,147752,128,0,147924:0:0:0:0:soft-hitnormal.wav
320,192,147924,128,0,148096:0:0:0:0:soft-hitnormal.wav
448,192,148096,128,0,148269:0:0:0:0:soft-hitnormal.wav
192,192,148269,128,0,148441:0:0:0:0:soft-hitnormal.wav
64,192,148441,128,0,148614:0:0:0:0:soft-hitnormal.wav
320,192,148614,128,0,149131:0:0:0:0:soft-hitnormal.wav
448,192,149131,128,0,149648:0:0:0:0:soft-hitnormal.wav
192,192,149648,128,0,150338:0:0:0:0:soft-hitnormal.wav
320,192,150338,128,0,150510:0:0:0:0:soft-hitnormal.wav
448,192,150683,128,0,150855:0:0:0:0:soft-hitnormal.wav
320,192,150855,128,0,151028:0:0:0:0:soft-hitnormal.wav
192,192,151028,128,0,151372:0:0:0:0:soft-hitnormal.wav
64,192,151372,128,0,151890:0:0:0:0:soft-hitnormal.wav
448,192,151890,128,0,152407:0:0:0:0:soft-hitnormal.wav
320,192,152407,128,0,152924:0:0:0:0:soft-hitnormal.wav
192,192,152924,128,0,153096:0:0:0:0:soft-hitnormal.wav
64,192,153096,128,0,153269:0:0:0:0:soft-hitnormal.wav
320,192,153269,1,0,0:0:0:0:soft-hitnormal.wav
448,192,153441,1,0,0:0:0:0:soft-hitnormal.wav
192,192,153614,1,0,0:0:0:0:soft-hitnormal.wav
320,192,153786,1,0,0:0:0:0:soft-hitnormal.wav
448,192,153959,1,0,0:0:0:0:soft-hitnormal.wav
64,192,154131,128,0,154821:0:0:0:0:soft-hitnormal.wav
192,192,154131,1,0,0:0:0:0:soft-hitnormal.wav
448,192,154821,128,0,155510:0:0:0:0:soft-hitnormal.wav
192,192,155510,5,0,0:0:0:0:soft-hitnormal.wav
448,192,155855,1,0,0:0:0:0:soft-hitnormal.wav
320,192,155855,1,0,0:0:0:0:soft-hitnormal.wav
192,192,156200,1,0,0:0:0:0:soft-hitnormal.wav
64,192,156200,1,0,0:0:0:0:soft-hitnormal.wav
448,192,156545,1,0,0:0:0:0:soft-hitnormal.wav
320,192,156545,1,0,0:0:0:0:soft-hitnormal.wav
320,192,156890,1,0,0:0:0:0:soft-hitnormal.wav
64,192,156890,1,0,0:0:0:0:soft-hitnormal.wav
192,192,157234,1,0,0:0:0:0:soft-hitnormal.wav
448,192,157234,1,0,0:0:0:0:soft-hitnormal.wav
320,192,157579,1,0,0:0:0:0:soft-hitnormal.wav
64,192,157579,1,0,0:0:0:0:soft-hitnormal.wav
192,192,157924,1,0,0:0:0:0:soft-hitnormal.wav
448,192,157924,1,0,0:0:0:0:soft-hitnormal.wav
448,192,158269,1,0,0:0:0:0:soft-hitnormal.wav
64,192,158269,1,0,0:0:0:0:soft-hitnormal.wav
320,192,158614,1,0,0:0:0:0:soft-hitnormal.wav
192,192,158614,1,0,0:0:0:0:soft-hitnormal.wav
448,192,158959,1,0,0:0:0:0:soft-hitnormal.wav
64,192,158959,1,0,0:0:0:0:soft-hitnormal.wav
320,192,159303,1,0,0:0:0:0:soft-hitnormal.wav
192,192,159303,1,0,0:0:0:0:soft-hitnormal.wav
64,192,159648,1,0,0:0:0:0:soft-hitnormal.wav
192,192,159648,1,0,0:0:0:0:soft-hitnormal.wav
192,192,159993,1,0,0:0:0:0:soft-hitnormal.wav
320,192,159993,1,0,0:0:0:0:soft-hitnormal.wav
320,192,160338,1,0,0:0:0:0:soft-hitnormal.wav
448,192,160338,1,0,0:0:0:0:soft-hitnormal.wav
192,192,160683,1,0,0:0:0:0:soft-hitnormal.wav
320,192,160683,1,0,0:0:0:0:soft-hitnormal.wav
192,192,161028,1,0,0:0:0:0:soft-hitnormal.wav
320,192,161200,1,0,0:0:0:0:soft-hitnormal.wav
192,192,161372,1,0,0:0:0:0:soft-hitnormal.wav
320,192,161545,1,0,0:0:0:0:soft-hitnormal.wav
64,192,161717,1,0,0:0:0:0:soft-hitnormal.wav
448,192,161890,1,0,0:0:0:0:soft-hitnormal.wav
64,192,162062,1,0,0:0:0:0:soft-hitnormal.wav
448,192,162234,1,0,0:0:0:0:soft-hitnormal.wav
192,192,162407,1,0,0:0:0:0:soft-hitnormal.wav
320,192,162579,1,0,0:0:0:0:soft-hitnormal.wav
64,192,162752,1,0,0:0:0:0:soft-hitnormal.wav
448,192,162924,1,0,0:0:0:0:soft-hitnormal.wav
192,192,163096,1,0,0:0:0:0:soft-hitnormal.wav
320,192,163269,1,0,0:0:0:0:soft-hitnormal.wav
64,192,163441,1,0,0:0:0:0:soft-hitnormal.wav
448,192,163614,1,0,0:0:0:0:soft-hitnormal.wav
64,192,163786,128,0,164131:0:0:0:0:soft-hitnormal.wav
192,192,164131,128,0,164476:0:0:0:0:soft-hitnormal.wav
320,192,164476,128,0,164821:0:0:0:0:soft-hitnormal.wav
448,192,164821,128,0,165165:0:0:0:0:soft-hitnormal.wav
64,192,165165,1,0,0:0:0:0:soft-hitnormal.wav
192,192,165165,1,0,0:0:0:0:soft-hitnormal.wav
448,192,166028,1,0,0:0:0:0:soft-hitnormal.wav
320,192,166200,1,0,0:0:0:0:soft-hitnormal.wav
192,192,166372,1,0,0:0:0:0:soft-hitnormal.wav
64,192,166545,1,0,0:0:0:0:soft-hitnormal.wav
448,192,166545,1,0,0:0:0:0:soft-hitnormal.wav
320,192,166717,1,0,0:0:0:0:soft-hitnormal.wav
192,192,166890,128,0,167062:0:0:0:0:soft-hitnormal.wav
320,192,167234,1,0,0:0:0:0:soft-hitnormal.wav
448,192,167407,1,0,0:0:0:0:soft-hitnormal.wav
320,192,167579,128,0,167752:0:0:0:0:soft-hitnormal.wav
192,192,167752,1,0,0:0:0:0:soft-hitnormal.wav
64,192,167924,1,0,0:0:0:0:soft-hitnormal.wav
448,192,168096,1,0,0:0:0:0:soft-hitnormal.wav
192,192,168269,128,0,168441:0:0:0:0:soft-hitnormal.wav
320,192,168441,1,0,0:0:0:0:soft-hitnormal.wav
192,192,168614,1,0,0:0:0:0:soft-hitnormal.wav
448,192,168786,1,0,0:0:0:0:soft-hitnormal.wav
320,192,168959,128,0,169131:0:0:0:0:soft-hitnormal.wav
64,192,169131,1,0,0:0:0:0:soft-hitnormal.wav
192,192,169303,1,0,0:0:0:0:soft-hitnormal.wav
448,192,169476,1,0,0:0:0:0:soft-hitnormal.wav
192,192,169648,128,0,169821:0:0:0:0:soft-hitnormal.wav
320,192,169821,128,0,169993:0:0:0:0:soft-hitnormal.wav
448,192,169993,1,0,0:0:0:0:soft-hitnormal.wav
64,192,170165,1,0,0:0:0:0:soft-hitnormal.wav
320,192,170338,128,0,170510:0:0:0:0:soft-hitnormal.wav
64,192,170510,128,0,170683:0:0:0:0:soft-hitnormal.wav
448,192,170683,1,0,0:0:0:0:soft-hitnormal.wav
320,192,170855,1,0,0:0:0:0:soft-hitnormal.wav
64,192,171028,128,0,171200:0:0:0:0:soft-hitnormal.wav
192,192,171200,1,0,0:0:0:0:soft-hitnormal.wav
320,192,171372,128,0,171545:0:0:0:0:soft-hitnormal.wav
448,192,171717,128,0,172062:0:0:0:0:soft-hitnormal.wav
192,192,171717,1,0,0:0:0:0:soft-hitnormal.wav
320,192,172062,1,0,0:0:0:0:soft-hitnormal.wav
192,192,172234,1,0,0:0:0:0:soft-hitnormal.wav
320,192,172407,128,0,172579:0:0:0:0:soft-hitnormal.wav
192,192,172752,1,0,0:0:0:0:soft-hitnormal.wav
448,192,172924,1,0,0:0:0:0:soft-hitnormal.wav
64,192,173096,128,0,173269:0:0:0:0:soft-hitnormal.wav
192,192,173269,128,0,173441:0:0:0:0:soft-hitnormal.wav
320,192,173441,1,0,0:0:0:0:soft-hitnormal.wav
448,192,173614,1,0,0:0:0:0:soft-hitnormal.wav
320,192,173786,128,0,173959:0:0:0:0:soft-hitnormal.wav
192,192,173959,128,0,174131:0:0:0:0:soft-hitnormal.wav
64,192,174131,1,0,0:0:0:0:soft-hitnormal.wav
64,192,174303,1,0,0:0:0:0:soft-hitnormal.wav
320,192,174476,128,0,174648:0:0:0:0:soft-hitnormal.wav
448,192,174648,1,0,0:0:0:0:soft-hitnormal.wav
320,192,174821,1,0,0:0:0:0:soft-hitnormal.wav
192,192,174993,128,0,175165:0:0:0:0:soft-hitnormal.wav
320,192,175165,128,0,175510:0:0:0:0:soft-hitnormal.wav
64,192,175165,1,0,0:0:0:0:soft-hitnormal.wav
64,192,175510,1,0,0:0:0:0:soft-hitnormal.wav
448,192,175855,1,0,0:0:0:0:soft-hitnormal.wav
320,192,175855,1,0,0:0:0:0:soft-hitnormal.wav
192,192,176200,1,0,0:0:0:0:soft-hitnormal.wav
64,192,176200,1,0,0:0:0:0:soft-hitnormal.wav
320,192,176545,128,0,176717:0:0:0:0:soft-hitnormal.wav
192,192,176717,1,0,0:0:0:0:soft-hitnormal.wav
448,192,176890,128,0,177062:0:0:0:0:soft-hitnormal.wav
192,192,177062,128,0,177234:0:0:0:0:soft-hitnormal.wav
320,192,177234,128,0,177407:0:0:0:0:soft-hitnormal.wav
64,192,177407,128,0,177579:0:0:0:0:soft-hitnormal.wav
320,192,177579,1,0,0:0:0:0:soft-hitnormal.wav
448,192,177579,1,0,0:0:0:0:soft-hitnormal.wav
192,192,177752,1,0,0:0:0:0:soft-hitnormal.wav
320,192,177924,128,0,178096:0:0:0:0:soft-hitnormal.wav
192,192,178269,1,0,0:0:0:0:soft-hitnormal.wav
64,192,178441,1,0,0:0:0:0:soft-hitnormal.wav
192,192,178614,128,0,178786:0:0:0:0:soft-hitnormal.wav
320,192,178786,1,0,0:0:0:0:soft-hitnormal.wav
448,192,178959,1,0,0:0:0:0:soft-hitnormal.wav
64,192,179131,1,0,0:0:0:0:soft-hitnormal.wav
320,192,179303,128,0,179476:0:0:0:0:soft-hitnormal.wav
192,192,179476,1,0,0:0:0:0:soft-hitnormal.wav
320,192,179648,1,0,0:0:0:0:soft-hitnormal.wav
64,192,179821,1,0,0:0:0:0:soft-hitnormal.wav
192,192,179993,128,0,180165:0:0:0:0:soft-hitnormal.wav
448,192,180165,1,0,0:0:0:0:soft-hitnormal.wav
320,192,180338,1,0,0:0:0:0:soft-hitnormal.wav
64,192,180510,1,0,0:0:0:0:soft-hitnormal.wav
320,192,180683,128,0,180855:0:0:0:0:soft-hitnormal.wav
192,192,180855,128,0,181028:0:0:0:0:soft-hitnormal.wav
64,192,181028,1,0,0:0:0:0:soft-hitnormal.wav
448,192,181200,1,0,0:0:0:0:soft-hitnormal.wav
192,192,181372,128,0,181545:0:0:0:0:soft-hitnormal.wav
448,192,181545,128,0,181717:0:0:0:0:soft-hitnormal.wav
64,192,181717,1,0,0:0:0:0:soft-hitnormal.wav
192,192,181890,1,0,0:0:0:0:soft-hitnormal.wav
448,192,182062,128,0,182234:0:0:0:0:soft-hitnormal.wav
320,192,182234,1,0,0:0:0:0:soft-hitnormal.wav
192,192,182407,128,0,182579:0:0:0:0:soft-hitnormal.wav
320,192,182752,1,0,0:0:0:0:soft-hitnormal.wav
64,192,182752,128,0,183096:0:0:0:0:soft-hitnormal.wav
192,192,183096,1,0,0:0:0:0:soft-hitnormal.wav
320,192,183269,1,0,0:0:0:0:soft-hitnormal.wav
192,192,183441,128,0,183614:0:0:0:0:soft-hitnormal.wav
320,192,183786,1,0,0:0:0:0:soft-hitnormal.wav
64,192,183959,1,0,0:0:0:0:soft-hitnormal.wav
448,192,184131,128,0,184303:0:0:0:0:soft-hitnormal.wav
320,192,184303,128,0,184476:0:0:0:0:soft-hitnormal.wav
192,192,184476,1,0,0:0:0:0:soft-hitnormal.wav
64,192,184648,1,0,0:0:0:0:soft-hitnormal.wav
320,192,184821,128,0,184993:0:0:0:0:soft-hitnormal.wav
192,192,184993,128,0,185165:0:0:0:0:soft-hitnormal.wav
448,192,185165,128,0,185510:0:0:0:0:soft-hitnormal.wav
192,192,185510,1,0,0:0:0:0:soft-hitnormal.wav
64,192,185683,1,0,0:0:0:0:soft-hitnormal.wav
448,192,185855,5,0,0:0:0:0:soft-hitnormal.wav
320,192,186028,1,0,0:0:0:0:soft-hitnormal.wav
192,192,186200,1,0,0:0:0:0:soft-hitnormal.wav
64,192,186372,1,0,0:0:0:0:soft-hitnormal.wav
192,192,186545,1,0,0:0:0:0:soft-hitnormal.wav
320,192,186717,1,0,0:0:0:0:soft-hitnormal.wav
192,192,186890,1,0,0:0:0:0:soft-hitnormal.wav
320,192,187062,1,0,0:0:0:0:soft-hitnormal.wav
64,192,187234,128,0,187579:0:0:0:0:
448,192,187579,128,0,187924:0:0:0:0:
192,192,187924,1,0,0:0:0:0:soft-hitnormal.wav
320,192,187924,1,0,0:0:0:0:
448,192,188269,1,0,0:0:0:0:soft-hitnormal.wav
64,192,188269,1,0,0:0:0:0:
192,192,188441,1,0,0:0:0:0:soft-hitnormal.wav
64,192,188614,1,0,0:0:0:0:soft-hitnormal.wav
320,192,188614,1,0,0:0:0:0:soft-hitnormal.wav
448,192,188959,128,0,189131:0:0:0:0:soft-hitnormal.wav
320,192,189131,1,0,0:0:0:0:soft-hitnormal.wav
448,192,189476,128,0,189648:0:0:0:0:soft-hitnormal.wav
192,192,189648,1,0,0:0:0:0:soft-hitnormal.wav
448,192,189993,128,0,190165:0:0:0:0:soft-hitnormal.wav
320,192,190165,1,0,0:0:0:0:soft-hitnormal.wav
448,192,190510,128,0,190683:0:0:0:0:soft-hitnormal.wav
192,192,190683,1,0,0:0:0:0:soft-hitnormal.wav
320,192,191028,128,0,191200:0:0:0:0:soft-hitnormal.wav
448,192,191200,1,0,0:0:0:0:soft-hitnormal.wav
64,192,191372,128,0,191717:0:0:0:0:soft-hitnormal.wav
320,192,191717,128,0,191890:0:0:0:0:soft-hitnormal.wav
448,192,191890,128,0,192062:0:0:0:0:soft-hitnormal.wav
64,192,192062,128,0,192407:0:0:0:0:soft-hitnormal.wav
448,192,192407,128,0,192579:0:0:0:0:soft-hitnormal.wav
192,192,192579,128,0,192752:0:0:0:0:soft-hitnormal.wav
320,192,192752,128,0,192924:0:0:0:0:soft-hitnormal.wav
64,192,192924,128,0,193096:0:0:0:0:soft-hitnormal.wav
320,192,193096,1,0,0:0:0:0:
448,192,193269,1,0,0:0:0:0:
192,192,193441,1,0,0:0:0:0:
64,192,193614,1,0,0:0:0:0:
320,192,193786,128,0,194131:0:0:0:0:soft-hitnormal.wav
448,192,194131,128,0,194303:0:0:0:0:soft-hitnormal.wav
192,192,194476,128,0,194648:0:0:0:0:soft-hitnormal.wav
448,192,194648,1,0,0:0:0:0:soft-hitnormal.wav
192,192,194993,128,0,195165:0:0:0:0:soft-hitnormal.wav
320,192,195165,1,0,0:0:0:0:soft-hitnormal.wav
192,192,195510,128,0,195683:0:0:0:0:soft-hitnormal.wav
448,192,195683,1,0,0:0:0:0:soft-hitnormal.wav
192,192,196028,128,0,196200:0:0:0:0:soft-hitnormal.wav
320,192,196200,1,0,0:0:0:0:soft-hitnormal.wav
320,192,196545,128,0,196717:0:0:0:0:soft-hitnormal.wav
64,192,196717,1,0,0:0:0:0:soft-hitnormal.wav
448,192,196890,128,0,197234:0:0:0:0:soft-hitnormal.wav
192,192,197234,128,0,197579:0:0:0:0:soft-hitnormal.wav
64,192,197579,128,0,197752:0:0:0:0:soft-hitnormal.wav
448,192,197752,128,0,197924:0:0:0:0:soft-hitnormal.wav
192,192,197924,128,0,198096:0:0:0:0:soft-hitnormal.wav
448,192,198096,128,0,198269:0:0:0:0:soft-hitnormal.wav
320,192,198269,128,0,198614:0:0:0:0:soft-hitnormal.wav
192,192,198614,128,0,198786:0:0:0:0:soft-hitnormal.wav
448,192,198959,128,0,199131:0:0:0:0:soft-hitnormal.wav
192,192,199131,128,0,199303:0:0:0:0:soft-hitnormal.wav
64,192,199303,128,0,199648:0:0:0:0:soft-hitnormal.wav
320,192,199648,1,0,0:0:0:0:
448,192,199821,1,0,0:0:0:0:
64,192,199993,1,0,0:0:0:0:
192,192,200165,1,0,0:0:0:0:
448,192,200338,128,0,200510:0:0:0:0:soft-hitnormal.wav
320,192,200338,1,0,0:0:0:0:
192,192,200510,128,0,200683:0:0:0:0:soft-hitnormal.wav
320,192,200683,1,0,0:0:0:0:
64,192,201028,128,0,201200:0:0:0:0:soft-hitnormal.wav
192,192,201200,1,0,0:0:0:0:soft-hitnormal.wav
64,192,201545,128,0,201717:0:0:0:0:soft-hitnormal.wav
320,192,201717,1,0,0:0:0:0:soft-hitnormal.wav
192,192,202062,128,0,202234:0:0:0:0:soft-hitnormal.wav
448,192,202234,1,0,0:0:0:0:soft-hitnormal.wav
64,192,202407,128,0,202752:0:0:0:0:soft-hitnormal.wav
448,192,202752,128,0,202924:0:0:0:0:soft-hitnormal.wav
192,192,202924,128,0,203096:0:0:0:0:soft-hitnormal.wav
448,192,203096,128,0,203269:0:0:0:0:soft-hitnormal.wav
320,192,203269,128,0,203441:0:0:0:0:soft-hitnormal.wav
64,192,203441,128,0,203614:0:0:0:0:soft-hitnormal.wav
448,192,203614,128,0,203786:0:0:0:0:soft-hitnormal.wav
192,192,203786,128,0,203959:0:0:0:0:soft-hitnormal.wav
64,192,203959,128,0,204131:0:0:0:0:soft-hitnormal.wav
320,192,204131,1,0,0:0:0:0:soft-hitnormal.wav
448,192,204303,1,0,0:0:0:0:soft-hitnormal.wav
64,192,204476,1,0,0:0:0:0:soft-hitnormal.wav
192,192,204648,1,0,0:0:0:0:soft-hitnormal.wav
448,192,204821,128,0,205165:0:0:0:0:soft-hitnormal.wav
320,192,204821,1,0,0:0:0:0:soft-hitnormal.wav
64,192,205165,1,0,0:0:0:0:soft-hitnormal.wav
320,192,205338,1,0,0:0:0:0:soft-hitnormal.wav
320,192,205510,1,0,0:0:0:0:soft-hitnormal.wav
448,192,205683,1,0,0:0:0:0:soft-hitnormal.wav
192,192,205855,1,0,0:0:0:0:soft-hitnormal.wav
192,192,206028,1,0,0:0:0:0:soft-hitnormal.wav
320,192,206200,1,0,0:0:0:0:soft-hitnormal.wav
64,192,206372,1,0,0:0:0:0:soft-hitnormal.wav
64,192,206545,1,0,0:0:0:0:soft-hitnormal.wav
192,192,206717,1,0,0:0:0:0:soft-hitnormal.wav
448,192,206890,1,0,0:0:0:0:soft-hitnormal.wav
448,192,207062,1,0,0:0:0:0:soft-hitnormal.wav
320,192,207234,1,0,0:0:0:0:soft-hitnormal.wav
64,192,207407,1,0,0:0:0:0:soft-hitnormal.wav
320,192,207579,1,0,0:0:0:0:soft-hitnormal.wav
192,192,207752,1,0,0:0:0:0:soft-hitnormal.wav
448,192,207924,128,0,208269:0:0:0:0:soft-hitnormal.wav
320,192,207924,1,0,0:0:0:0:soft-hitnormal.wav
64,192,208269,128,0,208614:0:0:0:0:soft-hitnormal.wav
320,192,208614,128,0,208959:0:0:0:0:soft-hitnormal.wav
192,192,208959,128,0,209303:0:0:0:0:soft-hitnormal.wav
320,192,209303,128,0,209562:0:0:0:0:soft-hitnormal.wav
64,192,209562,128,0,209821:0:0:0:0:soft-hitnormal.wav
448,192,209821,128,0,209993:0:0:0:0:soft-hitnormal.wav
320,192,209993,128,0,210338:0:0:0:0:soft-hitnormal.wav
448,192,210683,5,0,0:0:0:0:soft-hitnormal.wav
64,192,210683,1,0,0:0:0:0:soft-hitnormal.wav
320,192,210855,128,0,211200:0:0:0:0:
320,192,211545,128,0,211890:0:0:0:0:
64,192,212234,128,0,212579:0:0:0:0:
64,192,212924,128,0,213269:0:0:0:0:
192,192,213614,128,0,213959:0:0:0:0:
192,192,214303,128,0,214648:0:0:0:0:
448,192,214993,128,0,215338:0:0:0:0:
320,192,215683,128,0,216028:0:0:0:0:
192,192,216372,128,0,216717:0:0:0:0:
192,192,217062,128,0,217407:0:0:0:0:
320,192,217752,128,0,218096:0:0:0:0:
320,192,218441,128,0,218786:0:0:0:0:
192,192,219131,128,0,219476:0:0:0:0:
64,192,219821,128,0,220165:0:0:0:0:
320,192,220338,1,0,0:0:0:0:soft-hitnormal.wav
448,192,220510,1,0,0:0:0:0:soft-hitnormal.wav
192,192,220683,1,0,0:0:0:0:soft-hitnormal.wav
320,192,220855,1,0,0:0:0:0:soft-hitnormal.wav
192,192,221200,1,0,0:0:0:0:soft-hitnormal.wav
64,192,221286,1,0,0:0:0:0:soft-hitnormal.wav
320,192,221372,1,0,0:0:0:0:soft-hitnormal.wav
192,192,221545,1,0,0:0:0:0:soft-hitnormal.wav
448,192,221717,1,0,0:0:0:0:soft-hitnormal.wav
64,192,222062,1,0,0:0:0:0:soft-hitnormal.wav
320,192,222579,1,0,0:0:0:0:soft-hitnormal.wav
448,192,222752,1,0,0:0:0:0:soft-hitnormal.wav
320,192,223269,1,0,0:0:0:0:soft-hitnormal.wav
192,192,223441,1,0,0:0:0:0:soft-hitnormal.wav
192,192,223959,1,0,0:0:0:0:soft-hitnormal.wav
64,192,224131,1,0,0:0:0:0:soft-hitnormal.wav
64,192,224476,1,0,0:0:0:0:soft-hitnormal.wav
448,192,224648,1,0,0:0:0:0:soft-hitnormal.wav
320,192,224821,1,0,0:0:0:0:soft-hitnormal.wav
320,192,225338,1,0,0:0:0:0:soft-hitnormal.wav
64,192,225510,1,0,0:0:0:0:soft-hitnormal.wav
64,192,225855,1,0,0:0:0:0:soft-hitnormal.wav
320,192,226028,1,0,0:0:0:0:soft-hitnormal.wav
448,192,226200,1,0,0:0:0:0:soft-hitnormal.wav
64,192,226459,1,0,0:0:0:0:soft-hitnormal.wav
448,192,226717,1,0,0:0:0:0:soft-hitnormal.wav
192,192,226890,1,0,0:0:0:0:soft-hitnormal.wav
320,192,227062,1,0,0:0:0:0:soft-hitnormal.wav
448,192,227234,1,0,0:0:0:0:soft-hitnormal.wav
448,192,227579,1,0,0:0:0:0:soft-hitnormal.wav
192,192,228096,1,0,0:0:0:0:soft-hitnormal.wav
320,192,228269,1,0,0:0:0:0:soft-hitnormal.wav
192,192,228614,1,0,0:0:0:0:soft-hitnormal.wav
64,192,228786,1,0,0:0:0:0:soft-hitnormal.wav
320,192,228959,1,0,0:0:0:0:soft-hitnormal.wav
192,192,229131,1,0,0:0:0:0:soft-hitnormal.wav
320,192,229476,1,0,0:0:0:0:
192,192,229648,128,0,229993:0:0:0:0:
448,192,229648,1,0,0:0:0:0:
64,192,229993,128,0,231028:0:0:0:0:
320,192,229993,1,0,0:0:0:0:
320,192,230165,1,0,0:0:0:0:
448,192,230338,1,0,0:0:0:0:
448,192,230855,1,0,0:0:0:0:
320,192,231028,128,0,231372:0:0:0:0:
192,192,231028,1,0,0:0:0:0:
192,192,231372,128,0,232062:0:0:0:0:
64,192,232062,128,0,232752:0:0:0:0:
320,192,232752,5,0,0:0:0:0:soft-hitnormal.wav
448,192,232924,1,0,0:0:0:0:soft-hitnormal.wav
192,192,233096,1,0,0:0:0:0:soft-hitnormal.wav
64,192,233269,1,0,0:0:0:0:soft-hitnormal.wav
448,192,233441,1,0,0:0:0:0:soft-hitnormal.wav
320,192,233614,1,0,0:0:0:0:soft-hitnormal.wav
64,192,233786,1,0,0:0:0:0:soft-hitnormal.wav
320,192,233959,1,0,0:0:0:0:soft-hitnormal.wav
192,192,234131,1,0,0:0:0:0:soft-hitnormal.wav
448,192,234303,1,0,0:0:0:0:soft-hitnormal.wav
64,192,234476,1,0,0:0:0:0:soft-hitnormal.wav
320,192,234648,1,0,0:0:0:0:soft-hitnormal.wav
192,192,234821,1,0,0:0:0:0:soft-hitnormal.wav
64,192,234993,1,0,0:0:0:0:soft-hitnormal.wav
448,192,235165,128,0,235510:0:0:0:0:soft-hitnormal.wav
320,192,235510,128,0,237407:0:0:0:0:soft-hitnormal.wav
192,192,237407,128,0,237924:0:0:0:0:soft-hitnormal.wav
320,192,237924,128,0,238269:0:0:0:0:soft-hitnormal.wav
448,192,238269,128,0,240683:0:0:0:0:soft-hitnormal.wav
320,192,240683,128,0,241028:0:0:0:0:soft-hitnormal.wav
64,192,241028,128,0,242062:0:0:0:0:soft-hitnormal.wav
320,192,242062,128,0,242407:0:0:0:0:soft-hitnormal.wav
192,192,242407,128,0,243096:0:0:0:0:soft-hitnormal.wav
64,192,243096,128,0,243786:0:0:0:0:soft-hitnormal.wav
320,192,243786,128,0,246545:0:0:0:0:soft-hitnormal.wav
64,192,246545,128,0,247924:0:0:0:0:soft-hitnormal.wav
320,192,247924,128,0,248614:0:0:0:0:soft-hitnormal.wav
192,192,248614,128,0,249303:0:0:0:0:soft-hitnormal.wav
64,192,249303,128,0,252062:0:0:0:0:soft-hitnormal.wav
192,192,252062,128,0,253441:0:0:0:0:soft-hitnormal.wav
320,192,253441,128,0,254648:0:0:0:0:soft-hitnormal.wav
