osu file format v14

[General]
AudioFilename: audio.mp3
AudioLeadIn: 0
PreviewTime: 185215
Countdown: 0
SampleSet: Soft
StackLeniency: 0.7
Mode: 0
LetterboxInBreaks: 0
WidescreenStoryboard: 0

[Editor]
DistanceSpacing: 1.7
BeatDivisor: 4
GridSize: 16
TimelineZoom: 4.299997

[Metadata]
Title:crystallized
TitleUnicode:crystallized
Artist:Camellia
ArtistUnicode:かめりあ
Creator:ah shit
Version:Legend
Source:
Tags:wub edm marathon technical electronic instrumental
BeatmapID:1816289
BeatmapSetID:869041

[Difficulty]
HPDrainRate:5
CircleSize:4
OverallDifficulty:8.7
ApproachRate:9.4
SliderMultiplier:1.4
SliderTickRate:1

[Events]
//Background and Video events
0,0,"bg.jpg",0,0
//Break Periods
2,130588,132201
//Storyboard Layer 0 (Background)
//Storyboard Layer 1 (Fail)
//Storyboard Layer 2 (Pass)
//Storyboard Layer 3 (Foreground)
//Storyboard Layer 4 (Overlay)
//Storyboard Sound Samples

[TimingPoints]
733,344.827586206897,4,1,0,100,1,0
4612,-100,4,1,0,5,0,0
5215,-100,4,1,0,7,0,0
5905,-100,4,1,0,11,0,0
6595,-100,4,1,0,14,0,0
7284,-100,4,1,0,16,0,0
7974,-100,4,1,0,18,0,0
8664,-100,4,2,0,5,0,0
9009,-200,4,2,0,20,0,0
20043,-125,4,2,1,30,0,0
22457,-125,4,2,1,30,0,0
22974,-100,4,2,1,30,0,0
25215,-100,4,2,1,30,0,0
25905,-111.111111111111,4,2,1,30,0,0
28836,-100,4,2,1,30,0,0
29698,-80,4,2,1,30,0,0
29870,-80,4,3,1,30,0,0
30215,-80,4,2,1,30,0,0
31077,-66.6666666666667,4,3,0,30,0,0
31422,-66.6666666666667,4,2,1,30,0,0
31940,-66.6666666666667,4,3,1,30,0,0
32112,-66.6666666666667,4,2,1,30,0,0
32457,-66.6666666666667,4,3,1,30,0,0
32974,-66.6666666666667,4,2,1,30,0,0
33319,-66.6666666666667,4,3,1,30,0,0
33491,-66.6666666666667,4,2,1,30,0,0
33836,-66.6666666666667,4,3,1,30,0,0
34181,-66.6666666666667,4,2,1,30,0,0
34698,-66.6666666666667,4,3,1,30,0,0
34871,-66.6666666666667,4,2,1,30,0,0
35215,-66.6666666666667,4,3,1,30,0,0
35560,-66.6666666666667,4,2,1,30,0,0
35733,-66.6666666666667,4,3,1,30,0,0
36250,-66.6666666666667,4,2,1,30,0,0
36422,-66.6666666666667,4,2,1,30,0,0
36595,-66.6666666666667,4,3,1,30,0,0
36940,-66.6666666666667,4,2,1,30,0,0
37457,-66.6666666666667,4,3,1,30,0,0
37629,-66.6666666666667,4,2,1,30,0,0
37974,-66.6666666666667,4,3,1,30,0,0
38491,-66.6666666666667,4,2,1,30,0,0
38836,-66.6666666666667,4,3,1,30,0,0
39009,-66.6666666666667,4,2,1,30,0,0
39353,-66.6666666666667,4,3,1,30,0,0
39698,-66.6666666666667,4,2,1,30,0,0
40215,-66.6666666666667,4,3,1,30,0,0
40388,-66.6666666666667,4,2,1,30,0,0
40905,-66.6666666666667,4,3,1,30,0,0
41250,-66.6666666666667,4,2,1,30,0,0
42112,-66.6666666666667,4,3,1,30,0,0
42457,-66.6666666666667,4,2,1,30,0,0
42974,-66.6666666666667,4,3,1,30,0,0
43146,-66.6666666666667,4,2,1,30,0,0
43491,-66.6666666666667,4,3,1,30,0,0
44009,-66.6666666666667,4,2,1,30,0,0
44353,-66.6666666666667,4,3,1,30,0,0
44526,-66.6666666666667,4,2,1,30,0,0
44698,-66.6666666666667,4,3,1,30,0,0
44784,-66.6666666666667,4,2,1,30,0,0
44871,-66.6666666666667,4,3,1,30,0,0
45215,-66.6666666666667,4,2,1,30,0,0
45733,-66.6666666666667,4,3,1,30,0,0
45905,-66.6666666666667,4,2,1,30,0,0
46250,-66.6666666666667,4,3,1,30,0,0
46595,-66.6666666666667,4,2,1,30,0,0
46767,-66.6666666666667,4,3,1,30,0,0
47284,-66.6666666666667,4,2,1,30,0,0
47457,-66.6666666666667,4,3,1,30,0,0
47974,-66.6666666666667,4,2,1,30,0,0
48491,-66.6666666666667,4,3,1,30,0,0
48664,-66.6666666666667,4,2,1,30,0,0
49009,-66.6666666666667,4,3,1,30,0,0
49526,-66.6666666666667,4,2,1,30,0,0
50215,-66.6666666666667,4,3,1,30,0,0
50388,-133.333333333333,4,3,1,20,0,0
50733,-133.333333333333,4,3,1,30,0,0
51077,-100,4,3,1,40,0,0
51508,-100,4,3,1,50,0,0
51767,-50,4,3,1,65,0,0
53146,-50,4,1,1,65,0,1
53836,-66.6666666666667,4,3,1,25,0,0
54526,-50,4,1,1,65,0,1
54957,-100,4,3,1,65,0,0
55043,-50,4,1,1,65,0,1
55474,-100,4,3,1,65,0,0
55560,-50,4,1,1,65,0,1
56250,-50,4,3,1,65,0,0
56336,-50,4,3,1,5,0,0
56422,-50,4,3,1,65,0,0
56508,-50,4,3,1,5,0,0
56595,-50,4,3,1,65,0,0
56681,-50,4,3,1,5,0,0
56767,-50,4,3,1,65,0,0
56853,-50,4,3,1,5,0,0
56939,-50,4,3,1,65,0,0
57284,-50,4,1,1,65,0,1
57715,-100,4,3,1,65,0,0
57801,-50,4,1,1,65,0,1
58233,-100,4,3,1,65,0,0
58319,-50,4,1,1,65,0,1
59008,-66.6666666666667,4,3,1,65,0,0
59095,-66.6666666666667,4,3,1,5,0,0
59181,-66.6666666666667,4,3,1,65,0,0
59267,-66.6666666666667,4,3,1,5,0,0
59353,-66.6666666666667,4,3,1,65,0,0
59439,-66.6666666666667,4,3,1,5,0,0
59526,-66.6666666666667,4,3,1,65,0,0
59612,-66.6666666666667,4,3,1,5,0,0
59698,-200,4,3,1,65,0,0
60043,-50,4,1,1,65,0,1
60474,-100,4,3,1,65,0,0
60560,-50,4,1,1,65,0,1
60991,-100,4,3,1,65,0,0
61077,-50,4,1,1,65,0,1
61681,-100,4,3,1,65,0,0
62801,-100,4,1,1,65,0,0
63060,-100,4,3,1,65,0,0
64181,-50,4,1,1,65,0,1
64870,-250,4,3,1,65,0,0
65129,-250,4,3,1,5,0,0
65215,-100,4,3,1,65,0,0
65301,-100,4,3,1,5,0,0
65388,-100,4,3,1,65,0,0
65474,-100,4,3,1,5,0,0
65560,-50,4,1,1,65,0,1
65991,-100,4,3,1,65,0,0
66077,-50,4,1,1,65,0,1
66508,-100,4,3,1,65,0,0
66595,-50,4,1,1,65,0,1
67284,-57.1428571428571,4,3,1,65,0,0
67974,-100,4,3,1,65,0,0
68319,-50,4,1,1,65,0,1
68750,-100,4,3,1,65,0,0
68836,-50,4,1,1,65,0,1
69267,-100,4,3,1,65,0,0
69353,-50,4,1,1,65,0,1
70043,-66.6666666666667,4,3,1,65,0,0
70388,-50,4,3,1,65,0,0
70560,-66.6666666666667,4,3,1,65,0,0
71077,-50,4,1,1,65,0,1
71508,-100,4,3,1,65,0,0
71595,-50,4,1,1,65,0,1
72026,-100,4,3,1,65,0,0
72112,-50,4,1,1,65,0,1
72629,-100,4,3,1,65,0,0
75129,-100,4,3,1,5,0,0
75215,-100,4,3,1,65,0,0
83491,-50,4,3,1,65,0,0
84181,-50,4,3,1,65,0,0
86250,-40,4,3,1,65,0,1
89009,-100,4,3,1,65,0,1
90388,-200,4,3,1,65,0,1
90733,-100,4,3,1,65,0,1
91422,-50,4,3,1,65,0,0
91767,-40,4,3,1,65,0,1
94526,-66.6666666666667,4,3,1,65,0,1
95560,-50,4,3,1,65,0,1
95905,-100,4,3,1,65,0,1
96250,-50,4,3,1,65,0,0
96595,-66.6666666666667,4,3,1,65,0,0
96940,-50,4,3,1,65,0,0
97284,-40,4,3,1,65,0,1
100043,-100,4,3,1,65,0,1
102457,-50,4,3,1,65,0,0
102801,-400,4,3,1,65,0,0
103146,-40,4,3,1,65,0,1
105560,-66.6666666666667,4,3,1,65,0,0
105905,-66.6666666666667,4,3,1,65,0,0
106250,-40,4,3,1,65,0,0
106595,-80,4,3,1,65,0,0
107629,-100,4,3,1,65,0,0
108319,-50,4,3,1,65,0,1
109009,-66.6666666666667,4,2,1,65,0,1
110388,-50,4,3,1,65,0,0
111077,-400,4,3,1,65,0,0
112457,-66.6666666666667,4,3,1,65,0,0
113836,-50,4,3,1,65,0,1
114526,-66.6666666666667,4,2,1,65,0,1
115905,-50,4,3,1,65,0,0
116595,-400,4,3,1,65,0,0
117629,-50,4,3,1,65,0,0
119353,-83.3333333333333,4,3,1,65,0,0
120043,-66.6666666666667,4,2,1,65,0,1
121422,-66.6666666666667,4,3,1,65,0,1
121595,-40,4,3,1,65,0,0
122457,-66.6666666666667,4,3,1,65,0,0
122802,-20,4,3,1,65,0,0
123491,-50,4,3,1,65,0,0
124870,-50,4,3,1,65,0,1
125560,-66.6666666666667,4,2,1,65,0,1
126940,-50,4,3,1,65,0,1
129353,-50,4,3,1,65,0,1
129698,-40,4,3,1,65,0,1
130388,-40,4,3,1,65,0,0
132802,-200,4,2,3,20,0,0
141422,-133.333333333333,4,2,3,45,0,0
144181,-125,4,2,3,45,0,0
146939,-100,4,2,3,30,0,0
147026,-100,4,3,1,20,0,0
147629,-100,4,3,1,35,0,0
148319,-100,4,3,1,50,0,0
149008,-100,4,3,1,65,0,0
151077,-50,4,3,1,65,0,0
151767,-50,4,2,1,30,0,0
152457,-50,4,1,1,65,0,1
153146,-66.6666666666667,4,3,1,25,0,0
153836,-50,4,1,1,65,0,1
154267,-100,4,3,1,65,0,0
154353,-50,4,1,1,65,0,1
154784,-100,4,3,1,65,0,0
154870,-50,4,1,1,65,0,1
155560,-50,4,3,1,65,0,0
155646,-50,4,3,1,5,0,0
155733,-50,4,3,1,65,0,0
155819,-50,4,3,1,5,0,0
155905,-50,4,3,1,65,0,0
155991,-50,4,3,1,5,0,0
156077,-50,4,3,1,65,0,0
156164,-50,4,3,1,5,0,0
156250,-50,4,3,1,65,0,0
156595,-50,4,1,1,65,0,1
157026,-100,4,3,1,65,0,0
157112,-50,4,1,1,65,0,1
157543,-100,4,3,1,65,0,0
157629,-50,4,1,1,65,0,1
158319,-66.6666666666667,4,3,1,65,0,0
158405,-66.6666666666667,4,3,1,5,0,0
158491,-66.6666666666667,4,3,1,65,0,0
158577,-66.6666666666667,4,3,1,5,0,0
158664,-66.6666666666667,4,3,1,65,0,0
158750,-66.6666666666667,4,3,1,5,0,0
158836,-66.6666666666667,4,3,1,65,0,0
158922,-66.6666666666667,4,3,1,5,0,0
159008,-200,4,3,1,65,0,0
159353,-50,4,1,1,65,0,1
159784,-100,4,3,1,65,0,0
159870,-50,4,1,1,65,0,1
160301,-100,4,3,1,65,0,0
160388,-50,4,1,1,65,0,1
160991,-100,4,3,1,65,0,0
162112,-100,4,1,1,65,0,0
162370,-100,4,3,1,65,0,0
163491,-50,4,1,1,65,0,1
164181,-66.6666666666667,4,3,1,25,0,0
164870,-50,4,1,1,65,0,1
165301,-100,4,3,1,65,0,0
165388,-50,4,1,1,65,0,1
165819,-100,4,3,1,65,0,0
165905,-50,4,1,1,65,0,1
166595,-50,4,3,1,65,0,0
166681,-50,4,3,1,5,0,0
166767,-50,4,3,1,65,0,0
166853,-50,4,3,1,5,0,0
166939,-50,4,3,1,65,0,0
167026,-50,4,3,1,5,0,0
167112,-50,4,3,1,65,0,0
167198,-50,4,3,1,5,0,0
167284,-50,4,3,1,65,0,0
167629,-50,4,1,1,65,0,1
168060,-100,4,3,1,65,0,0
168146,-50,4,1,1,65,0,1
168577,-100,4,3,1,65,0,0
168664,-50,4,1,1,65,0,1
169353,-66.6666666666667,4,3,1,65,0,0
169439,-66.6666666666667,4,3,1,5,0,0
169526,-66.6666666666667,4,3,1,65,0,0
169612,-66.6666666666667,4,3,1,5,0,0
169698,-66.6666666666667,4,3,1,65,0,0
169784,-66.6666666666667,4,3,1,5,0,0
169870,-66.6666666666667,4,3,1,65,0,0
169957,-66.6666666666667,4,3,1,5,0,0
170043,-200,4,3,1,65,0,0
170301,-200,4,3,1,5,0,0
170388,-50,4,1,1,65,0,1
170819,-100,4,3,1,65,0,0
170905,-50,4,1,1,65,0,1
171336,-100,4,3,1,65,0,0
171422,-50,4,1,1,65,0,1
172370,-133.333333333333,4,2,1,65,0,0
172802,-133.333333333333,4,3,1,65,0,0
172888,-133.333333333333,4,2,1,65,0,0
173146,-100,4,3,1,65,0,0
182801,-50,4,3,1,65,0,0
183491,-25,4,3,1,65,0,0
185043,-50,4,3,1,65,0,0
185560,-50,4,3,1,80,0,1
190819,-40,4,3,1,80,0,1
191077,-50,4,3,1,80,0,1
194181,-33.3333333333333,4,3,1,80,0,1
194526,-50,4,3,1,80,0,1
195560,-25,4,3,1,80,0,1
195905,-50,4,3,1,80,0,1
196250,-40,4,3,1,80,0,1
196767,-50,4,3,1,80,0,1
201767,-40,4,3,1,80,0,1
204871,-66.6666666666667,4,3,1,65,0,1
205215,-55.5555555555556,4,3,1,65,0,1
205560,-50,4,3,1,65,0,1
205905,-45.4545454545455,4,3,1,65,0,1
206250,-66.6666666666667,4,2,1,65,0,0
206595,-50,4,2,1,65,0,0
206940,-50,4,3,1,65,0,0
207629,-40,4,3,1,65,0,1
210388,-100,4,3,1,65,0,0
211767,-200,4,3,1,65,0,0
212112,-100,4,3,1,65,0,0
212801,-50,4,3,1,65,0,0
213146,-40,4,3,1,65,0,1
215905,-66.6666666666667,4,3,1,65,0,0
216940,-50,4,3,1,65,0,0
217629,-50,4,3,1,65,0,0
217974,-66.6666666666667,4,3,1,65,0,0
218319,-50,4,3,1,65,0,0
219353,-40,4,3,1,65,0,1
221422,-100,4,3,1,65,0,0
223836,-40,4,3,1,65,0,0
228146,-66.6666666666667,4,3,1,65,0,0
229008,-50,4,3,1,65,0,0
229009,-90.9090909090909,4,3,1,65,0,0
229698,-50,4,3,1,65,0,1
230388,-66.6666666666667,4,2,1,65,0,1
231767,-50,4,3,1,65,0,0
232457,-400,4,3,1,65,0,0
233146,-66.6666666666667,4,3,1,65,0,0
233836,-66.6666666666667,4,3,1,65,0,0
235215,-50,4,3,1,65,0,1
235905,-66.6666666666667,4,2,1,65,0,1
237284,-50,4,3,1,65,0,0
237974,-400,4,3,1,65,0,0
239009,-50,4,3,1,65,0,0
240733,-83.3333333333333,4,3,1,65,0,0
241422,-66.6666666666667,4,2,1,65,0,1
242801,-66.6666666666667,4,3,1,65,0,0
242974,-40,4,3,1,65,0,0
243836,-66.6666666666667,4,3,1,65,0,0
244181,-20,4,3,1,65,0,0
244870,-50,4,3,1,65,0,0
246250,-50,4,3,1,65,0,1
246940,-66.6666666666667,4,2,1,65,0,1
248319,-50,4,3,1,65,0,1
251077,-25,4,3,1,65,0,1
251767,-66.6666666666667,4,3,1,65,0,0
252284,-66.6666666666667,4,2,1,65,0,0
252629,-66.6666666666667,4,3,1,65,0,0
253664,-66.6666666666667,4,2,1,65,0,0
254009,-66.6666666666667,4,3,1,65,0,0
255043,-66.6666666666667,4,2,1,65,0,0
255388,-66.6666666666667,4,3,1,65,0,0
257802,-66.6666666666667,4,2,1,65,0,0
258146,-66.6666666666667,4,3,1,45,0,0
259526,-66.6666666666667,4,3,1,45,0,0
259784,-66.6666666666667,4,2,1,45,0,0
260043,-66.6666666666667,4,3,1,45,0,0
260388,-66.6666666666667,4,3,1,45,0,0
263319,-66.6666666666667,4,2,1,45,0,0
263664,-66.6666666666667,4,3,1,30,0,0
265043,-66.6666666666667,4,2,1,30,0,0
265215,-100,4,3,1,30,0,0
266077,-66.6666666666667,4,2,1,30,0,0
266422,-66.6666666666667,4,3,1,30,0,0
266939,-100,4,3,1,30,0,0
268836,-66.6666666666667,4,2,1,30,0,0
269181,-66.6666666666667,4,3,1,30,0,0
270043,-66.6666666666667,4,3,1,20,0,0
270560,-66.6666666666667,4,3,1,35,0,0
270733,-66.6666666666667,4,3,1,20,0,0
271077,-100,4,3,1,35,0,0
271422,-66.6666666666667,4,3,1,20,0,0
271940,-66.6666666666667,4,3,1,35,0,0
272112,-66.6666666666667,4,3,1,20,0,0
272457,-133.333333333333,4,3,1,35,0,0
273825,344.827586206897,4,1,0,100,1,0
273825,-200,4,2,2,20,0,0
294514,-357.142857142857,4,2,2,20,0,0
294859,-333.333333333333,4,2,3,5,0,0
306238,-333.333333333333,4,2,3,10,0,0
306411,-333.333333333333,4,2,3,30,0,0
306497,-333.333333333333,4,2,3,50,0,0
306583,-333.333333333333,4,2,3,20,0,0

[Colours]
Combo1 : 92,96,226
Combo2 : 203,250,244
Combo3 : 114,185,211
Combo4 : 50,96,141

[HitObjects]
256,192,4612,12,0,8664,0:0:0:0:
152,299,9009,6,0,B|145:243|200:205|271:200|272:253|283:327|311:340|396:323|417:304|458:265|462:229|457:171|400:134,1,490
349,70,11767,2,0,B|327:30|192:56|293:142|160:133,1,210
103,196,13146,6,0,P|91:248|118:290,1,105
190,311,13836,2,0,P|242:314|279:272,1,105
321,222,14526,6,0,B|358:177|408:199|440:243|440:243|427:146|472:156|475:104|475:104|475:42|395:18|366:86|366:86|359:109|328:100,1,490
238,63,17284,2,0,P|218:50|110:152,1,210
113,249,18664,2,0,P|119:282|271:346,1,210
363,290,20043,6,0,P|411:300|429:313,1,56
351,206,20388,2,0,P|398:190|420:192,1,56
302,137,20733,2,0,P|339:103|360:97,1,56
219,116,21077,2,0,P|226:66|239:48,1,56
144,158,21422,2,0,P|122:125|95:113,1,56
114,240,21767,2,0,P|89:224|50:227,1,56
156,321,22112,2,0,P|127:331|101:358,1,56
251,331,22457,2,0,P|240:359|243:396,1,56
318,250,22802,5,0,0:0:0:0:
410,267,22974,2,0,L|443:276,2,35
291,169,23319,2,0,L|281:134,2,35
262,319,23664,2,0,L|226:341,2,35
396,197,24009,2,0,L|419:170,2,35
225,233,24353,2,0,L|191:217,2,35,0|0|8,0:0|0:0|0:0,0:0:0:0:
353,335,24698,2,0,L|362:369,2,35,0|8|0,0:0|0:0|0:0,0:0:0:0:
318,250,25043,1,0,0:0:0:0:
293,168,25215,2,0,P|263:139|210:146,1,70,8|0,0:0|0:0,0:0:0:0:
134,160,25560,5,0,0:0:0:0:
102,239,25733,1,0,0:0:0:0:
150,307,25905,2,0,P|185:331|275:332,1,125.999996154785,8|0,0:0|0:0,0:0:0:0:
369,295,26422,1,0,0:0:0:0:
418,206,26595,2,0,P|412:163|390:134,1,62.9999980773926,8|0,0:0|0:0,0:0:0:0:
303,58,26940,5,0,0:0:0:0:
211,144,27112,2,0,P|187:174|178:207,1,62.9999980773926
266,207,27457,2,0,P|262:245|272:277,1,62.9999980773926,8|0,0:0|0:0,0:0:0:0:
181,328,27802,5,0,0:0:0:0:
365,320,27974,2,0,P|400:304|414:270,1,62.9999980773926,8|0,0:0|0:0,0:0:0:0:
413,269,28233,1,0,0:0:0:0:
413,256,28319,6,0,P|392:222|366:215,1,62.9999980773926
253,201,28664,1,8,0:0:0:0:
130,190,28836,1,0,0:0:0:0:
97,186,28922,1,0,0:0:0:0:
78,159,29008,1,0,0:0:0:0:
82,127,29094,1,0,0:0:0:0:
103,101,29181,1,0,0:0:0:0:
249,45,29353,1,8,0:0:0:0:
404,61,29698,5,8,0:0:0:0:
409,144,29870,2,0,L|414:239,1,87.5
328,161,30215,5,8,0:0:0:0:
329,174,30301,2,0,L|333:235,1,43.75
251,213,30474,5,8,0:0:0:0:
252,247,30560,2,0,L|256:308,1,43.75
164,147,30733,5,8,0:0:0:0:
165,195,30819,2,0,L|169:256,1,43.75
200,62,30991,1,8,0:0:0:0:
90,53,31077,6,0,P|80:102|89:193,1,105.000004005432
113,296,31422,1,8,0:0:0:0:
301,300,31595,5,0,0:0:0:0:
351,286,31681,1,0,0:0:0:0:
387,250,31767,1,0,0:0:0:0:
400,199,31853,1,0,0:0:0:0:
386,150,31939,1,0,0:0:0:0:
278,42,32112,1,8,0:0:0:0:
95,131,32457,5,0,0:0:0:0:
178,288,32629,1,0,0:0:0:0:
178,288,32974,1,8,0:0:0:0:
219,319,33060,1,0,0:0:0:0:
269,333,33146,1,0,0:0:0:0:
321,328,33232,1,0,0:0:0:0:
367,303,33318,1,0,0:0:0:0:
256,223,33491,1,8,0:0:0:0:
374,291,33664,5,0,0:0:0:0:
378,277,33750,1,0,0:0:0:0:
383,261,33836,2,0,P|389:199|376:147,1,105.000004005432
327,45,34181,1,8,0:0:0:0:
200,106,34353,5,0,0:0:0:0:
164,143,34439,1,0,0:0:0:0:
162,195,34525,1,0,0:0:0:0:
192,236,34611,1,0,0:0:0:0:
241,250,34697,1,0,0:0:0:0:
383,261,34871,1,8,0:0:0:0:
388,95,35215,6,0,P|327:86|270:89,1,105.000004005432
164,143,35560,1,8,0:0:0:0:
147,298,35733,1,0,0:0:0:0:
147,298,35819,1,0,0:0:0:0:
289,235,35991,1,0,0:0:0:0:
289,235,36077,1,0,0:0:0:0:
164,143,36250,1,8,0:0:0:0:
370,78,36422,5,0,0:0:0:0:
378,92,36508,1,0,0:0:0:0:
383,106,36595,2,0,P|401:185|403:223,1,105.000004005432
378,313,36940,1,8,0:0:0:0:
225,291,37112,5,0,0:0:0:0:
184,257,37198,1,0,0:0:0:0:
171,207,37284,1,0,0:0:0:0:
189,159,37370,1,0,0:0:0:0:
232,131,37456,1,0,0:0:0:0:
383,106,37629,1,8,0:0:0:0:
406,272,37974,5,0,0:0:0:0:
195,274,38146,1,0,0:0:0:0:
361,147,38491,5,8,0:0:0:0:
335,102,38577,1,0,0:0:0:0:
287,82,38663,1,0,0:0:0:0:
238,96,38749,1,0,0:0:0:0:
207,138,38835,1,0,0:0:0:0:
195,274,39009,1,8,0:0:0:0:
127,96,39181,5,0,0:0:0:0:
122,111,39267,1,0,0:0:0:0:
119,128,39353,2,0,P|116:197|123:244,1,105.000004005432
160,361,39698,1,8,0:0:0:0:
312,334,39871,5,0,0:0:0:0:
360,315,39957,1,0,0:0:0:0:
388,272,40043,1,0,0:0:0:0:
387,220,40129,1,0,0:0:0:0:
356,179,40215,1,0,0:0:0:0:
238,96,40388,1,8,0:0:0:0:
188,302,40733,6,0,P|248:274|283:247,1,105.000004005432,8|0,0:0|0:0,0:0:0:0:
356,179,41077,1,0,0:0:0:0:
175,286,41250,1,8,0:0:0:0:
167,273,41336,2,0,P|192:264|216:246,1,52.5000020027161
158,264,41508,2,0,P|179:258|205:240,1,52.5000020027161,8|0,0:0|0:0,0:0:0:0:
306,139,41767,2,0,P|284:154|250:163,1,52.5000020027161,8|0,0:0|0:0,0:0:0:0:
243,165,41940,1,0,0:0:0:0:
223,166,42026,1,8,0:0:0:0:
205,167,42112,6,0,P|160:160|94:163,1,105.000004005432
101,285,42457,1,8,0:0:0:0:
322,283,42629,2,0,L|367:318,1,52.5000020027161
287,178,42802,2,0,L|235:158,1,52.5000020027161
391,185,42974,1,0,0:0:0:0:
318,28,43146,1,8,0:0:0:0:
149,152,43491,5,0,0:0:0:0:
363,99,43664,1,0,0:0:0:0:
200,247,44009,1,8,0:0:0:0:
243,274,44095,1,0,0:0:0:0:
295,274,44181,1,0,0:0:0:0:
338,246,44267,1,0,0:0:0:0:
360,198,44353,1,0,0:0:0:0:
395,59,44526,1,8,0:0:0:0:
378,314,44698,5,0,0:0:0:0:
382,297,44784,1,0,0:0:0:0:
385,283,44871,2,0,P|395:228|393:151,1,105.000004005432
395,59,45215,1,8,0:0:0:0:
278,178,45388,6,0,L|272:247,1,52.5000020027161
214,62,45560,2,0,L|219:0,1,52.5000020027161
141,155,45733,1,0,0:0:0:0:
315,83,45905,1,8,0:0:0:0:
290,303,46250,6,0,P|353:303|414:289,1,105.000004005432
421,181,46595,1,8,0:0:0:0:
272,62,46767,1,0,0:0:0:0:
272,62,46853,1,0,0:0:0:0:
243,250,47026,1,0,0:0:0:0:
243,250,47112,1,0,0:0:0:0:
421,181,47284,1,8,0:0:0:0:
243,250,47457,1,0,0:3:0:0:
375,76,47629,6,0,P|299:61|236:63,1,105.000004005432
82,79,47974,1,8,0:0:0:0:
82,222,48146,1,0,0:0:0:0:
107,267,48232,1,0,0:0:0:0:
153,290,48318,1,0,0:0:0:0:
204,284,48404,1,0,0:0:0:0:
243,250,48490,1,0,0:0:0:0:
310,138,48664,1,8,0:0:0:0:
198,61,49009,6,0,P|186:132|190:171,1,105.000004005432
204,284,49353,1,0,0:0:0:0:
358,165,49526,2,0,L|297:167,1,52.5000020027161,8|0,0:0|0:0,0:0:0:0:
353,269,49698,2,0,L|412:270,1,52.5000020027161
219,176,50043,1,8,0:0:0:0:
446,180,50215,1,0,0:0:0:0:
319,313,50388,5,0,0:0:0:0:
290,313,50474,1,0,0:0:0:0:
262,305,50560,1,0,0:0:0:0:
238,289,50646,1,0,0:0:0:0:
217,265,50733,1,0,0:0:0:0:
206,235,50819,1,0,0:0:0:0:
203,203,50905,1,0,0:0:0:0:
209,172,50991,1,0,0:0:0:0:
238,137,51077,1,0,0:0:0:0:
281,121,51164,1,0,0:0:0:0:
325,127,51250,1,0,0:0:0:0:
364,149,51336,1,0,0:0:0:0:
389,186,51422,1,0,0:0:0:0:
392,234,51508,1,0,0:0:0:0:
378,281,51595,1,0,0:0:0:0:
334,304,51681,1,0,0:0:0:0:
286,301,51767,6,0,L|253:289,6,35
303,220,52112,2,0,L|315:187,6,35
358,287,53146,6,0,B|305:295|215:234|236:-45|363:36|396:99|391:295|245:41|152:130,1,490,6|0,0:0|0:0,0:0:0:0:
84,153,53836,6,0,L|63:162,24,13.125000500679
110,259,54526,6,0,B|163:277|206:242|206:242|269:193|443:270|147:346|346:159,1,350,6|0,0:0|0:0,0:0:0:0:
344,104,55043,2,0,B|297:66|238:89|238:89|151:162|341:171|228:12|112:126,1,350,6|0,0:0|0:0,0:0:0:0:
84,197,55560,2,0,B|42:242|48:297|90:321|90:321|132:343|184:323|198:270|198:270|210:228|252:207|290:222|290:222|326:236|340:284|304:327,1,490,6|0,0:0|0:0,0:0:0:0:
316,368,56250,6,0,P|347:367|376:344,1,70
262,256,56422,2,0,P|247:283|252:319,1,70
386,266,56595,2,0,P|369:239|335:226,1,70
316,368,56767,2,0,P|347:367|376:344,1,70
321,296,56939,1,0,0:0:0:0:
229,65,57284,6,0,B|168:58|131:110|131:110|98:218|262:122|81:51|46:209,1,350,6|0,0:0|0:0,0:0:0:0:
67,285,57801,2,0,B|110:320|163:301|163:301|238:277|376:409|72:379|322:271,1,350,6|0,0:0|0:0,0:0:0:0:
348,225,58319,2,0,B|366:213|373:167|340:140|340:140|308:118|271:125|231:178|231:178|188:232|138:227|119:190|119:190|104:158|125:111|190:107,1,490,6|0,0:0|0:0,0:0:0:0:
260,94,59008,6,0,L|261:154,1,52.5000020027161,0|0,0:3|0:3,0:3:0:0:
310,250,59181,2,0,L|313:195,1,52.5000020027161,0|0,0:3|0:3,0:3:0:0:
345,15,59353,2,0,L|345:74,1,52.5000020027161,0|0,0:3|0:3,0:3:0:0:
384,178,59526,2,0,L|383:113,1,52.5000020027161,0|0,0:3|0:3,0:3:0:0:
451,67,59698,6,0,L|452:128,1,52.5,0|0,0:3|0:3,0:3:0:0:
418,257,60043,6,0,B|373:283|308:234|222:245|208:281|253:316|270:294|270:294|280:274|241:175,1,350,6|0,0:0|0:0,0:0:0:0:
221,110,60560,2,0,B|182:10|144:17|141:46|141:46|147:82|181:61|286:26|353:49,1,350,6|0,0:0|0:0,0:0:0:0:
408,62,61077,2,0,B|437:84|455:126|451:163|437:199|399:217|399:217|354:208|301:130|344:105|365:122|365:122|406:160|290:208|217:191,1,490,6|0,0:0|0:0,0:0:0:0:
128,226,61767,5,0,0:0:0:0:
260,194,62112,5,0,0:0:0:0:
130,96,62284,1,0,0:0:0:0:
256,326,62457,1,8,0:0:0:0:
346,289,62801,6,0,P|310:323|235:316,1,105,6|0,0:0|0:0,0:0:0:0:
179,215,63146,5,8,0:0:0:0:
256,326,63491,5,0,0:0:0:0:
301,170,63663,1,0,0:0:0:0:
131,370,63836,1,8,0:0:0:0:
209,346,64181,6,0,B|153:267|207:39|256:188|341:195|284:296|61:284|66:157|95:108,1,490,6|0,0:0|0:0,0:0:0:0:
145,62,64871,6,0,L|168:98,1,42
252,149,65215,6,0,L|225:103,1,35
242,23,65388,2,0,L|263:60,1,35
328,76,65560,6,0,B|366:120|366:120|429:188|549:207|515:122|439:86|463:271,1,350,6|0,0:0|0:0,0:0:0:0:
416,336,66077,2,0,B|361:365|307:332|307:332|234:244|422:268|284:406|189:274,1,350,6|0,0:0|0:0,0:0:0:0:
143,216,66595,2,0,B|87:183|97:122|131:100|131:100|165:78|222:89|229:149|229:149|235:187|254:218|300:215|300:215|343:210|361:168|352:127|324:114,1,490,6|0,0:0|0:0,0:0:0:0:
415,108,67284,6,0,B|462:116|468:124|468:124|466:133|437:142|434:149|434:149|440:155|465:162|473:169|473:169|470:177|446:178|435:186|435:186|438:195|468:214|471:221|471:221|466:226|431:216|421:217|421:217|422:226|457:248|456:258|456:258|445:260|412:244|405:250|405:250|404:255|420:273|418:281|418:281|408:282,1,428.750004088879
451,365,67974,6,0,L|512:357,1,35
323,249,68146,2,0,L|334:200,1,35
349,338,68319,6,0,B|298:371|242:343|242:343|161:263|351:270|225:419|119:295,1,350,6|0,0:0|0:0,0:0:0:0:
80,229,68836,2,0,B|104:178|159:173|159:173|239:163|307:-14|44:141|317:132,1,350,6|0,0:0|0:0,0:0:0:0:
368,148,69354,2,0,B|389:149|417:186|400:226|400:226|383:260|347:272|286:243|286:243|223:216|182:244|183:285|183:285|184:321|224:352|283:325,1,490,6|0,0:0|0:0,0:0:0:0:
396,332,70043,6,0,P|446:302|487:193,1,157.500006008148
356,89,70388,2,0,P|318:89|276:128,1,70
215,197,70560,2,0,B|282:199|298:284|298:284|341:212|419:229,1,262.500010013581
465,159,71077,6,0,B|442:112|353:102|300:47|305:6|350:-1|360:28|360:28|365:47|280:116,1,350,6|0,0:0|0:0,0:0:0:0:
214,160,71595,2,0,B|107:221|90:176|108:158|108:158|131:136|147:174|178:256|280:289,1,350,6|0,0:0|0:0,0:0:0:0:
360,259,72112,2,0,B|403:234|413:201|416:163|391:129|391:129|347:116|270:162|284:199|320:197|320:197|370:179|290:88|246:77,1,420,6|0,0:0|0:0,0:0:0:0:
256,192,72715,12,0,75129,0:0:0:0:
232,89,75215,5,0,0:0:0:0:
206,274,75560,1,0,0:0:0:0:
232,89,75905,1,0,0:0:0:0:
206,274,76250,1,0,0:0:0:0:
354,197,76595,5,0,0:0:0:0:
172,172,76940,1,0,0:0:0:0:
354,197,77284,1,0,0:0:0:0:
172,172,77629,1,0,0:0:0:0:
290,83,77974,5,0,0:0:0:0:
322,268,78319,1,0,0:0:0:0:
290,83,78664,1,0,0:0:0:0:
322,268,79009,1,0,0:0:0:0:
183,197,79353,5,0,0:0:0:0:
378,175,79698,1,0,0:0:0:0:
183,197,80043,1,0,0:0:0:0:
378,175,80388,1,0,0:0:0:0:
231,94,80733,5,8,0:0:0:0:
198,277,80905,1,0,0:0:0:0:
253,98,81077,5,8,0:0:0:0:
282,287,81250,1,0,0:0:0:0:
222,74,81422,5,8,0:0:0:0:
170,298,81595,1,0,0:0:0:0:
268,65,81767,5,8,0:0:0:0:
309,314,81940,1,0,0:0:0:0:
210,49,82112,5,8,0:0:0:0:
161,324,82284,1,0,0:0:0:0:
265,35,82457,5,8,0:0:0:0:
321,333,82629,1,0,0:0:0:0:
202,17,82802,5,8,0:0:0:0:
140,356,82974,1,0,0:0:0:0:
267,11,83146,5,8,0:0:0:0:
345,357,83319,1,0,0:0:0:0:
267,11,83491,5,8,0:0:0:0:
220,3,83577,1,0,0:0:0:0:
175,18,83664,1,0,0:0:0:0:
139,53,83750,1,0,0:0:0:0:
123,147,83836,5,8,0:0:0:0:
166,177,83922,1,0,0:0:0:0:
219,185,84009,1,0,0:0:0:0:
273,167,84095,1,0,0:0:0:0:
316,132,84181,6,0,L|337:92,6,35,8|0|0|0|0|0|0,0:0|0:0|0:0|0:0|0:0|0:0|0:0,0:0:0:0:
430,194,84526,2,0,L|472:203,6,35,8|0|0|0|0|0|0,0:0|0:0|0:0|0:0|0:0|0:0|0:0,0:0:0:0:
356,287,84871,5,0,0:0:0:0:
238,238,85733,6,0,P|247:272|285:301,1,70
349,159,85905,2,0,P|287:151|262:170,1,70
360,295,86077,2,0,P|396:246|393:214,1,70
194,71,86250,6,0,P|157:107|132:164,1,87.5
81,284,86422,2,0,P|118:248|143:191,1,87.5
208,73,86595,1,8,0:0:0:0:
208,73,86767,1,0,0:0:0:0:
157,310,86940,2,0,P|194:274|219:217,1,87.5
290,89,87112,1,0,0:0:0:0:
290,89,87284,1,8,0:0:0:0:
244,324,87457,2,0,P|281:288|306:231,1,87.5
366,111,87629,1,0,0:0:0:0:
366,111,87802,1,0,0:0:0:0:
333,336,87974,2,0,P|370:300|395:243,1,87.5,8|0,0:0|0:0,0:0:0:0:
446,123,88146,5,0,0:0:0:0:
428,220,88319,1,0,0:0:0:0:
386,58,88491,1,0,0:0:0:0:
322,228,88664,1,8,0:0:0:0:
280,66,88836,1,0,0:0:0:0:
170,127,89009,6,0,P|145:110|71:154,1,105
75,150,89353,5,8,0:0:0:0:
95,300,89526,1,0,0:0:0:0:
153,170,89698,1,0,0:0:0:0:
169,259,89871,1,0,0:0:0:0:
14,241,90043,1,8,0:0:0:0:
217,90,90215,1,0,0:0:0:0:
322,197,90388,6,0,P|331:178|330:144,1,52.5
391,109,90733,6,0,L|430:132,1,35,8|0,0:0|0:0,0:0:0:0:
272,94,90905,2,0,L|239:73,1,35
412,107,91077,2,0,L|446:126,1,35
249,95,91250,2,0,L|211:69,1,35
442,107,91422,2,0,B|470:161|528:162|528:162|473:192|478:262,1,210,8|0,0:0|0:0,0:0:0:0:
401,268,91767,6,0,P|368:238|346:200,1,87.5
287,54,91939,2,0,P|320:84|342:122,1,87.5
413,263,92112,1,8,0:0:0:0:
413,263,92284,1,0,0:0:0:0:
228,104,92457,2,0,P|260:133|282:171,1,87.5
332,302,92629,1,0,0:0:0:0:
332,302,92802,1,8,0:0:0:0:
168,151,92974,2,0,P|200:180|222:218,1,87.5
260,349,93146,1,0,0:0:0:0:
260,349,93319,1,0,0:0:0:0:
106,203,93491,2,0,P|138:232|160:270,1,87.5,8|0,0:0|0:0,0:0:0:0:
184,384,93664,5,0,0:0:0:0:
233,228,93836,1,0,0:0:0:0:
184,384,94009,1,0,0:0:0:0:
149,198,94181,1,8,0:0:0:0:
83,344,94353,1,0,0:0:0:0:
41,150,94526,5,0,0:0:0:0:
120,74,94698,2,0,L|162:123,1,52.5000020027161
236,206,94871,1,0,0:0:0:0:
193,50,95043,2,0,L|235:99,1,52.5000020027161
309,182,95216,1,0,0:0:0:0:
266,25,95388,2,0,L|308:74,1,52.5000020027161
382,157,95560,6,0,P|412:151|460:155,1,70,8|0,0:0|0:0,0:0:0:0:
352,219,95733,2,0,P|323:227|265:227,1,70
124,222,95905,1,0,0:0:0:0:
261,244,96077,1,0,0:0:0:0:
382,225,96250,6,0,P|414:198|415:88,1,140,8|0,0:0|0:0,0:0:0:0:
351,47,96508,1,0,0:0:0:0:
351,47,96595,6,0,P|310:62|273:123,1,105.000004005432
270,135,96853,1,0,0:0:0:0:
274,160,96940,6,0,P|282:178|199:190,1,140,8|0,0:0|0:0,0:0:0:0:
179,91,97284,6,0,P|142:127|117:184,1,87.5
66,304,97456,2,0,P|103:268|128:211,1,87.5
193,93,97629,1,8,0:0:0:0:
193,93,97801,1,0,0:0:0:0:
156,319,97974,2,0,P|193:283|218:226,1,87.5
279,106,98146,1,0,0:0:0:0:
279,106,98318,1,8,0:0:0:0:
251,330,98491,2,0,P|288:294|313:237,1,87.5
364,117,98663,1,0,0:0:0:0:
364,117,98836,1,0,0:0:0:0:
345,343,99008,2,0,P|382:307|407:250,1,87.5,8|0,0:0|0:0,0:0:0:0:
474,119,99180,5,0,0:0:0:0:
437,210,99353,1,0,0:0:0:0:
427,43,99525,1,0,0:0:0:0:
350,207,99698,1,8,0:0:0:0:
336,53,99870,1,0,0:0:0:0:
168,308,100043,6,0,P|134:290|125:219,1,105
130,194,100388,1,8,0:0:0:0:
257,248,100560,1,0,0:0:0:0:
192,135,100733,1,0,0:0:0:0:
263,164,100905,1,0,0:0:0:0:
158,275,101077,1,8,0:0:0:0:
275,85,101250,1,0,0:0:0:0:
393,23,101422,6,0,P|404:40|400:109,1,70
379,195,101767,2,0,L|398:232,1,35,8|0,0:0|0:0,0:0:0:0:
294,115,101940,2,0,L|272:80,1,35
292,217,102112,2,0,L|307:253,1,35
223,187,102284,2,0,L|202:153,1,35
165,266,102457,6,0,B|134:238|66:266|66:266|113:207|86:140,1,210,8|0,0:0|0:0,0:0:0:0:
138,80,102801,6,0,L|164:64,1,26.25
278,52,103146,6,0,P|245:82|223:120,1,87.5,8|0,0:0|0:0,0:0:0:0:
165,266,103318,1,0,0:0:0:0:
165,266,103491,1,0,0:0:0:0:
354,90,103663,2,0,P|321:120|299:158,1,87.5
241,304,103835,1,8,0:0:0:0:
241,304,104008,1,0,0:0:0:0:
423,131,104181,2,0,P|390:161|368:199,1,87.5
310,345,104354,1,0,0:0:0:0:
310,345,104526,1,8,0:0:0:0:
494,170,104698,2,0,P|461:200|439:238,1,87.5
381,384,104870,5,0,0:0:0:0:
368,197,105043,1,0,0:0:0:0:
310,345,105215,1,8,0:0:0:0:
242,164,105388,1,0,0:0:0:0:
243,303,105560,6,0,P|196:288|179:262,1,52.5000020027161
234,317,105733,2,0,P|192:307|173:288,1,52.5000020027161
225,330,105905,2,0,P|199:327|120:228,1,157.500006008148,8|0,0:0|0:0,0:0:0:0:
120,136,106250,6,0,P|140:101|191:91,1,87.5
275,99,106422,2,0,P|295:115|301:177,1,87.5
218,328,106595,6,0,P|257:332|306:318,1,87.5,8|0,0:0|0:0,0:0:0:0:
144,244,106940,1,0,0:0:0:0:
324,244,107112,1,0,0:0:0:0:
118,160,107284,1,8,0:0:0:0:
377,162,107457,1,0,0:0:0:0:
126,64,107629,6,0,P|27:129|84:252,1,245,8|0,0:0|0:0,0:0:0:0:
110,323,108319,6,0,B|185:301|227:356|227:356|204:252|285:194|378:222|375:311|375:311|325:290|285:312,1,490
329,40,109008,6,0,L|288:-3,1,52.5000020027161,2|2,0:0|0:0,0:0:0:0:
343,131,109181,2,0,L|379:168,1,52.5000020027161,2|2,0:0|0:0,0:0:0:0:
231,108,109353,2,0,L|194:70,1,52.5000020027161,2|2,0:0|0:0,0:0:0:0:
129,215,109526,6,0,L|92:252,1,52.5000020027161,2|2,0:0|0:0,0:0:0:0:
219,223,109698,2,0,L|255:185,1,52.5000020027161,2|2,0:0|0:0,0:0:0:0:
235,317,109871,2,0,L|198:354,1,52.5000020027161,2|2,0:0|0:0,0:0:0:0:
358,319,110043,6,0,L|394:356,1,52.5000020027161,2|2,0:0|0:0,0:0:0:0:
370,232,110215,2,0,L|334:195,1,52.5000020027161,2|2,0:0|0:0,0:0:0:0:
446,259,110388,6,0,B|483:222|467:170|422:160|422:160|489:69|416:-21|278:14|316:116|316:116|378:84|391:116,1,490,8|0,0:0|0:0,0:0:0:0:
191,133,111077,6,0,L|165:164,1,35
431,209,111767,5,8,0:0:0:0:
191,133,112112,1,0,0:0:0:0:
268,283,112284,1,0,0:0:0:0:
330,74,112457,6,0,B|378:113|448:26|472:74|472:74|429:71|405:120,1,210.000008010865
398,192,112974,5,0,0:0:0:0:
374,273,113060,1,0,0:0:0:0:
346,356,113146,1,8,0:0:0:0:
499,170,113319,5,0,0:0:0:0:
247,349,113491,1,8,0:0:0:0:
508,253,113664,1,0,0:0:0:0:
137,323,113836,6,0,B|184:295|168:229|96:223|78:277|78:277|100:185|19:134|19:134|111:179|171:120,1,490
303,59,114526,6,0,L|344:16,1,52.5000020027161,2|2,0:0|0:0,0:0:0:0:
264,168,114698,2,0,L|228:205,1,52.5000020027161,2|2,0:0|0:0,0:0:0:0:
403,108,114870,2,0,L|440:70,1,52.5000020027161,2|2,0:0|0:0,0:0:0:0:
475,197,115043,6,0,L|512:234,1,52.5000020027161,2|2,0:0|0:0,0:0:0:0:
383,203,115215,2,0,L|347:165,1,52.5000020027161,2|2,0:0|0:0,0:0:0:0:
369,299,115388,2,0,L|406:336,1,52.5000020027161,2|2,0:0|0:0,0:0:0:0:
256,316,115560,6,0,L|220:353,1,52.5000020027161,2|2,0:0|0:0,0:0:0:0:
228,205,115733,2,0,L|264:168,1,52.5000020027161,2|2,0:0|0:0,0:0:0:0:
137,267,115905,6,0,B|82:272|11:203|31:144|31:144|110:183|195:165|237:39|108:-31|37:62|114:116,1,490,8|0,0:0|0:0,0:0:0:0:
300,43,116595,6,0,L|326:58,1,26.25
331,61,116940,1,0,0:0:0:0:
96,219,117284,5,8,0:0:0:0:
257,288,117629,2,0,P|259:303|338:233,1,210
360,245,117974,5,8,0:0:0:0:
271,57,118146,1,0,0:0:0:0:
261,37,118319,1,0,0:0:0:0:
218,261,118491,5,8,0:0:0:0:
390,98,118664,1,0,0:0:0:0:
403,87,118836,1,0,0:0:0:0:
213,101,119009,5,8,0:0:0:0:
146,119,119095,1,0,0:0:0:0:
105,174,119181,1,0,0:0:0:0:
108,243,119267,1,0,0:0:0:0:
139,303,119353,6,0,B|186:360|280:362|316:294|316:294|257:323|211:268,1,293.999991027832
358,109,120043,6,0,L|359:49,1,52.5000020027161,2|2,0:0|0:0,0:0:0:0:
277,173,120215,2,0,L|276:224,1,52.5000020027161,2|2,0:0|0:0,0:0:0:0:
231,95,120387,2,0,L|231:41,1,52.5000020027161,2|2,0:0|0:0,0:0:0:0:
86,87,120560,6,0,L|33:87,1,52.5000020027161,2|2,0:0|0:0,0:0:0:0:
146,169,120733,2,0,L|198:167,1,52.5000020027161,2|2,0:0|0:0,0:0:0:0:
85,249,120905,2,0,L|32:249,1,52.5000020027161,2|2,0:0|0:0,0:0:0:0:
235,290,121077,6,0,L|234:341,1,52.5000020027161,2|2,0:0|0:0,0:0:0:0:
275,225,121250,2,0,L|277:173,1,52.5000020027161,2|2,0:0|0:0,0:0:0:0:
427,320,121422,5,8,0:0:0:0:
439,195,121595,2,0,B|405:161|412:112|412:112|392:157|332:173,1,175
352,167,121853,2,0,B|313:172|273:139|273:139|295:181|274:225,1,175
275,225,122112,6,0,B|291:222|299:221|299:221|301:227|288:239|280:243|280:243|282:250|305:246|314:247|314:247|314:255|280:264|275:270|275:270|281:274|311:277|320:280|320:280|316:289|285:289|275:293|275:293|278:299|304:307|309:316|309:316|299:320,1,262.5
300,329,122457,6,0,P|283:344|147:307,1,157.500006008148
152,314,122802,6,0,P|135:309|193:267,1,175
201,257,122974,2,0,P|186:246|256:227,1,175
263,226,123146,2,0,P|258:209|325:235,1,175
330,243,123319,2,0,P|337:226|370:290,1,175
363,299,123491,6,0,B|327:363|221:353|201:282|201:282|169:318|126:309|126:309|158:294|162:238,1,350
204,162,124009,5,0,0:0:0:0:
263,89,124095,1,0,0:0:0:0:
331,15,124181,1,8,0:0:0:0:
140,120,124353,5,0,0:0:0:0:
418,35,124526,1,8,0:0:0:0:
106,193,124698,1,0,0:0:0:0:
358,106,124870,6,0,B|410:105|435:154|411:192|411:192|522:209|534:325|412:398|367:299|367:299|434:277|420:244,1,490
278,336,125560,6,0,L|236:379,1,52.5000020027161,2|2,0:0|0:0,0:0:0:0:
287,238,125732,2,0,L|322:201,1,52.5000020027161,2|2,0:0|0:0,0:0:0:0:
159,303,125904,2,0,L|120:341,1,52.5000020027161,2|2,0:0|0:0,0:0:0:0:
73,201,126077,6,0,L|35:163,1,52.5000020027161,2|2,0:0|0:0,0:0:0:0:
171,197,126249,2,0,L|206:235,1,52.5000020027161,2|2,0:0|0:0,0:0:0:0:
188,102,126422,2,0,L|150:64,1,52.5000020027161,2|2,0:0|0:0,0:0:0:0:
303,85,126594,6,0,L|338:48,1,52.5000020027161,2|2,0:0|0:0,0:0:0:0:
323,199,126767,2,0,L|287:238,1,52.5000020027161,2|2,0:0|0:0,0:0:0:0:
407,132,126940,6,0,B|479:174|471:257|471:257|489:207|529:195,1,210.000008010865,8|0,0:0|0:0,0:0:0:0:
438,356,127284,2,0,B|366:314|374:231|374:231|356:281|316:293,1,210.000008010865
284,209,127629,5,0,0:0:0:0:
269,76,127802,1,0,0:0:0:0:
174,281,127974,5,0,0:0:0:0:
203,95,128146,1,0,0:0:0:0:
274,314,128319,5,0,0:0:0:0:
259,133,128491,1,0,0:0:0:0:
186,361,128664,5,0,0:0:0:0:
209,155,128836,1,0,0:0:0:0:
421,264,129009,5,0,0:0:0:0:
435,230,129095,1,0,0:0:0:0:
437,193,129181,1,0,0:0:0:0:
429,157,129267,1,0,0:0:0:0:
409,120,129353,1,0,0:0:0:0:
378,81,129439,1,0,0:0:0:0:
330,57,129525,1,0,0:0:0:0:
277,47,129611,1,0,0:0:0:0:
221,59,129698,1,0,0:0:0:0:
166,84,129784,1,0,0:0:0:0:
119,135,129870,1,0,0:0:0:0:
107,208,129956,1,0,0:0:0:0:
124,282,130042,1,0,0:0:0:0:
175,344,130129,1,0,0:0:0:0:
254,364,130215,1,0,0:0:0:0:
340,343,130302,1,0,0:0:0:0:
411,286,130388,1,4,0:0:0:0:
288,209,132801,5,2,0:0:0:0:
355,145,133146,2,0,B|395:108|372:59|335:40|296:42|258:120|186:74|186:74|222:108|222:159|189:190,1,385,6|2,0:0|0:0,0:0:0:0:
137,135,135560,5,2,0:0:0:0:
98,207,135905,2,0,B|90:250|123:313|179:331|179:331|234:348|309:319|301:266|301:266|355:331|355:331|360:258|406:260,1,490,6|2,0:0|0:0,0:0:0:0:
468,224,138664,6,0,P|465:165|339:107,1,210,6|2,0:0|0:0,0:0:0:0:
371,199,140043,2,0,P|336:224|350:317,1,140,6|6,0:0|0:0,0:0:0:0:
249,331,141422,2,0,B|188:283|226:225|281:203|324:256|324:256|332:211|374:198|374:198|292:123|194:174|194:174|225:115|158:37|66:90|60:168|122:200,1,735.000028038026,6|0,0:0|0:0,0:0:0:0:
127,292,144181,2,0,B|174:280|207:295|207:295|240:286|240:286|285:298|285:298|286:234|374:192|440:268|407:331|407:331|440:296|491:306|491:306|493:214|423:181,1,616,6|2,0:0|0:0,0:0:0:0:
350,300,146595,1,2,0:0:0:0:
341,104,146940,6,0,P|344:69|324:22,1,70,6|0,0:0|0:0,0:0:0:0:
263,113,147284,2,0,P|249:80|210:47,1,70
200,159,147629,2,0,P|173:136|123:125,1,70
168,232,147974,2,0,P|133:228|85:247,1,70
204,302,148319,2,0,P|171:315|139:355,1,70
289,324,148664,2,0,P|267:351|258:402,1,70
370,313,149008,2,0,P|386:344|427:373,1,70
416,241,149353,2,0,P|447:257|498:257,1,70
324,75,149698,5,0,0:0:0:0:
291,54,149784,1,0,0:0:0:0:
252,52,149870,1,0,0:0:0:0:
217,70,149957,1,0,0:0:0:0:
196,106,150043,1,0,0:0:0:0:
198,147,150129,1,0,0:0:0:0:
222,181,150215,1,0,0:0:0:0:
259,200,150301,1,0,0:0:0:0:
304,205,150388,1,0,0:0:0:0:
347,218,150474,1,0,0:0:0:0:
378,250,150560,1,0,0:0:0:0:
383,295,150646,1,0,0:0:0:0:
359,338,150733,1,0,0:0:0:0:
311,350,150819,1,0,0:0:0:0:
267,327,150905,1,0,0:0:0:0:
247,282,150991,1,0,0:0:0:0:
251,234,151077,6,0,L|259:194,7,35
159,223,151422,2,0,L|119:215,7,35
181,129,151767,6,0,L|217:94,2,46.6666666666667
290,57,152026,1,0,0:0:0:0:
290,57,152112,1,0,0:0:0:0:
299,160,152284,1,0,0:0:0:0:
133,99,152457,6,0,B|186:91|274:142|239:367|167:369|91:280|111:136|199:282|337:258,1,490,6|0,0:0|0:0,0:0:0:0:
415,252,153146,6,0,L|435:238,24,13.125000500679
406,122,153836,6,0,B|352:105|310:142|310:142|249:193|72:122|365:36|173:230,1,350,6|0,0:0|0:0,0:0:0:0:
168,280,154354,2,0,B|215:318|274:295|274:295|361:222|171:213|284:372|400:258,1,350,6|0,0:0|0:0,0:0:0:0:
428,187,154870,2,0,B|470:142|464:87|422:63|422:63|380:41|328:61|314:114|314:114|302:156|260:177|222:162|222:162|186:148|172:100|196:57,1,490,6|0,0:0|0:0,0:0:0:0:
190,15,155560,6,0,P|159:16|130:39,1,70
244,127,155733,2,0,P|258:99|253:63,1,70
120,117,155905,2,0,P|136:143|170:156,1,70
190,15,156077,2,0,P|159:16|130:39,1,70
185,87,156249,1,0,0:0:0:0:
283,319,156595,6,0,B|344:326|381:274|381:274|414:166|250:262|431:333|466:175,1,350,6|0,0:0|0:0,0:0:0:0:
445,99,157112,2,0,B|401:63|348:82|348:82|273:106|135:-25|439:4|189:112,1,350,6|0,0:0|0:0,0:0:0:0:
164,159,157629,2,0,B|146:171|139:217|172:244|172:244|204:266|241:259|281:206|281:206|324:152|374:157|392:195|392:195|408:226|387:273|322:277,1,490,6|0,0:0|0:0,0:0:0:0:
253,305,158319,6,0,L|252:245,1,52.5000020027161,0|0,0:3|0:3,0:3:0:0:
203,149,158491,2,0,L|200:204,1,52.5000020027161,0|0,0:3|0:3,0:3:0:0:
168,384,158663,2,0,L|168:325,1,52.5000020027161,0|0,0:3|0:3,0:3:0:0:
129,221,158836,2,0,L|130:286,1,52.5000020027161,0|0,0:3|0:3,0:3:0:0:
62,332,159008,6,0,L|61:271,1,52.5,0|0,0:3|0:3,0:3:0:0:
101,141,159354,6,0,B|147:118|224:165|299:154|321:119|290:85|262:102|262:102|248:114|272:221,1,350,6|0,0:0|0:0,0:0:0:0:
291,274,159871,2,0,B|330:374|368:367|375:337|375:337|378:295|331:323|226:358|159:335,1,350,6|0,0:0|0:0,0:0:0:0:
107,323,160388,2,0,B|70:303|55:255|61:221|75:185|113:167|113:167|158:176|233:263|161:280|146:263|146:263|109:221|222:176|295:193,1,490,6|0,0:0|0:0,0:0:0:0:
371,187,161077,5,0,0:0:0:0:
235,190,161422,5,0,0:0:0:0:
287,72,161595,1,0,0:0:0:0:
314,326,161767,1,8,0:0:0:0:
287,72,162112,6,0,P|327:71|386:141,1,105,6|0,0:0|0:0,0:0:0:0:
390,245,162457,5,8,0:0:0:0:
376,109,162802,5,0,0:0:0:0:
295,174,162974,1,0,0:0:0:0:
506,132,163147,1,8,0:0:0:0:
136,90,163491,6,0,B|189:82|277:133|242:358|170:360|94:271|114:127|202:273|340:249,1,490,6|0,0:0|0:0,0:0:0:0:
435,209,164181,6,0,L|449:200,24,13.125000500679
389,118,164870,6,0,B|335:101|293:138|293:138|232:189|55:118|348:32|156:226,1,350,6|0,0:0|0:0,0:0:0:0:
176,285,165388,2,0,B|223:323|282:300|282:300|369:227|179:218|292:377|408:263,1,350,6|0,0:0|0:0,0:0:0:0:
454,194,165905,2,0,B|487:155|481:111|447:86|447:86|407:60|353:75|335:127|335:127|319:171|288:182|265:179|265:179|241:177|211:159|194:109|234:72,1,490,6|0,0:0|0:0,0:0:0:0:
293,44,166595,6,0,P|275:17|242:6,1,70
228,149,166767,2,0,P|259:145|286:120,1,70
170,39,166939,2,0,P|157:66|164:102,1,70
293,44,167112,2,0,P|275:17|242:6,1,70
229,77,167284,1,0,0:0:0:0:
278,302,167629,6,0,B|339:309|376:257|376:257|409:149|245:245|426:316|461:158,1,350,6|0,0:0|0:0,0:0:0:0:
440,82,168146,2,0,B|396:46|343:65|343:65|268:89|130:-42|434:-12|184:95,1,350,6|0,0:0|0:0,0:0:0:0:
159,142,168664,2,0,B|141:154|134:200|167:227|167:227|199:249|237:241|276:189|276:189|319:135|369:140|388:177|388:177|403:209|382:256|317:260,1,490,6|0,0:0|0:0,0:0:0:0:
248,289,169353,6,0,L|247:229,1,52.5000020027161,0|0,0:3|0:3,0:3:0:0:
198,133,169526,2,0,L|195:188,1,52.5000020027161,0|0,0:3|0:3,0:3:0:0:
163,368,169698,2,0,L|163:309,1,52.5000020027161,0|0,0:3|0:3,0:3:0:0:
124,205,169870,2,0,L|125:270,1,52.5000020027161,0|0,0:3|0:3,0:3:0:0:
57,316,170043,6,0,L|56:255,1,52.5,0|0,0:3|0:3,0:3:0:0:
96,124,170388,6,0,B|142:101|219:148|294:137|316:102|285:68|257:85|257:85|243:97|267:203,1,350,6|0,0:0|0:0,0:0:0:0:
286,259,170905,2,0,B|307:366|349:363|357:334|357:334|356:309|328:295|247:361|144:324,1,350,6|0,0:0|0:0,0:0:0:0:
86,303,171422,2,0,B|49:278|38:235|44:201|58:164|96:146|96:146|141:156|210:232|141:257|127:241|127:241|96:203|187:169|226:155|270:159|270:159|312:160|374:197|378:250,1,630,6|0,0:0|0:0,0:0:0:0:
363,217,172284,5,0,0:0:0:0:
373,235,172371,1,2,0:0:0:0:
377,260,172457,1,2,0:0:0:0:
371,286,172543,1,2,0:0:0:0:
357,308,172629,1,2,0:0:0:0:
334,320,172715,1,2,0:0:0:0:
309,325,172802,1,10,0:0:0:0:
283,318,172888,1,2,0:0:0:0:
263,301,172974,1,2,0:0:0:0:
251,278,173060,1,2,0:0:0:0:
243,261,173146,6,0,P|204:232|124:254,1,105
31,302,173491,5,8,0:0:0:0:
149,234,173836,1,0,0:0:0:0:
3,176,174008,1,0,0:0:0:0:
187,362,174181,1,8,0:0:0:0:
300,177,174526,5,0,0:0:0:0:
225,215,174871,1,0,0:0:0:0:
215,128,175215,5,0,0:0:0:0:
300,177,175560,1,0,0:0:0:0:
360,83,175905,5,0,0:0:0:0:
300,177,176250,1,0,0:0:0:0:
186,149,176595,5,0,0:0:0:0:
277,256,176940,1,0,0:0:0:0:
128,229,177284,5,0,0:0:0:0:
273,158,177629,1,0,0:0:0:0:
349,257,177974,5,0,0:0:0:0:
187,163,178319,1,0,0:0:0:0:
342,92,178664,5,0,0:0:0:0:
232,273,179009,1,0,0:0:0:0:
229,88,179353,5,0,0:0:0:0:
361,287,179698,1,0,0:0:0:0:
298,65,180043,5,8,0:0:0:0:
190,284,180216,1,0,0:0:0:0:
410,204,180388,5,8,0:0:0:0:
129,84,180560,1,0,0:0:0:0:
350,342,180732,5,8,0:0:0:0:
291,34,180905,1,0,0:0:0:0:
143,334,181077,5,8,0:0:0:0:
471,124,181250,1,0,0:0:0:0:
114,61,181422,5,8,0:0:0:0:
338,327,181595,1,0,0:0:0:0:
430,28,181767,5,8,0:0:0:0:
49,293,181940,1,0,0:0:0:0:
453,341,182112,5,8,0:0:0:0:
224,0,182284,1,0,0:0:0:0:
141,366,182457,5,8,0:0:0:0:
409,36,182629,1,0,0:0:0:0:
89,128,182802,5,8,0:0:0:0:
61,159,182888,1,0,0:0:0:0:
49,199,182974,1,0,0:0:0:0:
57,239,183060,1,0,0:0:0:0:
86,269,183146,1,8,0:0:0:0:
123,288,183233,1,0,0:0:0:0:
165,286,183320,1,0,0:0:0:0:
200,263,183406,1,0,0:0:0:0:
221,227,183491,6,0,P|210:194|217:158,1,70,8|0,0:0|0:0,0:0:0:0:
239,197,183577,2,0,P|240:165|265:130,1,70
282,179,183664,2,0,P|302:148|335:133,1,70
321,191,183750,2,0,P|345:179|396:203,1,70
341,231,183836,2,0,P|362:246|369:299,1,70,8|0,0:0|0:0,0:0:0:0:
322,268,183922,2,0,P|319:294|277:324,1,70
278,270,184008,2,0,P|247:289|202:280,1,70
253,230,184095,2,0,P|222:228|191:190,1,70
282,179,184182,5,8,0:0:0:0:
317,284,185043,6,0,P|374:262|388:233,1,70
243,170,185216,2,0,P|233:204|250:249,1,70
379,163,185388,2,0,P|331:124|299:127,1,70
119,160,185560,5,0,0:0:0:0:
112,182,185646,1,0,0:0:0:0:
111,206,185733,2,0,P|117:249|158:298,1,70
271,322,185905,2,0,P|306:320|344:286,1,70,8|0,0:0|0:0,0:0:0:0:
399,236,186077,1,0,0:0:0:0:
399,236,186164,2,0,P|409:203|368:149,1,70
305,173,186336,1,0,0:0:0:0:
305,173,186422,2,0,B|230:203,1,70
157,197,186595,5,8,0:0:0:0:
146,186,186681,1,0,0:0:0:0:
140,172,186767,1,0,0:0:0:0:
138,159,186853,2,0,P|142:123|176:89,1,70
355,55,187026,1,0,0:0:0:0:
355,55,187112,2,0,P|387:65|409:92,1,70
418,224,187284,5,8,0:0:0:0:
392,243,187371,1,0,0:0:0:0:
367,252,187456,2,0,P|325:261|278:241,1,70
290,176,187628,2,0,P|252:155|201:159,1,70
278,284,187801,2,0,P|233:287|197:260,1,70
165,167,187973,2,0,P|125:151|75:161,1,70,8|0,0:0|0:0,0:0:0:0:
149,297,188146,2,0,P|117:283|97:256,1,70
108,74,188319,5,0,0:0:0:0:
132,55,188405,1,0,0:0:0:0:
161,49,188491,2,0,P|204:53|239:80,1,70
336,164,188664,1,8,0:0:0:0:
355,186,188750,1,0,0:0:0:0:
360,215,188836,1,0,0:0:0:0:
351,240,188922,2,0,P|339:263|274:275,1,70
125,285,189095,1,0,0:0:0:0:
125,285,189181,2,0,L|172:225,1,70
238,108,189353,5,8,0:0:0:0:
271,81,189440,1,0,0:0:0:0:
314,76,189526,1,0,0:0:0:0:
356,90,189612,2,0,P|366:101|370:168,1,70
299,299,189784,1,0,0:0:0:0:
253,300,189870,1,0,0:0:0:0:
206,300,189957,1,0,0:0:0:0:
160,296,190043,6,0,P|147:264|163:219,1,70,8|0,0:0|0:0,0:0:0:0:
239,244,190215,2,0,P|256:218|252:167,1,70
122,206,190388,2,0,P|111:178|122:139,1,70
275,171,190560,2,0,P|283:133|274:103,1,70
151,56,190733,5,8,0:0:0:0:
151,56,190819,2,0,B|121:134|121:134|156:222,1,175
238,307,191077,5,0,0:0:0:0:
261,317,191164,1,0,0:0:0:0:
281,322,191250,2,0,P|306:320|355:293,1,70
436,206,191422,2,0,P|441:157|423:126,1,70,8|0,0:0|0:0,0:0:0:0:
366,83,191595,1,0,0:0:0:0:
366,83,191681,2,0,P|345:68|295:74,1,70
169,143,191853,1,0,0:0:0:0:
169,143,191939,2,0,P|164:180|189:213,1,70
302,306,192112,5,8,0:0:0:0:
319,316,192198,1,0,0:0:0:0:
337,320,192284,1,0,0:0:0:0:
352,317,192371,2,0,P|379:298|384:253,1,70
360,131,192543,1,0,0:0:0:0:
360,131,192629,2,0,P|341:101|304:89,1,70
172,70,192802,5,8,0:0:0:0:
140,88,192888,1,0,0:0:0:0:
115,120,192974,2,0,P|104:154|114:202,1,70
184,207,193146,2,0,P|193:210|237:256,1,70
191,351,193319,2,0,P|213:367|288:353,1,70
311,260,193491,2,0,P|331:252|386:248,1,70,8|0,0:0|0:0,0:0:0:0:
448,341,193664,2,0,P|483:318|507:262,1,70
488,147,193836,5,0,0:0:0:0:
484,124,193922,1,0,0:0:0:0:
474,105,194009,2,0,P|462:83|419:56,1,70
332,53,194181,6,0,B|183:88|183:88|135:262,1,315.000012016297,8|0,0:0|0:0,0:0:0:0:
216,330,194526,5,0,0:0:0:0:
234,339,194612,1,0,0:0:0:0:
254,345,194698,2,0,P|279:347|341:326,1,70,0|0,0:3|0:0,0:0:0:0:
417,268,194871,1,8,0:0:0:0:
430,247,194957,1,0,0:0:0:0:
434,227,195043,1,0,0:0:0:0:
431,208,195129,2,0,P|423:179|384:148,1,70
302,86,195302,2,0,P|258:83|211:121,1,70
158,175,195560,6,0,P|147:191|260:188,1,280
235,93,195819,5,0,0:0:0:0:
235,93,195905,2,0,P|232:78|334:108,1,210.000008010865
343,88,196250,6,0,P|359:75|346:167,1,262.5
273,162,196595,5,0,0:0:0:0:
262,137,196681,1,0,0:0:0:0:
235,121,196767,2,0,P|201:119|158:158,1,70
102,206,196940,1,8,0:0:0:0:
102,206,197026,2,0,P|96:241|147:285,1,70
196,315,197198,2,0,P|246:310|278:282,1,70
327,235,197371,1,0,0:0:0:0:
327,235,197457,2,0,P|346:209|327:154,1,70
215,85,197629,5,8,0:0:0:0:
161,98,197715,1,0,0:0:0:0:
128,140,197801,1,0,0:0:0:0:
120,192,197888,2,0,P|122:232|172:275,1,70
215,329,198060,1,0,0:0:0:0:
215,329,198146,2,0,P|251:342|297:327,1,70
410,319,198319,6,0,P|426:292|419:241,1,70,8|0,0:0|0:0,0:0:0:0:
313,271,198491,2,0,P|302:247|310:194,1,70
443,181,198664,2,0,P|448:154|426:113,1,70
297,162,198836,2,0,P|282:130|293:88,1,70
407,50,199009,2,0,P|387:20|346:6,1,70,8|0,0:0|0:0,0:0:0:0:
301,112,199181,2,0,P|281:117|229:83,1,70
140,46,199353,5,0,0:0:0:0:
106,47,199440,1,0,0:0:0:0:
77,69,199526,2,0,P|58:93|61:140,1,70
83,229,199698,1,8,0:0:0:0:
83,229,199784,2,0,P|92:250|150:274,1,70
210,312,199957,2,0,P|244:322|285:320,1,70
368,301,200129,1,0,0:0:0:0:
368,301,200215,2,0,P|389:288|402:246,1,70
431,149,200388,6,0,P|422:120|365:92,1,70,8|0,0:0|0:0,0:0:0:0:
313,199,200560,2,0,P|289:192|248:140,1,70
282,52,200733,1,0,0:0:0:0:
282,52,200819,2,0,P|251:47|204:65,1,70
127,155,201077,5,8,0:0:0:0:
109,186,201164,1,0,0:0:0:0:
103,222,201250,2,0,P|106:254|140:291,1,70
289,328,201422,1,0,0:0:0:0:
289,328,201509,2,0,P|312:333|412:258,1,140
443,198,201767,2,0,B|400:76|400:76|256:77,1,262.5,8|0,0:0|0:0,0:0:0:0:
144,165,202112,5,8,0:0:0:0:
409,218,202284,1,0,0:0:0:0:
168,101,202457,1,8,0:0:0:0:
377,276,202629,1,0,0:0:0:0:
232,63,202802,1,8,0:0:0:0:
308,300,202974,1,0,0:0:0:0:
297,66,203146,1,8,0:0:0:0:
214,300,203319,1,0,0:0:0:0:
363,104,203491,1,8,0:0:0:0:
158,244,203664,1,0,0:0:0:0:
402,163,203836,1,8,0:0:0:0:
122,173,204009,1,0,0:0:0:0:
381,240,204181,1,8,0:0:0:0:
166,105,204353,1,0,0:0:0:0:
320,305,204526,1,8,0:0:0:0:
230,54,204698,1,0,0:0:0:0:
308,54,204871,6,0,L|292:174,1,105.000004005432
230,54,205215,2,0,L|211:194,1,125.999996154785
152,54,205560,2,0,L|128:212,1,140
74,54,205905,2,0,L|47:225,1,154.000004699707
83,299,206250,5,2,0:0:0:0:
120,334,206336,1,2,0:0:0:0:
169,352,206422,1,2,0:0:0:0:
229,345,206508,1,2,0:0:0:0:
285,318,206595,1,2,0:0:0:0:
323,261,206681,1,2,0:0:0:0:
344,186,206767,1,2,0:0:0:0:
296,110,206853,1,2,0:0:0:0:
219,63,206940,6,0,B|131:58|118:14|147:4|199:142|137:232|137:232|234:211|262:305,1,420
388,325,207629,6,0,P|425:289|450:232,1,87.5
501,112,207801,2,0,P|464:148|439:205,1,87.5
374,323,207974,1,8,0:0:0:0:
374,323,208146,1,0,0:0:0:0:
327,69,208319,2,0,P|307:106|301:160,1,87.5
300,307,208491,1,0,0:0:0:0:
300,307,208664,1,8,0:0:0:0:
157,87,208836,2,0,P|154:124|166:177,1,87.5
227,316,209008,1,0,0:0:0:0:
227,316,209181,1,0,0:0:0:0:
0,188,209353,2,0,P|17:225|60:270,1,87.5,8|0,0:0|0:0,0:0:0:0:
169,357,209526,1,0,0:0:0:0:
143,248,209698,1,0,0:0:0:0:
249,348,209870,1,0,0:0:0:0:
292,199,210043,5,8,0:0:0:0:
292,199,210215,1,0,0:0:0:0:
373,304,210388,6,0,P|398:321|472:277,1,105
468,281,210732,5,8,0:0:0:0:
448,131,210905,1,0,0:0:0:0:
397,257,211077,1,0,0:0:0:0:
380,171,211250,1,0,0:0:0:0:
512,210,211422,1,8,0:0:0:0:
277,128,211594,1,0,0:0:0:0:
258,203,211767,6,0,P|249:222|250:256,1,52.5
189,291,212112,6,0,L|150:268,1,35,8|0,0:0|0:0,0:0:0:0:
308,306,212284,2,0,L|341:327,1,35
164,292,212457,2,0,L|130:273,1,35
331,307,212629,2,0,L|369:333,1,35
249,253,212801,6,0,B|221:199|163:198|163:198|218:168|213:98,1,210,8|0,0:0|0:0,0:0:0:0:
107,68,213146,6,0,P|85:114|82:177,1,87.5
77,327,213318,2,0,P|98:280|101:217,1,87.5
107,68,213491,1,8,0:0:0:0:
107,68,213663,1,0,0:0:0:0:
160,328,213836,2,0,P|189:285|203:224,1,87.5
235,72,214008,1,0,0:0:0:0:
235,72,214180,1,8,0:0:0:0:
249,333,214353,2,0,P|285:296|309:237,1,87.5
374,105,214525,1,0,0:0:0:0:
374,105,214698,1,0,0:0:0:0:
345,350,214870,2,0,P|387:320|420:267,1,87.5,8|0,0:0|0:0,0:0:0:0:
512,118,215042,1,0,0:0:0:0:
401,206,215215,1,0,0:0:0:0:
435,55,215387,1,0,0:0:0:0:
276,178,215560,5,8,0:0:0:0:
276,178,215733,1,0,0:0:0:0:
471,234,215905,5,0,0:0:0:0:
392,310,216077,2,0,L|350:261,1,52.5000020027161
276,178,216250,1,8,0:0:0:0:
315,334,216422,2,0,L|273:285,1,52.5000020027161
199,202,216595,1,0,0:0:0:0:
232,352,216767,2,0,L|190:303,1,52.5000020027161
116,220,216940,6,0,P|86:226|38:222,1,70,8|0,0:0|0:0,0:0:0:0:
146,158,217112,2,0,P|175:150|233:150,1,70
374,155,217284,1,0,0:0:0:0:
237,133,217456,1,0,0:0:0:0:
116,152,217629,6,0,P|84:179|80:289,1,140,8|0,0:0|0:0,0:0:0:0:
147,330,217888,1,0,0:0:0:0:
147,330,217974,6,0,P|188:315|225:254,1,105.000004005432
228,242,218232,1,0,0:0:0:0:
224,217,218319,6,0,P|216:199|301:152,1,140,8|0,0:0|0:0,0:0:0:0:
371,213,218664,5,0,0:0:0:0:
287,297,218836,1,0,0:0:0:0:
222,305,218922,1,0,0:0:0:0:
161,288,219009,1,0,0:0:0:0:
107,254,219095,1,0,0:0:0:0:
80,197,219181,2,0,P|75:163|91:118,1,70
134,1,219353,6,0,P|97:37|72:94,1,87.5
21,214,219526,1,0,0:0:0:0:
21,214,219698,1,8,0:0:0:0:
167,76,219870,2,0,P|144:122|140:184,1,87.5
133,314,220042,1,0,0:0:0:0:
133,314,220214,1,0,0:0:0:0:
222,144,220387,2,0,P|216:188|223:231,1,87.5,8|0,0:0|0:0,0:0:0:0:
273,380,220559,1,0,0:0:0:0:
273,380,220732,1,0,0:0:0:0:
299,193,220905,2,0,P|308:235|329:273,1,87.5
443,384,221077,1,8,0:0:0:0:
241,354,221250,1,0,0:0:0:0:
110,256,221422,6,0,P|90:228|94:156,1,105
103,133,221767,1,8,0:0:0:0:
219,208,221939,1,0,0:0:0:0:
189,42,222112,1,0,0:0:0:0:
256,192,222284,1,0,0:0:0:0:
325,34,222456,1,8,0:0:0:0:
293,196,222629,1,0,0:0:0:0:
393,71,222801,6,0,P|400:89|372:177,1,105
353,246,223146,2,0,L|365:285,1,35,8|0,0:0|0:0,0:0:0:0:
277,138,223319,2,0,L|261:99,1,35
266,247,223491,2,0,L|274:285,1,35
202,212,223663,2,0,L|187:174,1,35
113,270,223836,6,0,B|70:246|35:160|81:91|81:91|68:141|126:170,1,262.5,8|0,0:0|0:0,0:0:0:0:
171,69,224181,5,8,0:0:0:0:
239,302,224353,1,0,0:0:0:0:
239,302,224526,1,0,0:0:0:0:
229,59,224698,5,8,0:0:0:0:
162,306,224871,1,0,0:0:0:0:
162,306,225043,1,0,0:0:0:0:
295,57,225215,5,8,0:0:0:0:
330,302,225388,1,0,0:0:0:0:
348,43,225560,5,8,0:0:0:0:
442,294,225733,1,0,0:0:0:0:
442,294,225905,1,0,0:0:0:0:
404,39,226077,5,8,0:0:0:0:
357,309,226250,1,0,0:0:0:0:
357,309,226422,1,0,0:0:0:0:
249,95,226595,5,8,0:0:0:0:
220,130,226681,1,8,0:0:0:0:
199,163,226767,1,0,0:0:0:0:
178,195,226853,2,0,L|126:266,1,87.5
274,187,227112,5,0,0:0:0:0:
223,222,227198,1,0,0:0:0:0:
166,262,227284,1,0,0:0:0:0:
277,251,227457,5,0,0:0:0:0:
232,266,227543,1,0,0:0:0:0:
179,278,227629,1,0,0:0:0:0:
263,317,227802,5,0,0:0:0:0:
227,312,227888,1,0,0:0:0:0:
184,304,227974,1,0,0:0:0:0:
216,361,228146,5,0,0:0:0:0:
182,344,228233,1,0,0:0:0:0:
153,320,228319,1,0,0:0:0:0:
136,287,228405,1,0,0:0:0:0:
134,250,228491,1,0,0:0:0:0:
145,215,228577,1,0,0:0:0:0:
172,189,228664,1,0,0:0:0:0:
206,177,228750,1,0,0:0:0:0:
241,184,228836,1,0,0:0:0:0:
272,202,228922,1,0,0:0:0:0:
293,223,229009,6,0,P|321:286|174:343,1,269.500008224488,8|0,0:0|0:0,0:0:0:0:
86,337,229698,6,0,B|98:268|174:253|174:253|71:224|58:125|126:56|203:101|203:101|161:135|162:181,1,490
334,78,230388,6,0,L|393:77,1,52.5000020027161,2|2,0:0|0:0,0:0:0:0:
218,158,230560,2,0,L|166:159,1,52.5000020027161,2|2,0:0|0:0,0:0:0:0:
359,214,230732,2,0,L|412:214,1,52.5000020027161,2|2,0:0|0:0,0:0:0:0:
245,316,230905,6,0,L|244:369,1,52.5000020027161,2|2,0:0|0:0,0:0:0:0:
164,211,231077,2,0,L|165:159,1,52.5000020027161,2|2,0:0|0:0,0:0:0:0:
98,314,231250,2,0,L|97:367,1,52.5000020027161,2|2,0:0|0:0,0:0:0:0:
83,192,231422,6,0,L|31:193,1,52.5000020027161,2|2,0:0|0:0,0:0:0:0:
240,143,231594,2,0,L|293:143,1,52.5000020027161,2|2,0:0|0:0,0:0:0:0:
70,95,231767,6,0,B|100:52|154:58|171:101|171:101|249:19|350:75|340:217|233:198|233:198|254:131|219:123,1,490,8|0,0:0|0:0,0:0:0:0:
117,188,232457,6,0,L|76:192,1,35
277,207,233146,6,0,P|335:219|412:293,1,157.500006008148,8|0,0:0|0:0,0:0:0:0:
406,283,233491,1,0,0:0:0:0:
237,320,233663,1,0,0:0:0:0:
352,324,233836,6,0,P|381:346|444:227,1,210.000008010865
374,163,234353,5,0,0:0:0:0:
299,123,234439,1,0,0:0:0:0:
221,84,234525,1,8,0:0:0:0:
461,107,234698,5,0,0:0:0:0:
156,159,234870,1,8,0:0:0:0:
408,42,235043,1,0,0:0:0:0:
232,339,235215,6,0,B|258:292|211:243|145:274|157:329|157:329|130:239|34:235|34:235|136:228|155:157,1,490
273,50,235905,6,0,L|314:7,1,52.5000020027161,2|2,0:0|0:0,0:0:0:0:
269,162,236077,2,0,L|233:199,1,52.5000020027161,2|2,0:0|0:0,0:0:0:0:
401,133,236249,2,0,L|438:95,1,52.5000020027161,2|2,0:0|0:0,0:0:0:0:
430,258,236422,6,0,L|467:295,1,52.5000020027161,2|2,0:0|0:0,0:0:0:0:
305,200,236594,2,0,L|269:162,1,52.5000020027161,2|2,0:0|0:0,0:0:0:0:
309,313,236767,2,0,L|346:350,1,52.5000020027161,2|2,0:0|0:0,0:0:0:0:
151,303,236939,6,0,L|115:340,1,52.5000020027161,2|2,0:0|0:0,0:0:0:0:
131,205,237111,2,0,L|168:167,1,52.5000020027161,2|2,0:0|0:0,0:0:0:0:
26,240,237284,6,0,B|65:177|-20:99|23:54|23:54|77:124|161:145|254:50|169:-68|64:-16|110:66,1,490,8|0,0:0|0:0,0:0:0:0:
299,63,237974,6,0,L|325:77,1,26.25
330,79,238319,1,0,0:0:0:0:
96,219,238663,5,8,0:0:0:0:
257,288,239009,6,0,P|259:303|338:233,1,210
360,245,239353,5,8,0:0:0:0:
271,57,239525,1,0,0:0:0:0:
261,37,239698,1,0,0:0:0:0:
269,235,239870,5,8,0:0:0:0:
441,72,240043,1,0,0:0:0:0:
454,61,240215,1,0,0:0:0:0:
211,98,240388,5,8,0:0:0:0:
149,129,240474,1,0,0:0:0:0:
120,191,240560,1,0,0:0:0:0:
136,258,240646,1,0,0:0:0:0:
195,298,240733,6,0,B|265:320|345:270|338:194|338:194|304:250|236:229,1,293.999991027832
206,70,241422,6,0,L|165:27,1,52.5000020027161,2|2,0:0|0:0,0:0:0:0:
232,197,241594,2,0,L|268:234,1,52.5000020027161,2|2,0:0|0:0,0:0:0:0:
85,142,241766,2,0,L|48:104,1,52.5000020027161,2|2,0:0|0:0,0:0:0:0:
120,254,241939,6,0,L|82:291,1,52.5000020027161,2|2,0:0|0:0,0:0:0:0:
232,197,242111,2,0,L|268:158,1,52.5000020027161,2|2,0:0|0:0,0:0:0:0:
257,329,242284,2,0,L|224:369,1,52.5000020027161,2|2,0:0|0:0,0:0:0:0:
373,283,242456,6,0,L|408:320,1,52.5000020027161,2|2,0:0|0:0,0:0:0:0:
377,151,242628,2,0,L|340:113,1,52.5000020027161,2|2,0:0|0:0,0:0:0:0:
155,92,242802,5,8,0:0:0:0:
150,197,242974,2,0,B|190:221|188:270|188:270|209:226|257:219,1,175
255,219,243232,2,0,B|297:211|335:247|335:247|317:202|336:163,1,175
336,162,243491,6,0,B|319:165|311:166|311:166|309:159|323:148|331:143|331:143|328:137|306:141|296:139|296:139|296:132|330:123|335:117|335:117|330:113|299:109|290:106|290:106|294:98|326:98|335:94|335:94|332:88|306:80|301:71|301:71|311:67,1,262.5
310,58,243836,2,0,P|326:43|462:80,1,157.500006008148
459,73,244181,6,0,P|475:78|417:120,1,175
410,130,244353,2,0,P|424:140|355:160,1,175
348,161,244525,2,0,P|352:177|285:151,1,175
281,143,244698,2,0,P|273:160|240:96,1,175
251,94,244870,6,0,B|293:34|397:55|410:127|410:127|445:95|487:108|487:108|454:120|444:175,1,350
394,235,245388,5,0,0:0:0:0:
335,307,245474,1,0,0:0:0:0:
267,382,245560,1,8,0:0:0:0:
458,276,245732,5,0,0:0:0:0:
180,361,245905,1,8,0:0:0:0:
492,203,246077,1,0,0:0:0:0:
108,307,246250,6,0,B|59:288|52:234|89:206|89:206|-8:150|21:39|161:14|168:123|168:123|98:119|99:155,1,490
416,82,246940,6,0,L|475:80,1,52.5000020027161,2|2,0:0|0:0,0:0:0:0:
298,171,247112,2,0,L|246:171,1,52.5000020027161,2|2,0:0|0:0,0:0:0:0:
447,227,247284,2,0,L|500:226,1,52.5000020027161,2|2,0:0|0:0,0:0:0:0:
455,332,247457,6,0,L|454:384,1,52.5000020027161,2|2,0:0|0:0,0:0:0:0:
373,209,247629,2,0,L|374:156,1,52.5000020027161,2|2,0:0|0:0,0:0:0:0:
282,326,247802,2,0,L|281:378,1,52.5000020027161,2|2,0:0|0:0,0:0:0:0:
153,275,247974,6,0,L|101:275,1,52.5000020027161,2|2,0:0|0:0,0:0:0:0:
246,171,248146,2,0,L|298:171,1,52.5000020027161,2|2,0:0|0:0,0:0:0:0:
142,159,248319,6,0,B|166:79|249:68|249:68|196:62|175:25,1,210.000008010865,8|0,0:0|0:0,0:0:0:0:
396,178,248663,2,0,B|371:257|288:268|288:268|341:274|362:311,1,210.000008010865
144,313,249009,5,0,0:0:0:0:
350,89,249181,1,0,0:0:0:0:
130,99,249353,5,0,0:0:0:0:
285,299,249526,1,0,0:0:0:0:
248,51,249698,5,0,0:0:0:0:
119,281,249871,1,0,0:0:0:0:
370,215,250043,5,0,0:0:0:0:
117,130,250215,1,0,0:0:0:0:
319,313,250388,5,0,0:0:0:0:
299,330,250474,1,0,0:0:0:0:
276,343,250560,1,0,0:0:0:0:
251,349,250646,1,0,0:0:0:0:
225,349,250732,1,0,0:0:0:0:
199,343,250819,1,0,0:0:0:0:
176,330,250905,1,0,0:0:0:0:
153,308,250991,1,0,0:0:0:0:
140,284,251077,6,0,P|105:267|87:213,1,70
130,248,251164,2,0,P|94:224|91:177,1,70
129,211,251250,2,0,P|100:177|101:140,1,70
143,157,251336,2,0,P|130:121|148:82,1,70
180,104,251422,2,0,P|184:69|218:32,1,70
230,81,251509,2,0,P|246:47|284:34,1,70
293,73,251595,2,0,P|318:52|360:46,1,70
358,93,251681,2,0,P|377:65|416:57,1,70
408,140,251767,6,0,P|434:193|405:248,1,105.000004005432
265,315,252112,1,8,0:0:0:0:
138,278,252284,5,0,0:0:0:0:
103,239,252370,1,0,0:0:0:0:
96,188,252456,1,0,0:0:0:0:
119,141,252542,1,0,0:0:0:0:
164,116,252628,1,0,0:0:0:0:
350,92,252802,1,8,0:0:0:0:
311,300,253146,6,0,P|236:308|184:258,1,105.000004005432
111,219,253491,1,8,0:0:0:0:
236,199,253663,2,0,L|239:260,1,52.5000020027161
140,109,253836,2,0,L|138:52,1,52.5000020027161
255,84,254008,1,0,0:0:0:0:
443,83,254181,1,8,0:0:0:0:
431,243,254526,6,0,P|396:292|327:294,1,105.000004005432
184,298,254871,1,8,0:0:0:0:
129,173,255043,5,0,0:0:0:0:
129,121,255129,1,0,0:0:0:0:
158,78,255215,1,0,0:0:0:0:
206,58,255301,1,0,0:0:0:0:
257,67,255387,1,0,0:0:0:0:
388,134,255560,1,8,0:0:0:0:
209,314,255905,6,0,P|155:280|135:206,1,105.000004005432
120,90,256250,1,8,0:0:0:0:
224,230,256422,1,0,0:0:0:0:
224,230,256508,1,0,0:0:0:0:
294,69,256681,1,0,0:0:0:0:
294,69,256767,1,0,0:0:0:0:
120,90,256940,1,8,0:0:0:0:
294,69,257112,1,0,0:0:0:0:
119,227,257284,6,0,P|128:273|186:305,1,105.000004005432
322,305,257629,1,8,0:0:0:0:
433,225,257802,5,0,0:0:0:0:
445,174,257888,1,0,0:0:0:0:
432,124,257974,1,0,0:0:0:0:
397,86,258060,1,0,0:0:0:0:
348,70,258146,1,0,0:0:0:0:
193,75,258319,1,8,0:0:0:0:
315,304,258836,5,0,0:0:0:0:
371,86,259009,1,8,0:0:0:0:
198,296,259526,5,0,0:0:0:0:
161,80,259698,2,0,L|103:78,1,52.5000020027161,8|0,0:0|0:0,0:0:0:0:
205,176,259871,2,0,L|269:180,1,52.5000020027161
132,330,260043,5,0,0:0:0:0:
188,65,260215,1,0,0:0:0:0:
244,330,260388,2,0,P|314:346|352:307,1,105.000004005432,8|0,0:0|0:0,0:0:0:0:
345,60,260905,5,0,0:0:0:0:
401,325,261077,1,8,0:0:0:0:
235,46,261595,5,0,0:0:0:0:
221,320,261767,2,0,P|172:323|133:264,1,105.000004005432,8|0,0:0|0:0,0:0:0:0:
103,182,262112,6,0,P|98:148|119:122,1,52.5000020027161
263,159,262284,2,0,P|258:199|225:208,1,52.5000020027161
219,63,262457,2,0,P|250:50|336:61,1,105.000004005432,8|0,0:0|0:0,0:0:0:0:
421,140,262715,1,0,0:0:0:0:
421,140,262802,6,0,P|429:197|388:240,1,105.000004005432
248,306,263146,1,8,0:0:0:0:
117,284,263319,5,0,0:0:0:0:
78,248,263405,1,0,0:0:0:0:
64,199,263491,1,0,0:0:0:0:
77,149,263577,1,0,0:0:0:0:
115,113,263663,1,0,0:0:0:0:
256,44,263836,1,8,0:0:0:0:
234,221,264181,5,0,0:0:0:0:
279,318,264354,1,0,0:0:0:0:
316,103,264526,1,8,0:0:0:0:
325,112,264698,1,0,0:0:0:0:
185,277,265043,5,0,0:0:0:0:
148,248,265129,1,0,0:0:0:0:
139,211,265215,2,0,P|145:159|176:135,1,70,8|0,0:0|0:0,0:0:0:0:
385,105,265560,6,0,P|417:130|425:177,1,70
423,266,265905,1,8,0:0:0:0:
292,273,266077,2,0,L|234:271,1,52.5000020027161
339,189,266250,2,0,L|401:193,1,52.5000020027161
220,191,266422,1,0,0:0:0:0:
310,115,266595,1,8,0:0:0:0:
156,99,266939,6,0,P|122:140|121:178,1,70
128,288,267284,1,8,0:0:0:0:
268,290,267457,1,0,0:0:0:0:
268,290,267543,1,0,0:0:0:0:
199,167,267715,1,0,0:0:0:0:
199,167,267801,1,0,0:0:0:0:
128,288,267974,1,8,0:0:0:0:
199,167,268146,1,0,0:0:0:0:
143,106,268319,6,0,P|179:86|232:95,1,70
326,83,268664,1,8,0:0:0:0:
418,131,268836,5,0,0:0:0:0:
447,157,268922,1,0,0:0:0:0:
455,196,269008,1,0,0:0:0:0:
438,232,269094,1,0,0:0:0:0:
402,251,269180,1,0,0:0:0:0:
289,276,269353,1,8,0:0:0:0:
177,312,269698,5,0,0:0:0:0:
186,297,269870,1,0,0:0:0:0:
215,143,270043,1,8,0:0:0:0:
224,128,270215,1,0,0:0:0:0:
325,306,270560,5,0,0:0:0:0:
288,159,270733,1,8,0:0:0:0:
187,254,271077,6,0,P|192:289|234:316,1,70
334,317,271422,1,8,0:0:0:0:
351,305,271940,5,0,0:0:0:0:
332,158,272112,1,8,0:0:0:0:
204,292,272457,5,0,0:0:0:0:
182,224,272629,1,0,0:0:0:0:
205,160,272801,2,0,P|221:142|254:129,1,52.5000020027161
385,166,273319,5,0,0:0:0:0:
388,203,273405,1,0,0:0:0:0:
383,235,273491,2,0,P|365:271|349:285,1,52.5000020027161
250,289,273825,6,0,B|218:287|198:264|198:264|156:210|231:170|219:125|213:113|213:113|239:122|265:132|265:132|266:169|286:209|351:209|390:182|396:135|374:106,1,490,6|0,0:0|0:0,0:0:0:0:
255,48,276583,2,0,B|163:65|163:65|228:98|226:136|210:162|195:194|195:194|178:231|181:269|216:287|262:291,1,385,2|0,0:0|0:0,0:0:0:0:
430,223,278998,1,0,0:0:0:0:
430,124,279342,6,0,B|427:83|396:54|361:42|329:55|272:88|249:149|307:163|366:186|366:254|356:294|351:323|317:331|289:325|268:304|270:273|291:259|291:259|273:233,1,490,2|0,0:0|0:0,0:0:0:0:
222,136,282101,2,0,P|201:108|109:200,1,210,2|0,0:0|0:0,0:0:0:0:
206,273,283480,2,0,B|234:288|252:328|252:328|276:287|308:273,1,140,2|2,0:0|0:0,0:0:0:0:
395,247,284859,6,0,B|384:182|476:172|476:172|391:149|372:130|372:130|393:66|326:27|271:48|247:99|263:147|303:160|316:163,1,490,2|0,0:0|0:0,0:0:0:0:
163,245,287617,6,0,B|156:339|218:297|218:297|259:273|323:312,1,210
422,253,288997,2,0,P|437:223|415:153,1,105
355,94,289686,2,0,P|321:76|255:99,1,105
196,160,290376,2,0,B|150:292|266:356|280:285|309:240|373:296|373:296|424:345|499:308|483:227,1,490
465,81,293135,2,0,B|451:-5|383:15|384:28|384:28|365:64|321:62|325:27|351:26,1,210
222,198,294514,6,0,B|224:159|243:141|303:127|309:48|246:20|168:24|155:106|192:134|224:141|224:141|288:187|352:226|352:226|389:246|445:233|463:185|504:107|355:43|238:64|326:195|330:264|298:302|268:318|221:324|184:314|156:303|156:303|177:258|177:258|112:228|112:228|147:214|188:201|125:148|79:144|46:163|27:214|26:255|63:285|86:294,1,1372.00001674805,6|0,0:0|0:0,0:0:0:0:
