osu file format v14

[General]
AudioFilename: crystallized.mp3
AudioLeadIn: 0
PreviewTime: 185041
Countdown: 0
SampleSet: Soft
StackLeniency: 0.5
Mode: 0
LetterboxInBreaks: 0
WidescreenStoryboard: 1

[Editor]
Bookmarks: 4869,53145,75214,80731,86249,108317,109006,114524,120041,125558,130386,152455,169006,185558,196593,207627,218662,229006,240731,251765,261420,273403,306506
DistanceSpacing: 1.1
BeatDivisor: 4
GridSize: 16
TimelineZoom: 3.700005

[Metadata]
Title:crystallized
TitleUnicode:crystallized
Artist:Camellia
ArtistUnicode:かめりあ
Creator:Rolniczy
Version:Infinity
Source:
Tags:marathon C89 Comiket 89 CTCD-012 KamelCamellia cametek
BeatmapID:1598696
BeatmapSetID:747778

[Difficulty]
HPDrainRate:5
CircleSize:3.8
OverallDifficulty:9
ApproachRate:9.5
SliderMultiplier:2.2
SliderTickRate:1

[Events]
//Background and Video events
0,0,"wallhaven-372655.jpg",0,0
//Break Periods
//Storyboard Layer 0 (Background)
//Storyboard Layer 1 (Fail)
//Storyboard Layer 2 (Pass)
//Storyboard Layer 3 (Foreground)
//Storyboard Sound Samples

[TimingPoints]
3489.7,344.827586206897,4,2,1,10,1,0
6248,-100,4,2,1,10,0,0
7282,-100,4,2,1,13,0,0
7972,-100,4,2,1,18,0,0
8662,-100,4,2,11,5,0,0
9006,-500,4,2,2,18,0,0
20041,-400,4,2,1,25,0,0
25558,-370.37037037037,4,2,1,25,0,0
28317,-333.333333333333,4,2,1,30,0,0
29696,-250,4,2,1,35,0,0
31075,-153.846153846154,4,2,1,40,0,1
31248,-153.846153846154,4,2,1,40,0,0
32110,-142.857142857143,4,2,1,40,0,0
42110,-138.888888888889,4,2,1,40,0,0
49006,-138.888888888889,4,2,1,35,0,0
51075,-138.888888888889,4,2,1,45,0,0
51765,-138.888888888889,4,2,1,35,0,0
53144,-125,4,1,1,65,0,1
53748,-125,4,2,1,5,0,0
53834,-166.666666666667,4,2,1,65,0,0
54437,-166.666666666667,4,2,1,5,0,0
54524,-117.647058823529,4,1,1,65,0,1
54955,-117.647058823529,4,2,1,5,0,0
55041,-111.111111111111,4,1,1,65,0,1
55472,-111.111111111111,4,2,1,5,0,0
55558,-153.846153846154,4,1,1,65,0,1
56162,-153.846153846154,4,2,1,5,0,0
56248,-105.263157894737,4,2,1,40,0,0
56593,-125,4,2,1,40,0,0
57282,-111.111111111111,4,1,1,65,0,1
57713,-111.111111111111,4,2,1,5,0,0
57800,-111.111111111111,4,1,1,65,0,1
58231,-142.857142857143,4,2,1,5,0,0
58317,-158.730158730159,4,1,1,65,0,1
58920,-166.666666666667,4,2,1,5,0,0
59006,-166.666666666667,4,2,1,50,0,0
59696,-166.666666666667,4,2,1,60,0,0
60041,-100,4,1,1,65,0,1
60472,-100,4,2,1,5,0,0
60558,-100,4,1,1,65,0,1
60989,-100,4,2,1,5,0,0
61075,-138.888888888889,4,1,1,65,0,1
61679,-138.888888888889,4,2,1,5,0,0
61765,-121.951219512195,4,1,1,55,0,0
62800,-125,4,1,1,65,0,0
63058,-125,4,2,1,5,0,0
63142,-111.111111111111,4,1,1,65,0,0
64179,-125,4,1,1,65,0,1
64782,-125,4,2,1,5,0,0
64869,-125,4,1,1,65,0,0
65558,-90.9090909090908,4,1,1,65,0,1
65989,-90.9090909090908,4,2,1,5,0,0
66075,-90.9090909090909,4,1,1,65,0,1
66506,-90.9090909090909,4,2,1,5,0,0
66593,-142.857142857143,4,1,1,65,0,1
67196,-142.857142857143,4,2,1,5,0,0
67282,-158.730158730159,4,1,1,55,0,0
68317,-90.9090909090909,4,1,1,65,0,1
68748,-90.9090909090909,4,2,1,5,0,0
68834,-100,4,1,1,65,0,1
69265,-100,4,2,1,5,0,0
69351,-125,4,1,1,65,0,1
69955,-125,4,2,1,5,0,0
70041,-166.666666666667,4,1,1,55,0,0
70300,-166.666666666667,4,2,1,5,0,0
70386,-100,4,1,1,35,0,0
70558,-100,4,1,1,5,0,0
70644,-125,4,1,1,35,0,0
71075,-111.111111111111,4,1,1,65,0,1
71506,-142.857142857143,4,2,1,5,0,0
71593,-90.909090909091,4,1,1,65,0,1
72024,-142.857142857143,4,2,1,5,0,0
72110,-142.857142857143,4,1,1,65,0,0
73144,-142.857142857143,4,2,1,57,0,0
75213,-142.857142857143,4,2,1,50,0,0
75903,-166.666666666667,4,2,1,50,0,0
76593,-200,4,2,1,50,0,0
77282,-250,4,2,1,50,0,0
77972,-333.333333333333,4,2,1,50,0,0
78662,-250,4,2,1,50,0,0
79351,-200,4,2,1,50,0,0
80041,-166.666666666667,4,2,1,50,0,0
80731,-250,4,1,1,55,0,0
84179,-250,4,2,1,40,0,0
84869,-166.666666666667,4,2,1,65,0,0
86248,-71.4285714285714,4,1,1,85,0,1
86593,-133.333333333333,4,1,1,85,0,1
86765,-83.3333333333333,4,1,1,85,0,1
87110,-133.333333333333,4,1,1,85,0,1
88662,-100,4,1,1,85,0,1
90386,-111.111111111111,4,1,1,85,0,1
91420,-90.909090909091,4,1,1,85,0,1
91765,-100,4,1,1,85,0,1
94869,-76.9230769230769,4,1,1,85,0,1
95127,-76.9230769230769,4,2,1,5,0,1
95213,-55.5555555555556,4,1,1,85,0,1
95300,-55.5555555555556,4,2,1,5,0,1
95386,-55.5555555555556,4,1,1,85,0,1
95472,-55.5555555555556,4,2,1,5,0,1
95558,-71.4285714285714,4,1,1,85,0,1
97282,-83.3333333333333,4,1,1,85,0,1
102455,-90.9090909090909,4,1,1,85,0,1
102800,-83.3333333333333,4,1,1,85,0,0
103144,-83.3333333333333,4,1,1,85,0,1
104869,-76.9230769230769,4,1,1,85,0,1
105127,-76.9230769230769,4,2,1,5,0,1
105213,-76.9230769230769,4,1,1,85,0,1
106162,-76.9230769230769,4,2,1,5,0,1
106248,-58.8235294117647,4,1,1,85,0,1
106334,-58.8235294117647,4,2,1,5,0,1
106420,-58.8235294117647,4,1,1,85,0,1
106506,-58.8235294117647,4,2,1,5,0,1
106593,-62.5,4,1,1,85,0,1
107627,-133.333333333333,4,2,1,85,0,0
108317,-111.111111111111,4,1,1,85,0,0
108920,-111.111111111111,4,2,1,5,0,0
109006,-111.111111111111,4,1,1,85,0,1
109437,-111.111111111111,4,1,1,85,0,0
109524,-111.111111111111,4,1,1,85,0,1
109955,-111.111111111111,4,1,1,85,0,0
110041,-111.111111111111,4,1,1,85,0,1
110386,-111.111111111111,4,1,1,85,0,0
110558,-83.3333333333333,4,1,1,85,0,0
111075,-500,4,1,1,53,0,0
111420,-500,4,1,1,23,0,0
111765,-500,4,1,1,85,0,0
112024,-500,4,2,1,5,0,0
112110,-58.8235294117647,4,1,1,85,0,1
112369,-500,4,2,1,5,0,0
112455,-76.9230769230769,4,1,1,85,0,0
112541,-76.9230769230769,4,1,1,45,0,0
112627,-76.9230769230769,4,1,1,85,0,0
113834,-111.111111111111,4,1,1,85,0,0
114437,-111.111111111111,4,2,1,5,0,0
114524,-100,4,1,1,85,0,1
114955,-100,4,1,1,85,0,0
115041,-100,4,1,1,85,0,1
115472,-100,4,1,1,85,0,0
115558,-100,4,1,1,85,0,1
115817,-100,4,1,1,85,0,0
115903,-83.3333333333333,4,1,1,85,0,1
116506,-83.3333333333333,4,2,1,5,0,1
116593,-166.666666666667,4,1,1,85,0,0
119351,-200,4,1,1,85,0,0
119869,-166.666666666667,4,2,1,35,0,0
120041,-90.909090909091,4,1,1,85,0,1
120472,-90.909090909091,4,1,1,85,0,0
120558,-90.909090909091,4,1,1,85,0,1
120989,-90.909090909091,4,1,1,85,0,0
121075,-90.909090909091,4,1,1,85,0,1
121593,-500,4,1,1,85,0,0
121765,-500,4,2,1,5,0,0
121851,-500,4,1,1,85,0,0
122024,-500,4,2,1,5,0,0
122110,-125,4,1,1,53,0,0
122455,-83.3333333333333,4,1,1,85,0,0
122800,-83.3333333333333,4,1,1,85,0,1
123489,-83.3333333333333,4,1,1,85,0,0
123748,-83.3333333333333,4,2,1,23,0,0
123834,-66.6666666666667,4,1,1,85,0,0
124179,-66.6666666666667,4,1,1,85,0,0
124869,-100,4,1,1,85,0,0
125472,-100,4,1,1,85,0,0
125558,-100,4,1,1,85,0,1
125989,-100,4,1,1,85,0,0
126075,-100,4,1,1,85,0,1
126593,-100,4,1,1,85,0,0
126937,-111.111111111111,4,1,1,85,0,1
127455,-100,4,1,1,43,0,0
127627,-100,4,1,1,63,0,0
129006,-142.857142857143,4,1,1,63,0,0
129696,-142.857142857143,4,1,1,53,0,0
131765,-142.857142857143,4,2,1,43,0,0
133144,-142.857142857143,4,2,1,35,0,0
135903,-370.37037037037,4,2,1,35,0,0
141420,-370.37037037037,4,2,1,35,0,0
146937,-166.666666666667,4,2,1,33,0,0
148317,-142.857142857143,4,2,1,53,0,0
149696,-142.857142857143,4,2,1,63,0,0
152455,-125,4,1,1,65,0,1
153058,-125,4,2,1,5,0,0
153144,-166.666666666667,4,2,1,65,0,0
153748,-166.666666666667,4,2,1,5,0,0
153834,-117.647058823529,4,1,1,65,0,1
154265,-117.647058823529,4,2,1,5,0,0
154351,-111.111111111111,4,1,1,65,0,1
154782,-111.111111111111,4,2,1,5,0,0
154869,-153.846153846154,4,1,1,65,0,1
155472,-153.846153846154,4,2,1,5,0,0
155558,-105.263157894737,4,2,1,40,0,0
155903,-125,4,2,1,40,0,0
156593,-111.111111111111,4,1,1,65,0,1
157024,-111.111111111111,4,2,1,5,0,0
157110,-142.857142857143,4,1,1,65,0,1
157541,-142.857142857143,4,2,1,5,0,0
157627,-166.666666666667,4,1,1,65,0,1
158231,-166.666666666667,4,2,1,5,0,0
158317,-166.666666666667,4,2,1,50,0,0
159006,-166.666666666667,4,2,1,60,0,0
159351,-100,4,1,1,65,0,1
159782,-100,4,2,1,5,0,0
159869,-100,4,1,1,65,0,1
160300,-100,4,2,1,5,0,0
160386,-138.888888888889,4,1,1,65,0,1
160989,-138.888888888889,4,2,1,5,0,0
161075,-121.951219512195,4,1,1,55,0,0
162110,-125,4,1,1,65,0,0
162369,-125,4,2,1,5,0,0
162455,-111.111111111111,4,1,1,65,0,0
163489,-125,4,1,1,65,0,1
164092,-125,4,2,1,5,0,1
164179,-166.666666666667,4,1,1,65,0,0
164782,-166.666666666667,4,2,1,5,0,0
164869,-111.111111111111,4,1,1,65,0,1
165300,-111.111111111111,4,2,1,5,0,0
165386,-111.111111111111,4,1,1,65,0,1
165817,-111.111111111111,4,2,1,5,0,0
165903,-153.846153846154,4,1,1,65,0,1
166506,-153.846153846154,4,2,1,5,0,0
166592,-153.846153846154,4,2,1,37,0,0
166937,-166.666666666667,4,2,1,37,0,0
167627,-111.111111111111,4,1,1,65,0,1
168058,-111.111111111111,4,2,1,5,0,0
168144,-111.111111111111,4,1,1,65,0,1
168575,-111.111111111111,4,2,1,5,0,0
168662,-142.857142857143,4,1,1,65,0,1
169265,-142.857142857143,4,2,1,5,0,0
169351,-142.857142857143,4,2,1,65,0,0
170040,-153.846153846154,4,2,1,65,0,0
170299,-153.846153846154,4,2,1,5,0,0
170386,-105.263157894737,4,1,1,65,0,1
170817,-105.263157894737,4,2,1,5,0,0
170903,-166.666666666667,4,1,1,65,0,1
171334,-166.666666666667,4,2,1,5,0,0
171420,-181.818181818183,4,1,1,65,0,1
172024,-181.818181818183,4,2,1,5,0,0
172109,-133.333333333334,4,1,1,65,0,0
174523,-270.27027027027,4,2,1,35,0,0
177282,-222.222222222222,4,2,1,45,0,0
178661,-222.222222222222,4,2,1,50,0,0
179696,-133.333333333333,4,2,1,60,0,0
179954,-133.333333333333,4,2,1,5,0,0
180040,-133.333333333333,4,1,1,75,0,0
183489,-133.333333333333,4,2,1,55,0,0
184178,-133.333333333333,4,2,1,85,0,0
185558,-100,4,1,1,85,0,1
190731,-76.9230769230769,4,1,1,85,0,1
191075,-100,4,1,1,85,0,1
194178,-71.4285714285714,4,1,1,85,0,1
194523,-55.5555555555556,4,1,1,85,0,1
194868,-86.9565217391304,4,1,1,85,0,1
195903,-333.333333333333,4,2,1,65,0,0
196593,-95.2380952380952,4,1,1,85,0,1
201420,-86.9565217391304,4,1,1,85,0,1
201765,-80,4,1,1,85,0,1
202109,-95.2380952380952,4,1,1,85,0,1
206247,-95.2380952380952,4,1,1,65,0,1
206937,-153.846153846154,4,2,1,55,0,0
207282,-153.846153846154,4,2,1,85,0,0
207627,-105.263157894737,4,1,1,85,0,1
208144,-105.263157894737,4,1,1,85,0,0
215903,-90.9090909090909,4,1,1,85,0,0
216247,-80,4,1,1,85,0,0
216592,-57.1428571428571,4,1,1,85,0,0
217627,-64.5161290322581,4,1,1,85,0,0
217971,-80,4,1,1,85,0,0
218316,-105.263157894737,4,2,1,85,0,0
219351,-105.263157894737,4,1,1,85,0,1
220041,-105.263157894737,4,1,1,85,0,0
223834,-83.3333333333333,4,1,1,85,0,0
228995,344.827586206897,4,1,1,85,1,0
229684,-125,4,1,1,85,0,0
230201,-125,4,1,1,45,0,0
230374,-125,4,1,1,85,0,1
230805,-125,4,1,1,85,0,0
230891,-125,4,1,1,85,0,1
231322,-125,4,1,1,85,0,0
231408,-125,4,1,1,85,0,0
231753,-83.3333333333333,4,1,1,85,0,1
232788,-100,4,1,1,45,0,0
233132,-500,4,1,1,85,0,0
233391,-500,4,1,1,5,0,0
233477,-62.5,4,1,1,85,0,1
233736,-100,4,1,1,5,0,0
233822,-76.9230769230769,4,1,1,85,0,0
234081,-100,4,1,1,35,0,0
234167,-500,4,1,1,85,0,0
234512,-66.6666666666667,4,1,1,85,0,0
235201,-111.111111111111,4,1,1,85,0,0
235805,-111.111111111111,4,1,1,5,0,0
235891,-111.111111111111,4,1,1,85,0,1
236322,-111.111111111111,4,1,1,85,0,0
236408,-111.111111111111,4,1,1,85,0,1
236839,-111.111111111111,4,1,1,85,0,0
236926,-111.111111111111,4,1,1,85,0,1
237184,-111.111111111111,4,1,1,85,0,0
237270,-76.9230769230769,4,1,1,85,0,1
237874,-76.9230769230769,4,1,1,5,0,0
237960,-500,4,1,1,85,0,0
238822,-500,4,1,1,45,0,0
239339,-500,4,1,1,85,0,0
240719,-166.666666666667,4,1,1,85,0,0
241236,-166.666666666667,4,1,1,45,0,0
241408,-83.3333333333333,4,1,1,85,0,1
241839,-83.3333333333333,4,1,1,85,0,0
241926,-83.3333333333333,4,1,1,85,0,1
242270,-83.3333333333333,4,1,1,85,0,0
242443,-83.3333333333333,4,1,1,85,0,1
242960,-500,4,1,1,85,0,0
243132,-500,4,1,1,5,0,0
243219,-500,4,1,1,85,0,0
243391,-500,4,1,1,5,0,0
243477,-125,4,1,1,85,0,0
243822,-76.9230769230769,4,1,1,85,0,0
244167,-76.9230769230769,4,1,1,85,0,1
245115,-76.9230769230769,4,1,1,5,0,0
245201,-76.9230769230769,4,1,1,85,0,0
246236,-86.9565217391304,4,1,1,85,0,0
246839,-86.9565217391304,4,1,1,5,0,0
246926,-86.9565217391304,4,1,1,85,0,1
247357,-86.9565217391304,4,1,1,85,0,0
247443,-86.9565217391304,4,1,1,85,0,1
247960,-86.9565217391304,4,1,1,85,0,0
248305,-133.333333333333,4,1,1,85,0,1
248822,-100,4,1,1,43,0,0
248995,-125,4,1,1,63,0,0
251063,-142.857142857143,4,1,1,53,0,0
251756,344.827586206897,4,1,1,65,1,0
251756,-111.111111111111,4,1,1,65,0,0
260031,-111.111111111111,4,1,1,58,0,0
262790,-125,4,2,1,46,0,0
265549,-142.857142857143,4,2,1,40,0,0
270721,-156.25,4,2,1,40,0,0
271066,-175.438596491228,4,2,1,40,0,0
273825,-476.190476190476,4,2,2,18,0,0
294514,-476.190476190476,4,2,3,18,0,0
294600,-476.190476190476,4,2,3,5,0,0
306411,-476.190476190476,4,2,3,8,0,0
306497,-476.190476190476,4,2,3,14,0,0

[Colours]
Combo1 : 92,96,226
Combo2 : 203,250,244
Combo3 : 114,185,211
Combo4 : 50,96,141
SliderBorder : 200,200,200
SliderTrackOverride : 0,30,70

[HitObjects]
256,192,4869,12,0,8662,0:0:0:0:
129,173,9006,6,0,B|276:254|276:107|423:173,1,308,2|0,0:0|0:0,0:0:0:0:
402,299,11765,2,0,P|326:311|251:296,1,154,2|0,0:0|0:0,0:0:0:0:
228,219,13144,2,0,P|249:215|296:229,1,66,2|0,0:0|0:0,0:0:0:0:
192,351,13834,2,0,P|180:331|175:282,1,66,2|0,0:0|0:0,0:0:0:0:
291,226,14524,6,0,B|303:264|277:286|277:286|226:234|339:163|281:48,1,308,2|0,0:0|0:0,0:0:0:0:
147,38,17282,2,0,P|76:12|9:45,1,154,2|0,0:0|0:0,0:0:0:0:
23,127,18662,2,0,B|64:131|87:147|87:147|107:129|144:120,1,132,2|0,0:0|0:0,0:0:0:0:
343,129,20041,5,6,0:0:0:0:
328,36,20213,2,0,L|350:40,2,13.75,0|0|0,0:0|0:0|0:0,0:0:0:0:
429,66,20558,2,0,L|407:70,2,13.75,0|0|0,0:0|0:0|0:0,0:0:0:0:
328,36,20903,2,0,L|350:40,2,13.75,0|0|0,0:0|0:0|0:0,0:0:0:0:
343,129,21248,1,0,0:0:0:0:
343,129,21334,1,0,0:0:0:0:
343,129,21420,5,0,0:0:0:0:
165,69,21593,2,0,L|169:41,1,27.5,0|0,0:0|0:0,0:0:0:0:
257,103,21937,1,0,0:0:0:0:
257,103,22023,1,0,0:0:0:0:
257,103,22110,2,0,L|252:130,1,27.5,0|0,0:0|0:0,0:0:0:0:
74,38,22455,1,0,0:0:0:0:
74,38,22800,5,2,0:0:0:0:
85,141,22972,1,0,0:0:0:0:
85,141,23058,1,0,0:0:0:0:
85,141,23144,2,0,L|89:178,1,27.5,0|0,0:0|0:0,0:0:0:0:
173,88,23489,1,0,0:0:0:0:
184,183,23662,2,0,L|188:220,2,27.5,0|0|0,0:0|0:0|0:0,0:0:0:0:
173,88,24179,6,0,L|168:49,1,27.5,2|0,0:0|0:0,0:0:0:0:
269,38,24524,1,8,0:0:0:0:
187,210,24696,1,0,0:0:0:0:
187,210,24782,1,8,0:0:0:0:
187,210,24869,2,0,L|182:171,1,27.5,2|0,3:2|3:0,0:0:0:0:
269,38,25213,1,8,0:0:0:0:
269,38,25558,6,0,L|277:103,1,59.4000014501954,2|8,3:2|0:0,0:0:0:0:
243,346,26420,2,0,L|238:313,1,29.7000007250977,0|8,3:0|0:0,0:0:0:0:
269,38,26937,5,0,3:0:0:0:
269,38,27110,1,0,3:0:0:0:
249,269,27455,1,8,0:0:0:0:
262,115,27800,5,0,3:0:0:0:
243,346,27972,1,8,0:0:0:0:
341,297,28144,1,0,0:0:0:0:
341,297,28231,1,8,0:0:0:0:
341,297,28317,6,0,L|331:220,1,65.9999979858399,2|8,3:2|0:0,0:0:0:0:
325,216,28748,1,0,0:0:0:0:
314,203,28834,1,0,0:0:0:0:
302,193,28920,1,0,0:0:0:0:
288,184,29006,5,0,0:0:0:0:
272,179,29093,1,0,0:0:0:0:
256,177,29179,1,0,3:0:0:0:
239,178,29265,1,0,0:0:0:0:
225,182,29351,1,8,0:0:0:0:
245,309,29524,1,0,0:0:0:0:
245,309,29610,1,0,0:0:0:0:
245,309,29696,5,10,0:2:0:0:
277,143,29869,1,0,3:0:0:0:
182,241,30041,1,0,3:0:0:0:
172,112,30213,1,8,0:0:0:0:
172,112,30300,1,0,0:0:0:0:
172,112,30386,1,0,0:0:0:0:
172,112,30472,1,8,0:0:0:0:
172,112,30558,1,0,3:0:0:0:
119,232,30731,1,8,0:0:0:0:
219,326,30903,1,0,0:0:0:0:
219,326,30989,1,8,0:0:0:0:
219,326,31075,6,0,P|225:290|218:244,1,71.4999967269899,6|0,3:2|3:0,0:0:0:0:
114,85,31420,1,8,0:0:0:0:
41,211,31593,2,0,L|67:179,1,35.749998363495,0|0,0:0|0:0,0:0:0:0:
213,161,31765,2,0,L|171:209,1,35.749998363495,0|0,0:0|0:0,0:0:0:0:
140,279,31937,1,0,3:0:0:0:
114,85,32110,1,8,0:0:0:0:
140,279,32455,5,0,3:0:0:0:
140,279,32627,1,0,3:0:0:0:
114,85,32972,1,8,0:0:0:0:
114,85,33058,1,0,0:0:0:0:
114,85,33144,2,0,L|120:126,1,38.4999988250733,0|0,0:0|0:0,0:0:0:0:
140,279,33317,1,0,3:0:0:0:
263,80,33489,1,10,0:0:0:0:
263,80,33834,6,0,P|253:122|234:153,1,76.9999976501466,2|0,3:2|3:0,0:0:0:0:
140,279,34179,1,8,0:0:0:0:
236,150,34351,1,0,0:0:0:0:
273,142,34437,1,0,0:0:0:0:
311,149,34524,1,0,0:0:0:0:
349,153,34610,1,0,0:0:0:0:
386,145,34696,1,0,3:0:0:0:
268,298,34869,1,8,0:0:0:0:
268,298,35213,6,0,P|273:260|263:219,1,76.9999976501466,0|0,3:0|3:0,0:0:0:0:
190,117,35558,1,8,0:0:0:0:
137,233,35731,1,2,3:2:0:0:
137,233,35817,1,0,3:0:0:0:
264,222,35989,1,0,3:0:0:0:
264,222,36075,1,0,3:0:0:0:
190,117,36248,1,10,0:0:0:0:
319,106,36420,1,0,3:0:0:0:
319,106,36593,6,0,P|325:62|320:13,1,76.9999976501466,2|0,3:2|0:0,0:0:0:0:
154,133,36937,1,8,0:0:0:0:
319,106,37110,1,0,0:0:0:0:
296,76,37196,1,0,0:0:0:0:
261,61,37282,1,0,0:0:0:0:
223,66,37369,1,0,0:0:0:0:
192,89,37455,1,0,3:0:0:0:
357,62,37627,1,8,0:0:0:0:
357,62,37972,5,0,3:0:0:0:
154,133,38144,1,0,3:0:0:0:
154,133,38317,1,0,0:0:0:0:
361,144,38489,2,0,L|313:160,1,38.4999988250733,8|0,0:0|0:0,0:0:0:0:
211,224,38662,2,0,L|247:211,1,38.4999988250733,0|0,0:0|0:0,0:0:0:0:
374,241,38834,1,0,3:0:0:0:
167,317,39006,1,10,0:0:0:0:
167,317,39351,5,2,3:2:0:0:
374,241,39524,1,0,3:0:0:0:
211,224,39696,1,8,0:0:0:0:
415,323,39869,1,0,0:0:0:0:
446,294,39955,1,0,0:0:0:0:
463,255,40041,1,0,0:0:0:0:
460,213,40127,1,0,0:0:0:0:
440,177,40213,1,0,3:0:0:0:
239,194,40386,1,10,0:0:0:0:
239,194,40731,6,0,P|264:193|292:175,1,38.4999988250733,10|0,0:0|0:0,0:0:0:0:
371,89,40903,2,0,P|363:110|365:130,1,38.4999988250733,0|0,3:0|0:0,0:0:0:0:
407,257,41075,1,0,3:0:0:0:
281,104,41248,5,8,0:0:0:0:
248,109,41334,2,0,P|216:116|193:128,1,38.4999988250733,0|2,0:0|0:0,0:0:0:0:
240,290,41506,5,8,0:0:0:0:
273,285,41593,2,0,P|304:277|327:265,1,38.4999988250733,0|0,3:0|0:0,0:0:0:0:
322,108,41765,1,8,0:0:0:0:
239,194,41937,1,0,3:0:0:0:
239,194,42024,1,8,0:0:0:0:
239,194,42110,6,0,B|139:210|167:144|70:156,1,158.400003867188,6|8,3:2|0:0,0:0:0:0:
90,154,42627,1,0,0:0:0:0:
97,193,42713,1,0,0:0:0:0:
98,233,42800,1,0,0:0:0:0:
95,272,42886,1,0,0:0:0:0:
87,311,42972,1,0,3:0:0:0:
90,154,43144,1,8,0:0:0:0:
90,154,43489,5,0,3:0:0:0:
86,350,43662,1,0,3:0:0:0:
86,350,44006,2,0,L|87:292,1,39.6000009667969,8|0,0:0|0:0,0:0:0:0:
203,272,44179,2,0,L|200:232,1,39.6000009667969,0|0,0:0|0:0,0:0:0:0:
90,154,44351,1,0,3:0:0:0:
86,350,44524,1,10,0:0:0:0:
86,350,44869,5,2,3:2:0:0:
90,154,45041,1,0,3:0:0:0:
22,278,45213,1,8,0:0:0:0:
203,272,45386,2,0,L|146:275,1,39.6000009667969,0|0,0:0|0:0,0:0:0:0:
90,154,45558,2,0,L|150:151,1,39.6000009667969,0|0,0:0|0:0,0:0:0:0:
258,146,45731,1,0,3:0:0:0:
164,275,45903,1,8,0:0:0:0:
164,275,46248,6,0,P|208:280|245:293,1,79.2000019335938,0|0,3:0|3:0,0:0:0:0:
382,354,46593,1,8,0:0:0:0:
359,201,46765,1,2,3:2:0:0:
359,201,46851,1,0,3:0:0:0:
240,291,47024,1,0,3:0:0:0:
240,291,47110,1,0,3:0:0:0:
382,354,47282,1,10,0:0:0:0:
240,291,47455,1,0,3:0:0:0:
359,201,47627,6,0,P|407:200|453:217,1,79.2000019335938,2|0,3:2|0:0,0:0:0:0:
240,291,47972,1,8,0:0:0:0:
425,131,48144,1,0,0:0:0:0:
434,169,48231,1,0,0:0:0:0:
436,208,48317,1,0,0:0:0:0:
432,248,48403,1,0,0:0:0:0:
422,286,48489,1,0,3:0:0:0:
222,105,48662,2,0,P|213:164|232:220,1,118.800002900391,8|0,0:0|0:0,0:0:0:0:
251,258,49006,5,0,3:0:0:0:
251,258,49179,1,0,3:0:0:0:
375,82,49351,1,8,3:2:0:0:
394,229,49524,2,0,L|385:178,1,39.6000009667969,8|0,0:0|0:0,0:0:0:0:
222,106,49696,2,0,L|231:157,1,39.6000009667969,0|0,0:0|0:0,0:0:0:0:
251,258,49869,1,0,3:0:0:0:
453,76,50041,2,0,P|407:74|349:95,1,79.2000019335938,10|0,0:0|3:0,0:0:0:0:
219,149,50386,6,0,L|177:158,3,39.6000009667969,2|0|0|0,3:2|3:0|3:0|3:0,0:0:0:0:
314,234,50731,2,0,L|306:196,3,39.6000009667969,8|0|0|0,3:2|3:0|3:0|3:0,0:0:0:0:
200,204,51075,6,0,L|158:213,3,39.6000009667969,0|0|0|0,3:0|3:0|3:0|3:0,0:0:0:0:
287,301,51420,2,0,L|278:262,3,39.6000009667969,10|0|0|0,3:2|3:0|3:0|3:0,0:0:0:0:
183,261,51765,6,0,L|162:265,16,19.8000004833985,2|0|0|0|0|0|0|0|8|0|0|0|0|0|0|0|0,3:2|3:0|3:0|3:0|3:0|3:0|3:0|3:0|3:2|3:0|3:0|3:0|3:0|3:0|3:0|3:0|0:0,0:0:0:0:
183,261,53144,6,0,B|322:337|321:205|480:263,1,308,6|0,0:0|0:0,0:0:0:0:
425,319,53834,2,0,P|372:264|483:196,1,230.99999295044,0|0,0:0|0:0,0:0:0:0:
503,323,54524,6,0,B|434:336|434:336|267:281,1,233.750004458428,6|0,0:0|0:0,0:0:0:0:
133,366,55041,2,0,B|188:377|188:377|373:314,1,247.4999924469,6|0,0:0|0:0,0:0:0:0:
503,323,55558,2,0,B|433:336|433:336|325:300|325:300|258:324,1,250.249988544465,6|0,0:0|0:0,0:0:0:0:
158,294,56248,6,0,P|184:271|194:235,1,52.2499986047745
143,237,56421,2,0,P|129:204|98:183,1,52.2499986047745
67,360,56593,2,0,P|95:378|132:376,1,44
121,383,56765,2,0,P|155:377|182:350,1,44
40,286,56937,1,0,0:0:0:0:
40,286,57282,6,0,L|71:26,1,247.4999924469,6|0,0:0|0:0,0:0:0:0:
179,271,57800,2,0,L|210:13,1,247.4999924469,6|0,0:0|0:0,0:0:0:0:
320,257,58317,6,0,L|348:15,1,242.549992597962,6|0,0:0|0:0,0:0:0:0:
460,242,59006,6,0,B|453:220|453:220|453:193,1,32.99999899292,2|0,0:2|0:0,0:0:0:0:
425,80,59179,2,0,B|432:102|432:102|432:129,1,32.99999899292,2|0,0:2|0:0,0:0:0:0:
314,289,59351,6,0,B|316:266|316:266|327:241,1,32.99999899292,2|0,0:2|0:0,0:0:0:0:
337,120,59524,2,0,B|334:142|334:142|323:167,1,32.99999899292,2|0,0:2|0:0,0:0:0:0:
158,219,59696,6,0,B|171:211|171:211|193:218|208:205|208:205|234:211|250:196,1,98.9999969787599,6|0,0:2|0:0,0:0:0:0:
97,244,60041,6,0,B|170:262|170:262|313:215|313:215|386:231,1,275,6|0,0:0|0:0,0:0:0:0:
361,225,60558,2,0,B|312:235|312:235|169:188|169:188|96:206,1,275,6|0,0:0|0:0,0:0:0:0:
96,206,61075,6,0,B|168:223|168:223|309:173|309:173|381:193,1,277.200006767578,6|0,0:0|0:0,0:0:0:0:
439,215,61765,2,0,P|424:132|335:105,1,180.400002752686,0|0,0:0|0:0,0:0:0:0:
96,206,62282,1,2,0:0:0:0:
360,187,62455,1,8,0:0:0:0:
360,187,62800,6,0,P|341:253|281:299,1,132,2|0,0:0|0:0,0:0:0:0:
197,336,63144,1,8,0:0:0:0:
197,336,63489,5,0,3:0:0:0:
426,317,63662,1,2,0:0:0:0:
120,267,63834,1,8,0:0:0:0:
120,267,64179,6,0,B|129:329|82:361|82:361|35:272|101:169,1,308,6|0,0:0|0:0,0:0:0:0:
186,82,64869,2,0,B|198:108|180:138|180:138|197:180|173:216|173:216,1,132,2|0,0:2|0:0,0:0:0:0:
201,326,65213,6,0,L|198:283,1,44,2|0,0:2|0:0,0:0:0:0:
99,171,65386,2,0,L|102:214,1,44,2|0,0:2|0:0,0:0:0:0:
14,269,65558,6,0,L|340:249,1,302.500009231568,6|0,0:0|0:0,0:0:0:0:
125,353,66075,2,0,L|451:333,1,302.500009231568,6|0,0:0|0:0,0:0:0:0:
244,210,66593,6,0,L|547:228,1,269.499991775513,6|0,0:0|0:0,0:0:0:0:
304,359,67282,6,0,B|320:370|320:370|329:357|329:357|345:368|345:368|357:356|357:356|369:366|369:366|380:353|380:353|395:364|395:364|407:349|407:349|423:362|423:362|448:368|470:344|469:321|448:300|412:321,1,242.549992597962,0|0,0:0|0:0,0:0:0:0:
402,283,67972,6,0,P|395:252|401:221,1,34.649998942566,2|0,0:2|0:0,0:0:0:0:
500,207,68144,2,0,P|506:237|500:268,1,34.649998942566,2|0,0:2|0:0,0:0:0:0:
304,359,68317,6,0,P|316:238|207:72,1,302.500009231568,6|0,0:0|0:0,0:0:0:0:
87,150,68834,2,0,P|186:220|384:209,1,275,6|0,0:0|0:0,0:0:0:0:
376,66,69351,6,0,P|265:117|176:294,1,308,6|0,0:0|0:0,0:0:0:0:
288,367,70041,6,0,P|280:296|239:266,1,98.9999969787599,2|0,0:2|0:0,0:0:0:0:
118,321,70386,2,0,P|183:349|229:329,1,110,2|2,0:2|0:2,0:0:0:0:
262,278,70644,2,0,P|202:250|136:248,1,132,0|2,0:0|0:2,0:0:0:0:
36,326,71075,6,0,P|95:343|266:272,1,247.4999924469,6|0,0:0|0:0,0:0:0:0:
302,152,71593,2,0,P|260:278|392:296,1,302.500009231568,6|0,0:0|0:0,0:0:0:0:
496,192,72110,1,6,0:0:0:0:
256,192,72282,12,8,74869,0:0:0:0:
78,238,75213,6,0,P|119:255|182:253,1,76.9999976501466,6|0,3:2|0:0,0:0:0:0:
417,157,75558,2,0,P|381:141|328:136,1,76.9999976501466,8|0,0:0|0:0,0:0:0:0:
169,337,75903,6,0,P|205:318|227:290,1,65.9999979858399,0|0,3:0|3:0,0:0:0:0:
333,57,76248,2,0,P|302:66|272:94,1,65.9999979858399,8|0,0:0|0:0,0:0:0:0:
293,330,76593,6,0,P|298:298|283:256,1,55,0|0,3:0|0:0,0:0:0:0:
212,46,76937,2,0,P|199:82|210:117,1,55,8|0,0:0|0:0,0:0:0:0:
367,254,77282,6,0,P|352:225|331:204,1,44,0|0,3:0|3:0,0:0:0:0:
94,153,77627,2,0,P|114:181|136:198,1,44,8|0,0:0|0:0,0:0:0:0:
278,152,77972,6,0,L|239:141,1,32.99999899292,0|0,3:2|0:0,0:0:0:0:
120,295,78317,2,0,L|159:284,1,32.99999899292,8|0,0:0|0:0,0:0:0:0:
294,53,78662,6,0,P|269:57|239:71,1,44,0|0,3:0|3:0,0:0:0:0:
231,275,79007,2,0,P|248:257|264:232,1,44,8|0,0:0|0:0,0:0:0:0:
180,15,79351,6,0,P|160:39|152:65,1,55,0|0,3:0|0:0,0:0:0:0:
332,218,79696,2,0,P|344:189|345:162,1,55,8|0,0:0|0:0,0:0:0:0:
82,169,80041,6,0,P|114:189|159:188,1,65.9999979858399,0|0,3:0|3:0,0:0:0:0:
391,97,80386,2,0,P|359:88|303:95,1,65.9999979858399,8|0,0:0|0:0,0:0:0:0:
109,269,80731,5,12,0:0:0:0:
91,272,80903,1,0,3:0:0:0:
314,222,81075,1,8,0:0:0:0:
332,218,81247,1,0,3:0:0:0:
214,316,81420,5,8,0:0:0:0:
209,334,81593,1,0,3:0:0:0:
251,119,81765,1,8,0:0:0:0:
254,101,81937,1,0,3:0:0:0:
300,358,82110,5,8,0:0:0:0:
209,215,82282,1,0,3:0:0:0:
305,366,82455,1,8,0:0:0:0:
202,205,82627,1,0,3:0:0:0:
369,35,82800,5,8,0:0:0:0:
319,203,82972,1,0,3:0:0:0:
372,16,83144,1,8,0:0:0:0:
314,222,83317,1,0,3:0:0:0:
478,112,83489,5,10,0:0:0:0:
468,104,83575,1,2,0:0:0:0:
451,95,83662,1,2,0:0:0:0:
425,89,83748,1,2,0:0:0:0:
389,90,83834,1,10,0:0:0:0:
351,100,83920,1,2,0:0:0:0:
309,104,84006,1,2,0:0:0:0:
256,100,84093,1,2,0:0:0:0:
208,84,84179,6,0,L|193:75,6,11,8|0|0|0|0|0|0,0:1|0:0|0:0|0:0|0:0|0:0|0:0,0:0:0:0:
87,181,84524,2,0,L|77:184,6,11,8|0|0|0|0|0|0,0:1|0:0|0:0|0:0|0:0|0:0|0:0,0:0:0:0:
41,342,84869,1,8,1:0:0:0:
41,342,85731,6,0,P|33:327|21:316,1,32.99999899292,8|8,0:0|0:0,0:0:0:0:
14,227,85903,2,0,P|30:231|47:232,1,32.99999899292,8|8,0:3|0:3,0:0:0:0:
130,271,86075,2,0,P|118:282|109:296,1,32.99999899292,0|0,3:0|3:0,0:0:0:0:
41,342,86248,5,6,0:0:0:0:
142,154,86420,1,2,0:2:0:0:
142,154,86506,1,0,0:0:0:0:
142,154,86593,1,8,0:0:0:0:
47,232,86765,6,0,P|104:270|169:274,1,131.99999597168,2|0,0:2|0:0,0:0:0:0:
218,266,87024,1,0,0:0:0:0:
218,266,87110,1,2,0:0:0:0:
79,145,87282,5,8,0:0:0:0:
324,169,87455,1,0,0:0:0:0:
324,169,87541,1,0,0:0:0:0:
324,169,87627,2,0,L|262:178,1,41.2500015735627,2|0,0:2|0:0,0:0:0:0:
142,195,87800,2,0,L|204:186,1,41.2500015735627,2|0,0:0|0:0,0:0:0:0:
374,100,87972,1,8,0:0:0:0:
150,68,88144,5,2,0:2:0:0:
195,92,88231,1,0,0:0:0:0:
245,95,88317,1,2,0:2:0:0:
292,78,88403,1,0,0:0:0:0:
330,44,88489,1,2,0:0:0:0:
142,195,88662,6,0,L|236:182,1,55,8|0,0:0|0:0,0:0:0:0:
320,279,88834,2,0,L|225:291,1,55,2|0,0:2|0:0,0:0:0:0:
125,361,89006,5,2,0:0:0:0:
125,361,89179,5,2,0:0:0:0:
134,114,89351,5,8,0:0:0:0:
207,303,89524,1,2,0:2:0:0:
33,162,89696,1,2,0:2:0:0:
233,208,89869,1,2,0:0:0:0:
62,306,90041,5,8,0:0:0:0:
238,109,90213,1,2,0:2:0:0:
169,358,90386,1,2,0:2:0:0:
107,147,90558,1,2,0:0:0:0:
62,353,90731,5,8,0:0:0:0:
62,306,90817,1,2,0:2:0:0:
90,268,90903,1,2,0:2:0:0:
144,254,90989,1,2,0:2:0:0:
203,281,91075,1,2,0:2:0:0:
263,304,91162,1,2,0:2:0:0:
322,299,91248,1,2,0:0:0:0:
367,269,91334,1,2,0:2:0:0:
394,222,91420,2,0,B|390:186|390:186|407:141|407:141|399:86|399:86,1,121.000003692627,8|2,0:0|0:0,0:0:0:0:
107,147,91765,5,2,0:0:0:0:
327,131,91937,1,2,0:2:0:0:
327,131,92024,1,0,0:0:0:0:
327,131,92110,1,8,0:0:0:0:
150,277,92282,5,2,0:2:0:0:
394,222,92455,1,0,0:0:0:0:
394,222,92541,1,0,0:0:0:0:
394,222,92627,1,2,0:0:0:0:
54,239,92800,5,8,0:0:0:0:
227,126,92972,1,0,0:0:0:0:
227,126,93058,1,0,0:0:0:0:
227,126,93144,1,2,0:2:0:0:
150,277,93317,5,2,0:0:0:0:
125,50,93489,1,8,0:0:0:0:
54,239,93662,6,0,L|0:231,1,55,2|0,0:2|0:0,0:0:0:0:
281,116,93834,2,0,L|227:125,1,55,2|0,0:2|0:0,0:0:0:0:
198,268,94006,1,2,0:0:0:0:
75,100,94179,6,0,L|70:46,1,55,8|0,0:0|0:0,0:0:0:0:
49,293,94351,2,0,L|57:208,1,55,2|0,0:2|0:0,0:0:0:0:
198,107,94524,5,2,0:0:0:0:
198,107,94696,5,2,0:0:0:0:
228,235,94869,6,0,P|203:316|161:242,1,214.49999018097,8|0,0:0|0:0,0:0:0:0:
198,107,95213,6,0,P|247:108|294:121,1,98.9999969787599,2|0,0:2|0:0,0:0:0:0:
358,163,95386,2,0,P|308:161|261:148,1,98.9999969787599,2|0,0:0|0:0,0:0:0:0:
121,95,95558,1,8,0:0:0:0:
427,196,95731,1,2,0:2:0:0:
144,197,95903,5,2,0:2:0:0:
144,197,96075,5,2,0:0:0:0:
463,270,96248,2,0,B|436:268|399:289|399:289|362:257|314:252,1,153.999995300293,8|2,0:0|0:0,0:0:0:0:
144,197,96593,5,2,0:2:0:0:
414,68,96765,2,0,L|355:145,1,76.9999976501466,2|2,0:0|0:0,0:0:0:0:
210,308,96937,5,8,0:0:0:0:
295,40,97110,1,2,0:2:0:0:
306,378,97282,6,0,P|332:292|308:228,1,131.99999597168,6|2,0:0|0:2,0:0:0:0:
299,207,97541,1,0,0:0:0:0:
299,207,97627,1,8,0:0:0:0:
101,251,97800,5,2,0:2:0:0:
173,79,97972,1,0,0:0:0:0:
173,79,98058,1,0,0:0:0:0:
173,79,98144,1,2,0:0:0:0:
472,125,98317,6,0,P|397:149|319:129,1,131.99999597168,8|0,0:0|0:0,0:0:0:0:
296,129,98575,1,0,0:0:0:0:
296,129,98662,1,2,0:2:0:0:
361,281,98834,5,2,0:0:0:0:
366,53,99006,1,8,0:0:0:0:
164,186,99179,5,2,0:2:0:0:
212,207,99265,1,0,0:0:0:0:
263,215,99351,1,2,0:2:0:0:
316,209,99437,1,0,0:0:0:0:
365,191,99523,1,2,0:0:0:0:
176,78,99696,5,8,0:0:0:0:
215,294,99869,1,2,0:2:0:0:
402,155,100041,5,2,0:0:0:0:
402,155,100213,5,2,0:0:0:0:
263,215,100386,5,8,0:0:0:0:
315,68,100558,1,2,0:2:0:0:
123,243,100731,1,2,0:2:0:0:
308,149,100903,1,2,0:0:0:0:
38,157,101075,5,8,0:0:0:0:
263,215,101248,1,2,0:2:0:0:
0,225,101420,1,2,0:2:0:0:
191,116,101593,1,2,0:0:0:0:
78,154,101765,5,8,0:0:0:0:
120,203,101851,1,2,0:2:0:0:
179,223,101937,1,2,0:2:0:0:
238,220,102024,1,2,0:2:0:0:
286,199,102110,1,2,0:2:0:0:
326,173,102196,1,2,0:2:0:0:
378,171,102282,1,2,0:0:0:0:
425,190,102369,1,2,0:2:0:0:
444,230,102455,2,0,B|454:253|438:279|438:279|443:318|443:318|426:338|447:377,1,121.000003692627,8|2,0:0|0:0,0:0:0:0:
78,154,102800,5,2,3:0:0:0:
78,154,103144,6,0,L|195:163,1,65.9999979858399,12|0,0:0|0:0,0:0:0:0:
326,173,103317,1,2,0:2:0:0:
326,173,103489,1,0,0:0:0:0:
161,264,103662,6,0,L|276:255,1,65.9999979858399,2|0,0:0|0:0,0:0:0:0:
409,245,103834,1,8,0:0:0:0:
409,245,104006,1,0,0:0:0:0:
186,130,104179,6,0,L|301:139,1,65.9999979858399,2|0,0:2|0:0,0:0:0:0:
434,149,104351,1,2,0:0:0:0:
434,149,104524,1,8,0:0:0:0:
306,363,104696,6,0,L|423:353,1,65.9999979858399,2|0,0:2|0:0,0:0:0:0:
438,351,104869,2,0,B|332:315|350:399|230:345,1,214.49999018097,2|0,0:2|0:0,0:0:0:0:
68,356,105213,6,0,P|108:372|156:369,1,71.4999967269899,8|0,0:0|0:0,0:0:0:0:
282,275,105386,2,0,P|241:258|193:261,1,71.4999967269899,2|0,0:2|0:0,0:0:0:0:
33,263,105558,5,2,0:0:0:0:
33,263,105731,5,2,0:0:0:0:
149,100,105903,6,0,P|122:183|206:158,1,214.49999018097,8|0,0:0|0:0,0:0:0:0:
350,97,106248,6,0,P|338:141|342:188,1,93.500001783371,2|0,0:2|0:0,0:0:0:0:
354,264,106420,2,0,P|364:218|360:172,1,93.500001783371,2|0,0:0|0:0,0:0:0:0:
268,70,106593,2,0,P|340:96|446:63,1,176,8|0,0:0|0:0,0:0:0:0:
94,200,106937,5,2,0:0:0:0:
94,200,107110,5,2,0:0:0:0:
436,187,107282,1,8,0:0:0:0:
166,362,107455,1,2,0:0:0:0:
309,51,107627,5,12,1:0:0:0:
309,51,108317,6,0,B|340:15|315:-12|258:-7|233:52|265:95|334:111|341:166|296:239|296:239|293:211|275:182,1,346.49998942566,2|0,0:0|0:0,0:0:0:0:
287,205,109006,6,0,P|269:179|232:154,1,49.4999984893799,12|2,0:0|0:2,0:0:0:0:
88,72,109179,1,2,0:2:0:0:
88,72,109265,1,2,0:2:0:0:
88,72,109351,2,0,P|104:96|141:120,1,49.4999984893799,2|2,0:2|0:2,0:0:0:0:
423,154,109524,6,0,P|391:156|351:176,1,49.4999984893799,6|2,0:0|0:2,0:0:0:0:
152,280,109696,1,2,0:2:0:0:
152,280,109782,1,2,0:2:0:0:
152,280,109869,2,0,P|180:278|220:258,1,49.4999984893799,2|0,0:2|0:0,0:0:0:0:
311,62,110041,6,0,P|297:90|294:135,1,49.4999984893799,6|2,0:0|0:2,0:0:0:0:
284,359,110213,2,0,P|296:333|299:289,1,49.4999984893799,2|2,0:2|0:2,0:0:0:0:
228,25,110386,5,12,0:0:0:0:
167,329,110558,2,0,B|138:425|253:397|220:283|145:278|184:183,1,263.99999194336,0|0,0:0|0:0,0:0:0:0:
325,33,111075,6,0,L|369:29,1,44,2|2,0:0|0:2,0:0:0:0:
371,345,111765,6,0,L|331:340,1,33,8|0,0:0|0:0,0:0:0:0:
2,222,112110,2,0,B|97:173|148:272|250:235|250:235|215:234|173:183,1,280.500005350113
263,144,112455,6,0,P|227:133|184:146,1,71.4999967269899,2|0,0:0|0:0,0:0:0:0:
270,338,112627,2,0,P|305:348|349:336,1,71.4999967269899,0|0,0:0|0:0,0:0:0:0:
387,150,112800,1,2,0:2:0:0:
217,325,112972,5,2,0:0:0:0:
239,234,113058,1,2,0:0:0:0:
263,144,113144,1,8,0:0:0:0:
131,330,113317,5,2,0:2:0:0:
243,84,113489,5,8,0:0:0:0:
50,332,113662,1,2,0:0:0:0:
188,53,113834,6,0,B|156:100|219:132|194:213|194:213|218:277|189:298|189:298|169:276|251:226,1,346.49998942566,2|0,0:0|0:0,0:0:0:0:
238,233,114524,6,0,P|271:216|312:204,1,55,12|2,0:0|0:2,0:0:0:0:
442,204,114696,2,0,P|418:190|393:181,1,55,2|2,0:2|0:2,0:0:0:0:
100,179,114869,2,0,P|133:162|174:150,1,55,2|2,0:2|0:2,0:0:0:0:
299,53,115041,6,0,P|285:77|275:102,1,55,6|2,0:0|0:2,0:0:0:0:
196,350,115213,2,0,P|193:322|186:295,1,55,2|2,0:2|0:2,0:0:0:0:
154,34,115386,2,0,P|152:62|154:89,1,55,2|2,0:2|0:2,0:0:0:0:
333,292,115558,6,0,P|309:276|285:264,1,55,6|2,0:0|0:2,0:0:0:0:
19,318,115731,2,0,P|44:305|66:290,1,55,2|2,0:2|0:2,0:0:0:0:
233,46,115903,6,0,B|262:92|231:152|183:187|183:187|148:182|43:178|27:90|58:33|144:24|155:92,1,461.999985900879,12|0,0:0|0:0,0:0:0:0:
251,308,116593,6,0,P|300:341|334:292,1,131.99999597168,2|2,0:0|0:0,0:0:0:0:
334,292,117282,5,8,0:0:0:0:
287,174,117455,1,2,0:2:0:0:
209,273,117627,1,2,0:2:0:0:
334,292,117800,1,2,0:2:0:0:
37,300,117972,5,8,0:0:0:0:
383,205,118144,1,2,0:0:0:0:
383,205,118317,1,2,0:0:0:0:
103,204,118489,5,8,0:0:0:0:
450,299,118662,1,2,0:0:0:0:
450,299,118834,1,2,0:0:0:0:
155,309,119006,5,8,0:0:0:0:
204,303,119093,1,2,0:0:0:0:
253,298,119179,1,2,0:0:0:0:
302,292,119265,1,2,0:0:0:0:
352,286,119351,6,0,B|182:252,1,165,2|0,0:0|0:0,0:0:0:0:
492,172,120041,5,12,0:0:0:0:
437,196,120127,1,2,0:2:0:0:
377,202,120213,1,2,0:2:0:0:
318,188,120300,1,2,0:2:0:0:
267,157,120386,2,0,L|195:115,1,60.5000018463135,2|2,0:2|0:2,0:0:0:0:
334,362,120558,5,8,0:0:0:0:
310,307,120644,1,2,0:2:0:0:
304,247,120730,1,2,0:2:0:0:
318,188,120817,1,2,0:2:0:0:
349,137,120903,2,0,L|391:65,1,60.5000018463135,2|2,0:0|0:2,0:0:0:0:
141,252,121075,6,0,L|224:240,3,60.5000018463135,8|2|2|2,0:0|0:2|0:2|0:2,0:0:0:0:
349,137,121420,2,0,L|289:145,1,60.5000018463135,8|0,0:0|0:0,0:0:0:0:
14,355,121593,6,0,L|45:349,1,22,2|0,0:0|0:0,0:0:0:0:
246,343,121851,2,0,L|225:340,1,22,2|0,0:0|0:0,0:0:0:0:
112,319,122110,6,0,B|89:325|57:312|57:312|20:320|20:320|53:299,1,132,2|0,0:0|0:0,0:0:0:0:
312,272,122455,6,0,B|447:246|447:246|388:236,1,197.99999395752,6|0,0:0|0:0,0:0:0:0:
167,284,122800,6,0,P|137:298|111:318,1,65.9999979858399,8|0,0:0|0:0,0:0:0:0:
388,236,122972,2,0,P|417:250|443:270,1,65.9999979858399,2|0,0:2|0:0,0:0:0:0:
62,201,123144,6,0,P|32:215|6:235,1,65.9999979858399,2|0,0:2|0:0,0:0:0:0:
443,145,123317,2,0,P|472:159|498:179,1,65.9999979858399,2|0,0:2|0:0,0:0:0:0:
45,79,123489,6,0,B|189:42|189:42|113:33,1,197.99999395752,2|0,0:0|0:0,0:0:0:0:
353,4,123834,1,2,0:2:0:0:
203,142,124006,5,2,0:0:0:0:
286,118,124093,1,2,0:0:0:0:
368,96,124179,1,8,0:0:0:0:
262,204,124351,5,2,0:2:0:0:
72,162,124524,5,8,0:0:0:0:
132,345,124696,1,2,0:0:0:0:
459,293,124869,6,0,B|460:352|397:432|263:343|317:239|368:222|437:214|444:145,1,385,2|0,0:0|0:0,0:0:0:0:
474,71,125558,6,0,P|447:65|420:68,1,55,12|2,0:0|0:2,0:0:0:0:
167,306,125731,1,2,0:2:0:0:
167,306,125817,1,2,0:2:0:0:
167,306,125903,2,0,P|195:308|221:300,1,55,2|2,0:2|0:2,0:0:0:0:
459,293,126075,5,6,0:0:0:0:
414,339,126162,1,2,0:2:0:0:
349,346,126248,1,2,0:2:0:0:
296,310,126334,1,2,0:2:0:0:
278,248,126420,1,2,0:2:0:0:
295,185,126506,1,2,0:2:0:0:
293,124,126593,5,6,0:0:0:0:
263,70,126679,1,2,0:2:0:0:
206,53,126765,1,2,0:2:0:0:
146,80,126852,1,2,0:2:0:0:
120,140,126937,6,0,B|124:222|74:261|74:261|127:221|197:244|244:275,1,296.99999093628,12|0,0:0|0:0,0:0:0:0:
387,359,127627,5,2,0:0:0:0:
406,232,127800,1,2,0:0:0:0:
310,383,127972,1,2,0:0:0:0:
288,224,128144,1,2,0:0:0:0:
111,297,128317,5,2,0:0:0:0:
92,170,128490,1,2,0:0:0:0:
188,321,128662,1,2,0:0:0:0:
210,162,128834,1,2,0:0:0:0:
15,350,129006,5,0,3:0:0:0:
27,335,129093,1,0,3:0:0:0:
40,314,129179,1,0,3:0:0:0:
47,290,129265,1,0,3:0:0:0:
46,260,129351,5,0,3:0:0:0:
39,226,129437,1,0,3:0:0:0:
22,195,129524,1,0,3:0:0:0:
6,155,129610,1,0,3:0:0:0:
0,106,129696,5,0,3:0:0:0:
20,58,129782,1,0,3:0:0:0:
70,30,129869,1,0,3:0:0:0:
130,32,129955,1,0,3:0:0:0:
181,71,130041,5,8,0:0:0:0:
235,116,130127,1,8,0:0:0:0:
307,125,130213,1,8,0:3:0:0:
374,89,130300,1,8,0:3:0:0:
400,16,130386,5,4,3:2:0:0:
256,192,130472,12,2,135041,0:0:0:0:
243,318,135558,5,2,0:0:0:0:
233,318,135903,6,0,B|184:322|161:296|146:253|172:208|214:198|256:218|256:218|235:188|235:188|301:204|314:173|345:148|325:100,1,415.800010151367,2|2,0:0|0:0,0:0:0:0:
300,12,138662,2,0,B|270:4|235:11|235:11|243:59|206:85|168:79,1,178.200004350586,2|2,0:0|0:0,0:0:0:0:
105,135,140041,2,0,P|113:199|161:236,1,118.800002900391,2|2,0:0|0:0,0:0:0:0:
151,232,141420,6,0,B|230:285|305:175|372:311|372:311|367:258|394:228|394:228|359:190|372:154,1,415.800010151367,6|2,0:0|0:0,0:0:0:0:
245,154,144179,2,0,B|198:176|156:139|156:139|107:168|62:136|62:136|17:169|-9:148|-22:121|14:88|38:116,1,326.700007976074,2|2,0:0|0:0,0:0:0:0:
177,237,146593,1,2,0:0:0:0:
177,237,146937,6,0,P|147:245|99:245,1,65.9999979858399,2|0,0:0|0:0,0:0:0:0:
177,269,147282,2,0,P|210:270|242:279,1,65.9999979858399,0|0,0:0|3:0,0:0:0:0:
351,211,147627,2,0,P|321:219|273:219,1,65.9999979858399,0|0,3:0|3:0,0:0:0:0:
379,284,147972,2,0,P|412:285|444:294,1,65.9999979858399,0|0,3:0|3:0,0:0:0:0:
487,227,148317,6,0,P|485:189|495:152,1,76.9999976501466,0|0,3:0|3:0,0:0:0:0:
403,178,148662,2,0,P|405:140|396:103,1,76.9999976501466,0|0,3:0|3:0,0:0:0:0:
306,230,149006,2,0,P|304:192|314:155,1,76.9999976501466,0|0,3:0|3:0,0:0:0:0:
202,175,149351,2,0,P|204:137|195:100,1,76.9999976501466,2|0,3:2|3:0,0:0:0:0:
93,154,149696,6,0,L|85:199,3,38.4999988250733,2|0|0|0,3:2|3:0|3:0|3:0,0:0:0:0:
145,283,150041,2,0,L|137:328,3,38.4999988250733,0|0|0|0,3:0|3:0|3:0|3:0,0:0:0:0:
270,337,150386,5,0,3:0:0:0:
270,308,150472,1,0,3:0:0:0:
265,277,150558,1,0,3:0:0:0:
252,246,150644,1,0,3:0:0:0:
230,217,150731,1,2,3:2:0:0:
201,192,150817,1,0,3:0:0:0:
164,174,150903,1,0,3:0:0:0:
121,170,150989,1,0,3:0:0:0:
73,177,151075,2,0,L|51:182,16,19.2499994125366,2|0|0|0|0|0|0|0|0|0|0|0|0|0|0|0|0,3:2|3:0|3:0|3:0|3:0|3:0|3:0|3:0|3:2|3:0|3:0|3:0|3:0|3:0|3:0|3:0|0:0,0:0:0:0:
73,177,152455,6,0,B|212:101|211:233|370:175,1,308,6|0,0:0|0:0,0:0:0:0:
418,327,153144,2,0,P|464:255|356:180,1,230.99999295044,0|0,0:0|0:0,0:0:0:0:
157,294,153834,6,0,B|226:308|226:308|380:256,1,233.750004458428,6|0,0:0|0:0,0:0:0:0:
168,215,154351,2,0,B|223:226|223:226|408:163,1,247.4999924469,6|0,0:0|0:0,0:0:0:0:
407,216,154869,2,0,B|337:229|337:229|229:193|229:193|162:217,1,250.249988544465,6|0,0:0|0:0,0:0:0:0:
50,241,155558,6,0,P|19:225|2:191,1,52.2499986047745
53,183,155731,2,0,P|59:148|85:121,1,52.2499986047745
136,283,155903,2,0,P|112:307|75:313,1,44
107,325,156075,2,0,P|72:326|40:305,1,44
167,214,156248,1,0,0:0:0:0:
167,214,156593,6,0,L|427:183,1,247.4999924469,6|0,0:0|0:0,0:0:0:0:
360,101,157110,2,0,P|319:184|372:279,1,192.499994125366,6|0,0:0|0:0,0:0:0:0:
509,226,157627,2,0,P|399:185|277:232,1,230.99999295044,6|0,0:0|0:0,0:0:0:0:
213,271,158317,6,0,B|210:279|210:279|214:303,1,32.99999899292,2|0,0:2|0:0,0:0:0:0:
294,317,158489,2,0,B|296:325|296:325|292:349,1,32.99999899292,2|0,0:2|0:0,0:0:0:0:
185,126,158662,6,0,B|182:134|182:134|186:158,1,32.99999899292,2|0,0:2|0:0,0:0:0:0:
296,185,158834,2,0,B|298:193|298:193|294:217,1,32.99999899292,2|0,0:2|0:0,0:0:0:0:
139,45,159006,6,0,B|156:35|191:36|191:36|213:19|235:20,1,98.9999969787599,6|0,0:2|0:0,0:0:0:0:
185,126,159351,6,0,B|256:111|256:111|401:157|401:157|474:139,1,275,6|0,0:0|0:0,0:0:0:0:
464,296,159869,2,0,B|392:310|392:310|251:263|251:263|177:282,1,275,6|0,0:0|0:0,0:0:0:0:
204,196,160386,6,0,B|253:186|253:186|396:233|396:233|484:213,1,277.200006767578,6|0,0:0|0:0,0:0:0:0:
462,374,161075,2,0,P|388:322|276:313,1,180.400002752686,0|0,0:0|0:0,0:0:0:0:
127,338,161593,1,2,0:0:0:0:
363,153,161765,1,8,0:0:0:0:
363,153,162110,6,0,P|295:152|222:105,1,132,2|0,0:0|0:0,0:0:0:0:
169,58,162455,1,8,0:0:0:0:
169,58,162800,5,0,3:0:0:0:
363,153,162972,1,2,0:0:0:0:
59,194,163144,1,8,0:0:0:0:
59,194,163489,6,0,P|210:162|391:154,1,308,6|0,0:0|0:0,0:0:0:0:
474,300,164179,6,0,P|468:213|424:288,1,230.99999295044,0|0,0:0|0:0,0:0:0:0:
436,345,164869,6,0,P|346:289|210:340,1,247.4999924469,6|0,0:0|0:0,0:0:0:0:
156,353,165386,2,0,P|249:303|273:159,1,247.4999924469,6|0,0:0|0:0,0:0:0:0:
291,107,165903,6,0,P|287:212|399:305,1,250.249988544465,6|0,0:0|0:0,0:0:0:0:
497,314,166593,6,0,P|502:287|489:258,1,35.749998363495
499,266,166766,2,0,P|486:243|460:230,1,35.749998363495
396,348,166937,2,0,P|410:325|409:294,1,32.99999899292
415,304,167110,2,0,P|410:277|390:256,1,32.99999899292
326,309,167282,1,0,0:0:0:0:
326,309,167627,6,0,B|367:303|406:280|406:280|306:260|244:269,1,247.4999924469,6|0,0:0|0:0,0:0:0:0:
191,331,168144,2,0,B|203:402|300:316|184:268|232:132,1,247.4999924469,6|0,0:0|0:0,0:0:0:0:
306,201,168662,2,0,P|277:81|154:94,1,269.499991775513,6|0,0:0|0:0,0:0:0:0:
98,205,169351,6,0,B|121:201|121:201|139:194,1,38.4999988250733,2|0,0:2|0:0,0:0:0:0:
343,210,169524,2,0,B|320:206|320:206|305:200,1,38.4999988250733,2|0,0:2|0:0,0:0:0:0:
109,313,169696,6,0,B|132:309|132:309|150:302,1,38.4999988250733,2|0,0:2|0:0,0:0:0:0:
336,320,169869,2,0,B|313:316|313:316|298:310,1,38.4999988250733,2|0,0:2|0:0,0:0:0:0:
98,205,170041,6,0,B|113:210|113:210|146:200|146:200|176:205|176:205|202:198,1,107.249995090485,6|0,0:2|0:0,0:0:0:0:
93,126,170386,6,0,B|293:82|293:82|269:145,1,261.249993023873,6|0,0:0|0:0,0:0:0:0:
212,260,170903,2,0,P|146:284|152:214,1,164.9999949646,6|0,0:0|0:0,0:0:0:0:
150,215,171420,2,0,B|223:157|170:69|170:69|138:99|155:130,1,211.750006462097,6|0,0:0|0:0,0:0:0:0:
149,109,172110,6,0,P|174:145|219:153,1,82.5000031471254,2|2,0:2|0:2,0:0:0:0:
247,144,172369,1,2,0:2:0:0:
266,108,172455,1,2,0:2:0:0:
258,68,172541,1,2,0:2:0:0:
227,43,172627,1,2,0:0:0:0:
187,43,172713,1,2,0:2:0:0:
156,70,172800,1,8,0:0:0:0:
149,109,172886,1,2,0:2:0:0:
169,144,172972,1,2,0:2:0:0:
213,154,173058,1,2,0:2:0:0:
258,149,173144,6,0,L|451:119,1,165.000006294251,2|8,0:0|0:0,0:0:0:0:
421,123,173834,5,0,3:0:0:0:
411,376,174006,1,2,0:0:0:0:
172,264,174179,1,8,0:0:0:0:
172,264,174524,6,0,L|91:273,3,81.4000019873047,0|8|0|8,0:0|0:0|0:0|0:0,0:0:0:0:
394,205,175903,2,0,P|434:212|475:207,3,81.4000019873047,0|8|0|8,0:0|0:0|0:0|0:0,0:0:0:0:
88,129,177282,6,0,L|98:238,1,98.9999969787599,0|8,0:0|0:0,0:0:0:0:
282,66,177972,2,0,L|272:164,1,98.9999969787599,0|8,0:0|0:0,0:0:0:0:
474,136,178662,2,0,L|483:234,1,98.9999969787599,0|8,0:0|0:0,0:0:0:0:
102,168,179351,1,0,0:0:0:0:
474,136,179696,2,0,P|423:151|333:128,1,123.750004720688,8|0,0:0|0:0,0:0:0:0:
312,122,180041,5,8,0:0:0:0:
409,32,180213,1,0,3:0:0:0:
302,130,180386,1,8,0:0:0:0:
418,23,180558,1,0,3:0:0:0:
275,210,180731,5,8,0:0:0:0:
461,141,180903,1,0,3:0:0:0:
260,214,181075,1,8,0:0:0:0:
474,136,181248,1,0,3:0:0:0:
135,217,181420,5,8,0:0:0:0:
370,277,181593,1,0,3:0:0:0:
114,208,181765,1,8,0:0:0:0:
388,281,181937,1,0,3:0:0:0:
55,90,182110,5,8,0:0:0:0:
127,352,182282,1,0,3:0:0:0:
51,66,182455,1,8,0:0:0:0:
132,374,182627,1,0,3:0:0:0:
208,68,182800,5,10,0:0:0:0:
213,123,182886,1,2,0:0:0:0:
204,178,182972,2,0,L|191:234,1,41.2500015735627,2|2,0:0|0:0,0:0:0:0:
278,58,183144,5,10,0:0:0:0:
273,137,183231,1,2,0:0:0:0:
249,213,183317,2,0,L|219:284,1,41.2500015735627,2|2,0:0|0:0,0:0:0:0:
347,72,183489,6,0,L|352:49,6,20.6250007867813,8|0|0|0|0|0|0,0:1|0:0|0:0|0:0|0:0|0:0|0:0,0:0:0:0:
385,314,183834,2,0,L|405:331,6,20.6250007867813,8|0|0|0|0|0|0,0:1|0:0|0:0|0:0|0:0|0:0|0:0,0:0:0:0:
148,234,184179,1,8,1:0:0:0:
148,234,185041,6,0,P|177:243|208:240,1,41.2500015735627,8|8,0:0|0:0,0:0:0:0:
279,237,185213,2,0,P|272:207|254:182,1,41.2500015735627,8|8,0:3|0:3,0:0:0:0:
216,122,185386,2,0,P|193:142|180:170,1,41.2500015735627,0|0,3:0|3:0,0:0:0:0:
148,234,185558,5,6,0:0:0:0:
156,286,185644,1,2,0:2:0:0:
177,332,185731,2,0,P|203:361|239:370,1,55,2|0,0:2|0:0,0:0:0:0:
402,344,185903,5,2,0:0:0:0:
402,344,185989,2,0,P|376:315|340:306,1,55,2|0,0:2|0:0,0:0:0:0:
225,233,186162,6,0,P|254:239|283:234,1,55,2|2,0:2|0:0,0:0:0:0:
499,232,186334,5,2,0:2:0:0:
499,232,186420,2,0,P|500:194|497:170,1,55,2|0,0:2|0:0,0:0:0:0:
291,130,186593,5,2,0:0:0:0:
268,180,186679,1,2,0:2:0:0:
265,233,186765,1,2,0:2:0:0:
282,284,186851,2,0,P|292:316|309:345,1,55,2|2,0:2|0:0,0:0:0:0:
419,207,187024,5,2,0:2:0:0:
419,207,187110,2,0,P|393:183|364:167,1,55,2|0,0:2|0:0,0:0:0:0:
183,163,187282,5,2,0:0:0:0:
183,217,187369,1,2,0:2:0:0:
207,267,187455,2,0,P|222:292|250:310,1,55,2|0,0:2|0:0,0:0:0:0:
63,208,187627,5,2,0:0:0:0:
101,246,187713,1,2,0:2:0:0:
153,264,187800,2,0,P|182:270|214:263,1,55,2|0,0:2|0:0,0:0:0:0:
63,327,187972,5,2,0:0:0:0:
116,327,188058,1,2,0:2:0:0:
166,302,188144,1,2,0:2:0:0:
206,266,188231,1,2,0:2:0:0:
215,213,188317,5,2,0:0:0:0:
232,156,188403,1,2,0:2:0:0:
281,123,188489,2,0,P|308:110|343:108,1,55,2|0,0:2|0:0,0:0:0:0:
454,289,188662,5,2,0:0:0:0:
454,289,188748,2,0,P|427:302|392:304,1,55,2|0,0:2|0:0,0:0:0:0:
322,228,188920,6,0,P|347:214|374:210,1,55,2|2,0:2|0:0,0:0:0:0:
456,138,189093,5,2,0:2:0:0:
456,138,189179,2,0,P|432:124|405:119,1,55,2|0,0:2|0:0,0:0:0:0:
304,71,189351,5,2,0:0:0:0:
351,43,189437,1,2,0:2:0:0:
404,30,189524,1,2,0:2:0:0:
459,33,189610,2,0,P|497:42|527:53,1,55,2|2,0:2|0:0,0:0:0:0:
374,242,189782,5,2,0:2:0:0:
374,242,189869,2,0,P|335:232|305:221,1,55,2|0,0:2|0:0,0:0:0:0:
137,105,190041,5,2,0:0:0:0:
185,148,190127,1,2,0:2:0:0:
198,211,190213,1,2,0:2:0:0:
171,270,190300,1,2,0:2:0:0:
120,309,190386,5,2,0:0:0:0:
114,233,190472,1,2,0:2:0:0:
144,163,190558,2,0,P|165:133|200:114,1,55,2|0,0:2|0:0,0:0:0:0:
375,110,190731,6,0,P|436:50|350:42,1,214.49999018097,6|2,0:0|0:2,0:0:0:0:
296,189,191075,5,2,0:0:0:0:
359,202,191162,1,2,0:2:0:0:
421,189,191248,2,0,P|456:174|473:160,1,55,2|0,0:2|0:0,0:0:0:0:
250,105,191420,5,2,0:0:0:0:
250,105,191506,2,0,P|219:128|207:146,1,55,2|0,0:2|0:0,0:0:0:0:
232,297,191679,6,0,P|253:264|258:243,1,55,2|2,0:2|0:0,0:0:0:0:
438,174,191851,5,2,0:2:0:0:
438,174,191937,2,0,P|420:195|397:210,1,55,2|0,0:2|0:0,0:0:0:0:
258,250,192110,5,2,0:0:0:0:
238,198,192196,1,2,0:2:0:0:
236,143,192282,1,2,0:2:0:0:
250,91,192369,2,0,P|261:59|276:37,1,55,2|2,0:2|0:0,0:0:0:0:
489,273,192541,5,2,0:2:0:0:
489,273,192627,2,0,P|458:288|433:294,1,55,2|0,0:2|0:0,0:0:0:0:
238,198,192800,5,2,0:0:0:0:
291,184,192886,1,2,0:2:0:0:
346,194,192972,2,0,P|374:200|405:214,1,55,2|0,0:2|0:0,0:0:0:0:
229,356,193144,5,2,0:0:0:0:
212,302,193231,1,2,0:2:0:0:
224,250,193317,2,0,P|230:221|244:189,1,55,2|0,0:2|0:0,0:0:0:0:
423,340,193489,5,2,0:0:0:0:
371,354,193575,1,2,0:2:0:0:
316,347,193662,1,2,0:2:0:0:
268,322,193748,1,2,0:2:0:0:
231,282,193834,5,2,0:0:0:0:
211,231,193920,1,2,0:2:0:0:
211,176,194006,2,0,L|214:92,1,55,2|0,0:2|0:0,0:0:0:0:
385,83,194179,6,0,P|393:163|316:95,1,230.99999295044,2|2,0:0|0:2,0:0:0:0:
212,121,194524,6,0,P|225:69|253:31,1,98.9999969787599,2|2,0:0|0:2,0:0:0:0:
499,135,194696,2,0,P|484:187|458:225,1,98.9999969787599,2|0,0:2|0:0,0:0:0:0:
339,300,194869,5,2,0:0:0:0:
255,300,194955,1,2,0:2:0:0:
172,277,195041,1,2,0:2:0:0:
102,225,195127,2,0,P|80:185|67:142,1,63.250001206398,2|2,0:2|0:0,0:0:0:0:
248,35,195300,5,2,0:2:0:0:
248,35,195386,2,0,L|251:104,1,63.250001206398,2|0,0:2|0:0,0:0:0:0:
279,366,195558,5,2,0:0:0:0:
339,300,195644,1,2,0:2:0:0:
294,223,195731,1,2,0:2:0:0:
208,241,195817,1,2,0:2:0:0:
198,329,195903,5,2,1:0:0:0:
359,104,196075,1,0,0:0:0:0:
359,104,196162,1,0,0:0:0:0:
359,104,196248,2,0,L|362:138,1,32.99999899292,2|0,0:2|0:0,0:0:0:0:
147,223,196593,5,6,0:0:0:0:
205,217,196679,1,2,0:2:0:0:
262,212,196766,1,2,0:2:0:0:
97,306,196937,5,8,0:0:0:0:
97,306,197024,2,0,L|153:301,1,57.7499982376099,2|0,0:2|0:0,0:0:0:0:
399,224,197196,6,0,L|343:219,1,57.7499982376099,2|2,0:2|0:0,0:0:0:0:
205,32,197369,5,2,0:2:0:0:
205,32,197455,2,0,L|200:88,1,57.7499982376099,2|0,0:2|0:0,0:0:0:0:
97,306,197627,5,8,0:0:0:0:
155,300,197713,1,2,0:2:0:0:
212,295,197800,1,2,0:2:0:0:
270,290,197886,2,0,L|326:285,1,57.7499982376099,2|2,0:2|0:0,0:0:0:0:
405,192,198058,5,2,0:2:0:0:
405,192,198144,2,0,L|347:186,1,57.7499982376099,2|0,0:2|0:0,0:0:0:0:
145,103,198317,6,0,L|202:97,1,57.7499982376099,8|2,0:0|0:2,0:0:0:0:
433,74,198489,1,2,0:2:0:0:
117,214,198662,6,0,L|180:209,1,57.7499982376099,2|2,0:0|0:2,0:0:0:0:
405,192,198834,1,2,0:2:0:0:
89,325,199006,5,8,0:0:0:0:
146,320,199093,1,2,0:2:0:0:
204,315,199179,1,2,0:2:0:0:
261,311,199265,1,2,0:2:0:0:
319,306,199351,6,0,P|359:286|379:259,1,57.7499982376099,2|2,0:0|0:2,0:0:0:0:
433,74,199524,1,2,0:2:0:0:
89,325,199696,5,8,0:0:0:0:
89,325,199782,2,0,L|147:319,1,57.7499982376099,2|0,0:2|0:0,0:0:0:0:
371,269,199955,6,0,L|313:263,1,57.7499982376099,2|2,0:2|0:0,0:0:0:0:
95,184,200127,5,2,0:2:0:0:
95,184,200213,2,0,L|153:178,1,57.7499982376099,2|0,0:2|0:0,0:0:0:0:
371,102,200386,5,8,0:0:0:0:
327,63,200472,1,2,0:2:0:0:
273,45,200558,1,2,0:2:0:0:
217,45,200644,2,0,L|150:50,1,57.7499982376099,2|2,0:2|0:0,0:0:0:0:
159,274,200817,5,2,0:2:0:0:
159,274,200903,2,0,L|154:216,1,57.7499982376099,2|0,0:2|0:0,0:0:0:0:
51,10,201075,5,8,0:0:0:0:
70,71,201162,1,2,0:2:0:0:
119,120,201248,1,2,0:2:0:0:
185,139,201334,1,2,0:2:0:0:
254,139,201420,6,0,P|294:124|332:83,1,63.250001206398,2|2,0:0|0:2,0:0:0:0:
465,2,201593,2,0,P|434:10|409:28,1,63.250001206398,2|0,0:0|0:0,0:0:0:0:
59,278,201765,6,0,B|96:295|134:269|134:269|172:289|172:289|215:267|257:283,1,206.25,12|2,0:0|0:2,0:0:0:0:
370,249,202110,6,0,P|409:255|454:240,1,57.7499982376099,12|2,0:0|0:2,0:0:0:0:
310,111,202282,1,2,0:2:0:0:
310,111,202369,1,0,0:0:0:0:
310,111,202455,2,0,P|271:105|226:120,1,57.7499982376099,8|2,0:0|0:2,0:0:0:0:
118,308,202627,5,0,0:0:0:0:
118,308,202713,1,2,0:2:0:0:
118,308,202800,2,0,P|157:314|202:299,1,57.7499982376099,8|2,0:0|0:2,0:0:0:0:
463,168,202972,5,2,0:2:0:0:
463,168,203058,1,0,0:0:0:0:
463,168,203144,2,0,P|424:162|379:177,1,57.7499982376099,8|2,0:0|0:2,0:0:0:0:
111,142,203317,5,2,0:2:0:0:
111,142,203403,1,2,0:2:0:0:
111,142,203489,2,0,P|105:181|120:226,1,57.7499982376099,8|2,0:0|0:2,0:0:0:0:
417,326,203662,5,2,0:2:0:0:
417,326,203748,1,0,0:0:0:0:
417,326,203834,2,0,P|423:287|408:242,1,57.7499982376099,8|2,0:0|0:2,0:0:0:0:
61,172,204006,5,2,0:2:0:0:
61,172,204093,1,0,0:0:0:0:
61,172,204179,2,0,P|55:211|152:169,1,173.24999471283,8|0,0:0|0:0,0:0:0:0:
198,153,204524,2,0,P|268:104|348:128,1,173.24999471283,8|2,0:0|0:2,0:0:0:0:
474,222,204869,5,6,0:0:0:0:
282,196,205041,1,2,0:0:0:0:
456,108,205213,1,2,0:0:0:0:
285,347,205386,1,2,0:0:0:0:
379,59,205558,5,2,0:0:0:0:
382,345,205731,1,2,0:0:0:0:
296,29,205903,1,2,0:0:0:0:
454,288,206075,1,2,0:0:0:0:
210,23,206248,5,0,3:0:0:0:
205,63,206334,1,0,3:0:0:0:
200,103,206420,1,0,3:0:0:0:
195,143,206506,1,0,3:0:0:0:
190,183,206593,1,0,3:0:0:0:
185,223,206679,1,0,3:0:0:0:
180,263,206765,1,0,3:0:0:0:
175,303,206851,1,0,3:0:0:0:
170,343,206937,6,0,P|136:375|102:307,1,142.99999345398,2|8,1:0|1:0,0:0:0:0:
348,114,207455,5,2,0:1:0:0:
348,114,207627,5,6,0:0:0:0:
87,228,207800,2,0,L|143:221,1,52.2499986047745,0|0,0:0|0:0,0:0:0:0:
294,202,207972,1,8,0:0:0:0:
141,139,208144,1,2,0:2:0:0:
437,61,208317,5,2,0:0:0:0:
437,61,208403,1,0,0:0:0:0:
437,61,208489,1,2,0:2:0:0:
407,256,208662,1,8,0:0:0:0:
308,62,208834,6,0,P|309:97|302:125,1,52.2499986047745,0|0,0:0|0:0,0:0:0:0:
272,277,209006,1,2,0:0:0:0:
182,73,209179,1,2,0:2:0:0:
79,195,209351,5,8,0:0:0:0:
124,219,209437,1,0,0:0:0:0:
176,228,209524,1,2,0:2:0:0:
227,219,209610,1,0,0:0:0:0:
273,195,209696,1,2,0:0:0:0:
131,63,209869,5,0,0:0:0:0:
131,63,209955,1,0,0:0:0:0:
131,63,210041,2,0,P|182:73|244:60,1,104.499997209549,8|2,0:0|0:2,0:0:0:0:
488,147,210386,6,0,P|438:133|386:134,1,104.499997209549,2|0,0:0|0:0,0:0:0:0:
150,167,210731,5,8,0:0:0:0:
386,134,210904,1,2,0:2:0:0:
317,284,211076,1,2,0:0:0:0:
289,84,211249,1,2,0:2:0:0:
180,319,211421,5,8,0:0:0:0:
190,58,211593,1,2,0:2:0:0:
317,284,211765,1,2,0:0:0:0:
289,84,211937,1,2,0:2:0:0:
410,333,212110,6,0,L|401:278,1,52.2499986047745,8|2,0:0|0:2,0:0:0:0:
373,93,212282,2,0,L|381:149,1,52.2499986047745,2|2,0:2|0:2,0:0:0:0:
175,248,212455,6,0,L|237:237,1,52.2499986047745,2|2,0:0|0:2,0:0:0:0:
494,194,212627,2,0,L|431:204,1,52.2499986047745,2|2,0:2|0:2,0:0:0:0:
317,284,212800,6,0,B|333:259|333:259|334:229|334:229|361:204|384:137,1,156.749995814324,8|0,0:0|0:0,0:0:0:0:
417,59,213144,5,2,0:0:0:0:
239,253,213317,2,0,L|233:191,1,52.2499986047745,0|0,0:0|0:0,0:0:0:0:
221,67,213489,1,8,0:0:0:0:
247,337,213662,1,2,0:2:0:0:
475,231,213834,6,0,L|393:221,1,52.2499986047745,2|0,0:0|0:0,0:0:0:0:
233,200,214006,1,2,0:2:0:0:
511,137,214179,1,8,0:0:0:0:
247,337,214351,6,0,L|328:313,1,52.2499986047745,0|0,0:0|0:0,0:0:0:0:
512,255,214524,1,2,0:0:0:0:
233,200,214696,1,2,0:2:0:0:
504,378,214869,5,8,0:0:0:0:
453,370,214955,1,0,0:0:0:0:
401,362,215041,1,2,0:2:0:0:
349,354,215127,1,0,0:0:0:0:
298,346,215213,6,0,L|236:335,1,52.2499986047745,2|0,0:0|0:0,0:0:0:0:
57,248,215386,2,0,L|119:259,1,52.2499986047745,0|0,0:0|0:0,0:0:0:0:
296,249,215558,6,0,L|234:260,1,52.2499986047745,8|0,0:0|0:0,0:0:0:0:
59,347,215731,2,0,L|121:336,1,52.2499986047745,2|0,0:2|0:0,0:0:0:0:
344,234,215903,6,0,P|383:167|368:102,1,121.000003692627,2|0,0:0|0:0,0:0:0:0:
244,258,216248,2,0,P|357:335|432:289,1,206.25,8|0,0:0|0:0,0:0:0:0:
440,212,216593,6,0,P|401:186|353:187,1,96.2500009179115,2|0,0:0|0:0,0:0:0:0:
267,163,216765,2,0,P|306:189|354:188,1,96.2500009179115,2|0,0:2|0:0,0:0:0:0:
510,164,216937,1,8,0:0:0:0:
131,224,217110,1,2,0:2:0:0:
304,70,217282,5,2,0:0:0:0:
341,260,217455,1,0,0:0:0:0:
112,173,217627,6,0,B|157:168|185:191|185:191|219:162|219:162|251:171|283:156,1,170.500001300812,8|0,0:0|0:0,0:0:0:0:
419,144,217886,1,0,0:0:0:0:
419,144,217972,2,0,P|415:235|450:291,1,137.5,8|2,0:0|0:0,0:0:0:0:
479,337,218231,1,2,0:2:0:0:
478,337,218317,2,0,B|358:296|395:381|270:346,1,208.999994419098,2|2,0:0|1:0,0:0:0:0:
62,306,218834,5,2,0:2:0:0:
77,309,218920,1,2,0:2:0:0:
92,312,219006,1,8,0:0:0:0:
108,315,219093,1,8,0:0:0:0:
123,318,219179,1,8,0:3:0:0:
138,321,219265,1,8,0:3:0:0:
154,324,219351,5,6,0:0:0:0:
374,131,219524,1,0,0:0:0:0:
374,131,219610,1,0,0:0:0:0:
374,131,219696,1,8,0:0:0:0:
160,233,219869,5,0,0:0:0:0:
282,59,220041,1,2,0:0:0:0:
315,282,220213,1,0,0:0:0:0:
182,109,220386,5,8,0:0:0:0:
224,139,220472,1,0,0:0:0:0:
274,153,220558,1,0,0:0:0:0:
325,150,220644,1,0,0:0:0:0:
374,131,220731,1,2,0:0:0:0:
160,233,220903,6,0,P|201:228|228:210,1,52.2499986047745,0|0,0:0|0:0,0:0:0:0:
382,32,221075,2,0,P|340:36|313:54,1,52.2499986047745,8|0,0:0|0:0,0:0:0:0:
142,138,221248,1,0,0:0:0:0:
375,233,221420,6,0,P|385:182|375:132,1,104.499997209549,2|0,0:0|0:0,0:0:0:0:
142,138,221765,5,8,0:0:0:0:
382,32,221937,1,0,0:0:0:0:
207,238,222110,1,2,0:0:0:0:
279,0,222282,1,0,0:0:0:0:
94,226,222455,5,8,0:0:0:0:
374,166,222627,1,0,0:0:0:0:
205,325,222800,1,2,0:0:0:0:
268,115,222972,1,0,0:0:0:0:
123,83,223144,5,8,0:0:0:0:
166,111,223231,1,0,0:0:0:0:
217,122,223317,1,0,0:0:0:0:
268,115,223403,1,0,0:0:0:0:
314,92,223489,1,2,0:0:0:0:
347,77,223575,1,0,0:0:0:0:
384,70,223662,1,0,0:0:0:0:
419,73,223748,1,0,0:0:0:0:
452,87,223834,6,0,B|412:104|375:76|375:76|343:86|343:86|299:60|248:82,1,197.99999395752,8|0,0:0|0:0,0:0:0:0:
1,72,224179,5,12,0:0:0:0:
294,151,224351,1,2,0:0:0:0:
294,151,224524,1,2,0:0:0:0:
144,191,224696,5,8,0:0:0:0:
436,112,224869,1,2,0:0:0:0:
436,112,225041,1,2,0:0:0:0:
149,342,225213,5,8,0:0:0:0:
363,128,225386,1,2,0:0:0:0:
309,371,225558,5,8,0:0:0:0:
226,102,225731,1,2,0:0:0:0:
226,102,225903,1,2,0:0:0:0:
122,293,226075,5,8,0:0:0:0:
205,25,226248,1,2,0:0:0:0:
205,25,226420,1,2,0:0:0:0:
425,283,226593,5,8,0:0:0:0:
359,275,226679,1,2,0:2:0:0:
293,268,226765,1,2,0:2:0:0:
228,261,226851,1,2,0:2:0:0:
162,254,226937,1,8,0:0:0:0:
384,143,227110,5,2,0:0:0:0:
326,174,227196,1,2,0:0:0:0:
268,206,227282,1,8,0:0:0:0:
341,58,227455,5,2,0:0:0:0:
311,116,227541,1,2,0:0:0:0:
282,176,227627,1,8,0:0:0:0:
273,15,227800,5,2,0:0:0:0:
281,79,227886,1,2,0:0:0:0:
292,145,227972,1,8,0:0:0:0:
192,25,228144,6,0,L|237:81,1,65.9999979858399,2|2,0:0|0:0,0:0:0:0:
399,308,228317,6,0,P|392:268|375:238,1,65.9999979858399,8|2,0:0|0:0,0:0:0:0:
117,155,228489,2,0,P|123:194|140:224,1,65.9999979858399,2|2,0:0|0:0,0:0:0:0:
194,352,228662,6,0,P|230:337|256:314,1,65.9999979858399,8|2,0:0|0:0,0:0:0:0:
290,47,228834,2,0,P|259:56|233:76,1,65.9999979858399,2|2,0:0|0:0,0:0:0:0:
27,265,228995,5,12,1:0:0:0:
27,265,229684,6,0,L|313:292,1,264,2|0,0:0|0:0,0:0:0:0:
512,164,230374,5,12,0:0:0:0:
462,151,230460,1,2,0:2:0:0:
412,154,230546,1,2,0:2:0:0:
365,173,230632,1,2,0:2:0:0:
326,204,230719,2,0,L|290:248,1,44,2|2,0:2|0:2,0:0:0:0:
218,371,230891,5,6,0:0:0:0:
169,384,230977,1,2,0:2:0:0:
119,380,231063,1,2,0:2:0:0:
72,362,231149,1,2,0:2:0:0:
33,330,231236,2,0,P|19:304|16:276,1,44,2|2,0:2|0:2,0:0:0:0:
28,144,231408,6,0,P|36:110|62:81,1,44,6|2,0:0|0:2,0:0:0:0:
274,139,231581,1,2,0:2:0:0:
274,139,231667,1,2,0:2:0:0:
274,139,231753,2,0,B|186:211|120:155|120:155|196:108|284:204|291:302|173:373|93:326|84:287,1,527.999983886719,12|2,0:0|0:0,0:0:0:0:
412,154,232788,5,2,0:2:0:0:
107,315,233132,6,0,L|142:308,1,33,8|0,0:0|0:0,0:0:0:0:
420,270,233477,2,0,B|261:228|317:352|104:250,1,264,0|0,0:0|0:0,0:0:0:0:
0,199,233822,6,0,P|60:148|217:156,1,214.49999018097,2|0,0:0|0:0,0:0:0:0:
380,180,234167,2,0,L|358:176,1,22,2|2,0:2|0:0,0:0:0:0:
191,144,234426,5,2,0:0:0:0:
191,144,234512,2,0,P|233:40|289:0,1,165.000006294251,8|2,0:0|0:2,0:0:0:0:
437,328,234857,2,0,P|425:246|376:177,1,165.000006294251,8|2,0:0|0:0,0:0:0:0:
194,351,235201,6,0,P|334:334|228:239,1,346.49998942566,2|0,0:0|0:0,0:0:0:0:
259,310,235891,5,12,0:0:0:0:
281,260,235977,1,2,0:2:0:0:
275,206,236063,1,2,0:2:0:0:
240,164,236149,1,2,0:2:0:0:
189,147,236236,2,0,L|132:154,1,49.4999984893799,2|2,0:2|0:2,0:0:0:0:
27,152,236408,5,6,0:0:0:0:
5,103,236494,1,2,0:2:0:0:
17,51,236580,1,2,0:2:0:0:
60,17,236666,1,2,0:2:0:0:
114,16,236753,2,0,P|138:20|175:33,1,49.4999984893799,2|2,0:2|0:2,0:0:0:0:
242,119,236926,6,0,P|263:133|298:149,1,49.4999984893799,6|2,0:0|0:2,0:0:0:0:
490,51,237098,1,2,0:2:0:0:
490,51,237184,1,2,0:2:0:0:
490,51,237270,2,0,B|424:6|344:5|281:33|241:119|241:119|370:210|457:104,1,500.499977088929,12|0,0:0|0:0,0:0:0:0:
490,51,237960,6,0,P|490:22|483:6,1,44,2|2,0:0|0:0,0:0:0:0:
126,296,238650,2,0,L|123:326,1,22,8|2,0:0|0:2,0:0:0:0:
264,203,238995,2,0,L|263:182,1,22,2|2,0:2|0:2,0:0:0:0:
50,357,239339,5,8,0:0:0:0:
402,109,239512,1,2,0:0:0:0:
402,109,239684,1,2,0:0:0:0:
25,110,239857,5,8,0:0:0:0:
423,234,240030,1,2,0:0:0:0:
423,234,240202,1,2,0:0:0:0:
104,155,240374,5,8,0:0:0:0:
143,203,240460,1,2,0:0:0:0:
201,231,240546,1,2,0:0:0:0:
267,238,240632,1,2,0:0:0:0:
329,219,240719,6,0,P|259:204|163:287,1,197.99999395752,2|0,0:0|0:0,0:0:0:0:
395,302,241408,5,12,0:0:0:0:
431,248,241495,1,2,0:2:0:0:
429,184,241581,1,2,0:2:0:0:
389,132,241667,1,2,0:2:0:0:
327,113,241753,1,2,0:2:0:0:
266,134,241839,1,2,0:2:0:0:
219,179,241926,6,0,P|187:202|124:205,1,65.9999979858399,8|0,0:0|0:0,0:0:0:0:
32,152,242098,2,0,P|27:120|34:88,1,65.9999979858399,2|2,0:2|0:2,0:0:0:0:
146,1,242270,6,0,P|176:13|200:35,1,65.9999979858399,2|2,0:0|0:2,0:0:0:0:
329,219,242443,2,0,P|373:242|403:245,3,65.9999979858399,8|2|2|2,0:0|0:2|0:2|0:2,0:0:0:0:
112,178,242788,6,0,P|142:189|175:191,1,65.9999979858399,8|0,0:0|0:0,0:0:0:0:
495,112,242960,2,0,L|473:120,1,22,2|0,0:0|0:0,0:0:0:0:
176,191,243219,2,0,L|200:190,1,22,2|0,0:0|0:0,0:0:0:0:
398,147,243477,6,0,B|376:156|342:147|342:147|307:160|307:160|280:152|238:174,1,132,2|0,0:0|0:0,0:0:0:0:
176,191,243822,6,0,B|207:239|335:226|331:187|312:141|266:163,1,214.49999018097,6|0,0:0|0:0,0:0:0:0:
218,47,244167,6,0,P|175:82|151:138,1,71.4999967269899,8|0,0:0|0:0,0:0:0:0:
359,315,244339,2,0,P|402:280|425:224,1,71.4999967269899,2|0,0:2|0:0,0:0:0:0:
426,101,244512,6,0,P|391:58|334:35,1,71.4999967269899,2|0,0:2|0:0,0:0:0:0:
157,242,244684,2,0,P|192:285|248:308,1,71.4999967269899,2|0,0:2|0:0,0:0:0:0:
410,267,244857,6,0,P|348:186|345:284,1,214.49999018097,2|0,0:0|0:0,0:0:0:0:
241,203,245201,2,0,P|296:126|349:106,1,142.99999345398,2|2,0:2|0:0,0:0:0:0:
512,89,245460,1,2,0:0:0:0:
512,89,245546,6,0,L|324:105,1,142.99999345398,8|2,0:0|0:2,0:0:0:0:
6,289,245891,2,0,L|194:305,1,142.99999345398,8|2,0:0|0:0,0:0:0:0:
431,267,246236,6,0,B|333:314|342:204|214:237|177:277|191:321|232:322|259:318|268:295|264:263|245:224|162:182|110:200,1,442.750008444786,2|0,0:0|0:0,0:0:0:0:
94,336,246926,5,12,0:0:0:0:
145,343,247012,1,2,0:2:0:0:
197,327,247098,1,2,0:2:0:0:
235,289,247184,1,2,0:2:0:0:
252,239,247270,1,2,0:2:0:0:
245,186,247357,1,2,0:2:0:0:
226,139,247443,5,6,0:0:0:0:
245,186,247529,1,2,0:2:0:0:
285,223,247615,1,2,0:2:0:0:
337,237,247701,1,2,0:2:0:0:
389,227,247787,1,2,0:2:0:0:
431,194,247874,1,2,0:2:0:0:
456,143,247960,5,6,0:0:0:0:
453,81,248046,1,2,0:2:0:0:
417,29,248132,1,2,0:2:0:0:
357,3,248219,1,2,0:2:0:0:
284,2,248305,6,0,B|111:-7|215:89|41:57|50:58,1,247.500009441376,12|0,0:0|0:0,0:0:0:0:
50,58,248995,6,0,P|99:78|151:83,1,88,2|2,0:0|0:0,0:0:0:0:
304,125,249339,2,0,P|255:145|203:150,1,88,2|2,0:0|0:0,0:0:0:0:
45,177,249684,2,0,P|94:197|146:202,1,88,2|2,0:0|0:0,0:0:0:0:
299,244,250029,2,0,P|250:264|198:269,1,88,2|2,0:0|0:0,0:0:0:0:
334,264,250374,6,0,P|304:275|273:278,1,44,0|0,3:0|3:0,0:0:0:0:
129,214,250546,2,0,P|158:225|189:228,1,44,0|0,3:0|3:0,0:0:0:0:
326,145,250719,2,0,P|296:156|265:159,1,44,0|0,3:0|3:0,0:0:0:0:
121,95,250891,2,0,P|150:106|181:109,1,44,0|0,3:0|3:0,0:0:0:0:
324,196,251063,5,0,3:0:0:0:
284,171,251149,1,0,3:0:0:0:
236,158,251235,1,0,3:0:0:0:
183,159,251321,1,0,3:0:0:0:
130,176,251408,1,8,0:0:0:0:
72,174,251494,1,8,0:0:0:0:
26,132,251580,1,8,0:3:0:0:
22,65,251666,1,8,0:3:0:0:
62,2,251756,6,0,L|163:-2,1,98.9999969787599,6|0,0:0|0:0,0:0:0:0:
279,153,252100,1,8,0:0:0:0:
91,245,252273,1,0,0:0:0:0:
60,206,252359,1,0,0:0:0:0:
49,158,252445,1,2,0:2:0:0:
59,110,252531,1,0,0:0:0:0:
87,70,252617,1,2,0:0:0:0:
279,153,252790,2,0,P|231:164|182:158,1,98.9999969787599,8|0,0:0|0:0,0:0:0:0:
411,21,253135,5,2,0:2:0:0:
411,21,253307,5,2,0:0:0:0:
349,253,253480,1,8,0:0:0:0:
279,153,253652,2,0,P|287:119|303:97,1,49.4999984893799,0|0,0:0|0:0,0:0:0:0:
499,97,253824,2,0,P|491:131|475:153,1,49.4999984893799,2|0,0:2|0:0,0:0:0:0:
227,263,253997,1,2,0:0:0:0:
438,222,254169,2,0,P|364:254|324:245,1,98.9999969787599,8|0,0:0|0:0,0:0:0:0:
143,248,254514,5,2,0:0:0:0:
143,248,254687,5,2,0:0:0:0:
413,321,254859,2,0,P|362:258|323:247,1,98.9999969787599,8|0,0:0|0:0,0:0:0:0:
292,239,255118,1,0,0:0:0:0:
240,232,255204,1,2,0:2:0:0:
191,235,255290,1,0,0:0:0:0:
143,248,255376,1,2,0:0:0:0:
413,321,255549,2,0,P|423:280|422:207,1,98.9999969787599,8|0,0:0|0:0,0:0:0:0:
172,337,255893,5,2,0:2:0:0:
172,337,256066,5,2,0:0:0:0:
141,116,256238,1,8,0:0:0:0:
73,295,256411,1,2,0:2:0:0:
110,262,256497,1,0,0:0:0:0:
156,246,256583,1,2,0:2:0:0:
205,249,256669,1,0,0:0:0:0:
250,271,256756,1,2,0:0:0:0:
435,125,256928,2,0,L|437:238,1,98.9999969787599,8|2,0:0|0:0,0:0:0:0:
250,271,257273,6,0,L|247:161,1,98.9999969787599,2|0,0:0|0:0,0:0:0:0:
34,42,257618,2,0,L|38:182,1,98.9999969787599,8|0,0:0|0:0,0:0:0:0:
42,196,257876,1,0,0:0:0:0:
42,196,257962,1,2,0:2:0:0:
172,337,258135,1,2,0:0:0:0:
367,268,258307,2,0,P|339:194|293:161,1,98.9999969787599,8|0,0:0|0:0,0:0:0:0:
165,125,258652,5,2,0:2:0:0:
165,125,258824,5,2,0:0:0:0:
436,48,258997,1,8,0:0:0:0:
239,18,259169,2,0,L|291:26,1,49.4999984893799,0|0,0:0|0:0,0:0:0:0:
485,56,259342,2,0,L|433:48,1,49.4999984893799,2|0,0:2|0:0,0:0:0:0:
165,125,259514,1,2,0:0:0:0:
422,175,259687,2,0,P|369:189|300:165,1,98.9999969787599,8|0,0:0|0:0,0:0:0:0:
165,125,260031,5,2,0:0:0:0:
165,125,260204,5,2,0:0:0:0:
87,350,260376,1,8,0:0:0:0:
38,195,260549,1,0,0:0:0:0:
38,195,260635,1,0,0:0:0:0:
38,195,260721,2,0,P|69:210|112:221,1,49.4999984893799,2|0,0:2|0:0,0:0:0:0:
214,250,260893,1,2,0:0:0:0:
6,272,261066,2,0,P|38:235|83:214,1,98.9999969787599,8|0,0:0|0:0,0:0:0:0:
320,208,261411,5,2,0:2:0:0:
320,208,261583,5,2,0:0:0:0:
82,214,261756,2,0,P|79:158|132:93,1,98.9999969787599,8|2,0:0|0:0,0:0:0:0:
293,39,262100,2,0,L|300:102,1,49.4999984893799,2|2,0:2|0:2,0:0:0:0:
320,208,262273,1,2,0:0:0:0:
320,208,262359,1,2,0:0:0:0:
320,208,262445,2,0,P|304:253|231:297,1,98.9999969787599,8|2,0:0|0:0,0:0:0:0:
83,316,262790,5,6,1:0:0:0:
399,272,263135,1,8,0:0:0:0:
296,180,263307,1,0,0:0:0:0:
296,180,263393,1,0,0:0:0:0:
296,180,263480,1,2,0:0:0:0:
253,322,263652,1,6,1:0:0:0:
435,134,263824,1,8,0:0:0:0:
253,322,264169,5,2,0:0:0:0:
253,322,264342,5,6,1:0:0:0:
207,125,264514,2,0,L|112:106,1,88,8|2,0:0|0:0,0:0:0:0:
75,277,265031,1,6,1:0:0:0:
121,108,265204,1,8,0:0:0:0:
75,277,265549,5,2,1:0:0:0:
75,277,265721,5,2,1:0:0:0:
283,287,265893,1,8,0:0:0:0:
205,228,266066,2,0,L|160:215,1,38.4999988250733,0|0,0:0|0:0,0:0:0:0:
292,195,266238,2,0,L|346:187,1,38.4999988250733,2|0,0:0|0:0,0:0:0:0:
215,135,266411,1,6,1:0:0:0:
373,87,266583,1,8,0:0:0:0:
215,135,266928,5,2,0:0:0:0:
215,135,267100,5,6,1:0:0:0:
417,183,267273,2,0,L|316:190,1,76.9999976501466,8|2,0:0|0:0,0:0:0:0:
290,193,267531,1,0,3:0:0:0:
290,193,267790,1,0,3:0:0:0:
457,110,267962,1,8,0:0:0:0:
378,261,268135,1,0,3:0:0:0:
356,56,268307,5,2,3:2:0:0:
193,167,268652,1,8,0:0:0:0:
193,167,269169,1,0,3:0:0:0:
4,102,269342,1,8,0:0:0:0:
4,102,269687,6,0,L|116:87,1,76.9999976501466,0|0,3:0|3:0,0:0:0:0:
0,6,270031,1,8,3:2:0:0:
8,198,270204,1,8,0:0:0:0:
8,198,270549,1,0,3:0:0:0:
80,91,270721,2,0,P|140:74|195:85,1,105.6,10|0,0:0|0:0,0:0:0:0:
228,102,271066,6,0,P|273:114|314:106,1,62.6999992346192,2|0,3:2|3:0,0:0:0:0:
413,77,271411,2,0,P|393:29|357:68,1,125.399998469238,8|0,0:0|0:0,0:0:0:0:
360,167,271928,1,0,3:0:0:0:
281,33,272100,1,8,0:0:0:0:
281,33,272445,6,0,P|276:79|285:117,2,62.6999992346192,0|0|0,0:0|3:0|3:0,0:0:0:0:
358,69,272962,2,0,P|358:107|344:143,1,62.6999992346192,8|2,0:0|0:0,0:0:0:0:
327,166,273221,2,0,L|309:191,2,31.3499996173096,0|0|0,0:0|3:0|3:0,0:0:0:0:
350,130,273480,2,0,P|380:121|411:122,1,62.6999992346192,8|8,0:0|0:0,0:0:0:0:
507,167,273824,1,6,0:0:0:0:
256,192,273911,12,2,276238,0:0:0:0:
17,229,276583,6,0,P|94:268|185:244,1,184.799994360352,2|0,0:0|0:0,0:0:0:0:
284,242,278480,2,0,P|290:279|282:317,1,69.2999978851319,2|2,0:0|0:0,0:0:0:0:
148,241,279342,6,0,B|134:278|159:310|159:310|218:248|159:206|152:155|170:106|186:68,1,323.399990130616,2|2,0:0|0:0,0:0:0:0:
249,157,282100,2,0,P|282:82|339:66,1,138.599995770264,2|2,0:0|0:0,0:0:0:0:
423,141,283480,2,0,P|389:154|324:145,1,92.3999971801759,2|2,0:0|0:0,0:0:0:0:
321,228,284859,6,0,B|398:252|464:209|464:209|420:283|437:359|437:359|467:336|506:342|506:342,1,369.599988720703,2|2,0:0|0:0,0:0:0:0:
321,228,288997,2,0,P|277:237|230:231,1,92.3999971801759,2|2,0:0|0:0,0:0:0:0:
97,289,290376,6,0,B|153:307|194:247|194:247|240:292|289:254|289:254|341:289|371:265|384:234|341:198|321:228,1,369.599988720703,2|2,0:0|0:0,0:0:0:0:
22,171,294514,6,0,B|73:148|143:53|97:15|97:15|0:103|263:187|95:397|67:388|44:389|9:381|-7:337|28:283|59:308|153:280|164:466|328:333|328:333|371:359|371:359|421:301|479:331|479:331|422:301|345:156|393:117|470:99|502:230|359:232|299:201|299:201|266:205|257:233|265:270|319:270|322:228,1,1616.99995065308,6|0,0:0|0:0,0:0:0:0:
