osu file format v14

[General]
AudioFilename: audio.mp3
AudioLeadIn: 0
PreviewTime: 107587
Countdown: 0
SampleSet: None
StackLeniency: 0.7
Mode: 3
LetterboxInBreaks: 1
SpecialStyle: 0
WidescreenStoryboard: 1

[Editor]
Bookmarks: 75127,218579
DistanceSpacing: 0.8
BeatDivisor: 8
GridSize: 16
TimelineZoom: 2.499999

[Metadata]
Title:crystallized
TitleUnicode:crystallized
Artist:Camellia
ArtistUnicode:Camellia
Creator:Evening
Version:__listen.\
Source:
Tags:
BeatmapID:944128
BeatmapSetID:438613

[Difficulty]
HPDrainRate:8
CircleSize:4
OverallDifficulty:7
ApproachRate:5
SliderMultiplier:1.4
SliderTickRate:1

[Events]
//Background and Video events
0,0,"ok.jpg",0,0
//Break Periods
//Storyboard Layer 0 (Background)
//Storyboard Layer 1 (Fail)
//Storyboard Layer 2 (Pass)
//Storyboard Layer 3 (Foreground)
//Storyboard Sound Samples

[TimingPoints]
8924,344.827586206897,4,1,0,5,1,0
8924,-125,4,1,0,5,0,0
18579,-120.481927710843,4,1,0,5,0,0
18924,-116.279069767442,4,1,0,5,0,0
19268,-111.111111111111,4,1,0,5,0,0
19613,-107.52688172043,4,1,0,5,0,0
19958,-105.263157894737,4,1,0,5,0,0
25475,-105.263157894737,4,1,0,5,0,0
26165,-100,4,1,0,5,0,0
29613,-97.0873786407767,4,1,0,5,0,0
29958,-95.2380952380952,4,1,0,5,0,0
30303,-92.5925925925926,4,1,0,5,0,0
30648,-87.719298245614,4,1,0,5,0,0
30820,-83.3333333333333,4,1,0,5,0,0
30906,-76.9230769230769,4,1,0,5,0,0
30992,-100,4,1,0,5,0,0
50303,265.251989389921,4,1,0,5,1,0
50346,492.610837438425,4,1,0,5,1,0
50389,265.251989389921,4,1,0,5,1,0
50432,492.610837438425,4,1,0,5,1,0
50475,265.251989389921,4,1,0,5,1,0
50518,492.610837438425,4,1,0,5,1,0
50561,265.251989389921,4,1,0,5,1,0
50605,492.610837438425,4,1,0,5,1,0
50648,246.305418719212,4,1,0,5,1,0
50691,574.712643678163,4,1,0,5,1,0
50734,246.305418719212,4,1,0,5,1,0
50777,574.712643678163,4,1,0,5,1,0
50820,229.885057471265,4,1,0,5,1,0
50863,689.655172413794,4,1,0,5,1,0
50906,229.885057471265,4,1,0,5,1,0
50949,689.655172413794,4,1,0,5,1,0
50992,215.517241379311,4,1,0,5,1,0
51036,862.068965517243,4,1,0,5,1,0
51079,215.517241379311,4,1,0,5,1,0
51122,862.068965517243,4,1,0,5,1,0
51165,202.839756592292,4,1,0,5,1,0
51208,1149.42528735632,4,1,0,5,1,0
51251,202.839756592292,4,1,0,5,1,0
51294,1149.42528735632,4,1,0,5,1,0
51337,191.570881226054,4,1,0,5,1,0
51380,1724.13793103449,4,1,0,5,1,0
51424,191.570881226054,4,1,0,5,1,0
51467,1724.13793103449,4,1,0,5,1,0
51510,181.488203266788,4,1,0,5,1,0
51553,3448.27586206897,4,1,0,5,1,0
51596,181.488203266788,4,1,0,5,1,0
51639,3448.27586206897,4,1,0,5,1,0
51682,172.413793103449,4,1,0,5,1,0
51711,60000,4,1,0,5,1,0
51740,172.413793103449,4,1,0,5,1,0
51768,60000,4,1,0,5,1,0
51797,172.413793103449,4,1,0,5,1,0
51826,60000,4,1,0,5,1,0
51855,172.413793103449,4,1,0,5,1,0
51883,60000,4,1,0,5,1,0
51912,172.413793103449,4,1,0,5,1,0
51941,60000,4,1,0,5,1,0
51969,172.413793103449,4,1,0,5,1,0
51998,60000,4,1,0,5,1,0
52027,172.413793103449,4,1,0,5,1,0
52056,60000,4,1,0,5,1,0
52084,172.413793103449,4,1,0,5,1,0
52113,60000,4,1,0,5,1,0
52142,172.413793103449,4,1,0,5,1,0
52171,60000,4,1,0,5,1,0
52199,172.413793103449,4,1,0,5,1,0
52228,60000,4,1,0,5,1,0
52257,172.413793103449,4,1,0,5,1,0
52286,60000,4,1,0,5,1,0
52314,172.413793103449,4,1,0,5,1,0
52343,60000,4,1,0,5,1,0
52372,344.827586206897,4,1,0,5,1,0
52372,431.034482758621,4,1,0,15,1,0
52372,-100,4,1,0,5,0,0
52378.89,428.357249946456,4,1,0,15,1,0
52385.78,425.713069391231,4,1,0,15,1,0
52392.67,423.101332769199,4,1,0,15,1,0
52399.56,420.521446593777,4,1,0,15,1,0
52406.45,417.972831765936,4,1,0,15,1,0
52413.34,415.45492314084,4,1,0,15,1,0
52420.23,412.967169110056,4,1,0,15,1,0
52427.12,410.509031198687,4,1,0,15,1,0
52434.01,408.079983676801,4,1,0,15,1,0
52440.9,405.679513184585,4,1,0,15,1,0
52447.79,403.30711837064,4,1,0,15,1,0
52454.68,400.962309542903,4,1,0,15,1,0
52461.57,398.644608331673,4,1,0,15,1,0
52468.46,396.353547364249,4,1,0,15,1,0
52475.35,394.088669950739,4,1,0,15,1,0
52482.24,391.849529780565,4,1,0,15,1,0
52489.13,389.635690629262,4,1,0,15,1,0
52496.02,387.446726075165,4,1,0,15,1,0
52502.91,385.282219225583,4,1,0,15,1,0
52509.8,383.141762452108,4,1,0,15,1,0
52516.69,381.024957134693,4,1,0,15,1,0
52523.58,378.931413414172,4,1,0,15,1,0
52530.47,376.860749952893,4,1,0,15,1,0
52537.36,374.812593703149,4,1,0,15,1,0
52544.25,372.786579683132,4,1,0,15,1,0
52551.14,370.782350760104,4,1,0,15,1,0
52558.03,368.799557440531,4,1,0,15,1,0
52564.92,366.837857666912,4,1,0,15,1,0
52571.81,364.896916621055,4,1,0,15,1,0
52578.7,362.976406533576,4,1,0,15,1,0
52585.59,361.076006499369,4,1,0,15,1,0
52592.48,359.195402298851,4,1,0,15,1,0
52599.37,357.334286224764,4,1,0,15,1,0
52606.26,355.492356914327,4,1,0,15,1,0
52613.15,353.669319186561,4,1,0,15,1,0
52620.04,351.864883884589,4,1,0,15,1,0
52626.93,350.078767722738,4,1,0,15,1,0
52633.82,348.31069313828,4,1,0,15,1,0
52640.71,346.560388147635,4,1,0,15,1,0
52647.6,344.827586206897,4,1,0,15,1,0
52654.49,343.112026076514,4,1,0,15,1,0
52661.38,341.413451689997,4,1,0,15,1,0
52668.27,339.731612026499,4,1,0,15,1,0
52675.16,338.066260987154,4,1,0,15,1,0
52682.05,336.417157275021,4,1,0,15,1,0
52688.94,334.784064278541,4,1,0,15,1,0
52695.83,333.166749958355,4,1,0,15,1,0
52702.72,331.564986737401,4,1,0,15,1,0
52709.61,329.97855139416,4,1,0,15,1,0
52716.5,328.40722495895,4,1,0,15,1,0
52723.39,326.850792613172,4,1,0,15,1,0
52730.28,325.309043591412,4,1,0,15,1,0
52737.17,323.781771086288,4,1,0,15,1,0
52744.06,322.268772155978,4,1,0,15,1,0
52750.95,320.769847634323,4,1,0,15,1,0
52757.84,319.284802043423,4,1,0,15,1,0
52764.73,317.813443508661,4,1,0,15,1,0
52771.62,316.355583676052,4,1,0,15,1,0
52778.51,314.911037631869,4,1,0,15,1,0
52785.4,313.479623824452,4,1,0,15,1,0
52792.29,312.061163988142,4,1,0,15,1,0
52799.18,310.655483069277,4,1,0,15,1,0
52806.07,309.262409154168,4,1,0,15,1,0
52812.96,307.881773399015,4,1,0,15,1,0
52819.85,306.513409961686,4,1,0,15,1,0
52826.74,305.157155935307,4,1,0,15,1,0
52833.63,303.81285128361,4,1,0,15,1,0
52840.52,302.48033877798,4,1,0,15,1,0
52847.41,301.159463936155,4,1,0,15,1,0
52854.3,299.850074962519,4,1,0,15,1,0
52861.19,298.552022689954,4,1,0,15,1,0
52868.08,297.265160523187,4,1,0,15,1,0
52874.97,295.989344383603,4,1,0,15,1,0
52881.86,294.724432655468,4,1,0,15,1,0
52888.75,293.470286133529,4,1,0,15,1,0
52895.64,292.226767971947,4,1,0,15,1,0
52902.53,290.993743634512,4,1,0,15,1,0
52909.42,289.771080846132,4,1,0,15,1,0
52916.31,288.558649545521,4,1,0,15,1,0
52923.2,287.356321839081,4,1,0,15,1,0
52930.09,286.163971955931,4,1,0,15,1,0
52936.98,284.981476204047,4,1,0,15,1,0
52943.87,283.808712927487,4,1,0,15,1,0
52950.76,282.64556246467,4,1,0,15,1,0
52957.65,281.491907107671,4,1,0,15,1,0
52964.54,280.347631062518,4,1,0,15,1,0
52971.43,279.212620410443,4,1,0,15,1,0
52978.32,278.086763070078,4,1,0,15,1,0
52985.21,276.96994876056,4,1,0,15,1,0
52992.1,275.862068965518,4,1,0,15,1,0
52998.99,274.763016897926,4,1,0,15,1,0
53005.88,273.672687465791,4,1,0,15,1,0
53012.77,272.590977238654,4,1,0,15,1,0
53019.66,271.51778441488,4,1,0,15,1,0
53026.55,270.453008789723,4,1,0,15,1,0
53033.44,269.396551724138,4,1,0,15,1,0
53040.33,268.348316114317,4,1,0,15,1,0
53047.22,267.308206361936,4,1,0,15,1,0
53054.11,266.276128345094,4,1,0,15,1,0
53061,265.251989389921,4,1,0,15,1,0
53751,1,4,1,0,15,1,0
53754.45,86.6292139698272,4,1,0,15,1,0
53757.9,87.055689524589,4,1,0,15,1,0
53761.35,87.4863849313452,4,1,0,15,1,0
53764.8,87.9213631328141,4,1,0,15,1,0
53768.25,88.3606883297622,4,1,0,15,1,0
53771.7,88.8044260125926,4,1,0,15,1,0
53775.15,89.2526429938908,4,1,0,15,1,0
53778.6,89.7054074419607,4,1,0,15,1,0
53782.05,90.1627889153868,4,1,0,15,1,0
53785.5,90.6248583986589,4,1,0,15,1,0
53788.95,91.0916883388976,4,1,0,15,1,0
53792.4,91.563352683722,4,1,0,15,1,0
53795.85,92.0399269202981,4,1,0,15,1,0
53799.3,92.521488115615,4,1,0,15,1,0
53802.75,93.0081149580302,4,1,0,15,1,0
53806.2,93.4998878001348,4,1,0,15,1,0
53809.65,93.9968887029841,4,1,0,15,1,0
53813.1,94.4992014817476,4,1,0,15,1,0
53816.55,95.0069117528301,4,1,0,15,1,0
53820,95.5201069825199,4,1,0,15,1,0
53823.45,96.0388765372224,4,1,0,15,1,0
53826.9,96.5633117353394,4,1,0,15,1,0
53830.35,97.0935059008579,4,1,0,15,1,0
53833.8,97.6295544187138,4,1,0,15,1,0
53837.25,98.1715547919991,4,1,0,15,1,0
53840.7,98.719606701087,4,1,0,15,1,0
53844.15,99.2738120647465,4,1,0,15,1,0
53847.6,99.8342751033286,4,1,0,15,1,0
53851.05,100.401102404105,4,1,0,15,1,0
53854.5,100.974402988842,4,1,0,15,1,0
53857.95,101.554288383713,4,1,0,15,1,0
53861.4,102.140872691616,4,1,0,15,1,0
53864.85,102.734272667033,4,1,0,15,1,0
53868.3,103.334607793496,4,1,0,15,1,0
53871.75,103.942000363797,4,1,0,15,1,0
53875.2,104.556575563037,4,1,0,15,1,0
53878.65,105.178461554643,4,1,0,15,1,0
53882.1,105.807789569468,4,1,0,15,1,0
53885.55,106.444693998116,4,1,0,15,1,0
53889,107.089312486614,4,1,0,15,1,0
53892.45,107.741786035587,4,1,0,15,1,0
53895.9,108.40225910308,4,1,0,15,1,0
53899.35,109.07087971118,4,1,0,15,1,0
53902.8,109.747799556619,4,1,0,15,1,0
53906.25,110.433174125507,4,1,0,15,1,0
53909.7,111.127162812406,4,1,0,15,1,0
53913.15,111.82992904391,4,1,0,15,1,0
53916.6,112.541640406951,4,1,0,15,1,0
53920.05,113.262468782032,4,1,0,15,1,0
53923.5,113.992590481619,4,1,0,15,1,0
53926.95,114.73218639391,4,1,0,15,1,0
53930.4,115.48144213225,4,1,0,15,1,0
53933.85,116.240548190425,4,1,0,15,1,0
53937.3,117.009700104139,4,1,0,15,1,0
53940.75,117.789098618923,4,1,0,15,1,0
53944.2,118.57894986482,4,1,0,15,1,0
53947.65,119.379465538133,4,1,0,15,1,0
53951.1,120.190863090588,4,1,0,15,1,0
53954.55,121.013365926267,4,1,0,15,1,0
53958,121.847203606677,4,1,0,15,1,0
53961.45,122.692612064365,4,1,0,15,1,0
53964.9,123.549833825474,4,1,0,15,1,0
53968.35,124.419118241709,4,1,0,15,1,0
53971.8,125.300721732157,4,1,0,15,1,0
53975.25,126.194908035461,4,1,0,15,1,0
53978.7,127.10194847287,4,1,0,15,1,0
53982.15,128.02212222272,4,1,0,15,1,0
53985.6,128.955716606917,4,1,0,15,1,0
53989.05,129.903027390053,4,1,0,15,1,0
53992.5,130.864359091802,4,1,0,15,1,0
53995.95,131.840025313285,4,1,0,15,1,0
53999.4,132.830349078158,4,1,0,15,1,0
54002.85,133.83566318917,4,1,0,15,1,0
54006.3,134.856310601055,4,1,0,15,1,0
54009.75,135.8926448106,4,1,0,15,1,0
54013.2,136.945030264852,4,1,0,15,1,0
54016.65,138.013842788432,4,1,0,15,1,0
54020.1,139.099470031019,4,1,0,15,1,0
54023.55,140.202311936124,4,1,0,15,1,0
54027,141.322781232335,4,1,0,15,1,0
54030.45,142.461303948315,4,1,0,15,1,0
54033.9,143.618319952893,4,1,0,15,1,0
54037.35,144.794283521687,4,1,0,15,1,0
54040.8,145.989663931794,4,1,0,15,1,0
54044.25,147.204946086189,4,1,0,15,1,0
54047.7,148.440631169564,4,1,0,15,1,0
54051.15,149.697237337485,4,1,0,15,1,0
54054.6,150.975300440848,4,1,0,15,1,0
54058.05,152.275374787766,4,1,0,15,1,0
54061.5,153.598033945166,4,1,0,15,1,0
54064.95,154.943871582519,4,1,0,15,1,0
54068.4,156.313502360334,4,1,0,15,1,0
54071.85,157.707562866177,4,1,0,15,1,0
54075.3,159.126712601245,4,1,0,15,1,0
54078.75,160.571635020674,4,1,0,15,1,0
54082.2,162.043038631061,4,1,0,15,1,0
54085.65,163.541658148872,4,1,0,15,1,0
54089.1,165.068255723742,4,1,0,15,1,0
54092.55,166.623622230924,4,1,0,15,1,0
54096,168.208578637511,4,1,0,15,1,0
54099.45,169.823977447376,4,1,0,15,1,0
54102.9,171.470704230182,4,1,0,15,1,0
54106.35,173.149679240219,4,1,0,15,1,0
54109.8,174.861859131287,4,1,0,15,1,0
54113.25,176.608238774339,4,1,0,15,1,0
54116.7,178.389853185151,4,1,0,15,1,0
54120.15,180.207779569844,4,1,0,15,1,0
54123.6,182.063139496778,4,1,0,15,1,0
54127.05,183.957101203999,4,1,0,15,1,0
54130.5,185.890882052236,4,1,0,15,1,0
54133.95,187.86575113424,4,1,0,15,1,0
54137.4,189.883032052256,4,1,0,15,1,0
54140.85,191.944105876369,4,1,0,15,1,0
54144.3,194.050414297635,4,1,0,15,1,0
54147.75,196.203462991122,4,1,0,15,1,0
54151.2,198.404825205349,4,1,0,15,1,0
54154.65,200.6561455961,4,1,0,15,1,0
54158.1,202.959144324248,4,1,0,15,1,0
54161.55,205.315621439057,4,1,0,15,1,0
54165,207.72746157042,4,1,0,15,1,0
54168.45,210.196638955743,4,1,0,15,1,0
54171.9,212.725222829671,4,1,0,15,1,0
54175.35,215.315383207554,4,1,0,15,1,0
54178.8,217.969397096648,4,1,0,15,1,0
54182.25,220.689655172414,4,1,0,15,1,0
54185.7,223.478668961048,4,1,0,15,1,0
54189.15,226.339078573611,4,1,0,15,1,0
54192.6,229.27366104182,4,1,0,15,1,0
54196.05,232.28533931081,4,1,0,15,1,0
54199.5,235.3771919501,4,1,0,15,1,0
54202.95,238.552463650569,4,1,0,15,1,0
54206.4,241.814576582677,4,1,0,15,1,0
54209.85,245.167142699536,4,1,0,15,1,0
54213.3,248.613977077792,4,1,0,15,1,0
54216.75,252.159112399925,4,1,0,15,1,0
54220.2,255.806814693544,4,1,0,15,1,0
54223.65,259.561600456829,4,1,0,15,1,0
54227.1,263.428255314665,4,1,0,15,1,0
54230.55,267.411854367504,4,1,0,15,1,0
54234,271.51778441488,4,1,0,15,1,0
54237.45,275.751768258214,4,1,0,15,1,0
54240.9,280.119891313482,4,1,0,15,1,0
54244.35,284.628630793972,4,1,0,15,1,0
54247.8,289.284887757464,4,1,0,15,1,0
54251.25,294.096022351298,4,1,0,15,1,0
54254.7,299.069892633909,4,1,0,15,1,0
54258.15,304.214897403526,4,1,0,15,1,0
54261.6,309.540023525042,4,1,0,15,1,0
54265.05,315.054898316032,4,1,0,15,1,0
54268.5,320.769847634323,4,1,0,15,1,0
54271.95,326.69596040445,4,1,0,15,1,0
54275.4,332.845160431368,4,1,0,15,1,0
54278.85,339.230286479977,4,1,0,15,1,0
54282.3,345.865181752153,4,1,0,15,1,0
54285.75,352.764794073552,4,1,0,15,1,0
54289.2,359.945288316176,4,1,0,15,1,0
54292.65,367.424172836331,4,1,0,15,1,0
54296.1,375.220442009681,4,1,0,15,1,0
54299.55,383.354737306167,4,1,0,15,1,0
54303,391.849529780565,4,1,0,15,1,0
54306.45,400.729327375825,4,1,0,15,1,0
54309.9,410.020911066465,4,1,0,15,1,0
54313.35,419.75360463408,4,1,0,15,1,0
54316.8,429.959583799123,4,1,0,15,1,0
54320.25,440.674231574309,4,1,0,15,1,0
54323.7,451.936548108646,4,1,0,15,1,0
54327.15,463.789625026089,4,1,0,15,1,0
54330.6,476.281196418366,4,1,0,15,1,0
54334.05,489.46428134407,4,1,0,15,1,0
54337.5,503.397936068463,4,1,0,15,1,0
54340.95,518.148138552813,4,1,0,15,1,0
54344.4,533.788833137611,4,1,0,15,1,0
54347.85,550.403170322261,4,1,0,15,1,0
54351.3,568.084985513834,4,1,0,15,1,0
54354.75,586.940572267059,4,1,0,15,1,0
54358.2,607.09082078679,4,1,0,15,1,0
54361.65,628.673812592337,4,1,0,15,1,0
54365.1,651.847989048954,4,1,0,15,1,0
54368.55,676.796047511083,4,1,0,15,1,0
54372,703.729767769177,4,1,0,15,1,0
54375.45,732.896038696912,4,1,0,15,1,0
54378.9,764.584448352321,4,1,0,15,1,0
54382.35,799.136932113318,4,1,0,15,1,0
54385.8,836.960160696352,4,1,0,15,1,0
54389.25,878.541620909292,4,1,0,15,1,0
54392.7,924.470740501064,4,1,0,15,1,0
54396.15,975.467004828562,4,1,0,15,1,0
54399.6,1032.41792277514,4,1,0,15,1,0
54403.05,1096.43111671509,4,1,0,15,1,0
54406.5,1168.90707188779,4,1,0,15,1,0
54409.95,1251.64278115026,4,1,0,15,1,0
54413.4,1346.98275862069,4,1,0,15,1,0
54416.85,1458.04476197419,4,1,0,15,1,0
54420.3,1589.0672175433,4,1,0,15,1,0
54423.75,1745.96246180708,4,1,0,15,1,0
54427.2,1937.23363037583,4,1,0,15,1,0
54430.65,2175.56836723594,4,1,0,15,1,0
54434.1,2480.77400148846,4,1,0,15,1,0
54437.55,2885.58649545521,4,1,0,15,1,0
54441,344.827586206897,4,1,0,15,1,0
54441,-57.1428571428571,4,1,0,15,0,0
54484,-100,4,1,0,15,0,0
54958,-57.1428571428571,4,1,0,15,0,0
55001,-100,4,1,0,15,0,0
55475,-57.1428571428571,4,1,0,15,0,0
55518,-100,4,1,0,15,0,0
56165,1,4,1,0,15,1,0
56167,344.827586206897,4,1,0,15,1,0
56170,344.827586206897,4,1,0,15,1,0
56173,344.827586206897,4,1,0,15,1,0
56176,344.827586206897,4,1,0,15,1,0
56179,344.827586206897,4,1,0,15,1,0
56182,344.827586206897,4,1,0,15,1,0
56185,344.827586206897,4,1,0,15,1,0
56188,344.827586206897,4,1,0,15,1,0
56191,344.827586206897,4,1,0,15,1,0
56194,344.827586206897,4,1,0,15,1,0
56197,344.827586206897,4,1,0,15,1,0
56200,344.827586206897,4,1,0,15,1,0
56203,344.827586206897,4,1,0,15,1,0
56206,344.827586206897,4,1,0,15,1,0
56209,344.827586206897,4,1,0,15,1,0
56212,344.827586206897,4,1,0,15,1,0
56215,344.827586206897,4,1,0,15,1,0
56218,344.827586206897,4,1,0,15,1,0
56221,344.827586206897,4,1,0,15,1,0
56224,344.827586206897,4,1,0,15,1,0
56227,344.827586206897,4,1,0,15,1,0
56230,344.827586206897,4,1,0,15,1,0
56233,344.827586206897,4,1,0,15,1,0
56236,344.827586206897,4,1,0,15,1,0
56241,344.827586206897,4,1,0,15,1,0
56246,344.827586206897,4,1,0,15,1,0
56251,344.827586206897,4,1,0,15,1,0
56256,344.827586206897,4,1,0,15,1,0
56261,344.827586206897,4,1,0,15,1,0
56266,344.827586206897,4,1,0,15,1,0
56271,344.827586206897,4,1,0,15,1,0
56277,344.827586206897,4,1,0,15,1,0
56283,344.827586206897,4,1,0,15,1,0
56289,344.827586206897,4,1,0,15,1,0
56295,344.827586206897,4,1,0,15,1,0
56301,344.827586206897,4,1,0,15,1,0
56310,344.827586206897,4,1,0,15,1,0
56319,344.827586206897,4,1,0,15,1,0
56328,344.827586206897,4,1,0,15,1,0
56337,344.827586206897,4,1,0,15,1,0
56339,344.827586206897,4,1,0,15,1,0
56342,344.827586206897,4,1,0,15,1,0
56345,344.827586206897,4,1,0,15,1,0
56348,344.827586206897,4,1,0,15,1,0
56351,344.827586206897,4,1,0,15,1,0
56354,344.827586206897,4,1,0,15,1,0
56357,344.827586206897,4,1,0,15,1,0
56360,344.827586206897,4,1,0,15,1,0
56363,344.827586206897,4,1,0,15,1,0
56366,344.827586206897,4,1,0,15,1,0
56369,344.827586206897,4,1,0,15,1,0
56372,344.827586206897,4,1,0,15,1,0
56375,344.827586206897,4,1,0,15,1,0
56378,344.827586206897,4,1,0,15,1,0
56381,344.827586206897,4,1,0,15,1,0
56384,344.827586206897,4,1,0,15,1,0
56387,344.827586206897,4,1,0,15,1,0
56390,344.827586206897,4,1,0,15,1,0
56393,344.827586206897,4,1,0,15,1,0
56396,344.827586206897,4,1,0,15,1,0
56399,344.827586206897,4,1,0,15,1,0
56402,344.827586206897,4,1,0,15,1,0
56405,344.827586206897,4,1,0,15,1,0
56408,344.827586206897,4,1,0,15,1,0
56413,344.827586206897,4,1,0,15,1,0
56418,344.827586206897,4,1,0,15,1,0
56423,344.827586206897,4,1,0,15,1,0
56428,344.827586206897,4,1,0,15,1,0
56433,344.827586206897,4,1,0,15,1,0
56438,344.827586206897,4,1,0,15,1,0
56443,344.827586206897,4,1,0,15,1,0
56449,344.827586206897,4,1,0,15,1,0
56455,344.827586206897,4,1,0,15,1,0
56461,344.827586206897,4,1,0,15,1,0
56467,344.827586206897,4,1,0,15,1,0
56473,344.827586206897,4,1,0,15,1,0
56482,344.827586206897,4,1,0,15,1,0
56491,344.827586206897,4,1,0,15,1,0
56500,344.827586206897,4,1,0,15,1,0
56509,344.827586206897,4,1,0,15,1,0
56511,344.827586206897,4,1,0,15,1,0
56514,344.827586206897,4,1,0,15,1,0
56517,344.827586206897,4,1,0,15,1,0
56520,344.827586206897,4,1,0,15,1,0
56523,344.827586206897,4,1,0,15,1,0
56526,344.827586206897,4,1,0,15,1,0
56529,344.827586206897,4,1,0,15,1,0
56532,344.827586206897,4,1,0,15,1,0
56535,344.827586206897,4,1,0,15,1,0
56538,344.827586206897,4,1,0,15,1,0
56541,344.827586206897,4,1,0,15,1,0
56544,344.827586206897,4,1,0,15,1,0
56547,344.827586206897,4,1,0,15,1,0
56550,344.827586206897,4,1,0,15,1,0
56553,344.827586206897,4,1,0,15,1,0
56556,344.827586206897,4,1,0,15,1,0
56559,344.827586206897,4,1,0,15,1,0
56562,344.827586206897,4,1,0,15,1,0
56565,344.827586206897,4,1,0,15,1,0
56568,344.827586206897,4,1,0,15,1,0
56571,344.827586206897,4,1,0,15,1,0
56574,344.827586206897,4,1,0,15,1,0
56577,344.827586206897,4,1,0,15,1,0
56580,344.827586206897,4,1,0,15,1,0
56585,344.827586206897,4,1,0,15,1,0
56590,344.827586206897,4,1,0,15,1,0
56595,344.827586206897,4,1,0,15,1,0
56600,344.827586206897,4,1,0,15,1,0
56605,344.827586206897,4,1,0,15,1,0
56610,344.827586206897,4,1,0,15,1,0
56615,344.827586206897,4,1,0,15,1,0
56621,344.827586206897,4,1,0,15,1,0
56627,344.827586206897,4,1,0,15,1,0
56633,344.827586206897,4,1,0,15,1,0
56639,344.827586206897,4,1,0,15,1,0
56645,344.827586206897,4,1,0,15,1,0
56654,344.827586206897,4,1,0,15,1,0
56663,344.827586206897,4,1,0,15,1,0
56672,344.827586206897,4,1,0,15,1,0
56681,344.827586206897,4,1,0,15,1,0
56683,344.827586206897,4,1,0,15,1,0
56686,344.827586206897,4,1,0,15,1,0
56689,344.827586206897,4,1,0,15,1,0
56692,344.827586206897,4,1,0,15,1,0
56695,344.827586206897,4,1,0,15,1,0
56698,344.827586206897,4,1,0,15,1,0
56701,344.827586206897,4,1,0,15,1,0
56704,344.827586206897,4,1,0,15,1,0
56707,344.827586206897,4,1,0,15,1,0
56710,344.827586206897,4,1,0,15,1,0
56713,344.827586206897,4,1,0,15,1,0
56716,344.827586206897,4,1,0,15,1,0
56719,344.827586206897,4,1,0,15,1,0
56722,344.827586206897,4,1,0,15,1,0
56725,344.827586206897,4,1,0,15,1,0
56728,344.827586206897,4,1,0,15,1,0
56731,344.827586206897,4,1,0,15,1,0
56734,344.827586206897,4,1,0,15,1,0
56737,344.827586206897,4,1,0,15,1,0
56740,344.827586206897,4,1,0,15,1,0
56743,344.827586206897,4,1,0,15,1,0
56746,344.827586206897,4,1,0,15,1,0
56749,344.827586206897,4,1,0,15,1,0
56752,344.827586206897,4,1,0,15,1,0
56757,344.827586206897,4,1,0,15,1,0
56762,344.827586206897,4,1,0,15,1,0
56767,344.827586206897,4,1,0,15,1,0
56772,344.827586206897,4,1,0,15,1,0
56777,344.827586206897,4,1,0,15,1,0
56782,344.827586206897,4,1,0,15,1,0
56787,344.827586206897,4,1,0,15,1,0
56793,344.827586206897,4,1,0,15,1,0
56799,344.827586206897,4,1,0,15,1,0
56805,344.827586206897,4,1,0,15,1,0
56811,344.827586206897,4,1,0,15,1,0
56817,344.827586206897,4,1,0,15,1,0
56826,344.827586206897,4,1,0,15,1,0
56835,344.827586206897,4,1,0,15,1,0
56844,400,4,1,0,15,1,0
57199,344.827586206897,4,1,0,15,1,0
57199,-57.1428571428571,4,1,0,15,0,0
57242,-100,4,1,0,15,0,0
57716,-57.1428571428571,4,1,0,15,0,0
57759,-100,4,1,0,15,0,0
58233,-57.1428571428571,4,1,0,15,0,0
58276,-100,4,1,0,15,0,0
58923,60000,4,1,0,15,1,0
59073,6,4,1,0,15,1,0
59077,6,4,1,0,15,1,0
59081,6,4,1,0,15,1,0
59085,6,4,1,0,15,1,0
59089,6,4,1,0,15,1,0
59093,6,4,1,0,15,1,0
59095,60000,4,1,0,15,1,0
59245,6,4,1,0,15,1,0
59248,6,4,1,0,15,1,0
59251,6,4,1,0,15,1,0
59254,6,4,1,0,15,1,0
59257,6,4,1,0,15,1,0
59260,6,4,1,0,15,1,0
59263,6,4,1,0,15,1,0
59267,60000,4,1,0,15,1,0
59417,6,4,1,0,15,1,0
59419,6,4,1,0,15,1,0
59421,6,4,1,0,15,1,0
59423,6,4,1,0,15,1,0
59425,6,4,1,0,15,1,0
59427,6,4,1,0,15,1,0
59429,6,4,1,0,15,1,0
59431,6,4,1,0,15,1,0
59433,6,4,1,0,15,1,0
59435,6,4,1,0,15,1,0
59440,60000,4,1,0,15,1,0
59590,6,4,1,0,15,1,0
59591,6,4,1,0,15,1,0
59593,6,4,1,0,15,1,0
59595,6,4,1,0,15,1,0
59597,6,4,1,0,15,1,0
59599,6,4,1,0,15,1,0
59601,6,4,1,0,15,1,0
59603,6,4,1,0,15,1,0
59605,6,4,1,0,15,1,0
59607,6,4,1,0,15,1,0
59612,344.827586206897,4,1,0,15,1,0
59612,172.413793103449,4,1,0,15,1,0
59614,173.37136751706,4,1,0,15,1,0
59616,174.339637941171,4,1,0,15,1,0
59618,175.318784592333,4,1,0,15,1,0
59620,176.30899175858,4,1,0,15,1,0
59622,177.310447915056,4,1,0,15,1,0
59624,178.323345843615,4,1,0,15,1,0
59626,179.347882756535,4,1,0,15,1,0
59628,180.384260424532,4,1,0,15,1,0
59630,181.432685309227,4,1,0,15,1,0
59632,182.493368700265,4,1,0,15,1,0
59634,183.566526857277,4,1,0,15,1,0
59636,184.652381156869,4,1,0,15,1,0
59638,185.751158244868,4,1,0,15,1,0
59640,186.863090194034,4,1,0,15,1,0
59642,187.988414667468,4,1,0,15,1,0
59644,189.127375087966,4,1,0,15,1,0
59646,190.280220813559,4,1,0,15,1,0
59648,191.447207319517,4,1,0,15,1,0
59650,192.628596387094,4,1,0,15,1,0
59652,193.824656299302,4,1,0,15,1,0
59654,195.035662044019,4,1,0,15,1,0
59656,196.261895524773,4,1,0,15,1,0
59658,197.503645779508,4,1,0,15,1,0
59660,198.761209207729,4,1,0,15,1,0
59662,200.034889806362,4,1,0,15,1,0
59664,201.324999414753,4,1,0,15,1,0
59666,202.631857969205,4,1,0,15,1,0
59668,203.955793767491,4,1,0,15,1,0
59670,205.297143743809,4,1,0,15,1,0
59672,206.656253754656,4,1,0,15,1,0
59674,208.033478876136,4,1,0,15,1,0
59676,209.429183713228,4,1,0,15,1,0
59678,210.843742721601,4,1,0,15,1,0
59680,212.277540542542,4,1,0,15,1,0
59682,213.730972351662,4,1,0,15,1,0
59684,215.204444222011,4,1,0,15,1,0
59686,216.698373502325,4,1,0,15,1,0
59688,218.213189211134,4,1,0,15,1,0
59690,219.749332447522,4,1,0,15,1,0
59692,221.307256819352,4,1,0,15,1,0
59694,222.887428889839,4,1,0,15,1,0
59696,224.4903286434,4,1,0,15,1,0
59698,226.116449971736,4,1,0,15,1,0
59700,227.766301181207,4,1,0,15,1,0
59702,229.440405522577,4,1,0,15,1,0
59704,231.139301744296,4,1,0,15,1,0
59706,232.863544670539,4,1,0,15,1,0
59708,234.613705805325,4,1,0,15,1,0
59710,236.390373964074,4,1,0,15,1,0
59712,238.194155934081,4,1,0,15,1,0
59714,240.025677165465,4,1,0,15,1,0
59716,241.885582494234,4,1,0,15,1,0
59718,243.774536899245,4,1,0,15,1,0
59720,245.693226294889,4,1,0,15,1,0
59722,247.642358361529,4,1,0,15,1,0
59724,249.622663415767,4,1,0,15,1,0
59726,251.63489532281,4,1,0,15,1,0
59728,253.67983245332,4,1,0,15,1,0
59730,255.758278687306,4,1,0,15,1,0
59732,257.871064467766,4,1,0,15,1,0
59734,260.019047906998,4,1,0,15,1,0
59736,262.203115948657,4,1,0,15,1,0
59738,264.424185588882,4,1,0,15,1,0
59740,266.68320516001,4,1,0,15,1,0
59742,268.981155680663,4,1,0,15,1,0
59744,271.319052276241,4,1,0,15,1,0
59746,273.697945674141,4,1,0,15,1,0
59748,276.118923778335,4,1,0,15,1,0
59750,278.583113328259,4,1,0,15,1,0
59752,281.091681647328,4,1,0,15,1,0
59754,283.645838486783,4,1,0,15,1,0
59756,286.246837970976,4,1,0,15,1,0
59758,288.895980650688,4,1,0,15,1,0
59760,291.594615671516,4,1,0,15,1,0
59762,294.344143064944,4,1,0,15,1,0
59764,297.146016170272,4,1,0,15,1,0
59766,300.001744196188,4,1,0,15,1,0
59768,302.912894931493,4,1,0,15,1,0
59770,305.881097615195,4,1,0,15,1,0
59772,308.908045977012,4,1,0,15,1,0
59774,311.995501460212,4,1,0,15,1,0
59776,315.145296639672,4,1,0,15,1,0
59778,318.359338849094,4,1,0,15,1,0
59780,321.639614032464,4,1,0,15,1,0
59782,324.988190836089,4,1,0,15,1,0
59784,328.40722495895,4,1,0,15,1,0
59786,331.898963780561,4,1,0,15,1,0
59788,335.465751287253,4,1,0,15,1,0
59790,339.110033319533,4,1,0,15,1,0
59792,342.834363165239,4,1,0,15,1,0
59794,346.641407525344,4,1,0,15,1,0
59796,350.533952881716,4,1,0,15,1,0
59798,354.514912298782,4,1,0,15,1,0
59800,358.587332693992,4,1,0,15,1,0
59802,362.754402615207,4,1,0,15,1,0
59804,367.019460566747,4,1,0,15,1,0
59806,371.386003929783,4,1,0,15,1,0
59808,375.857698527163,4,1,0,15,1,0
59810,380.438388887661,4,1,0,15,1,0
59812,385.132109270041,4,1,0,15,1,0
59814,389.943095513388,4,1,0,15,1,0
59816,394.875797786859,4,1,0,15,1,0
59818,399.93489431953,4,1,0,15,1,0
59820,405.12530619936,4,1,0,15,1,0
59822,410.452213339698,4,1,0,15,1,0
59824,415.921071722204,4,1,0,15,1,0
59826,421.537632036861,4,1,0,15,1,0
59828,427.307959852927,4,1,0,15,1,0
59830,433.238457469586,4,1,0,15,1,0
59832,439.33588761175,4,1,0,15,1,0
59834,445.607399155419,4,1,0,15,1,0
59836,452.06055508831,4,1,0,15,1,0
59838,458.703362935702,4,1,0,15,1,0
59840,465.544307908841,4,1,0,15,1,0
59842,472.592389064433,4,1,0,15,1,0
59844,479.857158799242,4,1,0,15,1,0
59846,487.348766044259,4,1,0,15,1,0
59848,495.078003569168,4,1,0,15,1,0
59850,503.056359860783,4,1,0,15,1,0
59852,511.296076099882,4,1,0,15,1,0
59854,519.81020883073,4,1,0,15,1,0
59856,528.612698998095,4,1,0,15,1,0
59858,537.718448119549,4,1,0,15,1,0
59860,547.143402468508,4,1,0,15,1,0
59862,556.904646268416,4,1,0,15,1,0
59864,567.020505043846,4,1,0,15,1,0
59866,577.510660443878,4,1,0,15,1,0
59868,588.396278051451,4,1,0,15,1,0
59870,599.700149925038,4,1,0,15,1,0
59872,611.446853892642,4,1,0,15,1,0
59874,623.66293194097,4,1,0,15,1,0
59876,636.377090424745,4,1,0,15,1,0
59878,649.620425274767,4,1,0,15,1,0
59880,663.426675923784,4,1,0,15,1,0
59882,677.832512315272,4,1,0,15,1,0
59884,692.877860135354,4,1,0,15,1,0
59886,708.606270341533,4,1,0,15,1,0
59888,725.065340190541,4,1,0,15,1,0
59890,742.30719433775,4,1,0,15,1,0
59892,760.389036251106,4,1,0,15,1,0
59894,779.373782228466,4,1,0,15,1,0
59896,799.330792824613,4,1,0,15,1,0
59898,820.336719607002,4,1,0,15,1,0
59900,842.476489028214,4,1,0,15,1,0
59902,865.844450037756,4,1,0,15,1,0
59904,890.545718131926,4,1,0,15,1,0
59906,916.697756222354,4,1,0,15,1,0
59908,944.432242477488,4,1,0,15,1,0
59910,973.897287809298,4,1,0,15,1,0
59912,1005.2600818235,4,1,0,15,1,0
59914,1038.71006703303,4,1,0,15,1,0
59916,1074.46276861569,4,1,0,15,1,0
59918,1112.7644432943,4,1,0,15,1,0
59920,1153.89775929156,4,1,0,15,1,0
59922,1198.18878439568,4,1,0,15,1,0
59924,1246.01564763837,4,1,0,15,1,0
59926,1297.81936165397,4,1,0,15,1,0
59928,1354.11746181704,4,1,0,15,1,0
59930,1415.52135626697,4,1,0,15,1,0
59932,1482.75862068966,4,1,0,15,1,0
59934,1556.70196397864,4,1,0,15,1,0
59936,1638.40731567918,4,1,0,15,1,0
59938,1729.16457223284,4,1,0,15,1,0
59940,1830.56619838229,4,1,0,15,1,0
59942,1944.60146975693,4,1,0,15,1,0
59944,2073.78828068483,4,1,0,15,1,0
59946,2221.36122949761,4,1,0,15,1,0
59948,2391.54616240267,4,1,0,15,1,0
59950,2589.97138985092,4,1,0,15,1,0
59952,2824.30213464697,4,1,0,15,1,0
59954,3105.25365589457,4,1,0,15,1,0
59956,344.827586206897,4,1,0,15,1,0
59956,-57.1428571428571,4,1,0,15,0,0
59999,-100,4,1,0,15,0,0
60473,-57.1428571428571,4,1,0,15,0,0
60516,-100,4,1,0,15,0,0
60990,-57.1428571428571,4,1,0,15,0,0
61033,-100,4,1,0,15,0,0
61680,6,4,1,0,15,1,0
61682,344.827586206897,4,1,0,15,1,0
61685,344.827586206897,4,1,0,15,1,0
61688,344.827586206897,4,1,0,15,1,0
61691,344.827586206897,4,1,0,15,1,0
61694,344.827586206897,4,1,0,15,1,0
61697,344.827586206897,4,1,0,15,1,0
61700,344.827586206897,4,1,0,15,1,0
61703,344.827586206897,4,1,0,15,1,0
61706,344.827586206897,4,1,0,15,1,0
61709,344.827586206897,4,1,0,15,1,0
61712,344.827586206897,4,1,0,15,1,0
61715,344.827586206897,4,1,0,15,1,0
61718,344.827586206897,4,1,0,15,1,0
61721,344.827586206897,4,1,0,15,1,0
61724,344.827586206897,4,1,0,15,1,0
61727,344.827586206897,4,1,0,15,1,0
61730,344.827586206897,4,1,0,15,1,0
61733,344.827586206897,4,1,0,15,1,0
61736,344.827586206897,4,1,0,15,1,0
61739,344.827586206897,4,1,0,15,1,0
61742,344.827586206897,4,1,0,15,1,0
61745,344.827586206897,4,1,0,15,1,0
61748,344.827586206897,4,1,0,15,1,0
61751,344.827586206897,4,1,0,15,1,0
61756,344.827586206897,4,1,0,15,1,0
61761,344.827586206897,4,1,0,15,1,0
61766,344.827586206897,4,1,0,15,1,0
61771,344.827586206897,4,1,0,15,1,0
61776,344.827586206897,4,1,0,15,1,0
61781,344.827586206897,4,1,0,15,1,0
61786,344.827586206897,4,1,0,15,1,0
61792,344.827586206897,4,1,0,15,1,0
61798,344.827586206897,4,1,0,15,1,0
61804,344.827586206897,4,1,0,15,1,0
61810,344.827586206897,4,1,0,15,1,0
61816,344.827586206897,4,1,0,15,1,0
61825,344.827586206897,4,1,0,15,1,0
61834,167.597765363129,4,1,0,15,1,0
61847,167.597765363129,4,1,0,15,1,0
61861,167.597765363129,4,1,0,15,1,0
61875,167.597765363129,4,1,0,15,1,0
61889,167.597765363129,4,1,0,15,1,0
61903,167.597765363129,4,1,0,15,1,0
61917,167.597765363129,4,1,0,15,1,0
61938,167.597765363129,4,1,0,15,1,0
61959,167.597765363129,4,1,0,15,1,0
61980,167.597765363129,4,1,0,15,1,0
62001,167.597765363129,4,1,0,15,1,0
62021,167.597765363129,4,1,0,15,1,0
62041,83.7988826815645,4,1,0,15,1,0
62041,167.597765363129,4,1,0,15,1,0
62043.0029761905,84.0364858409362,4,1,0,15,1,0
62045.005952381,84.2754402304869,4,1,0,15,1,0
62047.0089285714,84.5157574095923,4,1,0,15,1,0
62049.0119047619,84.7574490698545,4,1,0,15,1,0
62051.0148809524,85.0005270369983,4,1,0,15,1,0
62053.0178571429,85.2450032727995,4,1,0,15,1,0
62055.0208333333,85.4908898770477,4,1,0,15,1,0
62057.0238095238,85.7381990895423,4,1,0,15,1,0
62059.0267857143,85.986943292123,4,1,0,15,1,0
62061.0297619048,86.2371350107371,4,1,0,15,1,0
62063.0327380952,86.4887869175416,4,1,0,15,1,0
62065.0357142857,86.7419118330427,4,1,0,15,1,0
62067.0386904762,86.9965227282734,4,1,0,15,1,0
62069.0416666667,87.2526327270086,4,1,0,15,1,0
62071.0446428571,87.5102551080207,4,1,0,15,1,0
62073.0476190476,87.7694033073743,4,1,0,15,1,0
62075.0505952381,88.0300909207618,4,1,0,15,1,0
62077.0535714286,88.2923317058817,4,1,0,15,1,0
62079.056547619,88.5561395848582,4,1,0,15,1,0
62081.0595238095,88.8215286467056,4,1,0,15,1,0
62083.0625,89.088513149836,4,1,0,15,1,0
62085.0654761905,89.3571075246134,4,1,0,15,1,0
62087.068452381,89.6273263759531,4,1,0,15,1,0
62089.0714285714,89.8991844859696,4,1,0,15,1,0
62091.0744047619,90.1726968166715,4,1,0,15,1,0
62093.0773809524,90.447878512707,4,1,0,15,1,0
62095.0803571429,90.7247449041588,4,1,0,15,1,0
62097.0833333333,91.0033115093913,4,1,0,15,1,0
62099.0863095238,91.28359403795,4,1,0,15,1,0
62101.0892857143,91.5656083935144,4,1,0,15,1,0
62103.0922619048,91.8493706769065,4,1,0,15,1,0
62105.0952380952,92.1348971891547,4,1,0,15,1,0
62107.0982142857,92.4222044346157,4,1,0,15,1,0
62109.1011904762,92.7113091241543,4,1,0,15,1,0
62111.1041666667,93.0022281783837,4,1,0,15,1,0
62113.1071428571,93.2949787309664,4,1,0,15,1,0
62115.1101190476,93.5895781319783,4,1,0,15,1,0
62117.1130952381,93.886043951336,4,1,0,15,1,0
62119.1160714286,94.1843939822903,4,1,0,15,1,0
62121.119047619,94.4846462449855,4,1,0,15,1,0
62123.1220238095,94.7868189900881,4,1,0,15,1,0
62125.125,95.0909307024846,4,1,0,15,1,0
62127.1279761905,95.3970001050506,4,1,0,15,1,0
62129.130952381,95.7050461624938,4,1,0,15,1,0
62131.1339285714,96.0150880852708,4,1,0,15,1,0
62133.1369047619,96.3271453335808,4,1,0,15,1,0
62135.1398809524,96.641237621437,4,1,0,15,1,0
62137.1428571429,96.9573849208184,4,1,0,15,1,0
62139.1458333333,97.2756074659032,4,1,0,15,1,0
62141.1488095238,97.5959257573854,4,1,0,15,1,0
62143.1517857143,97.9183605668777,4,1,0,15,1,0
62145.1547619048,98.2429329414015,4,1,0,15,1,0
62147.1577380952,98.5696642079667,4,1,0,15,1,0
62149.1607142857,98.8985759782426,4,1,0,15,1,0
62151.1636904762,99.229690153324,4,1,0,15,1,0
62153.1666666667,99.5630289285915,4,1,0,15,1,0
62155.1696428571,99.8986147986719,4,1,0,15,1,0
62157.1726190476,100.236470562498,4,1,0,15,1,0
62159.1755952381,100.576619328472,4,1,0,15,1,0
62161.1785714286,100.919084519734,4,1,0,15,1,0
62163.181547619,101.263889879538,4,1,0,15,1,0
62165.1845238095,101.611059476744,4,1,0,15,1,0
62167.1875,101.960617711409,4,1,0,15,1,0
62169.1904761905,102.312589320515,4,1,0,15,1,0
62171.193452381,102.666999383795,4,1,0,15,1,0
62173.1964285714,103.023873329695,4,1,0,15,1,0
62175.1994047619,103.383236941457,4,1,0,15,1,0
62177.2023809524,103.745116363322,4,1,0,15,1,0
62179.2053571429,104.10953810688,4,1,0,15,1,0
62181.2083333333,104.476529057535,4,1,0,15,1,0
62183.2113095238,104.846116481123,4,1,0,15,1,0
62185.2142857143,105.218328030664,4,1,0,15,1,0
62187.2172619048,105.593191753256,4,1,0,15,1,0
62189.2202380952,105.970736097123,4,1,0,15,1,0
62191.2232142857,106.350989918813,4,1,0,15,1,0
62193.2261904762,106.733982490545,4,1,0,15,1,0
62195.2291666667,107.119743507726,4,1,0,15,1,0
62197.2321428571,107.508303096623,4,1,0,15,1,0
62199.2351190476,107.89969182221,4,1,0,15,1,0
62201.2380952381,108.293940696176,4,1,0,15,1,0
62203.2410714286,108.691081185121,4,1,0,15,1,0
62205.244047619,109.091145218929,4,1,0,15,1,0
62207.2470238095,109.494165199322,4,1,0,15,1,0
62209.25,109.900174008609,4,1,0,15,1,0
62211.2529761905,110.309205018631,4,1,0,15,1,0
62213.255952381,110.721292099904,4,1,0,15,1,0
62215.2589285714,111.136469630968,4,1,0,15,1,0
62217.2619047619,111.554772507946,4,1,0,15,1,0
62219.2648809524,111.976236154328,4,1,0,15,1,0
62221.2678571429,112.400896530961,4,1,0,15,1,0
62223.2708333333,112.828790146286,4,1,0,15,1,0
62225.2738095238,113.259954066797,4,1,0,15,1,0
62227.2767857143,113.694425927743,4,1,0,15,1,0
62229.2797619048,114.132243944085,4,1,0,15,1,0
62231.2827380952,114.573446921691,4,1,0,15,1,0
62233.2857142857,115.018074268814,4,1,0,15,1,0
62235.2886904762,115.466166007815,4,1,0,15,1,0
62237.2916666667,115.917762787179,4,1,0,15,1,0
62239.2946428571,116.372905893803,4,1,0,15,1,0
62241.2976190476,116.831637265584,4,1,0,15,1,0
62243.3005952381,117.293999504294,4,1,0,15,1,0
62245.3035714286,117.760035888773,4,1,0,15,1,0
62247.306547619,118.229790388434,4,1,0,15,1,0
62249.3095238095,118.70330767709,4,1,0,15,1,0
62251.3125,119.180633147114,4,1,0,15,1,0
62253.3154761905,119.661812923951,4,1,0,15,1,0
62255.318452381,120.146893880972,4,1,0,15,1,0
62257.3214285714,120.635923654694,4,1,0,15,1,0
62259.3244047619,121.128950660381,4,1,0,15,1,0
62261.3273809524,121.626024108016,4,1,0,15,1,0
62263.3303571429,122.127194018676,4,1,0,15,1,0
62265.3333333333,122.632511241314,4,1,0,15,1,0
62267.3363095238,123.142027469957,4,1,0,15,1,0
62269.3392857143,123.655795261334,4,1,0,15,1,0
62271.3422619048,124.173868052947,4,1,0,15,1,0
62273.3452380952,124.696300181602,4,1,0,15,1,0
62275.3482142857,125.223146902405,4,1,0,15,1,0
62277.3511904762,125.754464408243,4,1,0,15,1,0
62279.3541666667,126.290309849768,4,1,0,15,1,0
62281.3571428571,126.830741355881,4,1,0,15,1,0
62283.3601190476,127.375818054764,4,1,0,15,1,0
62285.3630952381,127.925600095437,4,1,0,15,1,0
62287.3660714286,128.480148669887,4,1,0,15,1,0
62289.369047619,129.039526035773,4,1,0,15,1,0
62291.3720238095,129.603795539727,4,1,0,15,1,0
62293.375,130.173021641265,4,1,0,15,1,0
62295.3779761905,130.747269937338,4,1,0,15,1,0
62297.380952381,131.326607187526,4,1,0,15,1,0
62299.3839285714,131.911101339919,4,1,0,15,1,0
62301.3869047619,132.500821557674,4,1,0,15,1,0
62303.3898809524,133.095838246304,4,1,0,15,1,0
62305.3928571429,133.696223081698,4,1,0,15,1,0
62307.3958333333,134.302049038901,4,1,0,15,1,0
62309.3988095238,134.913390421685,4,1,0,15,1,0
62311.4017857143,135.530322892927,4,1,0,15,1,0
62313.4047619048,136.15292350583,4,1,0,15,1,0
62315.4077380952,136.781270736,4,1,0,15,1,0
62317.4107142857,137.415444514425,4,1,0,15,1,0
62319.4136904762,138.055526261366,4,1,0,15,1,0
62321.4166666667,138.70159892121,4,1,0,15,1,0
62323.4196428571,139.353746998296,4,1,0,15,1,0
62325.4226190476,140.012056593763,4,1,0,15,1,0
62327.4255952381,140.676615443446,4,1,0,15,1,0
62329.4285714286,141.347512956856,4,1,0,15,1,0
62331.431547619,142.02484025728,4,1,0,15,1,0
62333.4345238095,142.708690223039,4,1,0,15,1,0
62335.4375,143.39915752995,4,1,0,15,1,0
62337.4404761905,144.096338695014,4,1,0,15,1,0
62339.443452381,144.800332121397,4,1,0,15,1,0
62341.4464285714,145.511238144732,4,1,0,15,1,0
62343.4494047619,146.229159080788,4,1,0,15,1,0
62345.4523809524,146.95419927456,4,1,0,15,1,0
62347.4553571429,147.68646515083,4,1,0,15,1,0
62349.4583333333,148.42606526624,4,1,0,15,1,0
62351.4613095238,149.173110362944,4,1,0,15,1,0
62353.4642857143,149.927713423885,4,1,0,15,1,0
62355.4672619048,150.68998972976,4,1,0,15,1,0
62357.4702380952,151.460056917728,4,1,0,15,1,0
62359.4732142857,152.238035041934,4,1,0,15,1,0
62361.4761904762,153.0240466359,4,1,0,15,1,0
62363.4791666667,153.818216776868,4,1,0,15,1,0
62365.4821428571,154.620673152145,4,1,0,15,1,0
62367.4851190476,155.43154612755,4,1,0,15,1,0
62369.4880952381,156.250968818012,4,1,0,15,1,0
62371.4910714286,157.079077160422,4,1,0,15,1,0
62373.494047619,157.916009988815,4,1,0,15,1,0
62375.4970238095,158.761909111958,4,1,0,15,1,0
62377.5,159.616919393456,4,1,0,15,1,0
62379.5029761905,160.481188834458,4,1,0,15,1,0
62381.505952381,161.354868659058,4,1,0,15,1,0
62383.5089285714,162.23811340251,4,1,0,15,1,0
62385.5119047619,163.13108100235,4,1,0,15,1,0
62387.5148809524,164.033932892547,4,1,0,15,1,0
62389.5178571429,164.946834100795,4,1,0,15,1,0
62391.5208333333,165.869953349076,4,1,0,15,1,0
62393.5238095238,166.803463157617,4,1,0,15,1,0
62395.5267857143,167.747539952372,4,1,0,15,1,0
62397.5297619048,168.702364176187,4,1,0,15,1,0
62399.5327380952,169.66812040377,4,1,0,15,1,0
62401.5357142857,170.64499746064,4,1,0,15,1,0
62403.5386904762,171.63318854621,4,1,0,15,1,0
62405.5416666667,172.632891361163,4,1,0,15,1,0
62407.5446428571,173.64430823932,4,1,0,15,1,0
62409.5476190476,174.667646284154,4,1,0,15,1,0
62411.5505952381,175.703117510176,4,1,0,15,1,0
62413.5535714286,176.750938989364,4,1,0,15,1,0
62415.556547619,177.811333002878,4,1,0,15,1,0
62417.5595238095,178.884527198257,4,1,0,15,1,0
62419.5625,179.970754752353,4,1,0,15,1,0
62421.5654761905,181.070254540229,4,1,0,15,1,0
62423.568452381,182.183271310292,4,1,0,15,1,0
62425.5714285714,183.310055865922,4,1,0,15,1,0
62427.5744047619,184.450865253886,4,1,0,15,1,0
62429.5773809524,185.605962959826,4,1,0,15,1,0
62431.5803571429,186.775619111149,4,1,0,15,1,0
62433.5833333333,187.960110687621,4,1,0,15,1,0
62435.5863095238,189.159721740045,4,1,0,15,1,0
62437.5892857143,190.374743617347,4,1,0,15,1,0
62439.5922619048,191.605475202488,4,1,0,15,1,0
62441.5952380952,192.852223157573,4,1,0,15,1,0
62443.5982142857,194.115302178598,4,1,0,15,1,0
62445.6011904762,195.395035260275,4,1,0,15,1,0
62447.6041666667,196.691753971398,4,1,0,15,1,0
62449.6071428571,198.005798741249,4,1,0,15,1,0
62451.6101190476,199.337519157562,4,1,0,15,1,0
62453.6130952381,200.687274276591,4,1,0,15,1,0
62455.6160714286,202.055432945861,4,1,0,15,1,0
62457.619047619,203.442374140214,4,1,0,15,1,0
62459.6220238095,204.848487311791,4,1,0,15,1,0
62461.625,206.27417275462,4,1,0,15,1,0
62463.6279761905,207.719841984549,4,1,0,15,1,0
62465.630952381,209.185918135258,4,1,0,15,1,0
62467.6339285714,210.672836371161,4,1,0,15,1,0
62469.6369047619,212.181044318053,4,1,0,15,1,0
62471.6398809524,213.711002512377,4,1,0,15,1,0
62473.6428571429,215.263184870074,4,1,0,15,1,0
62475.6458333333,216.838079176016,4,1,0,15,1,0
62477.6488095238,218.436187595079,4,1,0,15,1,0
62479.6517857143,220.058027205984,4,1,0,15,1,0
62481.6547619048,221.7041305591,4,1,0,15,1,0
62483.6577380952,223.375046259466,4,1,0,15,1,0
62485.6607142857,225.071339576384,4,1,0,15,1,0
62487.6636904762,226.793593080996,4,1,0,15,1,0
62489.6666666667,228.542407313358,4,1,0,15,1,0
62491.6696428571,230.318401480619,4,1,0,15,1,0
62493.6726190476,232.122214188011,4,1,0,15,1,0
62495.6755952381,233.954504204451,4,1,0,15,1,0
62497.6785714286,235.815951264704,4,1,0,15,1,0
62499.681547619,237.707256910137,4,1,0,15,1,0
62501.6845238095,239.629145370261,4,1,0,15,1,0
62503.6875,241.582364487393,4,1,0,15,1,0
62505.6904761905,243.5676866869,4,1,0,15,1,0
62507.693452381,245.585909995688,4,1,0,15,1,0
62509.6964285714,247.637859111747,4,1,0,15,1,0
62511.6994047619,249.724386527766,4,1,0,15,1,0
62513.7023809524,251.846373712036,4,1,0,15,1,0
62515.7053571429,254.004732350074,4,1,0,15,1,0
62517.7083333333,256.200405650643,4,1,0,15,1,0
62519.7113095238,258.434369720107,4,1,0,15,1,0
62521.7142857143,260.707635009312,4,1,0,15,1,0
62523.7172619048,263.021247837512,4,1,0,15,1,0
62525.7202380952,265.376291998168,4,1,0,15,1,0
62527.7232142857,267.77389045179,4,1,0,15,1,0
62529.7261904762,270.215207111379,4,1,0,15,1,0
62531.7291666667,272.701448726447,4,1,0,15,1,0
62533.7321428571,275.233866872001,4,1,0,15,1,0
62535.7351190476,277.81376004939,4,1,0,15,1,0
62537.7380952381,280.442475906431,4,1,0,15,1,0
62539.7410714286,283.121413584773,4,1,0,15,1,0
62541.744047619,285.852026203103,4,1,0,15,1,0
62543.7470238095,288.63582348545,4,1,0,15,1,0
62545.75,291.474374544572,4,1,0,15,1,0
62547.7529761905,294.369310831215,4,1,0,15,1,0
62549.755952381,297.322329260884,4,1,0,15,1,0
62551.7589285714,300.335195530727,4,1,0,15,1,0
62553.7619047619,303.409747640147,4,1,0,15,1,0
62555.7648809524,306.547899629893,4,1,0,15,1,0
62557.7678571429,309.751645555618,4,1,0,15,1,0
62559.7708333333,313.023063713237,4,1,0,15,1,0
62561.7738095238,316.364321134895,4,1,0,15,1,0
62563.7767857143,319.777678375987,4,1,0,15,1,0
62565.7797619048,323.26549461545,4,1,0,15,1,0
62567.7827380952,326.830233093508,4,1,0,15,1,0
62569.7857142857,330.474466913212,4,1,0,15,1,0
62571.7886904762,334.200885234489,4,1,0,15,1,0
62573.7916666667,338.012299892025,4,1,0,15,1,0
62575.7946428571,341.911652471229,4,1,0,15,1,0
62577.7976190476,345.902021879677,4,1,0,15,1,0
62579.8005952381,349.986632455011,4,1,0,15,1,0
62581.8035714286,354.168862654159,4,1,0,15,1,0
62583.806547619,358.452254373083,4,1,0,15,1,0
62585.8095238095,362.840522951104,4,1,0,15,1,0
62587.8125,367.337567919187,4,1,0,15,1,0
62589.8154761905,371.947484557539,4,1,0,15,1,0
62591.818452381,376.674576334524,4,1,0,15,1,0
62593.8214285714,381.52336830631,4,1,0,15,1,0
62595.8244047619,386.498621564937,4,1,0,15,1,0
62597.8273809524,391.605348831789,4,1,0,15,1,0
62599.8303571429,396.848831303815,4,1,0,15,1,0
62601.8333333333,402.23463687151,4,1,0,15,1,0
62603.8363095238,407.768639840777,4,1,0,15,1,0
62605.8392857143,413.457042305516,4,1,0,15,1,0
62607.8422619048,419.30639733441,4,1,0,15,1,0
62609.8452380952,425.323634154164,4,1,0,15,1,0
62611.8482142857,431.516085532654,4,1,0,15,1,0
62613.8511904762,437.891517589513,4,1,0,15,1,0
62615.8541666667,444.458162288961,4,1,0,15,1,0
62617.8571428571,451.224752900732,4,1,0,15,1,0
62619.8601190476,458.200562750296,4,1,0,15,1,0
62621.8630952381,465.395447619928,4,1,0,15,1,0
62623.8660714286,472.819892208324,4,1,0,15,1,0
62625.869047619,480.485061109312,4,1,0,15,1,0
62627.8720238095,488.402854830974,4,1,0,15,1,0
62629.875,496.585971446308,4,1,0,15,1,0
62631.8779761905,505.047974547187,4,1,0,15,1,0
62633.880952381,513.803368266527,4,1,0,15,1,0
62635.8839285714,522.867680241517,4,1,0,15,1,0
62637.8869047619,532.257553516175,4,1,0,15,1,0
62639.8898809524,541.99084852754,4,1,0,15,1,0
62641.8928571429,552.086756490307,4,1,0,15,1,0
62643.8958333333,562.565925694419,4,1,0,15,1,0
62645.8988095238,573.450602464474,4,1,0,15,1,0
62647.9017857143,584.764788805933,4,1,0,15,1,0
62649.9047619048,596.534419089103,4,1,0,15,1,0
62651.9077380952,608.787558508231,4,1,0,15,1,0
62653.9107142857,621.554626512266,4,1,0,15,1,0
62655.9136904762,634.86864895165,4,1,0,15,1,0
62657.9166666667,648.765543341144,4,1,0,15,1,0
62659.9196428571,663.284442426518,4,1,0,15,1,0
62661.9226190476,678.468062192908,4,1,0,15,1,0
62663.9255952381,694.363121603099,4,1,0,15,1,0
62665.9285714286,711.020822752668,4,1,0,15,1,0
62667.931547619,728.497401837145,4,1,0,15,1,0
62669.9345238095,746.854763421902,4,1,0,15,1,0
62671.9375,766.16121308859,4,1,0,15,1,0
62673.9404761905,786.492306732002,4,1,0,15,1,0
62675.943452381,807.931838766303,4,1,0,15,1,0
62677.9464285714,830.572996489842,4,1,0,15,1,0
62679.9494047619,854.519714142813,4,1,0,15,1,0
62681.9523809524,879.888268156427,4,1,0,15,1,0
62683.9553571429,906.80916524978,4,1,0,15,1,0
62685.9583333333,935.429388073278,4,1,0,15,1,0
62687.9613095238,965.915079965889,4,1,0,15,1,0
62689.9642857143,998.454772376089,4,1,0,15,1,0
62691.9672619048,1033.26328737636,4,1,0,15,1,0
62693.9702380952,1070.5864859698,4,1,0,15,1,0
62695.9732142857,1110.70708406334,4,1,0,15,1,0
62697.9761904762,1153.9518270904,4,1,0,15,1,0
62699.9791666667,1200.70040857167,4,1,0,15,1,0
62701.9821428571,1251.3966480447,4,1,0,15,1,0
62703.9851190476,1306.56262556871,4,1,0,15,1,0
62705.9880952381,1366.81672723328,4,1,0,15,1,0
62707.9910714286,1432.89692524202,4,1,0,15,1,0
62709.994047619,1505.69115406448,4,1,0,15,1,0
62711.9970238095,1586.27744118342,4,1,0,15,1,0
62714,344.827586206897,4,1,0,15,1,0
62714,-57.1428571428571,4,1,0,15,0,0
62757,-100,4,1,0,15,0,0
63576,-57.1428571428571,4,1,0,15,0,0
63619,-100,4,1,0,15,0,0
64682,344.827586206897,4,1,0,15,1,0
64684,344.827586206897,4,1,0,15,1,0
64687,344.827586206897,4,1,0,15,1,0
64690,344.827586206897,4,1,0,15,1,0
64693,344.827586206897,4,1,0,15,1,0
64696,344.827586206897,4,1,0,15,1,0
64699,344.827586206897,4,1,0,15,1,0
64702,344.827586206897,4,1,0,15,1,0
64705,344.827586206897,4,1,0,15,1,0
64708,344.827586206897,4,1,0,15,1,0
64711,344.827586206897,4,1,0,15,1,0
64714,344.827586206897,4,1,0,15,1,0
64717,344.827586206897,4,1,0,15,1,0
64720,344.827586206897,4,1,0,15,1,0
64723,344.827586206897,4,1,0,15,1,0
64726,344.827586206897,4,1,0,15,1,0
64729,344.827586206897,4,1,0,15,1,0
64732,344.827586206897,4,1,0,15,1,0
64735,344.827586206897,4,1,0,15,1,0
64738,344.827586206897,4,1,0,15,1,0
64741,344.827586206897,4,1,0,15,1,0
64744,344.827586206897,4,1,0,15,1,0
64747,344.827586206897,4,1,0,15,1,0
64750,344.827586206897,4,1,0,15,1,0
64753,344.827586206897,4,1,0,15,1,0
64758,344.827586206897,4,1,0,15,1,0
64763,344.827586206897,4,1,0,15,1,0
64768,344.827586206897,4,1,0,15,1,0
64773,344.827586206897,4,1,0,15,1,0
64778,344.827586206897,4,1,0,15,1,0
64783,344.827586206897,4,1,0,15,1,0
64788,344.827586206897,4,1,0,15,1,0
64794,344.827586206897,4,1,0,15,1,0
64800,344.827586206897,4,1,0,15,1,0
64806,344.827586206897,4,1,0,15,1,0
64812,344.827586206897,4,1,0,15,1,0
64818,344.827586206897,4,1,0,15,1,0
64827,344.827586206897,4,1,0,15,1,0
64836,167.597765363129,4,1,0,15,1,0
64849,167.597765363129,4,1,0,15,1,0
64863,167.597765363129,4,1,0,15,1,0
64877,167.597765363129,4,1,0,15,1,0
64891,167.597765363129,4,1,0,15,1,0
64905,167.597765363129,4,1,0,15,1,0
64919,167.597765363129,4,1,0,15,1,0
64940,167.597765363129,4,1,0,15,1,0
64961,167.597765363129,4,1,0,15,1,0
64982,167.597765363129,4,1,0,15,1,0
65003,167.597765363129,4,1,0,15,1,0
65023,167.597765363129,4,1,0,15,1,0
65043,167.597765363129,4,1,0,15,1,0
65070,167.597765363129,4,1,0,15,1,0
65097,167.597765363129,4,1,0,15,1,0
65127,172.413793103449,4,1,0,15,1,0
65156,60000,4,1,0,15,1,0
65185,172.413793103449,4,1,0,15,1,0
65214,60000,4,1,0,15,1,0
65242,172.413793103449,4,1,0,15,1,0
65271,60000,4,1,0,15,1,0
65300,172.413793103449,4,1,0,15,1,0
65328,60000,4,1,0,15,1,0
65357,172.413793103449,4,1,0,15,1,0
65386,60000,4,1,0,15,1,0
65415,172.413793103449,4,1,0,15,1,0
65443,60000,4,1,0,15,1,0
65472,344.827586206897,4,1,0,15,1,0
65472,-57.1428571428571,4,1,0,15,0,0
65515,-100,4,1,0,15,0,0
65989,-57.1428571428571,4,1,0,15,0,0
66032,-100,4,1,0,15,0,0
66506,-57.1428571428571,4,1,0,15,0,0
66549,-100,4,1,0,15,0,0
67196,6,4,1,0,15,1,0
67213.225,1745.96246180707,4,1,0,15,1,0
67218.9666666667,89.1027354539786,4,1,0,15,1,0
67230.45,1168.90707188779,4,1,0,15,1,0
67241.9333333333,92.1998893601329,4,1,0,15,1,0
67247.675,878.541620909292,4,1,0,15,1,0
67264.9,95.5201069825199,4,1,0,15,1,0
67264.9,703.729767769178,4,1,0,15,1,0
67282.125,586.940572267059,4,1,0,15,1,0
67287.8666666667,99.0883868410624,4,1,0,15,1,0
67299.35,503.397936068463,4,1,0,15,1,0
67310.8333333333,102.933607822954,4,1,0,15,1,0
67316.575,440.674231574309,4,1,0,15,1,0
67333.8,391.849529780565,4,1,0,15,1,0
67333.8,107.089312486614,4,1,0,15,1,0
67351.025,352.764794073552,4,1,0,15,1,0
67356.7666666667,111.594688092847,4,1,0,15,1,0
67368.25,320.769847634323,4,1,0,15,1,0
67379.7333333333,116.495806150979,4,1,0,15,1,0
67385.475,294.096022351298,4,1,0,15,1,0
67402.7,121.847203606677,4,1,0,15,1,0
67402.7,271.51778441488,4,1,0,15,1,0
67419.925,252.159112399925,4,1,0,15,1,0
67425.6666666667,127.713920817369,4,1,0,15,1,0
67437.15,235.3771919501,4,1,0,15,1,0
67448.6333333333,134.174158057158,4,1,0,15,1,0
67454.375,220.689655172414,4,1,0,15,1,0
67471.6,141.322781232335,4,1,0,15,1,0
67471.6,207.72746157042,4,1,0,15,1,0
67488.825,196.203462991122,4,1,0,15,1,0
67494.5666666667,149.276011344977,4,1,0,15,1,0
67506.05,185.890882052236,4,1,0,15,1,0
67517.5333333333,158.177791838026,4,1,0,15,1,0
67523.275,176.608238774339,4,1,0,15,1,0
67540.5,168.208578637511,4,1,0,15,1,0
67557.725,160.571635020674,4,1,0,15,1,0
67563.4666666667,179.597701149426,4,1,0,15,1,0
67574.95,153.598033945166,4,1,0,15,1,0
67586.4333333333,192.641109612792,4,1,0,15,1,0
67592.175,147.204946086189,4,1,0,15,1,0
67609.4,141.322781232335,4,1,0,15,1,0
67609.4,207.72746157042,4,1,0,15,1,0
67626.625,135.8926448106,4,1,0,15,1,0
67632.3666666667,225.377507324769,4,1,0,15,1,0
67643.85,130.864359091802,4,1,0,15,1,0
67655.3333333333,246.305418719212,4,1,0,15,1,0
67661.075,126.194908035461,4,1,0,15,1,0
67678.3,271.517784414879,4,1,0,15,1,0
67695.525,117.789098618923,4,1,0,15,1,0
67701.2666666667,302.48033877798,4,1,0,15,1,0
67712.75,113.992590481619,4,1,0,15,1,0
67724.2333333333,341.413451689997,4,1,0,15,1,0
67729.975,110.433174125507,4,1,0,15,1,0
67747.2,391.849529780565,4,1,0,15,1,0
67764.425,103.942000363797,4,1,0,15,1,0
67770.1666666667,459.770114942529,4,1,0,15,1,0
67781.65,100.974402988842,4,1,0,15,1,0
67793.1333333333,556.173526140156,4,1,0,15,1,0
67798.875,98.1715547919991,4,1,0,15,1,0
67816.1,703.729767769177,4,1,0,15,1,0
67816.1,95.5201069825199,4,1,0,15,1,0
67833.325,93.0081149580302,4,1,0,15,1,0
67839.0666666667,957.85440613027,4,1,0,15,1,0
67850.55,90.6248583986589,4,1,0,15,1,0
67862.0333333333,1499.2503748126,4,1,0,15,1,0
67867.775,88.3606883297622,4,1,0,15,1,0
67885,3448.27586206897,4,1,0,15,1,0
67885,250,4,1,0,15,1,0
67887,250,4,1,0,15,1,0
67890,250,4,1,0,15,1,0
67893,250,4,1,0,15,1,0
67896,250,4,1,0,15,1,0
67899,250,4,1,0,15,1,0
67902,250,4,1,0,15,1,0
67905,250,4,1,0,15,1,0
67908,250,4,1,0,15,1,0
67911,250,4,1,0,15,1,0
67914,250,4,1,0,15,1,0
67917,250,4,1,0,15,1,0
67920,250,4,1,0,15,1,0
67923,250,4,1,0,15,1,0
67926,250,4,1,0,15,1,0
67929,250,4,1,0,15,1,0
67932,250,4,1,0,15,1,0
67935,250,4,1,0,15,1,0
67938,250,4,1,0,15,1,0
67941,250,4,1,0,15,1,0
67944,250,4,1,0,15,1,0
67947,250,4,1,0,15,1,0
67950,250,4,1,0,15,1,0
67953,250,4,1,0,15,1,0
67956,250,4,1,0,15,1,0
67961,250,4,1,0,15,1,0
67966,250,4,1,0,15,1,0
67971,250,4,1,0,15,1,0
67976,250,4,1,0,15,1,0
67981,250,4,1,0,15,1,0
67986,250,4,1,0,15,1,0
67991,250,4,1,0,15,1,0
67997,250,4,1,0,15,1,0
68003,250,4,1,0,15,1,0
68009,250,4,1,0,15,1,0
68015,250,4,1,0,15,1,0
68021,250,4,1,0,15,1,0
68030,250,4,1,0,15,1,0
68039,250,4,1,0,15,1,0
68046,250,4,1,0,15,1,0
68048,250,4,1,0,15,1,0
68048,250,4,1,0,15,1,0
68051,250,4,1,0,15,1,0
68054,250,4,1,0,15,1,0
68057,250,4,1,0,15,1,0
68060,250,4,1,0,15,1,0
68063,250,4,1,0,15,1,0
68066,250,4,1,0,15,1,0
68069,250,4,1,0,15,1,0
68072,250,4,1,0,15,1,0
68075,250,4,1,0,15,1,0
68078,250,4,1,0,15,1,0
68081,250,4,1,0,15,1,0
68084,250,4,1,0,15,1,0
68087,250,4,1,0,15,1,0
68090,250,4,1,0,15,1,0
68093,250,4,1,0,15,1,0
68096,250,4,1,0,15,1,0
68099,250,4,1,0,15,1,0
68102,250,4,1,0,15,1,0
68105,250,4,1,0,15,1,0
68108,250,4,1,0,15,1,0
68111,250,4,1,0,15,1,0
68114,250,4,1,0,15,1,0
68117,250,4,1,0,15,1,0
68122,250,4,1,0,15,1,0
68127,250,4,1,0,15,1,0
68132,250,4,1,0,15,1,0
68137,250,4,1,0,15,1,0
68142,250,4,1,0,15,1,0
68147,250,4,1,0,15,1,0
68152,250,4,1,0,15,1,0
68158,250,4,1,0,15,1,0
68164,250,4,1,0,15,1,0
68170,250,4,1,0,15,1,0
68176,250,4,1,0,15,1,0
68182,250,4,1,0,15,1,0
68191,250,4,1,0,15,1,0
68200,250,4,1,0,15,1,0
68209,250,4,1,0,15,1,0
68234,344.827586206897,4,1,0,15,1,0
68234,-57.1428571428571,4,1,0,15,0,0
68277,-100,4,1,0,15,0,0
68751,-57.1428571428571,4,1,0,15,0,0
68794,-100,4,1,0,15,0,0
69268,-57.1428571428571,4,1,0,15,0,0
69311,-100,4,1,0,15,0,0
69958,344.827586206897,4,1,0,15,1,0
69960,331.564986737401,4,1,0,15,1,0
69962,319.284802043423,4,1,0,15,1,0
69964,307.881773399015,4,1,0,15,1,0
69967,297.265160523187,4,1,0,15,1,0
69969,287.356321839081,4,1,0,15,1,0
69971,278.086763070078,4,1,0,15,1,0
69974,269.396551724138,4,1,0,15,1,0
69976,261.23301985371,4,1,0,15,1,0
69978,253.549695740365,4,1,0,15,1,0
69980,246.305418719212,4,1,0,15,1,0
69983,239.463601532567,4,1,0,15,1,0
69985,232.991612301957,4,1,0,15,1,0
69987,226.860254083485,4,1,0,15,1,0
69990,221.043324491601,4,1,0,15,1,0
69992,215.517241379311,4,1,0,15,1,0
69994,210.260723296888,4,1,0,15,1,0
69996,205.254515599343,4,1,0,15,1,0
69999,200.481154771452,4,1,0,15,1,0
70001,195.924764890282,4,1,0,15,1,0
70003,191.570881226054,4,1,0,15,1,0
70006,187.406296851574,4,1,0,15,1,0
70008,183.418928833456,4,1,0,15,1,0
70010,179.597701149426,4,1,0,15,1,0
70013,175.932441942294,4,1,0,15,1,0
70015,172.413793103449,4,1,0,15,1,0
70017,169.033130493577,4,1,0,15,1,0
70019,165.7824933687,4,1,0,15,1,0
70022,162.654521795706,4,1,0,15,1,0
70024,159.642401021712,4,1,0,15,1,0
70026,156.739811912226,4,1,0,15,1,0
70029,153.940886699508,4,1,0,15,1,0
70031,151.24016938899,4,1,0,15,1,0
70033,148.632580261594,4,1,0,15,1,0
70035,146.113383985973,4,1,0,15,1,0
70038,143.67816091954,4,1,0,15,1,0
70040,141.322781232335,4,1,0,15,1,0
70042,139.043381535039,4,1,0,15,1,0
70045,136.836343732896,4,1,0,15,1,0
70047,134.698275862069,4,1,0,15,1,0
70049,132.62599469496,4,1,0,15,1,0
70052,130.616509926855,4,1,0,15,1,0
70054,128.667009778693,4,1,0,15,1,0
70056,126.774847870183,4,1,0,15,1,0
70058,124.937531234383,4,1,0,15,1,0
70061,123.152709359606,4,1,0,15,1,0
70063,121.418164157358,4,1,0,15,1,0
70065,119.731800766284,4,1,0,15,1,0
70068,118.091639111951,4,1,0,15,1,0
70070,116.495806150979,4,1,0,15,1,0
70072,114.942528735632,4,1,0,15,1,0
70074,113.430127041742,4,1,0,15,1,0
70077,111.957008508733,4,1,0,15,1,0
70079,110.5216622458,4,1,0,15,1,0
70081,109.122653862942,4,1,0,15,1,0
70084,107.758620689655,4,1,0,15,1,0
70086,106.428267347808,4,1,0,15,1,0
70088,105.130361648444,4,1,0,15,1,0
70091,103.86373078521,4,1,0,15,1,0
70093,102.627257799672,4,1,0,15,1,0
70095,101.419878296146,4,1,0,15,1,0
70097,100.240577385726,4,1,0,15,1,0
70100,99.0883868410624,4,1,0,15,1,0
70102,97.9623824451412,4,1,0,15,1,0
70104,96.8616815187913,4,1,0,15,1,0
70107,95.785440613027,4,1,0,15,1,0
70109,94.7328533535431,4,1,0,15,1,0
70111,93.7031484257872,4,1,0,15,1,0
70113,92.6955876900261,4,1,0,15,1,0
70116,91.7094644167279,4,1,0,15,1,0
70118,90.744101633394,4,1,0,15,1,0
70120,89.7988505747128,4,1,0,15,1,0
70123,88.8730892285817,4,1,0,15,1,0
70125,87.9662209711472,4,1,0,15,1,0
70127,87.07767328457,4,1,0,15,1,0
70130,86.2068965517243,4,1,0,15,1,0
70130,86.2068965517243,4,1,0,15,1,0
70132,87.07767328457,4,1,0,15,1,0
70134,87.9662209711472,4,1,0,15,1,0
70136,88.8730892285817,4,1,0,15,1,0
70139,89.7988505747128,4,1,0,15,1,0
70141,90.744101633394,4,1,0,15,1,0
70143,91.7094644167279,4,1,0,15,1,0
70146,92.6955876900261,4,1,0,15,1,0
70148,93.7031484257872,4,1,0,15,1,0
70150,94.7328533535431,4,1,0,15,1,0
70152,95.785440613027,4,1,0,15,1,0
70155,96.8616815187913,4,1,0,15,1,0
70157,97.9623824451412,4,1,0,15,1,0
70159,99.0883868410624,4,1,0,15,1,0
70162,100.240577385726,4,1,0,15,1,0
70164,101.419878296146,4,1,0,15,1,0
70166,102.627257799672,4,1,0,15,1,0
70168,103.86373078521,4,1,0,15,1,0
70171,105.130361648444,4,1,0,15,1,0
70173,106.428267347808,4,1,0,15,1,0
70175,107.758620689655,4,1,0,15,1,0
70178,109.122653862942,4,1,0,15,1,0
70180,110.5216622458,4,1,0,15,1,0
70182,111.957008508733,4,1,0,15,1,0
70185,113.430127041742,4,1,0,15,1,0
70187,114.942528735632,4,1,0,15,1,0
70189,116.495806150979,4,1,0,15,1,0
70191,118.091639111951,4,1,0,15,1,0
70194,119.731800766284,4,1,0,15,1,0
70196,121.418164157358,4,1,0,15,1,0
70198,123.152709359606,4,1,0,15,1,0
70201,124.937531234383,4,1,0,15,1,0
70203,126.774847870183,4,1,0,15,1,0
70205,128.667009778693,4,1,0,15,1,0
70207,130.616509926855,4,1,0,15,1,0
70210,132.62599469496,4,1,0,15,1,0
70212,134.698275862069,4,1,0,15,1,0
70214,136.836343732896,4,1,0,15,1,0
70217,139.043381535039,4,1,0,15,1,0
70219,141.322781232335,4,1,0,15,1,0
70221,143.67816091954,4,1,0,15,1,0
70224,146.113383985973,4,1,0,15,1,0
70226,148.632580261594,4,1,0,15,1,0
70228,151.24016938899,4,1,0,15,1,0
70230,153.940886699508,4,1,0,15,1,0
70233,156.739811912226,4,1,0,15,1,0
70235,159.642401021712,4,1,0,15,1,0
70237,162.654521795706,4,1,0,15,1,0
70240,165.7824933687,4,1,0,15,1,0
70242,169.033130493577,4,1,0,15,1,0
70244,172.413793103449,4,1,0,15,1,0
70246,175.932441942294,4,1,0,15,1,0
70249,179.597701149426,4,1,0,15,1,0
70251,183.418928833456,4,1,0,15,1,0
70253,187.406296851574,4,1,0,15,1,0
70256,191.570881226054,4,1,0,15,1,0
70258,195.924764890282,4,1,0,15,1,0
70260,200.481154771452,4,1,0,15,1,0
70263,205.254515599343,4,1,0,15,1,0
70265,210.260723296888,4,1,0,15,1,0
70267,215.517241379311,4,1,0,15,1,0
70269,221.043324491601,4,1,0,15,1,0
70272,226.860254083485,4,1,0,15,1,0
70274,232.991612301957,4,1,0,15,1,0
70276,239.463601532567,4,1,0,15,1,0
70279,246.305418719212,4,1,0,15,1,0
70281,253.549695740365,4,1,0,15,1,0
70283,261.23301985371,4,1,0,15,1,0
70285,269.396551724138,4,1,0,15,1,0
70288,278.086763070078,4,1,0,15,1,0
70290,287.356321839081,4,1,0,15,1,0
70292,297.265160523187,4,1,0,15,1,0
70295,307.881773399015,4,1,0,15,1,0
70297,319.284802043423,4,1,0,15,1,0
70299,331.564986737401,4,1,0,15,1,0
70302,172.413793103449,4,1,0,15,1,0
70345,60000,4,1,0,15,1,0
70388,172.413793103449,4,1,0,15,1,0
70431,60000,4,1,0,15,1,0
70474,172.413793103449,4,1,0,15,1,0
70517,60000,4,1,0,15,1,0
70560,172.413793103449,4,1,0,15,1,0
70603,60000,4,1,0,15,1,0
70646,172.413793103449,4,1,0,15,1,0
70689,60000,4,1,0,15,1,0
70732,172.413793103449,4,1,0,15,1,0
70775,60000,4,1,0,15,1,0
70818,172.413793103449,4,1,0,15,1,0
70861,60000,4,1,0,15,1,0
70904,172.413793103449,4,1,0,15,1,0
70947,60000,4,1,0,15,1,0
70993,344.827586206897,4,1,0,15,1,0
70993,344.827586206897,4,1,0,15,1,0
70993,-57.1428571428571,4,1,0,15,0,0
71036,-100,4,1,0,15,0,0
71510,-57.1428571428571,4,1,0,15,0,0
71553,-100,4,1,0,15,0,0
72027,-57.1428571428571,4,1,0,15,0,0
72070,-100,4,1,0,15,0,0
74786,-95.2380952380952,4,1,0,15,0,0
74872,-90.9090909090909,4,1,0,15,0,0
74958,-86.9565217391304,4,1,0,15,0,0
75044,-83.3333333333333,4,1,0,15,0,0
75130,-100,4,1,0,15,0,0
80648,-98.0392156862745,4,1,0,15,0,0
81337,-96.1538461538461,4,1,0,15,0,0
82027,-94.3396226415094,4,1,0,15,0,0
82717,-92.5925925925926,4,1,0,15,0,0
83406,229.885057471265,4,1,0,15,1,0
83449,689.655172413794,4,1,0,15,1,0
83493,229.885057471265,4,1,0,15,1,0
83536,689.655172413794,4,1,0,15,1,0
83579,229.885057471265,4,1,0,15,1,0
83622,689.655172413794,4,1,0,15,1,0
83665,229.885057471265,4,1,0,15,1,0
83708,689.655172413794,4,1,0,15,1,0
83751,197.04433497537,4,1,0,15,1,0
83794,1379.31034482759,4,1,0,15,1,0
83837,197.04433497537,4,1,0,15,1,0
83880,1379.31034482759,4,1,0,15,1,0
83924,197.04433497537,4,1,0,15,1,0
83967,1379.31034482759,4,1,0,15,1,0
84010,197.04433497537,4,1,0,15,1,0
84053,1379.31034482759,4,1,0,15,1,0
84096,172.413793103449,4,1,0,15,1,0
84118,60000,4,1,0,15,1,0
84139,172.413793103449,4,1,0,15,1,0
84161,60000,4,1,0,15,1,0
84182,172.413793103449,4,1,0,15,1,0
84204,60000,4,1,0,15,1,0
84225,172.413793103449,4,1,0,15,1,0
84247,60000,4,1,0,15,1,0
84268,172.413793103449,4,1,0,15,1,0
84290,60000,4,1,0,15,1,0
84311,172.413793103449,4,1,0,15,1,0
84333,60000,4,1,0,15,1,0
84355,172.413793103449,4,1,0,15,1,0
84376,60000,4,1,0,15,1,0
84398,172.413793103449,4,1,0,15,1,0
84419,60000,4,1,0,15,1,0
84441,172.413793103449,4,1,0,15,1,0
84462,60000,4,1,0,15,1,0
84484,172.413793103449,4,1,0,15,1,0
84505,60000,4,1,0,15,1,0
84527,172.413793103449,4,1,0,15,1,0
84549,60000,4,1,0,15,1,0
84570,172.413793103449,4,1,0,15,1,0
84592,60000,4,1,0,15,1,0
84613,172.413793103449,4,1,0,15,1,0
84635,60000,4,1,0,15,1,0
84656,172.413793103449,4,1,0,15,1,0
84678,60000,4,1,0,15,1,0
84699,172.413793103449,4,1,0,15,1,0
84721,60000,4,1,0,15,1,0
84743,172.413793103449,4,1,0,15,1,0
84764,60000,4,1,0,15,1,0
84786,344.827586206897,4,1,0,15,1,0
84786,-111.111111111111,4,1,0,15,0,0
85648,-66.6666666666667,4,1,0,15,0,0
85691,-200,4,1,0,15,0,0
85734,-66.6666666666667,4,1,0,15,0,0
85777,-200,4,1,0,15,0,0
85820,-66.6666666666667,4,1,0,15,0,0
85863,-200,4,1,0,15,0,0
85906,-66.6666666666667,4,1,0,15,0,0
85949,-200,4,1,0,15,0,0
85992,-58.8235294117647,4,1,0,15,0,0
86036,-333.333333333333,4,1,0,15,0,0
86079,-58.8235294117647,4,1,0,15,0,0
86122,-333.333333333333,4,1,0,15,0,0
86165,-100,4,1,0,15,0,0
89268,344.827586206897,4,1,0,15,1,0
89270,344.827586206897,4,1,0,15,1,0
89272,344.827586206897,4,1,0,15,1,0
89274,344.827586206897,4,1,0,15,1,0
89276,344.827586206897,4,1,0,15,1,0
89278,344.827586206897,4,1,0,15,1,0
89280,344.827586206897,4,1,0,15,1,0
89282,344.827586206897,4,1,0,15,1,0
89284,344.827586206897,4,1,0,15,1,0
89286,344.827586206897,4,1,0,15,1,0
89288,344.827586206897,4,1,0,15,1,0
89290,344.827586206897,4,1,0,15,1,0
89292,344.827586206897,4,1,0,15,1,0
89294,344.827586206897,4,1,0,15,1,0
89296,344.827586206897,4,1,0,15,1,0
89298,344.827586206897,4,1,0,15,1,0
89300,344.827586206897,4,1,0,15,1,0
89302,344.827586206897,4,1,0,15,1,0
89304,344.827586206897,4,1,0,15,1,0
89306,344.827586206897,4,1,0,15,1,0
89308,344.827586206897,4,1,0,15,1,0
89310,344.827586206897,4,1,0,15,1,0
89312,344.827586206897,4,1,0,15,1,0
89314,344.827586206897,4,1,0,15,1,0
89316,344.827586206897,4,1,0,15,1,0
89318,344.827586206897,4,1,0,15,1,0
89320,344.827586206897,4,1,0,15,1,0
89322,344.827586206897,4,1,0,15,1,0
89324,344.827586206897,4,1,0,15,1,0
89326,344.827586206897,4,1,0,15,1,0
89328,344.827586206897,4,1,0,15,1,0
89330,344.827586206897,4,1,0,15,1,0
89332,344.827586206897,4,1,0,15,1,0
89334,344.827586206897,4,1,0,15,1,0
89336,344.827586206897,4,1,0,15,1,0
89338,344.827586206897,4,1,0,15,1,0
89340,344.827586206897,4,1,0,15,1,0
89342,344.827586206897,4,1,0,15,1,0
89344,344.827586206897,4,1,0,15,1,0
89346,344.827586206897,4,1,0,15,1,0
89348,344.827586206897,4,1,0,15,1,0
89350,344.827586206897,4,1,0,15,1,0
89352,344.827586206897,4,1,0,15,1,0
89354,344.827586206897,4,1,0,15,1,0
89356,344.827586206897,4,1,0,15,1,0
89358,344.827586206897,4,1,0,15,1,0
89360,344.827586206897,4,1,0,15,1,0
89362,344.827586206897,4,1,0,15,1,0
89364,344.827586206897,4,1,0,15,1,0
89366,344.827586206897,4,1,0,15,1,0
89368,344.827586206897,4,1,0,15,1,0
89370,344.827586206897,4,1,0,15,1,0
89372,344.827586206897,4,1,0,15,1,0
89374,344.827586206897,4,1,0,15,1,0
89376,344.827586206897,4,1,0,15,1,0
89378,344.827586206897,4,1,0,15,1,0
89380,344.827586206897,4,1,0,15,1,0
89382,344.827586206897,4,1,0,15,1,0
89384,344.827586206897,4,1,0,15,1,0
89386,344.827586206897,4,1,0,15,1,0
89388,344.827586206897,4,1,0,15,1,0
89390,344.827586206897,4,1,0,15,1,0
89392,344.827586206897,4,1,0,15,1,0
89394,344.827586206897,4,1,0,15,1,0
89396,344.827586206897,4,1,0,15,1,0
89398,344.827586206897,4,1,0,15,1,0
89400,344.827586206897,4,1,0,15,1,0
89402,344.827586206897,4,1,0,15,1,0
89404,344.827586206897,4,1,0,15,1,0
89406,344.827586206897,4,1,0,15,1,0
89408,344.827586206897,4,1,0,15,1,0
89410,344.827586206897,4,1,0,15,1,0
89412,344.827586206897,4,1,0,15,1,0
89414,344.827586206897,4,1,0,15,1,0
89416,344.827586206897,4,1,0,15,1,0
89418,344.827586206897,4,1,0,15,1,0
89420,344.827586206897,4,1,0,15,1,0
89422,344.827586206897,4,1,0,15,1,0
89424,344.827586206897,4,1,0,15,1,0
89426,344.827586206897,4,1,0,15,1,0
89428,344.827586206897,4,1,0,15,1,0
89430,344.827586206897,4,1,0,15,1,0
89432,344.827586206897,4,1,0,15,1,0
89434,344.827586206897,4,1,0,15,1,0
89436,344.827586206897,4,1,0,15,1,0
89438,344.827586206897,4,1,0,15,1,0
89440,344.827586206897,4,1,0,15,1,0
89442,344.827586206897,4,1,0,15,1,0
89444,344.827586206897,4,1,0,15,1,0
89446,344.827586206897,4,1,0,15,1,0
89448,344.827586206897,4,1,0,15,1,0
89450,344.827586206897,4,1,0,15,1,0
89452,344.827586206897,4,1,0,15,1,0
89454,344.827586206897,4,1,0,15,1,0
89456,344.827586206897,4,1,0,15,1,0
89458,344.827586206897,4,1,0,15,1,0
89460,344.827586206897,4,1,0,15,1,0
89462,344.827586206897,4,1,0,15,1,0
89464,344.827586206897,4,1,0,15,1,0
89466,344.827586206897,4,1,0,15,1,0
89468,344.827586206897,4,1,0,15,1,0
89470,344.827586206897,4,1,0,15,1,0
89472,344.827586206897,4,1,0,15,1,0
89474,344.827586206897,4,1,0,15,1,0
89476,344.827586206897,4,1,0,15,1,0
89478,344.827586206897,4,1,0,15,1,0
89480,344.827586206897,4,1,0,15,1,0
89482,344.827586206897,4,1,0,15,1,0
89484,344.827586206897,4,1,0,15,1,0
89486,344.827586206897,4,1,0,15,1,0
89488,344.827586206897,4,1,0,15,1,0
89490,344.827586206897,4,1,0,15,1,0
89492,344.827586206897,4,1,0,15,1,0
89494,344.827586206897,4,1,0,15,1,0
89496,344.827586206897,4,1,0,15,1,0
89498,344.827586206897,4,1,0,15,1,0
89500,344.827586206897,4,1,0,15,1,0
89502,344.827586206897,4,1,0,15,1,0
89504,344.827586206897,4,1,0,15,1,0
89506,344.827586206897,4,1,0,15,1,0
89508,344.827586206897,4,1,0,15,1,0
89510,344.827586206897,4,1,0,15,1,0
89512,344.827586206897,4,1,0,15,1,0
89514,344.827586206897,4,1,0,15,1,0
89516,344.827586206897,4,1,0,15,1,0
89518,344.827586206897,4,1,0,15,1,0
89520,344.827586206897,4,1,0,15,1,0
89522,344.827586206897,4,1,0,15,1,0
89524,344.827586206897,4,1,0,15,1,0
89527,344.827586206897,4,1,0,15,1,0
89529,344.827586206897,4,1,0,15,1,0
89531,344.827586206897,4,1,0,15,1,0
89533,344.827586206897,4,1,0,15,1,0
89535,344.827586206897,4,1,0,15,1,0
89537,344.827586206897,4,1,0,15,1,0
89539,344.827586206897,4,1,0,15,1,0
89541,344.827586206897,4,1,0,15,1,0
89543,344.827586206897,4,1,0,15,1,0
89545,344.827586206897,4,1,0,15,1,0
89547,344.827586206897,4,1,0,15,1,0
89549,344.827586206897,4,1,0,15,1,0
89551,344.827586206897,4,1,0,15,1,0
89553,344.827586206897,4,1,0,15,1,0
89555,344.827586206897,4,1,0,15,1,0
89557,344.827586206897,4,1,0,15,1,0
89559,344.827586206897,4,1,0,15,1,0
89561,344.827586206897,4,1,0,15,1,0
89563,344.827586206897,4,1,0,15,1,0
89565,344.827586206897,4,1,0,15,1,0
89567,344.827586206897,4,1,0,15,1,0
89569,344.827586206897,4,1,0,15,1,0
89571,344.827586206897,4,1,0,15,1,0
89573,344.827586206897,4,1,0,15,1,0
89575,344.827586206897,4,1,0,15,1,0
89577,344.827586206897,4,1,0,15,1,0
89579,344.827586206897,4,1,0,15,1,0
89581,344.827586206897,4,1,0,15,1,0
89583,344.827586206897,4,1,0,15,1,0
89585,344.827586206897,4,1,0,15,1,0
89587,344.827586206897,4,1,0,15,1,0
89589,344.827586206897,4,1,0,15,1,0
89591,344.827586206897,4,1,0,15,1,0
89593,344.827586206897,4,1,0,15,1,0
89595,344.827586206897,4,1,0,15,1,0
89597,344.827586206897,4,1,0,15,1,0
89599,344.827586206897,4,1,0,15,1,0
89601,344.827586206897,4,1,0,15,1,0
89603,344.827586206897,4,1,0,15,1,0
89605,344.827586206897,4,1,0,15,1,0
89607,344.827586206897,4,1,0,15,1,0
89609,344.827586206897,4,1,0,15,1,0
89611,344.827586206897,4,1,0,15,1,0
89613,344.827586206897,4,1,0,15,1,0
89615,344.827586206897,4,1,0,15,1,0
89617,344.827586206897,4,1,0,15,1,0
89619,344.827586206897,4,1,0,15,1,0
89621,344.827586206897,4,1,0,15,1,0
89623,344.827586206897,4,1,0,15,1,0
89625,344.827586206897,4,1,0,15,1,0
89627,344.827586206897,4,1,0,15,1,0
89629,344.827586206897,4,1,0,15,1,0
89631,344.827586206897,4,1,0,15,1,0
89633,344.827586206897,4,1,0,15,1,0
89635,344.827586206897,4,1,0,15,1,0
89637,344.827586206897,4,1,0,15,1,0
89639,344.827586206897,4,1,0,15,1,0
89641,344.827586206897,4,1,0,15,1,0
89643,344.827586206897,4,1,0,15,1,0
89645,344.827586206897,4,1,0,15,1,0
89647,344.827586206897,4,1,0,15,1,0
89649,344.827586206897,4,1,0,15,1,0
89651,344.827586206897,4,1,0,15,1,0
89653,344.827586206897,4,1,0,15,1,0
89655,344.827586206897,4,1,0,15,1,0
89657,344.827586206897,4,1,0,15,1,0
89659,344.827586206897,4,1,0,15,1,0
89661,344.827586206897,4,1,0,15,1,0
89663,344.827586206897,4,1,0,15,1,0
89665,344.827586206897,4,1,0,15,1,0
89667,344.827586206897,4,1,0,15,1,0
89669,344.827586206897,4,1,0,15,1,0
89671,344.827586206897,4,1,0,15,1,0
89673,344.827586206897,4,1,0,15,1,0
89675,344.827586206897,4,1,0,15,1,0
89677,344.827586206897,4,1,0,15,1,0
89679,344.827586206897,4,1,0,15,1,0
89681,344.827586206897,4,1,0,15,1,0
89683,344.827586206897,4,1,0,15,1,0
89685,344.827586206897,4,1,0,15,1,0
89687,344.827586206897,4,1,0,15,1,0
89689,344.827586206897,4,1,0,15,1,0
89691,344.827586206897,4,1,0,15,1,0
89693,344.827586206897,4,1,0,15,1,0
89695,344.827586206897,4,1,0,15,1,0
89697,344.827586206897,4,1,0,15,1,0
89699,344.827586206897,4,1,0,15,1,0
89701,344.827586206897,4,1,0,15,1,0
89703,344.827586206897,4,1,0,15,1,0
89705,344.827586206897,4,1,0,15,1,0
89707,344.827586206897,4,1,0,15,1,0
89709,344.827586206897,4,1,0,15,1,0
89711,344.827586206897,4,1,0,15,1,0
89713,344.827586206897,4,1,0,15,1,0
89715,344.827586206897,4,1,0,15,1,0
89717,344.827586206897,4,1,0,15,1,0
89719,344.827586206897,4,1,0,15,1,0
89721,344.827586206897,4,1,0,15,1,0
89723,344.827586206897,4,1,0,15,1,0
89725,344.827586206897,4,1,0,15,1,0
89727,344.827586206897,4,1,0,15,1,0
89729,344.827586206897,4,1,0,15,1,0
89731,344.827586206897,4,1,0,15,1,0
89733,344.827586206897,4,1,0,15,1,0
89735,344.827586206897,4,1,0,15,1,0
89737,344.827586206897,4,1,0,15,1,0
89739,344.827586206897,4,1,0,15,1,0
89741,344.827586206897,4,1,0,15,1,0
89743,344.827586206897,4,1,0,15,1,0
89745,344.827586206897,4,1,0,15,1,0
89747,344.827586206897,4,1,0,15,1,0
89749,344.827586206897,4,1,0,15,1,0
89751,344.827586206897,4,1,0,15,1,0
89753,344.827586206897,4,1,0,15,1,0
89755,344.827586206897,4,1,0,15,1,0
89757,344.827586206897,4,1,0,15,1,0
89759,344.827586206897,4,1,0,15,1,0
89761,344.827586206897,4,1,0,15,1,0
89763,344.827586206897,4,1,0,15,1,0
89765,344.827586206897,4,1,0,15,1,0
89767,344.827586206897,4,1,0,15,1,0
89769,344.827586206897,4,1,0,15,1,0
89771,344.827586206897,4,1,0,15,1,0
89773,344.827586206897,4,1,0,15,1,0
89775,344.827586206897,4,1,0,15,1,0
89777,344.827586206897,4,1,0,15,1,0
89779,344.827586206897,4,1,0,15,1,0
89781,344.827586206897,4,1,0,15,1,0
89783,344.827586206897,4,1,0,15,1,0
89786,344.827586206897,4,1,0,15,1,0
90648,-62.5,4,1,0,15,0,0
90691,-250,4,1,0,15,0,0
90734,-62.5,4,1,0,15,0,0
90777,-250,4,1,0,15,0,0
90820,-62.5,4,1,0,15,0,0
90863,-250,4,1,0,15,0,0
90906,-62.5,4,1,0,15,0,0
90949,-250,4,1,0,15,0,0
90992,-62.5,4,1,0,15,0,0
91036,-250,4,1,0,15,0,0
91079,-62.5,4,1,0,15,0,0
91122,-250,4,1,0,15,0,0
91165,-62.5,4,1,0,15,0,0
91208,-250,4,1,0,15,0,0
91251,-62.5,4,1,0,15,0,0
91294,-250,4,1,0,15,0,0
91337,155.413793103449,4,1,0,15,1,0
91351,60000,4,1,0,15,1,0
91365,155.413793103449,4,1,0,15,1,0
91380,60000,4,1,0,15,1,0
91394,155.413793103449,4,1,0,15,1,0
91408,60000,4,1,0,15,1,0
91423,155.413793103449,4,1,0,15,1,0
91437,60000,4,1,0,15,1,0
91452,155.413793103449,4,1,0,15,1,0
91466,60000,4,1,0,15,1,0
91480,155.413793103449,4,1,0,15,1,0
91495,60000,4,1,0,15,1,0
91509,155.413793103449,4,1,0,15,1,0
91523,60000,4,1,0,15,1,0
91538,155.413793103449,4,1,0,15,1,0
91552,60000,4,1,0,15,1,0
91567,155.413793103449,4,1,0,15,1,0
91581,60000,4,1,0,15,1,0
91595,155.413793103449,4,1,0,15,1,0
91610,60000,4,1,0,15,1,0
91624,155.413793103449,4,1,0,15,1,0
91638,60000,4,1,0,15,1,0
91653,155.413793103449,4,1,0,15,1,0
91667,60000,4,1,0,15,1,0
91682,344.827586206897,4,1,0,15,1,0
94785,-83.3333333333333,4,1,0,15,0,0
94871,-90.9090909090909,4,1,0,15,0,0
94957,-95.2380952380952,4,1,0,15,0,0
95044,-100,4,1,0,15,0,0
95130,160.413793103449,4,1,0,15,1,0
95144,60000,4,1,0,15,1,0
95158,160.413793103449,4,1,0,15,1,0
95173,60000,4,1,0,15,1,0
95187,160.413793103449,4,1,0,15,1,0
95201,60000,4,1,0,15,1,0
95216,160.413793103449,4,1,0,15,1,0
95230,60000,4,1,0,15,1,0
95245,160.413793103449,4,1,0,15,1,0
95259,60000,4,1,0,15,1,0
95273,160.413793103449,4,1,0,15,1,0
95288,60000,4,1,0,15,1,0
95302,160.413793103449,4,1,0,15,1,0
95316,60000,4,1,0,15,1,0
95331,160.413793103449,4,1,0,15,1,0
95345,60000,4,1,0,15,1,0
95360,160.413793103449,4,1,0,15,1,0
95374,60000,4,1,0,15,1,0
95388,160.413793103449,4,1,0,15,1,0
95403,60000,4,1,0,15,1,0
95417,160.413793103449,4,1,0,15,1,0
95431,60000,4,1,0,15,1,0
95446,160.413793103449,4,1,0,15,1,0
95460,60000,4,1,0,15,1,0
95476,344.827586206897,4,1,0,15,1,0
95822,344.827586206897,4,1,0,15,1,0
96165,344.827586206897,4,1,0,15,1,0
96167,344.827586206897,4,1,0,15,1,0
96169,344.827586206897,4,1,0,15,1,0
96171,344.827586206897,4,1,0,15,1,0
96173,344.827586206897,4,1,0,15,1,0
96175,344.827586206897,4,1,0,15,1,0
96177,344.827586206897,4,1,0,15,1,0
96179,344.827586206897,4,1,0,15,1,0
96181,344.827586206897,4,1,0,15,1,0
96183,344.827586206897,4,1,0,15,1,0
96185,344.827586206897,4,1,0,15,1,0
96187,344.827586206897,4,1,0,15,1,0
96189,344.827586206897,4,1,0,15,1,0
96191,344.827586206897,4,1,0,15,1,0
96193,344.827586206897,4,1,0,15,1,0
96195,344.827586206897,4,1,0,15,1,0
96197,344.827586206897,4,1,0,15,1,0
96199,344.827586206897,4,1,0,15,1,0
96201,344.827586206897,4,1,0,15,1,0
96203,344.827586206897,4,1,0,15,1,0
96205,344.827586206897,4,1,0,15,1,0
96207,344.827586206897,4,1,0,15,1,0
96209,344.827586206897,4,1,0,15,1,0
96211,344.827586206897,4,1,0,15,1,0
96213,344.827586206897,4,1,0,15,1,0
96215,344.827586206897,4,1,0,15,1,0
96217,344.827586206897,4,1,0,15,1,0
96219,344.827586206897,4,1,0,15,1,0
96221,344.827586206897,4,1,0,15,1,0
96224,344.827586206897,4,1,0,15,1,0
96226,344.827586206897,4,1,0,15,1,0
96228,344.827586206897,4,1,0,15,1,0
96230,344.827586206897,4,1,0,15,1,0
96232,344.827586206897,4,1,0,15,1,0
96234,344.827586206897,4,1,0,15,1,0
96236,344.827586206897,4,1,0,15,1,0
96238,344.827586206897,4,1,0,15,1,0
96240,344.827586206897,4,1,0,15,1,0
96242,344.827586206897,4,1,0,15,1,0
96244,344.827586206897,4,1,0,15,1,0
96246,344.827586206897,4,1,0,15,1,0
96248,344.827586206897,4,1,0,15,1,0
96250,344.827586206897,4,1,0,15,1,0
96252,344.827586206897,4,1,0,15,1,0
96254,344.827586206897,4,1,0,15,1,0
96256,344.827586206897,4,1,0,15,1,0
96258,344.827586206897,4,1,0,15,1,0
96260,344.827586206897,4,1,0,15,1,0
96262,344.827586206897,4,1,0,15,1,0
96264,344.827586206897,4,1,0,15,1,0
96266,344.827586206897,4,1,0,15,1,0
96268,344.827586206897,4,1,0,15,1,0
96270,344.827586206897,4,1,0,15,1,0
96272,344.827586206897,4,1,0,15,1,0
96274,344.827586206897,4,1,0,15,1,0
96276,344.827586206897,4,1,0,15,1,0
96278,344.827586206897,4,1,0,15,1,0
96281,344.827586206897,4,1,0,15,1,0
96283,344.827586206897,4,1,0,15,1,0
96285,344.827586206897,4,1,0,15,1,0
96287,344.827586206897,4,1,0,15,1,0
96289,344.827586206897,4,1,0,15,1,0
96291,344.827586206897,4,1,0,15,1,0
96293,344.827586206897,4,1,0,15,1,0
96295,344.827586206897,4,1,0,15,1,0
96297,344.827586206897,4,1,0,15,1,0
96299,344.827586206897,4,1,0,15,1,0
96301,344.827586206897,4,1,0,15,1,0
96303,344.827586206897,4,1,0,15,1,0
96305,344.827586206897,4,1,0,15,1,0
96307,344.827586206897,4,1,0,15,1,0
96309,344.827586206897,4,1,0,15,1,0
96311,344.827586206897,4,1,0,15,1,0
96313,344.827586206897,4,1,0,15,1,0
96315,344.827586206897,4,1,0,15,1,0
96317,344.827586206897,4,1,0,15,1,0
96319,344.827586206897,4,1,0,15,1,0
96321,344.827586206897,4,1,0,15,1,0
96323,344.827586206897,4,1,0,15,1,0
96325,344.827586206897,4,1,0,15,1,0
96327,344.827586206897,4,1,0,15,1,0
96329,344.827586206897,4,1,0,15,1,0
96331,344.827586206897,4,1,0,15,1,0
96333,344.827586206897,4,1,0,15,1,0
96335,344.827586206897,4,1,0,15,1,0
96338,344.827586206897,4,1,0,15,1,0
96511,344.827586206897,4,1,0,15,1,0
96513,344.827586206897,4,1,0,15,1,0
96515,344.827586206897,4,1,0,15,1,0
96517,344.827586206897,4,1,0,15,1,0
96519,344.827586206897,4,1,0,15,1,0
96521,344.827586206897,4,1,0,15,1,0
96523,344.827586206897,4,1,0,15,1,0
96525,344.827586206897,4,1,0,15,1,0
96527,344.827586206897,4,1,0,15,1,0
96529,344.827586206897,4,1,0,15,1,0
96531,344.827586206897,4,1,0,15,1,0
96533,344.827586206897,4,1,0,15,1,0
96535,344.827586206897,4,1,0,15,1,0
96537,344.827586206897,4,1,0,15,1,0
96539,344.827586206897,4,1,0,15,1,0
96541,344.827586206897,4,1,0,15,1,0
96543,344.827586206897,4,1,0,15,1,0
96545,344.827586206897,4,1,0,15,1,0
96547,344.827586206897,4,1,0,15,1,0
96549,344.827586206897,4,1,0,15,1,0
96551,344.827586206897,4,1,0,15,1,0
96553,344.827586206897,4,1,0,15,1,0
96555,344.827586206897,4,1,0,15,1,0
96557,344.827586206897,4,1,0,15,1,0
96559,344.827586206897,4,1,0,15,1,0
96561,344.827586206897,4,1,0,15,1,0
96563,344.827586206897,4,1,0,15,1,0
96565,344.827586206897,4,1,0,15,1,0
96567,344.827586206897,4,1,0,15,1,0
96570,344.827586206897,4,1,0,15,1,0
96572,344.827586206897,4,1,0,15,1,0
96574,344.827586206897,4,1,0,15,1,0
96576,344.827586206897,4,1,0,15,1,0
96578,344.827586206897,4,1,0,15,1,0
96580,344.827586206897,4,1,0,15,1,0
96582,344.827586206897,4,1,0,15,1,0
96584,344.827586206897,4,1,0,15,1,0
96586,344.827586206897,4,1,0,15,1,0
96588,344.827586206897,4,1,0,15,1,0
96590,344.827586206897,4,1,0,15,1,0
96592,344.827586206897,4,1,0,15,1,0
96594,344.827586206897,4,1,0,15,1,0
96596,344.827586206897,4,1,0,15,1,0
96598,344.827586206897,4,1,0,15,1,0
96600,344.827586206897,4,1,0,15,1,0
96602,344.827586206897,4,1,0,15,1,0
96604,344.827586206897,4,1,0,15,1,0
96606,344.827586206897,4,1,0,15,1,0
96608,344.827586206897,4,1,0,15,1,0
96610,344.827586206897,4,1,0,15,1,0
96612,344.827586206897,4,1,0,15,1,0
96614,344.827586206897,4,1,0,15,1,0
96616,344.827586206897,4,1,0,15,1,0
96618,344.827586206897,4,1,0,15,1,0
96620,344.827586206897,4,1,0,15,1,0
96622,344.827586206897,4,1,0,15,1,0
96624,344.827586206897,4,1,0,15,1,0
96627,344.827586206897,4,1,0,15,1,0
96629,344.827586206897,4,1,0,15,1,0
96631,344.827586206897,4,1,0,15,1,0
96633,344.827586206897,4,1,0,15,1,0
96635,344.827586206897,4,1,0,15,1,0
96637,344.827586206897,4,1,0,15,1,0
96639,344.827586206897,4,1,0,15,1,0
96641,344.827586206897,4,1,0,15,1,0
96643,344.827586206897,4,1,0,15,1,0
96645,344.827586206897,4,1,0,15,1,0
96647,344.827586206897,4,1,0,15,1,0
96649,344.827586206897,4,1,0,15,1,0
96651,344.827586206897,4,1,0,15,1,0
96653,344.827586206897,4,1,0,15,1,0
96655,344.827586206897,4,1,0,15,1,0
96657,344.827586206897,4,1,0,15,1,0
96659,344.827586206897,4,1,0,15,1,0
96661,344.827586206897,4,1,0,15,1,0
96663,344.827586206897,4,1,0,15,1,0
96665,344.827586206897,4,1,0,15,1,0
96667,344.827586206897,4,1,0,15,1,0
96669,344.827586206897,4,1,0,15,1,0
96671,344.827586206897,4,1,0,15,1,0
96673,344.827586206897,4,1,0,15,1,0
96675,344.827586206897,4,1,0,15,1,0
96677,344.827586206897,4,1,0,15,1,0
96679,344.827586206897,4,1,0,15,1,0
96681,344.827586206897,4,1,0,15,1,0
96684,344.827586206897,4,1,0,15,1,0
100304,344.827586206897,4,1,0,15,1,0
100306,344.827586206897,4,1,0,15,1,0
100308,344.827586206897,4,1,0,15,1,0
100310,344.827586206897,4,1,0,15,1,0
100312,344.827586206897,4,1,0,15,1,0
100314,344.827586206897,4,1,0,15,1,0
100316,344.827586206897,4,1,0,15,1,0
100318,344.827586206897,4,1,0,15,1,0
100320,344.827586206897,4,1,0,15,1,0
100322,344.827586206897,4,1,0,15,1,0
100324,344.827586206897,4,1,0,15,1,0
100326,344.827586206897,4,1,0,15,1,0
100328,344.827586206897,4,1,0,15,1,0
100330,344.827586206897,4,1,0,15,1,0
100332,344.827586206897,4,1,0,15,1,0
100334,344.827586206897,4,1,0,15,1,0
100336,344.827586206897,4,1,0,15,1,0
100338,344.827586206897,4,1,0,15,1,0
100340,344.827586206897,4,1,0,15,1,0
100342,344.827586206897,4,1,0,15,1,0
100344,344.827586206897,4,1,0,15,1,0
100346,344.827586206897,4,1,0,15,1,0
100348,344.827586206897,4,1,0,15,1,0
100350,344.827586206897,4,1,0,15,1,0
100352,344.827586206897,4,1,0,15,1,0
100354,344.827586206897,4,1,0,15,1,0
100356,344.827586206897,4,1,0,15,1,0
100358,344.827586206897,4,1,0,15,1,0
100360,344.827586206897,4,1,0,15,1,0
100362,344.827586206897,4,1,0,15,1,0
100364,344.827586206897,4,1,0,15,1,0
100366,344.827586206897,4,1,0,15,1,0
100368,344.827586206897,4,1,0,15,1,0
100370,344.827586206897,4,1,0,15,1,0
100372,344.827586206897,4,1,0,15,1,0
100374,344.827586206897,4,1,0,15,1,0
100376,344.827586206897,4,1,0,15,1,0
100378,344.827586206897,4,1,0,15,1,0
100380,344.827586206897,4,1,0,15,1,0
100382,344.827586206897,4,1,0,15,1,0
100384,344.827586206897,4,1,0,15,1,0
100386,344.827586206897,4,1,0,15,1,0
100388,344.827586206897,4,1,0,15,1,0
100390,344.827586206897,4,1,0,15,1,0
100392,344.827586206897,4,1,0,15,1,0
100394,344.827586206897,4,1,0,15,1,0
100396,344.827586206897,4,1,0,15,1,0
100398,344.827586206897,4,1,0,15,1,0
100400,344.827586206897,4,1,0,15,1,0
100402,344.827586206897,4,1,0,15,1,0
100404,344.827586206897,4,1,0,15,1,0
100406,344.827586206897,4,1,0,15,1,0
100408,344.827586206897,4,1,0,15,1,0
100410,344.827586206897,4,1,0,15,1,0
100412,344.827586206897,4,1,0,15,1,0
100414,344.827586206897,4,1,0,15,1,0
100416,344.827586206897,4,1,0,15,1,0
100418,344.827586206897,4,1,0,15,1,0
100420,344.827586206897,4,1,0,15,1,0
100422,344.827586206897,4,1,0,15,1,0
100424,344.827586206897,4,1,0,15,1,0
100426,344.827586206897,4,1,0,15,1,0
100428,344.827586206897,4,1,0,15,1,0
100430,344.827586206897,4,1,0,15,1,0
100432,344.827586206897,4,1,0,15,1,0
100434,344.827586206897,4,1,0,15,1,0
100436,344.827586206897,4,1,0,15,1,0
100438,344.827586206897,4,1,0,15,1,0
100440,344.827586206897,4,1,0,15,1,0
100442,344.827586206897,4,1,0,15,1,0
100444,344.827586206897,4,1,0,15,1,0
100446,344.827586206897,4,1,0,15,1,0
100448,344.827586206897,4,1,0,15,1,0
100450,344.827586206897,4,1,0,15,1,0
100452,344.827586206897,4,1,0,15,1,0
100454,344.827586206897,4,1,0,15,1,0
100456,344.827586206897,4,1,0,15,1,0
100458,344.827586206897,4,1,0,15,1,0
100460,344.827586206897,4,1,0,15,1,0
100462,344.827586206897,4,1,0,15,1,0
100464,344.827586206897,4,1,0,15,1,0
100466,344.827586206897,4,1,0,15,1,0
100468,344.827586206897,4,1,0,15,1,0
100470,344.827586206897,4,1,0,15,1,0
100472,344.827586206897,4,1,0,15,1,0
100474,344.827586206897,4,1,0,15,1,0
100476,344.827586206897,4,1,0,15,1,0
100478,344.827586206897,4,1,0,15,1,0
100480,344.827586206897,4,1,0,15,1,0
100482,344.827586206897,4,1,0,15,1,0
100484,344.827586206897,4,1,0,15,1,0
100486,344.827586206897,4,1,0,15,1,0
100488,344.827586206897,4,1,0,15,1,0
100490,344.827586206897,4,1,0,15,1,0
100492,344.827586206897,4,1,0,15,1,0
100494,344.827586206897,4,1,0,15,1,0
100496,344.827586206897,4,1,0,15,1,0
100498,344.827586206897,4,1,0,15,1,0
100500,344.827586206897,4,1,0,15,1,0
100502,344.827586206897,4,1,0,15,1,0
100504,344.827586206897,4,1,0,15,1,0
100506,344.827586206897,4,1,0,15,1,0
100508,344.827586206897,4,1,0,15,1,0
100510,344.827586206897,4,1,0,15,1,0
100512,344.827586206897,4,1,0,15,1,0
100514,344.827586206897,4,1,0,15,1,0
100516,344.827586206897,4,1,0,15,1,0
100518,344.827586206897,4,1,0,15,1,0
100520,344.827586206897,4,1,0,15,1,0
100522,344.827586206897,4,1,0,15,1,0
100524,344.827586206897,4,1,0,15,1,0
100526,344.827586206897,4,1,0,15,1,0
100528,344.827586206897,4,1,0,15,1,0
100530,344.827586206897,4,1,0,15,1,0
100532,344.827586206897,4,1,0,15,1,0
100534,344.827586206897,4,1,0,15,1,0
100536,344.827586206897,4,1,0,15,1,0
100538,344.827586206897,4,1,0,15,1,0
100540,344.827586206897,4,1,0,15,1,0
100542,344.827586206897,4,1,0,15,1,0
100544,344.827586206897,4,1,0,15,1,0
100546,344.827586206897,4,1,0,15,1,0
100548,344.827586206897,4,1,0,15,1,0
100550,344.827586206897,4,1,0,15,1,0
100552,344.827586206897,4,1,0,15,1,0
100554,344.827586206897,4,1,0,15,1,0
100556,344.827586206897,4,1,0,15,1,0
100558,344.827586206897,4,1,0,15,1,0
100560,344.827586206897,4,1,0,15,1,0
100562,344.827586206897,4,1,0,15,1,0
100564,344.827586206897,4,1,0,15,1,0
100566,344.827586206897,4,1,0,15,1,0
100568,344.827586206897,4,1,0,15,1,0
100570,344.827586206897,4,1,0,15,1,0
100572,344.827586206897,4,1,0,15,1,0
100574,344.827586206897,4,1,0,15,1,0
100576,344.827586206897,4,1,0,15,1,0
100578,344.827586206897,4,1,0,15,1,0
100580,344.827586206897,4,1,0,15,1,0
100582,344.827586206897,4,1,0,15,1,0
100584,344.827586206897,4,1,0,15,1,0
100586,344.827586206897,4,1,0,15,1,0
100588,344.827586206897,4,1,0,15,1,0
100590,344.827586206897,4,1,0,15,1,0
100592,344.827586206897,4,1,0,15,1,0
100594,344.827586206897,4,1,0,15,1,0
100596,344.827586206897,4,1,0,15,1,0
100598,344.827586206897,4,1,0,15,1,0
100600,344.827586206897,4,1,0,15,1,0
100602,344.827586206897,4,1,0,15,1,0
100604,344.827586206897,4,1,0,15,1,0
100606,344.827586206897,4,1,0,15,1,0
100608,344.827586206897,4,1,0,15,1,0
100610,344.827586206897,4,1,0,15,1,0
100612,344.827586206897,4,1,0,15,1,0
100614,344.827586206897,4,1,0,15,1,0
100616,344.827586206897,4,1,0,15,1,0
100618,344.827586206897,4,1,0,15,1,0
100620,344.827586206897,4,1,0,15,1,0
100622,344.827586206897,4,1,0,15,1,0
100624,344.827586206897,4,1,0,15,1,0
100626,344.827586206897,4,1,0,15,1,0
100628,344.827586206897,4,1,0,15,1,0
100630,344.827586206897,4,1,0,15,1,0
100632,344.827586206897,4,1,0,15,1,0
100634,344.827586206897,4,1,0,15,1,0
100636,344.827586206897,4,1,0,15,1,0
100638,344.827586206897,4,1,0,15,1,0
100640,344.827586206897,4,1,0,15,1,0
100642,344.827586206897,4,1,0,15,1,0
100644,344.827586206897,4,1,0,15,1,0
100646,344.827586206897,4,1,0,15,1,0
100649,344.827586206897,4,1,0,15,1,0
100651,344.827586206897,4,1,0,15,1,0
100653,344.827586206897,4,1,0,15,1,0
100655,344.827586206897,4,1,0,15,1,0
100657,344.827586206897,4,1,0,15,1,0
100659,344.827586206897,4,1,0,15,1,0
100661,344.827586206897,4,1,0,15,1,0
100663,344.827586206897,4,1,0,15,1,0
100665,344.827586206897,4,1,0,15,1,0
100667,344.827586206897,4,1,0,15,1,0
100669,344.827586206897,4,1,0,15,1,0
100671,344.827586206897,4,1,0,15,1,0
100673,344.827586206897,4,1,0,15,1,0
100675,344.827586206897,4,1,0,15,1,0
100677,344.827586206897,4,1,0,15,1,0
100679,344.827586206897,4,1,0,15,1,0
100681,344.827586206897,4,1,0,15,1,0
100683,344.827586206897,4,1,0,15,1,0
100685,344.827586206897,4,1,0,15,1,0
100687,344.827586206897,4,1,0,15,1,0
100689,344.827586206897,4,1,0,15,1,0
100691,344.827586206897,4,1,0,15,1,0
100693,344.827586206897,4,1,0,15,1,0
100695,344.827586206897,4,1,0,15,1,0
100697,344.827586206897,4,1,0,15,1,0
100699,344.827586206897,4,1,0,15,1,0
100701,344.827586206897,4,1,0,15,1,0
100703,344.827586206897,4,1,0,15,1,0
100705,344.827586206897,4,1,0,15,1,0
100707,344.827586206897,4,1,0,15,1,0
100709,344.827586206897,4,1,0,15,1,0
100711,344.827586206897,4,1,0,15,1,0
100713,344.827586206897,4,1,0,15,1,0
100715,344.827586206897,4,1,0,15,1,0
100717,344.827586206897,4,1,0,15,1,0
100719,344.827586206897,4,1,0,15,1,0
100721,344.827586206897,4,1,0,15,1,0
100723,344.827586206897,4,1,0,15,1,0
100725,344.827586206897,4,1,0,15,1,0
100727,344.827586206897,4,1,0,15,1,0
100729,344.827586206897,4,1,0,15,1,0
100731,344.827586206897,4,1,0,15,1,0
100733,344.827586206897,4,1,0,15,1,0
100735,344.827586206897,4,1,0,15,1,0
100737,344.827586206897,4,1,0,15,1,0
100739,344.827586206897,4,1,0,15,1,0
100741,344.827586206897,4,1,0,15,1,0
100743,344.827586206897,4,1,0,15,1,0
100745,344.827586206897,4,1,0,15,1,0
100747,344.827586206897,4,1,0,15,1,0
100749,344.827586206897,4,1,0,15,1,0
100751,344.827586206897,4,1,0,15,1,0
100753,344.827586206897,4,1,0,15,1,0
100755,344.827586206897,4,1,0,15,1,0
100757,344.827586206897,4,1,0,15,1,0
100759,344.827586206897,4,1,0,15,1,0
100761,344.827586206897,4,1,0,15,1,0
100763,344.827586206897,4,1,0,15,1,0
100765,344.827586206897,4,1,0,15,1,0
100767,344.827586206897,4,1,0,15,1,0
100769,344.827586206897,4,1,0,15,1,0
100771,344.827586206897,4,1,0,15,1,0
100773,344.827586206897,4,1,0,15,1,0
100775,344.827586206897,4,1,0,15,1,0
100777,344.827586206897,4,1,0,15,1,0
100779,344.827586206897,4,1,0,15,1,0
100781,344.827586206897,4,1,0,15,1,0
100783,344.827586206897,4,1,0,15,1,0
100785,344.827586206897,4,1,0,15,1,0
100787,344.827586206897,4,1,0,15,1,0
100789,344.827586206897,4,1,0,15,1,0
100791,344.827586206897,4,1,0,15,1,0
100793,344.827586206897,4,1,0,15,1,0
100795,344.827586206897,4,1,0,15,1,0
100797,344.827586206897,4,1,0,15,1,0
100799,344.827586206897,4,1,0,15,1,0
100801,344.827586206897,4,1,0,15,1,0
100803,344.827586206897,4,1,0,15,1,0
100805,344.827586206897,4,1,0,15,1,0
100807,344.827586206897,4,1,0,15,1,0
100809,344.827586206897,4,1,0,15,1,0
100811,344.827586206897,4,1,0,15,1,0
100813,344.827586206897,4,1,0,15,1,0
100815,344.827586206897,4,1,0,15,1,0
100817,344.827586206897,4,1,0,15,1,0
100819,344.827586206897,4,1,0,15,1,0
100821,344.827586206897,4,1,0,15,1,0
100823,344.827586206897,4,1,0,15,1,0
100825,344.827586206897,4,1,0,15,1,0
100827,344.827586206897,4,1,0,15,1,0
100829,344.827586206897,4,1,0,15,1,0
100831,344.827586206897,4,1,0,15,1,0
100833,344.827586206897,4,1,0,15,1,0
100835,344.827586206897,4,1,0,15,1,0
100837,344.827586206897,4,1,0,15,1,0
100839,344.827586206897,4,1,0,15,1,0
100841,344.827586206897,4,1,0,15,1,0
100843,344.827586206897,4,1,0,15,1,0
100845,344.827586206897,4,1,0,15,1,0
100847,344.827586206897,4,1,0,15,1,0
100849,344.827586206897,4,1,0,15,1,0
100851,344.827586206897,4,1,0,15,1,0
100853,344.827586206897,4,1,0,15,1,0
100855,344.827586206897,4,1,0,15,1,0
100857,344.827586206897,4,1,0,15,1,0
100859,344.827586206897,4,1,0,15,1,0
100861,344.827586206897,4,1,0,15,1,0
100863,344.827586206897,4,1,0,15,1,0
100865,344.827586206897,4,1,0,15,1,0
100867,344.827586206897,4,1,0,15,1,0
100869,344.827586206897,4,1,0,15,1,0
100871,344.827586206897,4,1,0,15,1,0
100873,344.827586206897,4,1,0,15,1,0
100875,344.827586206897,4,1,0,15,1,0
100877,344.827586206897,4,1,0,15,1,0
100879,344.827586206897,4,1,0,15,1,0
100881,344.827586206897,4,1,0,15,1,0
100883,344.827586206897,4,1,0,15,1,0
100885,344.827586206897,4,1,0,15,1,0
100887,344.827586206897,4,1,0,15,1,0
100889,344.827586206897,4,1,0,15,1,0
100891,344.827586206897,4,1,0,15,1,0
100893,344.827586206897,4,1,0,15,1,0
100895,344.827586206897,4,1,0,15,1,0
100897,344.827586206897,4,1,0,15,1,0
100899,344.827586206897,4,1,0,15,1,0
100901,344.827586206897,4,1,0,15,1,0
100903,344.827586206897,4,1,0,15,1,0
100905,344.827586206897,4,1,0,15,1,0
100907,344.827586206897,4,1,0,15,1,0
100909,344.827586206897,4,1,0,15,1,0
100911,344.827586206897,4,1,0,15,1,0
100913,344.827586206897,4,1,0,15,1,0
100915,344.827586206897,4,1,0,15,1,0
100917,344.827586206897,4,1,0,15,1,0
100919,344.827586206897,4,1,0,15,1,0
100921,344.827586206897,4,1,0,15,1,0
100923,344.827586206897,4,1,0,15,1,0
100925,344.827586206897,4,1,0,15,1,0
100927,344.827586206897,4,1,0,15,1,0
100929,344.827586206897,4,1,0,15,1,0
100931,344.827586206897,4,1,0,15,1,0
100933,344.827586206897,4,1,0,15,1,0
100935,344.827586206897,4,1,0,15,1,0
100937,344.827586206897,4,1,0,15,1,0
100939,344.827586206897,4,1,0,15,1,0
100941,344.827586206897,4,1,0,15,1,0
100943,344.827586206897,4,1,0,15,1,0
100945,344.827586206897,4,1,0,15,1,0
100947,344.827586206897,4,1,0,15,1,0
100949,344.827586206897,4,1,0,15,1,0
100951,344.827586206897,4,1,0,15,1,0
100953,344.827586206897,4,1,0,15,1,0
100955,344.827586206897,4,1,0,15,1,0
100957,344.827586206897,4,1,0,15,1,0
100959,344.827586206897,4,1,0,15,1,0
100961,344.827586206897,4,1,0,15,1,0
100963,344.827586206897,4,1,0,15,1,0
100965,344.827586206897,4,1,0,15,1,0
100967,344.827586206897,4,1,0,15,1,0
100969,344.827586206897,4,1,0,15,1,0
100971,344.827586206897,4,1,0,15,1,0
100973,344.827586206897,4,1,0,15,1,0
100975,344.827586206897,4,1,0,15,1,0
100977,344.827586206897,4,1,0,15,1,0
100979,344.827586206897,4,1,0,15,1,0
100981,344.827586206897,4,1,0,15,1,0
100983,344.827586206897,4,1,0,15,1,0
100985,344.827586206897,4,1,0,15,1,0
100987,344.827586206897,4,1,0,15,1,0
100989,344.827586206897,4,1,0,15,1,0
100991,344.827586206897,4,1,0,15,1,0
100994,344.827586206897,4,1,0,15,1,0
102373,155.413793103449,4,1,0,15,1,0
102387,60000,4,1,0,15,1,0
102401,155.413793103449,4,1,0,15,1,0
102416,60000,4,1,0,15,1,0
102430,155.413793103449,4,1,0,15,1,0
102444,60000,4,1,0,15,1,0
102459,155.413793103449,4,1,0,15,1,0
102473,60000,4,1,0,15,1,0
102488,155.413793103449,4,1,0,15,1,0
102502,60000,4,1,0,15,1,0
102516,155.413793103449,4,1,0,15,1,0
102531,60000,4,1,0,15,1,0
102545,155.413793103449,4,1,0,15,1,0
102559,60000,4,1,0,15,1,0
102574,155.413793103449,4,1,0,15,1,0
102588,60000,4,1,0,15,1,0
102603,155.413793103449,4,1,0,15,1,0
102617,60000,4,1,0,15,1,0
102631,155.413793103449,4,1,0,15,1,0
102646,60000,4,1,0,15,1,0
102660,155.413793103449,4,1,0,15,1,0
102674,60000,4,1,0,15,1,0
102689,155.413793103449,4,1,0,15,1,0
102703,60000,4,1,0,15,1,0
102718,344.827586206897,4,1,0,15,1,0
102718,-125,4,1,0,15,0,0
103062,-100,4,1,0,15,0,0
105476,-100,4,1,0,15,0,0
105821,265.251989389921,4,1,0,15,1,0
105824,265.865525217345,4,1,0,15,1,0
105827,266.481905878591,4,1,0,15,1,0
105831,267.101151205962,4,1,0,15,1,0
105834,267.723281216535,4,1,0,15,1,0
105838,268.348316114317,4,1,0,15,1,0
105841,268.976276292431,4,1,0,15,1,0
105845,269.607182335338,4,1,0,15,1,0
105848,270.241055021079,4,1,0,15,1,0
105852,270.877915323564,4,1,0,15,1,0
105855,271.51778441488,4,1,0,15,1,0
105858,272.160683667638,4,1,0,15,1,0
105862,272.806634657355,4,1,0,15,1,0
105865,273.455659164867,4,1,0,15,1,0
105869,274.107779178773,4,1,0,15,1,0
105872,274.763016897926,4,1,0,15,1,0
105876,275.421394733943,4,1,0,15,1,0
105879,276.082935313769,4,1,0,15,1,0
105883,276.747661482261,4,1,0,15,1,0
105886,277.415596304825,4,1,0,15,1,0
105890,278.086763070078,4,1,0,15,1,0
105893,278.76118529256,4,1,0,15,1,0
105896,279.438886715476,4,1,0,15,1,0
105900,280.119891313483,4,1,0,15,1,0
105903,280.804223295519,4,1,0,15,1,0
105907,281.491907107671,4,1,0,15,1,0
105910,282.182967436086,4,1,0,15,1,0
105914,282.877429209924,4,1,0,15,1,0
105917,283.575317604356,4,1,0,15,1,0
105921,284.276658043608,4,1,0,15,1,0
105924,284.981476204047,4,1,0,15,1,0
105927,285.689798017313,4,1,0,15,1,0
105931,286.401649673503,4,1,0,15,1,0
105934,287.117057624394,4,1,0,15,1,0
105938,287.836048586725,4,1,0,15,1,0
105941,288.558649545521,4,1,0,15,1,0
105945,289.284887757464,4,1,0,15,1,0
105948,290.014790754329,4,1,0,15,1,0
105952,290.748386346456,4,1,0,15,1,0
105955,291.485702626287,4,1,0,15,1,0
105959,292.226767971947,4,1,0,15,1,0
105962,292.97161105089,4,1,0,15,1,0
105965,293.720260823592,4,1,0,15,1,0
105969,294.472746547307,4,1,0,15,1,0
105972,295.229097779878,4,1,0,15,1,0
105976,295.989344383603,4,1,0,15,1,0
105979,296.753516529171,4,1,0,15,1,0
105983,297.521644699652,4,1,0,15,1,0
105986,298.293759694548,4,1,0,15,1,0
105990,299.069892633909,4,1,0,15,1,0
105993,299.850074962519,4,1,0,15,1,0
105996,300.634338454139,4,1,0,15,1,0
106000,301.422715215819,4,1,0,15,1,0
106003,302.215237692285,4,1,0,15,1,0
106007,303.011938670384,4,1,0,15,1,0
106010,303.81285128361,4,1,0,15,1,0
106014,304.618009016693,4,1,0,15,1,0
106017,305.427445710272,4,1,0,15,1,0
106021,306.241195565628,4,1,0,15,1,0
106024,307.059293149508,4,1,0,15,1,0
106028,307.881773399015,4,1,0,15,1,0
106031,308.708671626586,4,1,0,15,1,0
106034,309.540023525042,4,1,0,15,1,0
106038,310.375865172725,4,1,0,15,1,0
106041,311.216233038716,4,1,0,15,1,0
106045,312.061163988142,4,1,0,15,1,0
106048,312.910695287565,4,1,0,15,1,0
106052,313.764864610461,4,1,0,15,1,0
106055,314.623710042789,4,1,0,15,1,0
106059,315.487270088652,4,1,0,15,1,0
106062,316.355583676052,4,1,0,15,1,0
106065,317.228690162739,4,1,0,15,1,0
106069,318.106629342156,4,1,0,15,1,0
106072,318.989441449488,4,1,0,15,1,0
106076,319.877167167808,4,1,0,15,1,0
106079,320.769847634323,4,1,0,15,1,0
106083,321.667524446732,4,1,0,15,1,0
106086,322.570239669689,4,1,0,15,1,0
106090,323.478035841367,4,1,0,15,1,0
106093,324.390955980148,4,1,0,15,1,0
106097,325.309043591412,4,1,0,15,1,0
106100,326.232342674453,4,1,0,15,1,0
106103,327.160897729504,4,1,0,15,1,0
106107,328.094753764888,4,1,0,15,1,0
106110,329.033956304291,4,1,0,15,1,0
106114,329.97855139416,4,1,0,15,1,0
106117,330.928585611226,4,1,0,15,1,0
106121,331.884106070161,4,1,0,15,1,0
106124,332.845160431368,4,1,0,15,1,0
106128,333.811796908903,4,1,0,15,1,0
106131,334.784064278541,4,1,0,15,1,0
106134,335.762011885976,4,1,0,15,1,0
106138,336.745689655173,4,1,0,15,1,0
106141,337.735148096863,4,1,0,15,1,0
106145,338.730438317188,4,1,0,15,1,0
106148,339.731612026499,4,1,0,15,1,0
106152,340.738721548317,4,1,0,15,1,0
106155,341.751819828441,4,1,0,15,1,0
106159,342.770960444232,4,1,0,15,1,0
106162,343.796197614055,4,1,0,15,1,0
106166,160.413793103449,4,1,0,15,1,0
106180,60000,4,1,0,15,1,0
106194,160.413793103449,4,1,0,15,1,0
106209,60000,4,1,0,15,1,0
106223,160.413793103449,4,1,0,15,1,0
106237,60000,4,1,0,15,1,0
106252,160.413793103449,4,1,0,15,1,0
106266,60000,4,1,0,15,1,0
106281,160.413793103449,4,1,0,15,1,0
106295,60000,4,1,0,15,1,0
106309,160.413793103449,4,1,0,15,1,0
106324,60000,4,1,0,15,1,0
106338,160.413793103449,4,1,0,15,1,0
106352,60000,4,1,0,15,1,0
106367,160.413793103449,4,1,0,15,1,0
106381,60000,4,1,0,15,1,0
106396,160.413793103449,4,1,0,15,1,0
106410,60000,4,1,0,15,1,0
106424,160.413793103449,4,1,0,15,1,0
106439,60000,4,1,0,15,1,0
106453,160.413793103449,4,1,0,15,1,0
106467,60000,4,1,0,15,1,0
106482,160.413793103449,4,1,0,15,1,0
106496,60000,4,1,0,15,1,0
106510,344.827586206897,4,1,0,15,1,0
106510,-95.2380952380952,4,1,0,15,0,0
106854,-93.4579439252336,4,1,0,15,0,0
107199,-90.9090909090909,4,1,0,15,0,0
107544,-133.333333333333,4,1,0,15,0,0
107716,-10,4,1,0,15,0,0
107803,-125,4,1,0,15,0,0
108234,172.413793103449,4,1,0,15,1,0
108286,3448275862.06897,4,1,0,15,1,0
108336,172.413793103449,4,1,0,15,1,0
108386,3448275862.06897,4,1,0,15,1,0
108436,172.413793103449,4,1,0,15,1,0
108486,3448275862.06897,4,1,0,15,1,0
108536,172.413793103449,4,1,0,15,1,0
108586,3448275862.06897,4,1,0,15,1,0
108636,172.413793103449,4,1,0,15,1,0
108686,3448275862.06897,4,1,0,15,1,0
108736,172.413793103449,4,1,0,15,1,0
108786,3448275862.06897,4,1,0,15,1,0
108836,172.413793103449,4,1,0,15,1,0
108886,3448275862.06897,4,1,0,15,1,0
108925,344.827586206897,4,1,0,15,1,0
108925,-66.6666666666667,4,1,0,15,0,0
108968,-100,4,1,0,15,0,0
109442,-66.6666666666667,4,1,0,15,0,0
109485,-100,4,1,0,15,0,0
109959,-66.6666666666667,4,1,0,15,0,0
110002,-100,4,1,0,15,0,0
110304,-66.6666666666667,4,1,0,15,0,0
110347,-100,4,1,0,15,0,0
110993,172.413793103449,4,1,0,15,1,0
111022,60000,4,1,0,15,1,0
111051,172.413793103449,4,1,0,15,1,0
111080,60000,4,1,0,15,1,0
111108,172.413793103449,4,1,0,15,1,0
111137,60000,4,1,0,15,1,0
111166,172.413793103449,4,1,0,15,1,0
111195,60000,4,1,0,15,1,0
111223,172.413793103449,4,1,0,15,1,0
111252,60000,4,1,0,15,1,0
111281,172.413793103449,4,1,0,15,1,0
111310,60000,4,1,0,15,1,0
111338,344.827586206897,4,1,0,5,1,0
111338,-166.666666666667,4,1,0,15,0,0
111597,-45.4545454545455,4,1,0,15,0,0
111683,-100,4,1,0,15,0,0
112027,-95.2380952380952,4,1,0,15,0,0
112200,-90.9090909090909,4,1,0,15,0,0
112372,-100,4,1,0,15,0,0
112889,-64.5161290322581,4,1,0,15,0,0
112932,-166.666666666667,4,1,0,15,0,0
112975,-64.5161290322581,4,1,0,15,0,0
113019,-166.666666666667,4,1,0,15,0,0
113062,-71.4285714285714,4,1,0,15,0,0
113105,-100,4,1,0,15,0,0
113406,-71.4285714285714,4,1,0,15,0,0
113450,-100,4,1,0,15,0,0
113751,172.413793103449,4,1,0,15,1,0
113772,60000,4,1,0,15,1,0
113794,172.413793103449,4,1,0,15,1,0
113815,60000,4,1,0,15,1,0
113837,172.413793103449,4,1,0,15,1,0
113858,60000,4,1,0,15,1,0
113880,172.413793103449,4,1,0,15,1,0
113901,60000,4,1,0,15,1,0
113923,172.413793103449,4,1,0,15,1,0
113945,60000,4,1,0,15,1,0
113966,172.413793103449,4,1,0,15,1,0
113988,60000,4,1,0,15,1,0
114009,172.413793103449,4,1,0,15,1,0
114031,60000,4,1,0,15,1,0
114052,172.413793103449,4,1,0,15,1,0
114074,60000,4,1,0,15,1,0
114096,172.413793103449,4,1,0,15,1,0
114117,60000,4,1,0,15,1,0
114139,172.413793103449,4,1,0,15,1,0
114160,60000,4,1,0,15,1,0
114182,172.413793103449,4,1,0,15,1,0
114203,60000,4,1,0,15,1,0
114225,172.413793103449,4,1,0,15,1,0
114246,60000,4,1,0,15,1,0
114268,172.413793103449,4,1,0,15,1,0
114290,60000,4,1,0,15,1,0
114311,172.413793103449,4,1,0,15,1,0
114333,60000,4,1,0,15,1,0
114354,172.413793103449,4,1,0,15,1,0
114376,60000,4,1,0,15,1,0
114397,172.413793103449,4,1,0,15,1,0
114419,60000,4,1,0,15,1,0
114441,344.827586206897,4,1,0,15,1,0
114441,-66.6666666666667,4,1,0,15,0,0
114484,-100,4,1,0,15,0,0
114958,-66.6666666666667,4,1,0,15,0,0
115001,-100,4,1,0,15,0,0
115475,-66.6666666666667,4,1,0,15,0,0
115518,-100,4,1,0,15,0,0
115820,-66.6666666666667,4,1,0,15,0,0
115863,-100,4,1,0,15,0,0
116165,-95.2380952380952,4,1,0,15,0,0
116337,-90.9090909090909,4,1,0,15,0,0
116509,164.203612479475,4,1,0,15,1,0
116537,60000,4,1,0,15,1,0
116566,164.203612479475,4,1,0,15,1,0
116595,60000,4,1,0,15,1,0
116624,164.203612479475,4,1,0,15,1,0
116652,60000,4,1,0,15,1,0
116681,164.203612479475,4,1,0,15,1,0
116710,60000,4,1,0,15,1,0
116739,164.203612479475,4,1,0,15,1,0
116767,60000,4,1,0,15,1,0
116796,164.203612479475,4,1,0,15,1,0
116825,60000,4,1,0,15,1,0
116854,181.488203266788,4,1,0,15,1,0
116882,60000,4,1,0,15,1,0
116911,181.488203266788,4,1,0,15,1,0
116940,60000,4,1,0,15,1,0
116969,181.488203266788,4,1,0,15,1,0
116997,60000,4,1,0,15,1,0
117026,181.488203266788,4,1,0,15,1,0
117055,60000,4,1,0,15,1,0
117084,181.488203266788,4,1,0,15,1,0
117112,60000,4,1,0,15,1,0
117141,181.488203266788,4,1,0,15,1,0
117170,60000,4,1,0,15,1,0
117200,344.827586206897,4,1,0,15,1,0
119268,-111.111111111111,4,1,0,15,0,0
119613,-105.263157894737,4,1,0,15,0,0
119700,-99.9999999999999,4,1,0,15,0,0
119786,-90.9090909090909,4,1,0,15,0,0
119872,-83.3333333333333,4,1,0,15,0,0
119958,-66.6666666666667,4,1,0,15,0,0
120001,-100,4,1,0,15,0,0
120475,-66.6666666666667,4,1,0,15,0,0
120518,-100,4,1,0,15,0,0
120993,-66.6666666666667,4,1,0,15,0,0
121036,-100,4,1,0,15,0,0
121337,-66.6666666666667,4,1,0,15,0,0
121381,-100,4,1,0,15,0,0
121510,-66.6666666666667,4,1,0,15,0,0
121553,-100,4,1,0,15,0,0
121768,-66.6666666666667,4,1,0,15,0,0
121812,-100,4,1,0,15,0,0
122027,-66.6666666666667,4,1,0,15,0,0
122056,-200,4,1,0,15,0,0
122085,-66.6666666666667,4,1,0,15,0,0
122113,-200,4,1,0,15,0,0
122142,-66.6666666666667,4,1,0,15,0,0
122171,-200,4,1,0,15,0,0
122200,-66.6666666666667,4,1,0,15,0,0
122228,-200,4,1,0,15,0,0
122257,-66.6666666666667,4,1,0,15,0,0
122286,-200,4,1,0,15,0,0
122314,-66.6666666666667,4,1,0,15,0,0
122343,-200,4,1,0,15,0,0
122372,-100,4,1,0,15,0,0
124786,172.413793103449,4,1,0,15,1,0
124807,60000,4,1,0,15,1,0
124829,172.413793103449,4,1,0,15,1,0
124850,60000,4,1,0,15,1,0
124872,172.413793103449,4,1,0,15,1,0
124893,60000,4,1,0,15,1,0
124915,172.413793103449,4,1,0,15,1,0
124936,60000,4,1,0,15,1,0
124958,172.413793103449,4,1,0,15,1,0
124980,60000,4,1,0,15,1,0
125001,172.413793103449,4,1,0,15,1,0
125023,60000,4,1,0,15,1,0
125044,172.413793103449,4,1,0,15,1,0
125066,60000,4,1,0,15,1,0
125087,172.413793103449,4,1,0,15,1,0
125109,60000,4,1,0,15,1,0
125131,172.413793103449,4,1,0,15,1,0
125152,60000,4,1,0,15,1,0
125174,172.413793103449,4,1,0,15,1,0
125195,60000,4,1,0,15,1,0
125217,172.413793103449,4,1,0,15,1,0
125238,60000,4,1,0,15,1,0
125260,172.413793103449,4,1,0,15,1,0
125281,60000,4,1,0,15,1,0
125303,172.413793103449,4,1,0,15,1,0
125325,60000,4,1,0,15,1,0
125346,172.413793103449,4,1,0,15,1,0
125368,60000,4,1,0,15,1,0
125389,172.413793103449,4,1,0,15,1,0
125411,60000,4,1,0,15,1,0
125432,172.413793103449,4,1,0,15,1,0
125454,60000,4,1,0,15,1,0
125476,344.827586206897,4,1,0,15,1,0
125476,-66.6666666666667,4,1,0,15,0,0
125519,-100,4,1,0,15,0,0
125993,-66.6666666666667,4,1,0,15,0,0
126036,-100,4,1,0,15,0,0
126510,-66.6666666666667,4,1,0,15,0,0
126553,-100,4,1,0,15,0,0
126855,-66.6666666666667,4,1,0,15,0,0
126898,-100,4,1,0,15,0,0
128924,-97.0873786407767,4,1,0,15,0,0
129613,-94.3396226415094,4,1,0,15,0,0
129786,-62.5,4,1,0,15,0,0
129829,-250,4,1,0,15,0,0
129872,-62.5,4,1,0,15,0,0
129915,-250,4,1,0,15,0,0
129958,-50,4,1,0,15,0,0
130001,-1000,4,1,0,15,0,0
130044,-50,4,1,0,15,0,0
130088,-1000,4,1,0,15,0,0
130128,152.413793103449,4,1,0,15,1,0
130172,60000,4,1,0,15,1,0
130216,152.413793103449,4,1,0,15,1,0
130260,60000,4,1,0,15,1,0
130303,344.827586206897,4,1,0,15,1,0
130303,-111.111111111111,4,1,0,15,0,0
141337,344.827586206897,4,1,0,15,1,0
141337,-100,4,1,0,15,0,0
141339,344.827586206897,4,1,0,15,1,0
141342,344.827586206897,4,1,0,15,1,0
141345,344.827586206897,4,1,0,15,1,0
141348,344.827586206897,4,1,0,15,1,0
141351,344.827586206897,4,1,0,15,1,0
141354,344.827586206897,4,1,0,15,1,0
141357,344.827586206897,4,1,0,15,1,0
141360,344.827586206897,4,1,0,15,1,0
141363,344.827586206897,4,1,0,15,1,0
141366,344.827586206897,4,1,0,15,1,0
141369,344.827586206897,4,1,0,15,1,0
141372,344.827586206897,4,1,0,15,1,0
141375,344.827586206897,4,1,0,15,1,0
141378,344.827586206897,4,1,0,15,1,0
141381,344.827586206897,4,1,0,15,1,0
141384,344.827586206897,4,1,0,15,1,0
141387,344.827586206897,4,1,0,15,1,0
141390,344.827586206897,4,1,0,15,1,0
141393,344.827586206897,4,1,0,15,1,0
141396,344.827586206897,4,1,0,15,1,0
141399,344.827586206897,4,1,0,15,1,0
141402,344.827586206897,4,1,0,15,1,0
141405,344.827586206897,4,1,0,15,1,0
141408,344.827586206897,4,1,0,15,1,0
141413,344.827586206897,4,1,0,15,1,0
141418,344.827586206897,4,1,0,15,1,0
141423,344.827586206897,4,1,0,15,1,0
141428,344.827586206897,4,1,0,15,1,0
141433,344.827586206897,4,1,0,15,1,0
141438,344.827586206897,4,1,0,15,1,0
141443,344.827586206897,4,1,0,15,1,0
141449,344.827586206897,4,1,0,15,1,0
141455,344.827586206897,4,1,0,15,1,0
141461,344.827586206897,4,1,0,15,1,0
141467,344.827586206897,4,1,0,15,1,0
141473,344.827586206897,4,1,0,15,1,0
141482,344.827586206897,4,1,0,15,1,0
141491,344.827586206897,4,1,0,15,1,0
141504,344.827586206897,4,1,0,15,1,0
141518,344.827586206897,4,1,0,15,1,0
141532,344.827586206897,4,1,0,15,1,0
141546,344.827586206897,4,1,0,15,1,0
141560,344.827586206897,4,1,0,15,1,0
141574,344.827586206897,4,1,0,15,1,0
141595,344.827586206897,4,1,0,15,1,0
141616,344.827586206897,4,1,0,15,1,0
141637,344.827586206897,4,1,0,15,1,0
141658,344.827586206897,4,1,0,15,1,0
141678,344.827586206897,4,1,0,15,1,0
141698,344.827586206897,4,1,0,15,1,0
143751,344.827586206897,4,1,0,15,1,0
143753,344.827586206897,4,1,0,15,1,0
143756,344.827586206897,4,1,0,15,1,0
143759,344.827586206897,4,1,0,15,1,0
143762,344.827586206897,4,1,0,15,1,0
143765,344.827586206897,4,1,0,15,1,0
143768,344.827586206897,4,1,0,15,1,0
143771,344.827586206897,4,1,0,15,1,0
143774,344.827586206897,4,1,0,15,1,0
143777,344.827586206897,4,1,0,15,1,0
143780,344.827586206897,4,1,0,15,1,0
143783,344.827586206897,4,1,0,15,1,0
143786,344.827586206897,4,1,0,15,1,0
143789,344.827586206897,4,1,0,15,1,0
143792,344.827586206897,4,1,0,15,1,0
143795,344.827586206897,4,1,0,15,1,0
143798,344.827586206897,4,1,0,15,1,0
143801,344.827586206897,4,1,0,15,1,0
143804,344.827586206897,4,1,0,15,1,0
143807,344.827586206897,4,1,0,15,1,0
143810,344.827586206897,4,1,0,15,1,0
143813,344.827586206897,4,1,0,15,1,0
143816,344.827586206897,4,1,0,15,1,0
143819,344.827586206897,4,1,0,15,1,0
143822,344.827586206897,4,1,0,15,1,0
143827,344.827586206897,4,1,0,15,1,0
143832,344.827586206897,4,1,0,15,1,0
143837,344.827586206897,4,1,0,15,1,0
143842,344.827586206897,4,1,0,15,1,0
143847,344.827586206897,4,1,0,15,1,0
143852,344.827586206897,4,1,0,15,1,0
143857,344.827586206897,4,1,0,15,1,0
143863,344.827586206897,4,1,0,15,1,0
143869,344.827586206897,4,1,0,15,1,0
143875,344.827586206897,4,1,0,15,1,0
143881,344.827586206897,4,1,0,15,1,0
143887,344.827586206897,4,1,0,15,1,0
143896,344.827586206897,4,1,0,15,1,0
143905,344.827586206897,4,1,0,15,1,0
143918,344.827586206897,4,1,0,15,1,0
143932,344.827586206897,4,1,0,15,1,0
143946,344.827586206897,4,1,0,15,1,0
143960,344.827586206897,4,1,0,15,1,0
143974,344.827586206897,4,1,0,15,1,0
143988,344.827586206897,4,1,0,15,1,0
144009,344.827586206897,4,1,0,15,1,0
144030,344.827586206897,4,1,0,15,1,0
144051,344.827586206897,4,1,0,15,1,0
144072,344.827586206897,4,1,0,15,1,0
144092,344.827586206897,4,1,0,15,1,0
144096,344.827586206897,4,1,0,15,1,0
144098,344.827586206897,4,1,0,15,1,0
144101,344.827586206897,4,1,0,15,1,0
144104,344.827586206897,4,1,0,15,1,0
144107,344.827586206897,4,1,0,15,1,0
144110,344.827586206897,4,1,0,15,1,0
144112,344.827586206897,4,1,0,15,1,0
144113,344.827586206897,4,1,0,15,1,0
144116,344.827586206897,4,1,0,15,1,0
144119,344.827586206897,4,1,0,15,1,0
144122,344.827586206897,4,1,0,15,1,0
144125,344.827586206897,4,1,0,15,1,0
144128,344.827586206897,4,1,0,15,1,0
144131,344.827586206897,4,1,0,15,1,0
144134,344.827586206897,4,1,0,15,1,0
144137,344.827586206897,4,1,0,15,1,0
144140,344.827586206897,4,1,0,15,1,0
144143,344.827586206897,4,1,0,15,1,0
144146,344.827586206897,4,1,0,15,1,0
144149,344.827586206897,4,1,0,15,1,0
144152,344.827586206897,4,1,0,15,1,0
144155,344.827586206897,4,1,0,15,1,0
144158,344.827586206897,4,1,0,15,1,0
144161,344.827586206897,4,1,0,15,1,0
144164,344.827586206897,4,1,0,15,1,0
144167,344.827586206897,4,1,0,15,1,0
144172,344.827586206897,4,1,0,15,1,0
144177,344.827586206897,4,1,0,15,1,0
144182,344.827586206897,4,1,0,15,1,0
144187,344.827586206897,4,1,0,15,1,0
144192,344.827586206897,4,1,0,15,1,0
144197,344.827586206897,4,1,0,15,1,0
144202,344.827586206897,4,1,0,15,1,0
144208,344.827586206897,4,1,0,15,1,0
144214,344.827586206897,4,1,0,15,1,0
144220,344.827586206897,4,1,0,15,1,0
144226,344.827586206897,4,1,0,15,1,0
144232,344.827586206897,4,1,0,15,1,0
144241,344.827586206897,4,1,0,15,1,0
144250,344.827586206897,4,1,0,15,1,0
144263,344.827586206897,4,1,0,15,1,0
144277,344.827586206897,4,1,0,15,1,0
144291,344.827586206897,4,1,0,15,1,0
144305,344.827586206897,4,1,0,15,1,0
144319,344.827586206897,4,1,0,15,1,0
144333,344.827586206897,4,1,0,15,1,0
144354,344.827586206897,4,1,0,15,1,0
144375,344.827586206897,4,1,0,15,1,0
144396,344.827586206897,4,1,0,15,1,0
144417,344.827586206897,4,1,0,15,1,0
144437,344.827586206897,4,1,0,15,1,0
144457,344.827586206897,4,1,0,15,1,0
145992,344.827586206897,4,1,0,15,1,0
145994,344.827586206897,4,1,0,15,1,0
145997,344.827586206897,4,1,0,15,1,0
146000,344.827586206897,4,1,0,15,1,0
146003,344.827586206897,4,1,0,15,1,0
146006,344.827586206897,4,1,0,15,1,0
146009,344.827586206897,4,1,0,15,1,0
146012,344.827586206897,4,1,0,15,1,0
146015,344.827586206897,4,1,0,15,1,0
146018,344.827586206897,4,1,0,15,1,0
146021,344.827586206897,4,1,0,15,1,0
146024,344.827586206897,4,1,0,15,1,0
146027,344.827586206897,4,1,0,15,1,0
146030,344.827586206897,4,1,0,15,1,0
146033,344.827586206897,4,1,0,15,1,0
146036,344.827586206897,4,1,0,15,1,0
146039,344.827586206897,4,1,0,15,1,0
146042,344.827586206897,4,1,0,15,1,0
146045,344.827586206897,4,1,0,15,1,0
146048,344.827586206897,4,1,0,15,1,0
146051,344.827586206897,4,1,0,15,1,0
146054,344.827586206897,4,1,0,15,1,0
146057,344.827586206897,4,1,0,15,1,0
146060,344.827586206897,4,1,0,15,1,0
146063,344.827586206897,4,1,0,15,1,0
146068,344.827586206897,4,1,0,15,1,0
146073,344.827586206897,4,1,0,15,1,0
146078,344.827586206897,4,1,0,15,1,0
146083,344.827586206897,4,1,0,15,1,0
146088,344.827586206897,4,1,0,15,1,0
146093,344.827586206897,4,1,0,15,1,0
146098,344.827586206897,4,1,0,15,1,0
146104,344.827586206897,4,1,0,15,1,0
146110,344.827586206897,4,1,0,15,1,0
146116,344.827586206897,4,1,0,15,1,0
146122,344.827586206897,4,1,0,15,1,0
146128,344.827586206897,4,1,0,15,1,0
146137,344.827586206897,4,1,0,15,1,0
146146,344.827586206897,4,1,0,15,1,0
146159,344.827586206897,4,1,0,15,1,0
146173,344.827586206897,4,1,0,15,1,0
146187,344.827586206897,4,1,0,15,1,0
146201,344.827586206897,4,1,0,15,1,0
146215,344.827586206897,4,1,0,15,1,0
146229,344.827586206897,4,1,0,15,1,0
146250,344.827586206897,4,1,0,15,1,0
146271,344.827586206897,4,1,0,15,1,0
146292,344.827586206897,4,1,0,15,1,0
146313,344.827586206897,4,1,0,15,1,0
146333,344.827586206897,4,1,0,15,1,0
146353,344.827586206897,4,1,0,15,1,0
146509,344.827586206897,4,1,0,15,1,0
146511,344.827586206897,4,1,0,15,1,0
146514,344.827586206897,4,1,0,15,1,0
146517,344.827586206897,4,1,0,15,1,0
146520,344.827586206897,4,1,0,15,1,0
146523,344.827586206897,4,1,0,15,1,0
146526,344.827586206897,4,1,0,15,1,0
146529,344.827586206897,4,1,0,15,1,0
146532,344.827586206897,4,1,0,15,1,0
146535,344.827586206897,4,1,0,15,1,0
146538,344.827586206897,4,1,0,15,1,0
146541,344.827586206897,4,1,0,15,1,0
146544,344.827586206897,4,1,0,15,1,0
146547,344.827586206897,4,1,0,15,1,0
146550,344.827586206897,4,1,0,15,1,0
146553,344.827586206897,4,1,0,15,1,0
146556,344.827586206897,4,1,0,15,1,0
146559,344.827586206897,4,1,0,15,1,0
146562,344.827586206897,4,1,0,15,1,0
146565,344.827586206897,4,1,0,15,1,0
146568,344.827586206897,4,1,0,15,1,0
146571,344.827586206897,4,1,0,15,1,0
146574,344.827586206897,4,1,0,15,1,0
146577,344.827586206897,4,1,0,15,1,0
146580,344.827586206897,4,1,0,15,1,0
146585,344.827586206897,4,1,0,15,1,0
146590,344.827586206897,4,1,0,15,1,0
146595,344.827586206897,4,1,0,15,1,0
146600,344.827586206897,4,1,0,15,1,0
146605,344.827586206897,4,1,0,15,1,0
146610,344.827586206897,4,1,0,15,1,0
146615,344.827586206897,4,1,0,15,1,0
146621,344.827586206897,4,1,0,15,1,0
146627,344.827586206897,4,1,0,15,1,0
146633,344.827586206897,4,1,0,15,1,0
146639,344.827586206897,4,1,0,15,1,0
146645,344.827586206897,4,1,0,15,1,0
146654,344.827586206897,4,1,0,15,1,0
146663,344.827586206897,4,1,0,15,1,0
146676,344.827586206897,4,1,0,15,1,0
146690,344.827586206897,4,1,0,15,1,0
146704,344.827586206897,4,1,0,15,1,0
146718,344.827586206897,4,1,0,15,1,0
146732,344.827586206897,4,1,0,15,1,0
146746,344.827586206897,4,1,0,15,1,0
146767,344.827586206897,4,1,0,15,1,0
146788,344.827586206897,4,1,0,15,1,0
146809,344.827586206897,4,1,0,15,1,0
146830,344.827586206897,4,1,0,15,1,0
146850,344.827586206897,4,1,0,15,1,0
146854,344.827586206897,4,1,0,15,1,0
146856,344.827586206897,4,1,0,15,1,0
146859,344.827586206897,4,1,0,15,1,0
146862,344.827586206897,4,1,0,15,1,0
146865,344.827586206897,4,1,0,15,1,0
146868,344.827586206897,4,1,0,15,1,0
146870,344.827586206897,4,1,0,15,1,0
146871,344.827586206897,4,1,0,15,1,0
146874,344.827586206897,4,1,0,15,1,0
146877,344.827586206897,4,1,0,15,1,0
146880,344.827586206897,4,1,0,15,1,0
146883,344.827586206897,4,1,0,15,1,0
146886,344.827586206897,4,1,0,15,1,0
146889,344.827586206897,4,1,0,15,1,0
146892,344.827586206897,4,1,0,15,1,0
146895,344.827586206897,4,1,0,15,1,0
146898,344.827586206897,4,1,0,15,1,0
146901,344.827586206897,4,1,0,15,1,0
146904,344.827586206897,4,1,0,15,1,0
146907,344.827586206897,4,1,0,15,1,0
146910,344.827586206897,4,1,0,15,1,0
146913,344.827586206897,4,1,0,15,1,0
146916,344.827586206897,4,1,0,15,1,0
146919,344.827586206897,4,1,0,15,1,0
146922,344.827586206897,4,1,0,15,1,0
146925,344.827586206897,4,1,0,15,1,0
146930,344.827586206897,4,1,0,15,1,0
146935,344.827586206897,4,1,0,15,1,0
146940,344.827586206897,4,1,0,15,1,0
146945,344.827586206897,4,1,0,15,1,0
146950,344.827586206897,4,1,0,15,1,0
146955,344.827586206897,4,1,0,15,1,0
146960,344.827586206897,4,1,0,15,1,0
146966,344.827586206897,4,1,0,15,1,0
146972,344.827586206897,4,1,0,15,1,0
146978,344.827586206897,4,1,0,15,1,0
146984,344.827586206897,4,1,0,15,1,0
146990,344.827586206897,4,1,0,15,1,0
146999,344.827586206897,4,1,0,15,1,0
147008,344.827586206897,4,1,0,15,1,0
147021,344.827586206897,4,1,0,15,1,0
147035,344.827586206897,4,1,0,15,1,0
147049,344.827586206897,4,1,0,15,1,0
147063,344.827586206897,4,1,0,15,1,0
147077,344.827586206897,4,1,0,15,1,0
147091,344.827586206897,4,1,0,15,1,0
147112,344.827586206897,4,1,0,15,1,0
147133,344.827586206897,4,1,0,15,1,0
147154,344.827586206897,4,1,0,15,1,0
147175,344.827586206897,4,1,0,15,1,0
147195,344.827586206897,4,1,0,15,1,0
147215,344.827586206897,4,1,0,15,1,0
149614,344.827586206897,4,1,0,15,1,0
149614,-71.4285714285714,4,1,0,15,0,0
149657,-166.666666666667,4,1,0,15,0,0
149700,-71.4285714285714,4,1,0,15,0,0
149743,-166.666666666667,4,1,0,15,0,0
149786,-71.4285714285714,4,1,0,15,0,0
149829,-166.666666666667,4,1,0,15,0,0
149872,-71.4285714285714,4,1,0,15,0,0
149915,-166.666666666667,4,1,0,15,0,0
149958,-66.6666666666667,4,1,0,15,0,0
150001,-200,4,1,0,15,0,0
150045,-66.6666666666667,4,1,0,15,0,0
150088,-200,4,1,0,15,0,0
150131,-66.6666666666667,4,1,0,15,0,0
150174,-200,4,1,0,15,0,0
150217,-66.6666666666667,4,1,0,15,0,0
150260,-200,4,1,0,15,0,0
150303,-62.5,4,1,0,15,0,0
150346,-250,4,1,0,15,0,0
150389,-62.5,4,1,0,15,0,0
150432,-250,4,1,0,15,0,0
150476,-58.8235294117647,4,1,0,15,0,0
150519,-333.333333333333,4,1,0,15,0,0
150562,-58.8235294117647,4,1,0,15,0,0
150605,-333.333333333333,4,1,0,15,0,0
150648,-55.5555555555556,4,1,0,15,0,0
150691,-500,4,1,0,15,0,0
150734,-55.5555555555556,4,1,0,15,0,0
150777,-500,4,1,0,15,0,0
150820,-52.6315789473684,4,1,0,15,0,0
150864,-1000,4,1,0,15,0,0
150907,-52.6315789473684,4,1,0,15,0,0
150950,-1000,4,1,0,15,0,0
150993,172.413793103449,4,1,0,15,1,0
150993,-100,4,1,0,15,0,0
151014,60000,4,1,0,15,1,0
151036,172.413793103449,4,1,0,15,1,0
151057,60000,4,1,0,15,1,0
151079,172.413793103449,4,1,0,15,1,0
151100,60000,4,1,0,15,1,0
151122,172.413793103449,4,1,0,15,1,0
151143,60000,4,1,0,15,1,0
151165,172.413793103449,4,1,0,15,1,0
151186,60000,4,1,0,15,1,0
151208,172.413793103449,4,1,0,15,1,0
151229,60000,4,1,0,15,1,0
151251,172.413793103449,4,1,0,15,1,0
151272,60000,4,1,0,15,1,0
151294,172.413793103449,4,1,0,15,1,0
151315,60000,4,1,0,15,1,0
151337,172.413793103449,4,1,0,15,1,0
151359,60000,4,1,0,15,1,0
151380,172.413793103449,4,1,0,15,1,0
151402,60000,4,1,0,15,1,0
151423,172.413793103449,4,1,0,15,1,0
151445,60000,4,1,0,15,1,0
151466,172.413793103449,4,1,0,15,1,0
151488,60000,4,1,0,15,1,0
151509,172.413793103449,4,1,0,15,1,0
151531,60000,4,1,0,15,1,0
151552,172.413793103449,4,1,0,15,1,0
151574,60000,4,1,0,15,1,0
151595,172.413793103449,4,1,0,15,1,0
151617,60000,4,1,0,15,1,0
151638,172.413793103449,4,1,0,15,1,0
151660,60000,4,1,0,15,1,0
151683,344.827586206897,4,1,0,15,1,0
151683,-52.6315789473684,4,1,0,15,0,0
151703,-1000,4,1,0,15,0,0
151725,-21.7391304347826,4,1,0,15,0,0
151746,-1000,4,1,0,15,0,0
151833,-21.7391304347826,4,1,0,15,0,0
151855,-1000,4,1,0,15,0,0
151941,-21.7391304347826,4,1,0,15,0,0
151963,-1000,4,1,0,15,0,0
152049,-12.1951219512195,4,1,0,15,0,0
152070,-1000,4,1,0,15,0,0
152243,-18.1818181818182,4,1,0,15,0,0
152264,-1000,4,1,0,15,0,0
152372,-10,4,1,0,15,0,0
152415,-200,4,1,0,15,0,0
153058,1,4,1,0,15,1,0
153061,86.6292139698272,4,1,0,15,1,0
153064,87.055689524589,4,1,0,15,1,0
153068,87.4863849313452,4,1,0,15,1,0
153071,87.9213631328141,4,1,0,15,1,0
153075,88.3606883297622,4,1,0,15,1,0
153078,88.8044260125926,4,1,0,15,1,0
153082,89.2526429938908,4,1,0,15,1,0
153085,89.7054074419607,4,1,0,15,1,0
153089,90.1627889153868,4,1,0,15,1,0
153092,90.6248583986589,4,1,0,15,1,0
153095,91.0916883388976,4,1,0,15,1,0
153099,91.563352683722,4,1,0,15,1,0
153102,92.0399269202981,4,1,0,15,1,0
153106,92.521488115615,4,1,0,15,1,0
153109,93.0081149580302,4,1,0,15,1,0
153113,93.4998878001348,4,1,0,15,1,0
153116,93.9968887029841,4,1,0,15,1,0
153120,94.4992014817476,4,1,0,15,1,0
153123,95.0069117528301,4,1,0,15,1,0
153127,95.5201069825199,4,1,0,15,1,0
153130,96.0388765372224,4,1,0,15,1,0
153133,96.5633117353394,4,1,0,15,1,0
153137,97.0935059008579,4,1,0,15,1,0
153140,97.6295544187138,4,1,0,15,1,0
153144,98.1715547919991,4,1,0,15,1,0
153147,98.719606701087,4,1,0,15,1,0
153151,99.2738120647465,4,1,0,15,1,0
153154,99.8342751033286,4,1,0,15,1,0
153158,100.401102404105,4,1,0,15,1,0
153161,100.974402988842,4,1,0,15,1,0
153164,101.554288383713,4,1,0,15,1,0
153168,102.140872691616,4,1,0,15,1,0
153171,102.734272667033,4,1,0,15,1,0
153175,103.334607793496,4,1,0,15,1,0
153178,103.942000363797,4,1,0,15,1,0
153182,104.556575563037,4,1,0,15,1,0
153185,105.178461554643,4,1,0,15,1,0
153189,105.807789569468,4,1,0,15,1,0
153192,106.444693998116,4,1,0,15,1,0
153196,107.089312486614,4,1,0,15,1,0
153199,107.741786035587,4,1,0,15,1,0
153202,108.40225910308,4,1,0,15,1,0
153206,109.07087971118,4,1,0,15,1,0
153209,109.747799556619,4,1,0,15,1,0
153213,110.433174125507,4,1,0,15,1,0
153216,111.127162812406,4,1,0,15,1,0
153220,111.82992904391,4,1,0,15,1,0
153223,112.541640406951,4,1,0,15,1,0
153227,113.262468782032,4,1,0,15,1,0
153230,113.992590481619,4,1,0,15,1,0
153233,114.73218639391,4,1,0,15,1,0
153237,115.48144213225,4,1,0,15,1,0
153240,116.240548190425,4,1,0,15,1,0
153244,117.009700104139,4,1,0,15,1,0
153247,117.789098618923,4,1,0,15,1,0
153251,118.57894986482,4,1,0,15,1,0
153254,119.379465538133,4,1,0,15,1,0
153258,120.190863090588,4,1,0,15,1,0
153261,121.013365926267,4,1,0,15,1,0
153265,121.847203606677,4,1,0,15,1,0
153268,122.692612064365,4,1,0,15,1,0
153271,123.549833825474,4,1,0,15,1,0
153275,124.419118241709,4,1,0,15,1,0
153278,125.300721732157,4,1,0,15,1,0
153282,126.194908035461,4,1,0,15,1,0
153285,127.10194847287,4,1,0,15,1,0
153289,128.02212222272,4,1,0,15,1,0
153292,128.955716606917,4,1,0,15,1,0
153296,129.903027390053,4,1,0,15,1,0
153299,130.864359091802,4,1,0,15,1,0
153302,131.840025313285,4,1,0,15,1,0
153306,132.830349078158,4,1,0,15,1,0
153309,133.83566318917,4,1,0,15,1,0
153313,134.856310601055,4,1,0,15,1,0
153316,135.8926448106,4,1,0,15,1,0
153320,136.945030264852,4,1,0,15,1,0
153323,138.013842788432,4,1,0,15,1,0
153327,139.099470031019,4,1,0,15,1,0
153330,140.202311936124,4,1,0,15,1,0
153334,141.322781232335,4,1,0,15,1,0
153337,142.461303948315,4,1,0,15,1,0
153340,143.618319952893,4,1,0,15,1,0
153344,144.794283521687,4,1,0,15,1,0
153347,145.989663931794,4,1,0,15,1,0
153351,147.204946086189,4,1,0,15,1,0
153354,148.440631169564,4,1,0,15,1,0
153358,149.697237337485,4,1,0,15,1,0
153361,150.975300440848,4,1,0,15,1,0
153365,152.275374787766,4,1,0,15,1,0
153368,153.598033945166,4,1,0,15,1,0
153371,154.943871582519,4,1,0,15,1,0
153375,156.313502360334,4,1,0,15,1,0
153378,157.707562866177,4,1,0,15,1,0
153382,159.126712601245,4,1,0,15,1,0
153385,160.571635020674,4,1,0,15,1,0
153389,162.043038631061,4,1,0,15,1,0
153392,163.541658148872,4,1,0,15,1,0
153396,165.068255723742,4,1,0,15,1,0
153399,166.623622230924,4,1,0,15,1,0
153403,168.208578637511,4,1,0,15,1,0
153406,169.823977447376,4,1,0,15,1,0
153409,171.470704230182,4,1,0,15,1,0
153413,173.149679240219,4,1,0,15,1,0
153416,174.861859131287,4,1,0,15,1,0
153420,176.608238774339,4,1,0,15,1,0
153423,178.389853185151,4,1,0,15,1,0
153427,180.207779569844,4,1,0,15,1,0
153430,182.063139496778,4,1,0,15,1,0
153434,183.957101203999,4,1,0,15,1,0
153437,185.890882052236,4,1,0,15,1,0
153440,187.86575113424,4,1,0,15,1,0
153444,189.883032052256,4,1,0,15,1,0
153447,191.944105876369,4,1,0,15,1,0
153451,194.050414297635,4,1,0,15,1,0
153454,196.203462991122,4,1,0,15,1,0
153458,198.404825205349,4,1,0,15,1,0
153461,200.6561455961,4,1,0,15,1,0
153465,202.959144324248,4,1,0,15,1,0
153468,205.315621439057,4,1,0,15,1,0
153472,207.72746157042,4,1,0,15,1,0
153475,210.196638955743,4,1,0,15,1,0
153478,212.725222829671,4,1,0,15,1,0
153482,215.315383207554,4,1,0,15,1,0
153485,217.969397096648,4,1,0,15,1,0
153489,220.689655172414,4,1,0,15,1,0
153492,223.478668961048,4,1,0,15,1,0
153496,226.339078573611,4,1,0,15,1,0
153499,229.27366104182,4,1,0,15,1,0
153503,232.28533931081,4,1,0,15,1,0
153506,235.3771919501,4,1,0,15,1,0
153509,238.552463650569,4,1,0,15,1,0
153513,241.814576582677,4,1,0,15,1,0
153516,245.167142699536,4,1,0,15,1,0
153520,248.613977077792,4,1,0,15,1,0
153523,252.159112399925,4,1,0,15,1,0
153527,255.806814693544,4,1,0,15,1,0
153530,259.561600456829,4,1,0,15,1,0
153534,263.428255314665,4,1,0,15,1,0
153537,267.411854367504,4,1,0,15,1,0
153541,271.51778441488,4,1,0,15,1,0
153544,275.751768258214,4,1,0,15,1,0
153547,280.119891313482,4,1,0,15,1,0
153551,284.628630793972,4,1,0,15,1,0
153554,289.284887757464,4,1,0,15,1,0
153558,294.096022351298,4,1,0,15,1,0
153561,299.069892633909,4,1,0,15,1,0
153565,304.214897403526,4,1,0,15,1,0
153568,309.540023525042,4,1,0,15,1,0
153572,315.054898316032,4,1,0,15,1,0
153575,320.769847634323,4,1,0,15,1,0
153578,326.69596040445,4,1,0,15,1,0
153582,332.845160431368,4,1,0,15,1,0
153585,339.230286479977,4,1,0,15,1,0
153589,345.865181752153,4,1,0,15,1,0
153592,352.764794073552,4,1,0,15,1,0
153596,359.945288316176,4,1,0,15,1,0
153599,367.424172836331,4,1,0,15,1,0
153603,375.220442009681,4,1,0,15,1,0
153606,383.354737306167,4,1,0,15,1,0
153610,391.849529780565,4,1,0,15,1,0
153613,400.729327375825,4,1,0,15,1,0
153616,410.020911066465,4,1,0,15,1,0
153620,419.75360463408,4,1,0,15,1,0
153623,429.959583799123,4,1,0,15,1,0
153627,440.674231574309,4,1,0,15,1,0
153630,451.936548108646,4,1,0,15,1,0
153634,463.789625026089,4,1,0,15,1,0
153637,476.281196418366,4,1,0,15,1,0
153641,489.46428134407,4,1,0,15,1,0
153644,503.397936068463,4,1,0,15,1,0
153647,518.148138552813,4,1,0,15,1,0
153651,533.788833137611,4,1,0,15,1,0
153654,550.403170322261,4,1,0,15,1,0
153658,568.084985513834,4,1,0,15,1,0
153661,586.940572267059,4,1,0,15,1,0
153665,607.09082078679,4,1,0,15,1,0
153668,628.673812592337,4,1,0,15,1,0
153672,651.847989048954,4,1,0,15,1,0
153675,676.796047511083,4,1,0,15,1,0
153679,703.729767769177,4,1,0,15,1,0
153682,732.896038696912,4,1,0,15,1,0
153685,764.584448352321,4,1,0,15,1,0
153689,799.136932113318,4,1,0,15,1,0
153692,836.960160696352,4,1,0,15,1,0
153696,878.541620909292,4,1,0,15,1,0
153699,924.470740501064,4,1,0,15,1,0
153703,975.467004828562,4,1,0,15,1,0
153706,1032.41792277514,4,1,0,15,1,0
153710,1096.43111671509,4,1,0,15,1,0
153713,1168.90707188779,4,1,0,15,1,0
153716,1251.64278115026,4,1,0,15,1,0
153720,1346.98275862069,4,1,0,15,1,0
153723,1458.04476197419,4,1,0,15,1,0
153727,1589.0672175433,4,1,0,15,1,0
153730,1745.96246180708,4,1,0,15,1,0
153734,1937.23363037583,4,1,0,15,1,0
153737,2175.56836723594,4,1,0,15,1,0
153741,2480.77400148846,4,1,0,15,1,0
153744,2885.58649545521,4,1,0,15,1,0
153748,344.827586206897,4,1,0,15,1,0
153748,-66.6666666666667,4,1,0,15,0,0
153791,-100,4,1,0,15,0,0
154265,-66.6666666666667,4,1,0,15,0,0
154308,-100,4,1,0,15,0,0
154782,-66.6666666666667,4,1,0,15,0,0
154825,-100,4,1,0,15,0,0
155472,1,4,1,0,15,1,0
155474,344.827586206897,4,1,0,15,1,0
155477,344.827586206897,4,1,0,15,1,0
155480,344.827586206897,4,1,0,15,1,0
155483,344.827586206897,4,1,0,15,1,0
155486,344.827586206897,4,1,0,15,1,0
155489,344.827586206897,4,1,0,15,1,0
155492,344.827586206897,4,1,0,15,1,0
155495,344.827586206897,4,1,0,15,1,0
155498,344.827586206897,4,1,0,15,1,0
155501,344.827586206897,4,1,0,15,1,0
155504,344.827586206897,4,1,0,15,1,0
155507,344.827586206897,4,1,0,15,1,0
155510,344.827586206897,4,1,0,15,1,0
155513,344.827586206897,4,1,0,15,1,0
155516,344.827586206897,4,1,0,15,1,0
155519,344.827586206897,4,1,0,15,1,0
155522,344.827586206897,4,1,0,15,1,0
155525,344.827586206897,4,1,0,15,1,0
155528,344.827586206897,4,1,0,15,1,0
155531,344.827586206897,4,1,0,15,1,0
155534,344.827586206897,4,1,0,15,1,0
155537,344.827586206897,4,1,0,15,1,0
155540,344.827586206897,4,1,0,15,1,0
155543,344.827586206897,4,1,0,15,1,0
155548,344.827586206897,4,1,0,15,1,0
155553,344.827586206897,4,1,0,15,1,0
155558,344.827586206897,4,1,0,15,1,0
155563,344.827586206897,4,1,0,15,1,0
155568,344.827586206897,4,1,0,15,1,0
155573,344.827586206897,4,1,0,15,1,0
155578,344.827586206897,4,1,0,15,1,0
155584,344.827586206897,4,1,0,15,1,0
155590,344.827586206897,4,1,0,15,1,0
155596,344.827586206897,4,1,0,15,1,0
155602,344.827586206897,4,1,0,15,1,0
155608,344.827586206897,4,1,0,15,1,0
155617,344.827586206897,4,1,0,15,1,0
155626,344.827586206897,4,1,0,15,1,0
155635,344.827586206897,4,1,0,15,1,0
155644,344.827586206897,4,1,0,15,1,0
155646,344.827586206897,4,1,0,15,1,0
155649,344.827586206897,4,1,0,15,1,0
155652,344.827586206897,4,1,0,15,1,0
155655,344.827586206897,4,1,0,15,1,0
155658,344.827586206897,4,1,0,15,1,0
155661,344.827586206897,4,1,0,15,1,0
155664,344.827586206897,4,1,0,15,1,0
155667,344.827586206897,4,1,0,15,1,0
155670,344.827586206897,4,1,0,15,1,0
155673,344.827586206897,4,1,0,15,1,0
155676,344.827586206897,4,1,0,15,1,0
155679,344.827586206897,4,1,0,15,1,0
155682,344.827586206897,4,1,0,15,1,0
155685,344.827586206897,4,1,0,15,1,0
155688,344.827586206897,4,1,0,15,1,0
155691,344.827586206897,4,1,0,15,1,0
155694,344.827586206897,4,1,0,15,1,0
155697,344.827586206897,4,1,0,15,1,0
155700,344.827586206897,4,1,0,15,1,0
155703,344.827586206897,4,1,0,15,1,0
155706,344.827586206897,4,1,0,15,1,0
155709,344.827586206897,4,1,0,15,1,0
155712,344.827586206897,4,1,0,15,1,0
155715,344.827586206897,4,1,0,15,1,0
155720,344.827586206897,4,1,0,15,1,0
155725,344.827586206897,4,1,0,15,1,0
155730,344.827586206897,4,1,0,15,1,0
155735,344.827586206897,4,1,0,15,1,0
155740,344.827586206897,4,1,0,15,1,0
155745,344.827586206897,4,1,0,15,1,0
155750,344.827586206897,4,1,0,15,1,0
155756,344.827586206897,4,1,0,15,1,0
155762,344.827586206897,4,1,0,15,1,0
155768,344.827586206897,4,1,0,15,1,0
155774,344.827586206897,4,1,0,15,1,0
155780,344.827586206897,4,1,0,15,1,0
155789,344.827586206897,4,1,0,15,1,0
155798,344.827586206897,4,1,0,15,1,0
155807,344.827586206897,4,1,0,15,1,0
155816,344.827586206897,4,1,0,15,1,0
155818,344.827586206897,4,1,0,15,1,0
155821,344.827586206897,4,1,0,15,1,0
155824,344.827586206897,4,1,0,15,1,0
155827,344.827586206897,4,1,0,15,1,0
155830,344.827586206897,4,1,0,15,1,0
155833,344.827586206897,4,1,0,15,1,0
155836,344.827586206897,4,1,0,15,1,0
155839,344.827586206897,4,1,0,15,1,0
155842,344.827586206897,4,1,0,15,1,0
155845,344.827586206897,4,1,0,15,1,0
155848,344.827586206897,4,1,0,15,1,0
155851,344.827586206897,4,1,0,15,1,0
155854,344.827586206897,4,1,0,15,1,0
155857,344.827586206897,4,1,0,15,1,0
155860,344.827586206897,4,1,0,15,1,0
155863,344.827586206897,4,1,0,15,1,0
155866,344.827586206897,4,1,0,15,1,0
155869,344.827586206897,4,1,0,15,1,0
155872,344.827586206897,4,1,0,15,1,0
155875,344.827586206897,4,1,0,15,1,0
155878,344.827586206897,4,1,0,15,1,0
155881,344.827586206897,4,1,0,15,1,0
155884,344.827586206897,4,1,0,15,1,0
155887,344.827586206897,4,1,0,15,1,0
155892,344.827586206897,4,1,0,15,1,0
155897,344.827586206897,4,1,0,15,1,0
155902,344.827586206897,4,1,0,15,1,0
155907,344.827586206897,4,1,0,15,1,0
155912,344.827586206897,4,1,0,15,1,0
155917,344.827586206897,4,1,0,15,1,0
155922,344.827586206897,4,1,0,15,1,0
155928,344.827586206897,4,1,0,15,1,0
155934,344.827586206897,4,1,0,15,1,0
155940,344.827586206897,4,1,0,15,1,0
155946,344.827586206897,4,1,0,15,1,0
155952,344.827586206897,4,1,0,15,1,0
155961,344.827586206897,4,1,0,15,1,0
155970,344.827586206897,4,1,0,15,1,0
155979,344.827586206897,4,1,0,15,1,0
155988,344.827586206897,4,1,0,15,1,0
155990,344.827586206897,4,1,0,15,1,0
155993,344.827586206897,4,1,0,15,1,0
155996,344.827586206897,4,1,0,15,1,0
155999,344.827586206897,4,1,0,15,1,0
156002,344.827586206897,4,1,0,15,1,0
156005,344.827586206897,4,1,0,15,1,0
156008,344.827586206897,4,1,0,15,1,0
156011,344.827586206897,4,1,0,15,1,0
156014,344.827586206897,4,1,0,15,1,0
156017,344.827586206897,4,1,0,15,1,0
156020,344.827586206897,4,1,0,15,1,0
156023,344.827586206897,4,1,0,15,1,0
156026,344.827586206897,4,1,0,15,1,0
156029,344.827586206897,4,1,0,15,1,0
156032,344.827586206897,4,1,0,15,1,0
156035,344.827586206897,4,1,0,15,1,0
156038,344.827586206897,4,1,0,15,1,0
156041,344.827586206897,4,1,0,15,1,0
156044,344.827586206897,4,1,0,15,1,0
156047,344.827586206897,4,1,0,15,1,0
156050,344.827586206897,4,1,0,15,1,0
156053,344.827586206897,4,1,0,15,1,0
156056,344.827586206897,4,1,0,15,1,0
156059,344.827586206897,4,1,0,15,1,0
156064,344.827586206897,4,1,0,15,1,0
156069,344.827586206897,4,1,0,15,1,0
156074,344.827586206897,4,1,0,15,1,0
156079,344.827586206897,4,1,0,15,1,0
156084,344.827586206897,4,1,0,15,1,0
156089,344.827586206897,4,1,0,15,1,0
156094,344.827586206897,4,1,0,15,1,0
156100,344.827586206897,4,1,0,15,1,0
156106,344.827586206897,4,1,0,15,1,0
156112,344.827586206897,4,1,0,15,1,0
156118,344.827586206897,4,1,0,15,1,0
156124,344.827586206897,4,1,0,15,1,0
156133,344.827586206897,4,1,0,15,1,0
156142,344.827586206897,4,1,0,15,1,0
156151,400,4,1,0,15,1,0
156506,344.827586206897,4,1,0,15,1,0
156506,-66.6666666666667,4,1,0,15,0,0
156549,-100,4,1,0,15,0,0
157023,-66.6666666666667,4,1,0,15,0,0
157066,-100,4,1,0,15,0,0
157540,-66.6666666666667,4,1,0,15,0,0
157583,-100,4,1,0,15,0,0
158230,60000,4,1,0,15,1,0
158380,6,4,1,0,15,1,0
158384,6,4,1,0,15,1,0
158388,6,4,1,0,15,1,0
158392,6,4,1,0,15,1,0
158396,6,4,1,0,15,1,0
158400,6,4,1,0,15,1,0
158402,60000,4,1,0,15,1,0
158552,6,4,1,0,15,1,0
158555,6,4,1,0,15,1,0
158558,6,4,1,0,15,1,0
158561,6,4,1,0,15,1,0
158564,6,4,1,0,15,1,0
158567,6,4,1,0,15,1,0
158570,6,4,1,0,15,1,0
158574,60000,4,1,0,15,1,0
158724,6,4,1,0,15,1,0
158726,6,4,1,0,15,1,0
158728,6,4,1,0,15,1,0
158730,6,4,1,0,15,1,0
158732,6,4,1,0,15,1,0
158734,6,4,1,0,15,1,0
158736,6,4,1,0,15,1,0
158738,6,4,1,0,15,1,0
158740,6,4,1,0,15,1,0
158742,6,4,1,0,15,1,0
158747,60000,4,1,0,15,1,0
158897,6,4,1,0,15,1,0
158898,6,4,1,0,15,1,0
158900,6,4,1,0,15,1,0
158902,6,4,1,0,15,1,0
158904,6,4,1,0,15,1,0
158906,6,4,1,0,15,1,0
158908,6,4,1,0,15,1,0
158910,6,4,1,0,15,1,0
158912,6,4,1,0,15,1,0
158914,6,4,1,0,15,1,0
158919,172.413793103449,4,1,0,15,1,0
158919,344.827586206897,4,1,0,15,1,0
158921,173.37136751706,4,1,0,15,1,0
158923,174.339637941171,4,1,0,15,1,0
158925,175.318784592333,4,1,0,15,1,0
158927,176.30899175858,4,1,0,15,1,0
158929,177.310447915056,4,1,0,15,1,0
158931,178.323345843615,4,1,0,15,1,0
158933,179.347882756535,4,1,0,15,1,0
158935,180.384260424532,4,1,0,15,1,0
158937,181.432685309227,4,1,0,15,1,0
158939,182.493368700265,4,1,0,15,1,0
158941,183.566526857277,4,1,0,15,1,0
158943,184.652381156869,4,1,0,15,1,0
158945,185.751158244868,4,1,0,15,1,0
158947,186.863090194034,4,1,0,15,1,0
158949,187.988414667468,4,1,0,15,1,0
158951,189.127375087966,4,1,0,15,1,0
158953,190.280220813559,4,1,0,15,1,0
158955,191.447207319517,4,1,0,15,1,0
158957,192.628596387094,4,1,0,15,1,0
158959,193.824656299302,4,1,0,15,1,0
158961,195.035662044019,4,1,0,15,1,0
158963,196.261895524773,4,1,0,15,1,0
158965,197.503645779508,4,1,0,15,1,0
158967,198.761209207729,4,1,0,15,1,0
158969,200.034889806362,4,1,0,15,1,0
158971,201.324999414753,4,1,0,15,1,0
158973,202.631857969205,4,1,0,15,1,0
158975,203.955793767491,4,1,0,15,1,0
158977,205.297143743809,4,1,0,15,1,0
158979,206.656253754656,4,1,0,15,1,0
158981,208.033478876136,4,1,0,15,1,0
158983,209.429183713228,4,1,0,15,1,0
158985,210.843742721601,4,1,0,15,1,0
158987,212.277540542542,4,1,0,15,1,0
158989,213.730972351662,4,1,0,15,1,0
158991,215.204444222011,4,1,0,15,1,0
158993,216.698373502325,4,1,0,15,1,0
158995,218.213189211134,4,1,0,15,1,0
158997,219.749332447522,4,1,0,15,1,0
158999,221.307256819352,4,1,0,15,1,0
159001,222.887428889839,4,1,0,15,1,0
159003,224.4903286434,4,1,0,15,1,0
159005,226.116449971736,4,1,0,15,1,0
159007,227.766301181207,4,1,0,15,1,0
159009,229.440405522577,4,1,0,15,1,0
159011,231.139301744296,4,1,0,15,1,0
159013,232.863544670539,4,1,0,15,1,0
159015,234.613705805325,4,1,0,15,1,0
159017,236.390373964074,4,1,0,15,1,0
159019,238.194155934081,4,1,0,15,1,0
159021,240.025677165465,4,1,0,15,1,0
159023,241.885582494234,4,1,0,15,1,0
159025,243.774536899245,4,1,0,15,1,0
159027,245.693226294889,4,1,0,15,1,0
159029,247.642358361529,4,1,0,15,1,0
159031,249.622663415767,4,1,0,15,1,0
159033,251.63489532281,4,1,0,15,1,0
159035,253.67983245332,4,1,0,15,1,0
159037,255.758278687306,4,1,0,15,1,0
159039,257.871064467766,4,1,0,15,1,0
159041,260.019047906998,4,1,0,15,1,0
159043,262.203115948657,4,1,0,15,1,0
159045,264.424185588882,4,1,0,15,1,0
159047,266.68320516001,4,1,0,15,1,0
159049,268.981155680663,4,1,0,15,1,0
159051,271.319052276241,4,1,0,15,1,0
159053,273.697945674141,4,1,0,15,1,0
159055,276.118923778335,4,1,0,15,1,0
159057,278.583113328259,4,1,0,15,1,0
159059,281.091681647328,4,1,0,15,1,0
159061,283.645838486783,4,1,0,15,1,0
159063,286.246837970976,4,1,0,15,1,0
159065,288.895980650688,4,1,0,15,1,0
159067,291.594615671516,4,1,0,15,1,0
159069,294.344143064944,4,1,0,15,1,0
159071,297.146016170272,4,1,0,15,1,0
159073,300.001744196188,4,1,0,15,1,0
159075,302.912894931493,4,1,0,15,1,0
159077,305.881097615195,4,1,0,15,1,0
159079,308.908045977012,4,1,0,15,1,0
159081,311.995501460212,4,1,0,15,1,0
159083,315.145296639672,4,1,0,15,1,0
159085,318.359338849094,4,1,0,15,1,0
159087,321.639614032464,4,1,0,15,1,0
159089,324.988190836089,4,1,0,15,1,0
159091,328.40722495895,4,1,0,15,1,0
159093,331.898963780561,4,1,0,15,1,0
159095,335.465751287253,4,1,0,15,1,0
159097,339.110033319533,4,1,0,15,1,0
159099,342.834363165239,4,1,0,15,1,0
159101,346.641407525344,4,1,0,15,1,0
159103,350.533952881716,4,1,0,15,1,0
159105,354.514912298782,4,1,0,15,1,0
159107,358.587332693992,4,1,0,15,1,0
159109,362.754402615207,4,1,0,15,1,0
159111,367.019460566747,4,1,0,15,1,0
159113,371.386003929783,4,1,0,15,1,0
159115,375.857698527163,4,1,0,15,1,0
159117,380.438388887661,4,1,0,15,1,0
159119,385.132109270041,4,1,0,15,1,0
159121,389.943095513388,4,1,0,15,1,0
159123,394.875797786859,4,1,0,15,1,0
159125,399.93489431953,4,1,0,15,1,0
159127,405.12530619936,4,1,0,15,1,0
159129,410.452213339698,4,1,0,15,1,0
159131,415.921071722204,4,1,0,15,1,0
159133,421.537632036861,4,1,0,15,1,0
159135,427.307959852927,4,1,0,15,1,0
159137,433.238457469586,4,1,0,15,1,0
159139,439.33588761175,4,1,0,15,1,0
159141,445.607399155419,4,1,0,15,1,0
159143,452.06055508831,4,1,0,15,1,0
159145,458.703362935702,4,1,0,15,1,0
159147,465.544307908841,4,1,0,15,1,0
159149,472.592389064433,4,1,0,15,1,0
159151,479.857158799242,4,1,0,15,1,0
159153,487.348766044259,4,1,0,15,1,0
159155,495.078003569168,4,1,0,15,1,0
159157,503.056359860783,4,1,0,15,1,0
159159,511.296076099882,4,1,0,15,1,0
159161,519.81020883073,4,1,0,15,1,0
159163,528.612698998095,4,1,0,15,1,0
159165,537.718448119549,4,1,0,15,1,0
159167,547.143402468508,4,1,0,15,1,0
159169,556.904646268416,4,1,0,15,1,0
159171,567.020505043846,4,1,0,15,1,0
159173,577.510660443878,4,1,0,15,1,0
159175,588.396278051451,4,1,0,15,1,0
159177,599.700149925038,4,1,0,15,1,0
159179,611.446853892642,4,1,0,15,1,0
159181,623.66293194097,4,1,0,15,1,0
159183,636.377090424745,4,1,0,15,1,0
159185,649.620425274767,4,1,0,15,1,0
159187,663.426675923784,4,1,0,15,1,0
159189,677.832512315272,4,1,0,15,1,0
159191,692.877860135354,4,1,0,15,1,0
159193,708.606270341533,4,1,0,15,1,0
159195,725.065340190541,4,1,0,15,1,0
159197,742.30719433775,4,1,0,15,1,0
159199,760.389036251106,4,1,0,15,1,0
159201,779.373782228466,4,1,0,15,1,0
159203,799.330792824613,4,1,0,15,1,0
159205,820.336719607002,4,1,0,15,1,0
159207,842.476489028214,4,1,0,15,1,0
159209,865.844450037756,4,1,0,15,1,0
159211,890.545718131926,4,1,0,15,1,0
159213,916.697756222354,4,1,0,15,1,0
159215,944.432242477488,4,1,0,15,1,0
159217,973.897287809298,4,1,0,15,1,0
159219,1005.2600818235,4,1,0,15,1,0
159221,1038.71006703303,4,1,0,15,1,0
159223,1074.46276861569,4,1,0,15,1,0
159225,1112.7644432943,4,1,0,15,1,0
159227,1153.89775929156,4,1,0,15,1,0
159229,1198.18878439568,4,1,0,15,1,0
159231,1246.01564763837,4,1,0,15,1,0
159233,1297.81936165397,4,1,0,15,1,0
159235,1354.11746181704,4,1,0,15,1,0
159237,1415.52135626697,4,1,0,15,1,0
159239,1482.75862068966,4,1,0,15,1,0
159241,1556.70196397864,4,1,0,15,1,0
159243,1638.40731567918,4,1,0,15,1,0
159245,1729.16457223284,4,1,0,15,1,0
159247,1830.56619838229,4,1,0,15,1,0
159249,1944.60146975693,4,1,0,15,1,0
159251,2073.78828068483,4,1,0,15,1,0
159253,2221.36122949761,4,1,0,15,1,0
159255,2391.54616240267,4,1,0,15,1,0
159257,2589.97138985092,4,1,0,15,1,0
159259,2824.30213464697,4,1,0,15,1,0
159261,3105.25365589457,4,1,0,15,1,0
159263,344.827586206897,4,1,0,15,1,0
159263,-66.6666666666667,4,1,0,15,0,0
159306,-100,4,1,0,15,0,0
159780,-66.6666666666667,4,1,0,15,0,0
159823,-100,4,1,0,15,0,0
160297,-66.6666666666667,4,1,0,15,0,0
160340,-100,4,1,0,15,0,0
160987,344.827586206897,4,1,0,15,1,0
160989,344.827586206897,4,1,0,15,1,0
160992,344.827586206897,4,1,0,15,1,0
160995,344.827586206897,4,1,0,15,1,0
160998,344.827586206897,4,1,0,15,1,0
161001,344.827586206897,4,1,0,15,1,0
161004,344.827586206897,4,1,0,15,1,0
161007,344.827586206897,4,1,0,15,1,0
161010,344.827586206897,4,1,0,15,1,0
161013,344.827586206897,4,1,0,15,1,0
161016,344.827586206897,4,1,0,15,1,0
161019,344.827586206897,4,1,0,15,1,0
161022,344.827586206897,4,1,0,15,1,0
161025,344.827586206897,4,1,0,15,1,0
161028,344.827586206897,4,1,0,15,1,0
161031,344.827586206897,4,1,0,15,1,0
161034,344.827586206897,4,1,0,15,1,0
161037,344.827586206897,4,1,0,15,1,0
161040,344.827586206897,4,1,0,15,1,0
161043,344.827586206897,4,1,0,15,1,0
161046,344.827586206897,4,1,0,15,1,0
161049,344.827586206897,4,1,0,15,1,0
161052,344.827586206897,4,1,0,15,1,0
161055,344.827586206897,4,1,0,15,1,0
161058,344.827586206897,4,1,0,15,1,0
161063,344.827586206897,4,1,0,15,1,0
161068,344.827586206897,4,1,0,15,1,0
161073,344.827586206897,4,1,0,15,1,0
161078,344.827586206897,4,1,0,15,1,0
161083,344.827586206897,4,1,0,15,1,0
161088,344.827586206897,4,1,0,15,1,0
161093,344.827586206897,4,1,0,15,1,0
161099,344.827586206897,4,1,0,15,1,0
161105,344.827586206897,4,1,0,15,1,0
161111,344.827586206897,4,1,0,15,1,0
161117,344.827586206897,4,1,0,15,1,0
161123,344.827586206897,4,1,0,15,1,0
161132,344.827586206897,4,1,0,15,1,0
161141,344.827586206897,4,1,0,15,1,0
161154,344.827586206897,4,1,0,15,1,0
161168,344.827586206897,4,1,0,15,1,0
161182,344.827586206897,4,1,0,15,1,0
161196,344.827586206897,4,1,0,15,1,0
161210,344.827586206897,4,1,0,15,1,0
161224,344.827586206897,4,1,0,15,1,0
161245,344.827586206897,4,1,0,15,1,0
161266,344.827586206897,4,1,0,15,1,0
161287,344.827586206897,4,1,0,15,1,0
161308,344.827586206897,4,1,0,15,1,0
161328,344.827586206897,4,1,0,15,1,0
161348,344.827586206897,4,1,0,15,1,0
161350,344.827586206897,4,1,0,15,1,0
161352,344.827586206897,4,1,0,15,1,0
161354,344.827586206897,4,1,0,15,1,0
161356,344.827586206897,4,1,0,15,1,0
161358,344.827586206897,4,1,0,15,1,0
161360,344.827586206897,4,1,0,15,1,0
161362,344.827586206897,4,1,0,15,1,0
161364,344.827586206897,4,1,0,15,1,0
161366,344.827586206897,4,1,0,15,1,0
161368,344.827586206897,4,1,0,15,1,0
161370,344.827586206897,4,1,0,15,1,0
161372,344.827586206897,4,1,0,15,1,0
161374,344.827586206897,4,1,0,15,1,0
161376,344.827586206897,4,1,0,15,1,0
161378,344.827586206897,4,1,0,15,1,0
161380,344.827586206897,4,1,0,15,1,0
161382,344.827586206897,4,1,0,15,1,0
161384,344.827586206897,4,1,0,15,1,0
161386,344.827586206897,4,1,0,15,1,0
161388,344.827586206897,4,1,0,15,1,0
161390,344.827586206897,4,1,0,15,1,0
161392,344.827586206897,4,1,0,15,1,0
161394,344.827586206897,4,1,0,15,1,0
161396,344.827586206897,4,1,0,15,1,0
161398,344.827586206897,4,1,0,15,1,0
161400,344.827586206897,4,1,0,15,1,0
161402,344.827586206897,4,1,0,15,1,0
161404,344.827586206897,4,1,0,15,1,0
161406,344.827586206897,4,1,0,15,1,0
161408,344.827586206897,4,1,0,15,1,0
161410,344.827586206897,4,1,0,15,1,0
161412,344.827586206897,4,1,0,15,1,0
161414,344.827586206897,4,1,0,15,1,0
161416,344.827586206897,4,1,0,15,1,0
161418,344.827586206897,4,1,0,15,1,0
161420,344.827586206897,4,1,0,15,1,0
161422,344.827586206897,4,1,0,15,1,0
161424,344.827586206897,4,1,0,15,1,0
161426,344.827586206897,4,1,0,15,1,0
161428,344.827586206897,4,1,0,15,1,0
161430,344.827586206897,4,1,0,15,1,0
161432,344.827586206897,4,1,0,15,1,0
161434,344.827586206897,4,1,0,15,1,0
161436,344.827586206897,4,1,0,15,1,0
161438,344.827586206897,4,1,0,15,1,0
161440,344.827586206897,4,1,0,15,1,0
161442,344.827586206897,4,1,0,15,1,0
161444,344.827586206897,4,1,0,15,1,0
161446,344.827586206897,4,1,0,15,1,0
161448,344.827586206897,4,1,0,15,1,0
161450,344.827586206897,4,1,0,15,1,0
161452,344.827586206897,4,1,0,15,1,0
161454,344.827586206897,4,1,0,15,1,0
161456,344.827586206897,4,1,0,15,1,0
161458,344.827586206897,4,1,0,15,1,0
161460,344.827586206897,4,1,0,15,1,0
161462,344.827586206897,4,1,0,15,1,0
161464,344.827586206897,4,1,0,15,1,0
161466,344.827586206897,4,1,0,15,1,0
161468,344.827586206897,4,1,0,15,1,0
161470,344.827586206897,4,1,0,15,1,0
161472,344.827586206897,4,1,0,15,1,0
161474,344.827586206897,4,1,0,15,1,0
161476,344.827586206897,4,1,0,15,1,0
161478,344.827586206897,4,1,0,15,1,0
161480,344.827586206897,4,1,0,15,1,0
161482,344.827586206897,4,1,0,15,1,0
161484,344.827586206897,4,1,0,15,1,0
161486,344.827586206897,4,1,0,15,1,0
161488,344.827586206897,4,1,0,15,1,0
161490,344.827586206897,4,1,0,15,1,0
161492,344.827586206897,4,1,0,15,1,0
161494,344.827586206897,4,1,0,15,1,0
161496,344.827586206897,4,1,0,15,1,0
161498,344.827586206897,4,1,0,15,1,0
161500,344.827586206897,4,1,0,15,1,0
161502,344.827586206897,4,1,0,15,1,0
161504,344.827586206897,4,1,0,15,1,0
161506,344.827586206897,4,1,0,15,1,0
161508,344.827586206897,4,1,0,15,1,0
161510,344.827586206897,4,1,0,15,1,0
161512,344.827586206897,4,1,0,15,1,0
161514,344.827586206897,4,1,0,15,1,0
161516,344.827586206897,4,1,0,15,1,0
161518,344.827586206897,4,1,0,15,1,0
161520,344.827586206897,4,1,0,15,1,0
161522,344.827586206897,4,1,0,15,1,0
161524,344.827586206897,4,1,0,15,1,0
161526,344.827586206897,4,1,0,15,1,0
161528,344.827586206897,4,1,0,15,1,0
161530,344.827586206897,4,1,0,15,1,0
161532,344.827586206897,4,1,0,15,1,0
161534,344.827586206897,4,1,0,15,1,0
161536,344.827586206897,4,1,0,15,1,0
161538,344.827586206897,4,1,0,15,1,0
161540,344.827586206897,4,1,0,15,1,0
161542,344.827586206897,4,1,0,15,1,0
161544,344.827586206897,4,1,0,15,1,0
161546,344.827586206897,4,1,0,15,1,0
161548,344.827586206897,4,1,0,15,1,0
161550,344.827586206897,4,1,0,15,1,0
161552,344.827586206897,4,1,0,15,1,0
161554,344.827586206897,4,1,0,15,1,0
161556,344.827586206897,4,1,0,15,1,0
161558,344.827586206897,4,1,0,15,1,0
161560,344.827586206897,4,1,0,15,1,0
161562,344.827586206897,4,1,0,15,1,0
161564,344.827586206897,4,1,0,15,1,0
161566,344.827586206897,4,1,0,15,1,0
161568,344.827586206897,4,1,0,15,1,0
161570,344.827586206897,4,1,0,15,1,0
161573,344.827586206897,4,1,0,15,1,0
161575,344.827586206897,4,1,0,15,1,0
161577,344.827586206897,4,1,0,15,1,0
161579,344.827586206897,4,1,0,15,1,0
161581,344.827586206897,4,1,0,15,1,0
161583,344.827586206897,4,1,0,15,1,0
161585,344.827586206897,4,1,0,15,1,0
161587,344.827586206897,4,1,0,15,1,0
161589,344.827586206897,4,1,0,15,1,0
161591,344.827586206897,4,1,0,15,1,0
161593,344.827586206897,4,1,0,15,1,0
161595,344.827586206897,4,1,0,15,1,0
161597,344.827586206897,4,1,0,15,1,0
161599,344.827586206897,4,1,0,15,1,0
161601,344.827586206897,4,1,0,15,1,0
161603,344.827586206897,4,1,0,15,1,0
161605,344.827586206897,4,1,0,15,1,0
161607,344.827586206897,4,1,0,15,1,0
161609,344.827586206897,4,1,0,15,1,0
161611,344.827586206897,4,1,0,15,1,0
161613,344.827586206897,4,1,0,15,1,0
161615,344.827586206897,4,1,0,15,1,0
161617,344.827586206897,4,1,0,15,1,0
161619,344.827586206897,4,1,0,15,1,0
161621,344.827586206897,4,1,0,15,1,0
161623,344.827586206897,4,1,0,15,1,0
161625,344.827586206897,4,1,0,15,1,0
161627,344.827586206897,4,1,0,15,1,0
161629,344.827586206897,4,1,0,15,1,0
161631,344.827586206897,4,1,0,15,1,0
161633,344.827586206897,4,1,0,15,1,0
161635,344.827586206897,4,1,0,15,1,0
161637,344.827586206897,4,1,0,15,1,0
161639,344.827586206897,4,1,0,15,1,0
161641,344.827586206897,4,1,0,15,1,0
161643,344.827586206897,4,1,0,15,1,0
161645,344.827586206897,4,1,0,15,1,0
161647,344.827586206897,4,1,0,15,1,0
161649,344.827586206897,4,1,0,15,1,0
161651,344.827586206897,4,1,0,15,1,0
161653,344.827586206897,4,1,0,15,1,0
161655,344.827586206897,4,1,0,15,1,0
161657,344.827586206897,4,1,0,15,1,0
161659,344.827586206897,4,1,0,15,1,0
161661,344.827586206897,4,1,0,15,1,0
161663,344.827586206897,4,1,0,15,1,0
161665,344.827586206897,4,1,0,15,1,0
161667,344.827586206897,4,1,0,15,1,0
161669,344.827586206897,4,1,0,15,1,0
161671,344.827586206897,4,1,0,15,1,0
161673,344.827586206897,4,1,0,15,1,0
161675,344.827586206897,4,1,0,15,1,0
161677,344.827586206897,4,1,0,15,1,0
161679,344.827586206897,4,1,0,15,1,0
161681,344.827586206897,4,1,0,15,1,0
161683,344.827586206897,4,1,0,15,1,0
161685,344.827586206897,4,1,0,15,1,0
161687,344.827586206897,4,1,0,15,1,0
161689,344.827586206897,4,1,0,15,1,0
161691,344.827586206897,4,1,0,15,1,0
161693,344.827586206897,4,1,0,15,1,0
161695,344.827586206897,4,1,0,15,1,0
161697,344.827586206897,4,1,0,15,1,0
161699,344.827586206897,4,1,0,15,1,0
161701,344.827586206897,4,1,0,15,1,0
161703,344.827586206897,4,1,0,15,1,0
161705,344.827586206897,4,1,0,15,1,0
161707,344.827586206897,4,1,0,15,1,0
161709,344.827586206897,4,1,0,15,1,0
161711,344.827586206897,4,1,0,15,1,0
161713,344.827586206897,4,1,0,15,1,0
161715,344.827586206897,4,1,0,15,1,0
161717,344.827586206897,4,1,0,15,1,0
161719,344.827586206897,4,1,0,15,1,0
161721,344.827586206897,4,1,0,15,1,0
161723,344.827586206897,4,1,0,15,1,0
161725,344.827586206897,4,1,0,15,1,0
161727,344.827586206897,4,1,0,15,1,0
161729,344.827586206897,4,1,0,15,1,0
161731,344.827586206897,4,1,0,15,1,0
161733,344.827586206897,4,1,0,15,1,0
161735,344.827586206897,4,1,0,15,1,0
161737,344.827586206897,4,1,0,15,1,0
161739,344.827586206897,4,1,0,15,1,0
161741,344.827586206897,4,1,0,15,1,0
161743,344.827586206897,4,1,0,15,1,0
161745,344.827586206897,4,1,0,15,1,0
161747,344.827586206897,4,1,0,15,1,0
161749,344.827586206897,4,1,0,15,1,0
161751,344.827586206897,4,1,0,15,1,0
161753,344.827586206897,4,1,0,15,1,0
161755,344.827586206897,4,1,0,15,1,0
161757,344.827586206897,4,1,0,15,1,0
161759,344.827586206897,4,1,0,15,1,0
161761,344.827586206897,4,1,0,15,1,0
161763,344.827586206897,4,1,0,15,1,0
161765,344.827586206897,4,1,0,15,1,0
161767,344.827586206897,4,1,0,15,1,0
161769,344.827586206897,4,1,0,15,1,0
161771,344.827586206897,4,1,0,15,1,0
161773,344.827586206897,4,1,0,15,1,0
161775,344.827586206897,4,1,0,15,1,0
161777,344.827586206897,4,1,0,15,1,0
161779,344.827586206897,4,1,0,15,1,0
161781,344.827586206897,4,1,0,15,1,0
161783,344.827586206897,4,1,0,15,1,0
161785,344.827586206897,4,1,0,15,1,0
161787,344.827586206897,4,1,0,15,1,0
161789,344.827586206897,4,1,0,15,1,0
161791,344.827586206897,4,1,0,15,1,0
161793,344.827586206897,4,1,0,15,1,0
161795,344.827586206897,4,1,0,15,1,0
161798,344.827586206897,4,1,0,15,1,0
161800,344.827586206897,4,1,0,15,1,0
161802,344.827586206897,4,1,0,15,1,0
161804,344.827586206897,4,1,0,15,1,0
161806,344.827586206897,4,1,0,15,1,0
161808,344.827586206897,4,1,0,15,1,0
161810,344.827586206897,4,1,0,15,1,0
161812,344.827586206897,4,1,0,15,1,0
161814,344.827586206897,4,1,0,15,1,0
161816,344.827586206897,4,1,0,15,1,0
161818,344.827586206897,4,1,0,15,1,0
161820,344.827586206897,4,1,0,15,1,0
161822,344.827586206897,4,1,0,15,1,0
161824,344.827586206897,4,1,0,15,1,0
161826,344.827586206897,4,1,0,15,1,0
161828,344.827586206897,4,1,0,15,1,0
161830,344.827586206897,4,1,0,15,1,0
161832,344.827586206897,4,1,0,15,1,0
161834,344.827586206897,4,1,0,15,1,0
161836,344.827586206897,4,1,0,15,1,0
161838,344.827586206897,4,1,0,15,1,0
161840,344.827586206897,4,1,0,15,1,0
161842,344.827586206897,4,1,0,15,1,0
161844,344.827586206897,4,1,0,15,1,0
161846,344.827586206897,4,1,0,15,1,0
161848,344.827586206897,4,1,0,15,1,0
161850,344.827586206897,4,1,0,15,1,0
161852,344.827586206897,4,1,0,15,1,0
161854,344.827586206897,4,1,0,15,1,0
161856,344.827586206897,4,1,0,15,1,0
161858,344.827586206897,4,1,0,15,1,0
161860,344.827586206897,4,1,0,15,1,0
161862,344.827586206897,4,1,0,15,1,0
161864,344.827586206897,4,1,0,15,1,0
161866,344.827586206897,4,1,0,15,1,0
161868,344.827586206897,4,1,0,15,1,0
161870,344.827586206897,4,1,0,15,1,0
161872,344.827586206897,4,1,0,15,1,0
161874,344.827586206897,4,1,0,15,1,0
161876,344.827586206897,4,1,0,15,1,0
161878,344.827586206897,4,1,0,15,1,0
161880,344.827586206897,4,1,0,15,1,0
161882,344.827586206897,4,1,0,15,1,0
161884,344.827586206897,4,1,0,15,1,0
161886,344.827586206897,4,1,0,15,1,0
161888,344.827586206897,4,1,0,15,1,0
161890,344.827586206897,4,1,0,15,1,0
161892,344.827586206897,4,1,0,15,1,0
161894,344.827586206897,4,1,0,15,1,0
161896,344.827586206897,4,1,0,15,1,0
161898,344.827586206897,4,1,0,15,1,0
161900,344.827586206897,4,1,0,15,1,0
161902,344.827586206897,4,1,0,15,1,0
161904,344.827586206897,4,1,0,15,1,0
161906,344.827586206897,4,1,0,15,1,0
161908,344.827586206897,4,1,0,15,1,0
161910,344.827586206897,4,1,0,15,1,0
161912,344.827586206897,4,1,0,15,1,0
161914,344.827586206897,4,1,0,15,1,0
161916,344.827586206897,4,1,0,15,1,0
161918,344.827586206897,4,1,0,15,1,0
161920,344.827586206897,4,1,0,15,1,0
161922,344.827586206897,4,1,0,15,1,0
161924,344.827586206897,4,1,0,15,1,0
161926,344.827586206897,4,1,0,15,1,0
161928,344.827586206897,4,1,0,15,1,0
161930,344.827586206897,4,1,0,15,1,0
161932,344.827586206897,4,1,0,15,1,0
161934,344.827586206897,4,1,0,15,1,0
161936,344.827586206897,4,1,0,15,1,0
161938,344.827586206897,4,1,0,15,1,0
161940,344.827586206897,4,1,0,15,1,0
161942,344.827586206897,4,1,0,15,1,0
161944,344.827586206897,4,1,0,15,1,0
161946,344.827586206897,4,1,0,15,1,0
161948,344.827586206897,4,1,0,15,1,0
161950,344.827586206897,4,1,0,15,1,0
161952,344.827586206897,4,1,0,15,1,0
161954,344.827586206897,4,1,0,15,1,0
161956,344.827586206897,4,1,0,15,1,0
161958,344.827586206897,4,1,0,15,1,0
161960,344.827586206897,4,1,0,15,1,0
161962,344.827586206897,4,1,0,15,1,0
161964,344.827586206897,4,1,0,15,1,0
161966,344.827586206897,4,1,0,15,1,0
161968,344.827586206897,4,1,0,15,1,0
161970,344.827586206897,4,1,0,15,1,0
161972,344.827586206897,4,1,0,15,1,0
161974,344.827586206897,4,1,0,15,1,0
161976,344.827586206897,4,1,0,15,1,0
161978,344.827586206897,4,1,0,15,1,0
161980,344.827586206897,4,1,0,15,1,0
161982,344.827586206897,4,1,0,15,1,0
161984,344.827586206897,4,1,0,15,1,0
161986,344.827586206897,4,1,0,15,1,0
161988,344.827586206897,4,1,0,15,1,0
161990,344.827586206897,4,1,0,15,1,0
161992,344.827586206897,4,1,0,15,1,0
161994,344.827586206897,4,1,0,15,1,0
161996,344.827586206897,4,1,0,15,1,0
161998,344.827586206897,4,1,0,15,1,0
162000,344.827586206897,4,1,0,15,1,0
162002,344.827586206897,4,1,0,15,1,0
162004,344.827586206897,4,1,0,15,1,0
162006,344.827586206897,4,1,0,15,1,0
162008,344.827586206897,4,1,0,15,1,0
162010,344.827586206897,4,1,0,15,1,0
162012,344.827586206897,4,1,0,15,1,0
162014,344.827586206897,4,1,0,15,1,0
162016,344.827586206897,4,1,0,15,1,0
162018,344.827586206897,4,1,0,15,1,0
162027,344.827586206897,4,1,0,15,1,0
168923,-95.2380952380952,4,1,0,15,0,0
170302,-90.9090909090909,4,1,0,15,0,0
171682,-66.6666666666667,4,1,0,15,0,0
171725,-200,4,1,0,15,0,0
171768,-66.6666666666667,4,1,0,15,0,0
171811,-200,4,1,0,15,0,0
171854,-62.5,4,1,0,15,0,0
171897,-250,4,1,0,15,0,0
171940,-62.5,4,1,0,15,0,0
171983,-250,4,1,0,15,0,0
172027,-58.8235294117647,4,1,0,15,0,0
172070,-333.333333333333,4,1,0,15,0,0
172113,-58.8235294117647,4,1,0,15,0,0
172156,-333.333333333333,4,1,0,15,0,0
172199,-55.5555555555556,4,1,0,15,0,0
172242,-500,4,1,0,15,0,0
172285,-55.5555555555556,4,1,0,15,0,0
172328,-500,4,1,0,15,0,0
172371,172.413793103449,4,1,0,15,1,0
172371,-100,4,1,0,15,0,0
172392,60000,4,1,0,15,1,0
172414,172.413793103449,4,1,0,15,1,0
172435,60000,4,1,0,15,1,0
172457,172.413793103449,4,1,0,15,1,0
172478,60000,4,1,0,15,1,0
172500,172.413793103449,4,1,0,15,1,0
172521,60000,4,1,0,15,1,0
172543,172.413793103449,4,1,0,15,1,0
172565,60000,4,1,0,15,1,0
172586,172.413793103449,4,1,0,15,1,0
172608,60000,4,1,0,15,1,0
172629,172.413793103449,4,1,0,15,1,0
172651,60000,4,1,0,15,1,0
172672,172.413793103449,4,1,0,15,1,0
172694,60000,4,1,0,15,1,0
172716,172.413793103449,4,1,0,15,1,0
172737,60000,4,1,0,15,1,0
172759,172.413793103449,4,1,0,15,1,0
172780,60000,4,1,0,15,1,0
172802,172.413793103449,4,1,0,15,1,0
172823,60000,4,1,0,15,1,0
172845,172.413793103449,4,1,0,15,1,0
172866,60000,4,1,0,15,1,0
172888,172.413793103449,4,1,0,15,1,0
172910,60000,4,1,0,15,1,0
172931,172.413793103449,4,1,0,15,1,0
172953,60000,4,1,0,15,1,0
172974,172.413793103449,4,1,0,15,1,0
172996,60000,4,1,0,15,1,0
173017,172.413793103449,4,1,0,15,1,0
173039,60000,4,1,0,15,1,0
173062,344.827586206897,4,1,0,15,1,0
173062,-105.263157894737,4,1,0,15,0,0
173579,-100,4,1,0,15,0,0
173924,-52.6315789473684,4,1,0,15,0,0
173967,-1000,4,1,0,15,0,0
174010,-52.6315789473684,4,1,0,15,0,0
174053,-1000,4,1,0,15,0,0
174096,-52.6315789473684,4,1,0,15,0,0
174139,-1000,4,1,0,15,0,0
174182,-52.6315789473684,4,1,0,15,0,0
174225,-1000,4,1,0,15,0,0
174268,-50,4,1,0,15,0,0
174312,-500,4,1,0,15,0,0
174355,-47.6190476190476,4,1,0,15,0,0
174398,-400,4,1,0,15,0,0
174441,-100,4,1,0,15,0,0
185130,-50,4,1,0,15,0,0
185174,-149.253731343284,4,1,0,15,0,0
185303,-50,4,1,0,15,0,0
185346,-149.253731343284,4,1,0,15,0,0
185475,-100,4,1,0,15,0,0
196508,-100,4,1,0,15,0,0
199611,344.827586206897,4,1,0,15,1,0
199613,344.827586206897,4,1,0,15,1,0
199615,344.827586206897,4,1,0,15,1,0
199617,344.827586206897,4,1,0,15,1,0
199619,344.827586206897,4,1,0,15,1,0
199621,344.827586206897,4,1,0,15,1,0
199623,344.827586206897,4,1,0,15,1,0
199625,344.827586206897,4,1,0,15,1,0
199627,344.827586206897,4,1,0,15,1,0
199629,344.827586206897,4,1,0,15,1,0
199631,344.827586206897,4,1,0,15,1,0
199633,344.827586206897,4,1,0,15,1,0
199635,344.827586206897,4,1,0,15,1,0
199637,344.827586206897,4,1,0,15,1,0
199639,344.827586206897,4,1,0,15,1,0
199641,344.827586206897,4,1,0,15,1,0
199643,344.827586206897,4,1,0,15,1,0
199645,344.827586206897,4,1,0,15,1,0
199647,344.827586206897,4,1,0,15,1,0
199649,344.827586206897,4,1,0,15,1,0
199651,344.827586206897,4,1,0,15,1,0
199653,344.827586206897,4,1,0,15,1,0
199655,344.827586206897,4,1,0,15,1,0
199657,344.827586206897,4,1,0,15,1,0
199659,344.827586206897,4,1,0,15,1,0
199661,344.827586206897,4,1,0,15,1,0
199663,344.827586206897,4,1,0,15,1,0
199665,344.827586206897,4,1,0,15,1,0
199667,344.827586206897,4,1,0,15,1,0
199669,344.827586206897,4,1,0,15,1,0
199671,344.827586206897,4,1,0,15,1,0
199673,344.827586206897,4,1,0,15,1,0
199675,344.827586206897,4,1,0,15,1,0
199677,344.827586206897,4,1,0,15,1,0
199679,344.827586206897,4,1,0,15,1,0
199681,344.827586206897,4,1,0,15,1,0
199683,344.827586206897,4,1,0,15,1,0
199685,344.827586206897,4,1,0,15,1,0
199687,344.827586206897,4,1,0,15,1,0
199689,344.827586206897,4,1,0,15,1,0
199691,344.827586206897,4,1,0,15,1,0
199693,344.827586206897,4,1,0,15,1,0
199695,344.827586206897,4,1,0,15,1,0
199697,344.827586206897,4,1,0,15,1,0
199699,344.827586206897,4,1,0,15,1,0
199701,344.827586206897,4,1,0,15,1,0
199703,344.827586206897,4,1,0,15,1,0
199705,344.827586206897,4,1,0,15,1,0
199707,344.827586206897,4,1,0,15,1,0
199709,344.827586206897,4,1,0,15,1,0
199711,344.827586206897,4,1,0,15,1,0
199713,344.827586206897,4,1,0,15,1,0
199715,344.827586206897,4,1,0,15,1,0
199717,344.827586206897,4,1,0,15,1,0
199719,344.827586206897,4,1,0,15,1,0
199721,344.827586206897,4,1,0,15,1,0
199723,344.827586206897,4,1,0,15,1,0
199725,344.827586206897,4,1,0,15,1,0
199727,344.827586206897,4,1,0,15,1,0
199729,344.827586206897,4,1,0,15,1,0
199731,344.827586206897,4,1,0,15,1,0
199733,344.827586206897,4,1,0,15,1,0
199735,344.827586206897,4,1,0,15,1,0
199737,344.827586206897,4,1,0,15,1,0
199739,344.827586206897,4,1,0,15,1,0
199741,344.827586206897,4,1,0,15,1,0
199743,344.827586206897,4,1,0,15,1,0
199745,344.827586206897,4,1,0,15,1,0
199747,344.827586206897,4,1,0,15,1,0
199749,344.827586206897,4,1,0,15,1,0
199751,344.827586206897,4,1,0,15,1,0
199753,344.827586206897,4,1,0,15,1,0
199755,344.827586206897,4,1,0,15,1,0
199757,344.827586206897,4,1,0,15,1,0
199759,344.827586206897,4,1,0,15,1,0
199761,344.827586206897,4,1,0,15,1,0
199763,344.827586206897,4,1,0,15,1,0
199765,344.827586206897,4,1,0,15,1,0
199767,344.827586206897,4,1,0,15,1,0
199769,344.827586206897,4,1,0,15,1,0
199771,344.827586206897,4,1,0,15,1,0
199773,344.827586206897,4,1,0,15,1,0
199775,344.827586206897,4,1,0,15,1,0
199777,344.827586206897,4,1,0,15,1,0
199779,344.827586206897,4,1,0,15,1,0
199781,344.827586206897,4,1,0,15,1,0
199783,344.827586206897,4,1,0,15,1,0
199785,344.827586206897,4,1,0,15,1,0
199787,344.827586206897,4,1,0,15,1,0
199789,344.827586206897,4,1,0,15,1,0
199791,344.827586206897,4,1,0,15,1,0
199793,344.827586206897,4,1,0,15,1,0
199795,344.827586206897,4,1,0,15,1,0
199797,344.827586206897,4,1,0,15,1,0
199799,344.827586206897,4,1,0,15,1,0
199801,344.827586206897,4,1,0,15,1,0
199803,344.827586206897,4,1,0,15,1,0
199805,344.827586206897,4,1,0,15,1,0
199807,344.827586206897,4,1,0,15,1,0
199809,344.827586206897,4,1,0,15,1,0
199811,344.827586206897,4,1,0,15,1,0
199813,344.827586206897,4,1,0,15,1,0
199815,344.827586206897,4,1,0,15,1,0
199817,344.827586206897,4,1,0,15,1,0
199819,344.827586206897,4,1,0,15,1,0
199821,344.827586206897,4,1,0,15,1,0
199823,344.827586206897,4,1,0,15,1,0
199825,344.827586206897,4,1,0,15,1,0
199827,344.827586206897,4,1,0,15,1,0
199829,344.827586206897,4,1,0,15,1,0
199831,344.827586206897,4,1,0,15,1,0
199833,344.827586206897,4,1,0,15,1,0
199835,344.827586206897,4,1,0,15,1,0
199837,344.827586206897,4,1,0,15,1,0
199839,344.827586206897,4,1,0,15,1,0
199841,344.827586206897,4,1,0,15,1,0
199843,344.827586206897,4,1,0,15,1,0
199845,344.827586206897,4,1,0,15,1,0
199847,344.827586206897,4,1,0,15,1,0
199849,344.827586206897,4,1,0,15,1,0
199851,344.827586206897,4,1,0,15,1,0
199853,344.827586206897,4,1,0,15,1,0
199855,344.827586206897,4,1,0,15,1,0
199857,344.827586206897,4,1,0,15,1,0
199859,344.827586206897,4,1,0,15,1,0
199861,344.827586206897,4,1,0,15,1,0
199863,344.827586206897,4,1,0,15,1,0
199865,344.827586206897,4,1,0,15,1,0
199867,344.827586206897,4,1,0,15,1,0
199870,344.827586206897,4,1,0,15,1,0
199872,344.827586206897,4,1,0,15,1,0
199874,344.827586206897,4,1,0,15,1,0
199876,344.827586206897,4,1,0,15,1,0
199878,344.827586206897,4,1,0,15,1,0
199880,344.827586206897,4,1,0,15,1,0
199882,344.827586206897,4,1,0,15,1,0
199884,344.827586206897,4,1,0,15,1,0
199886,344.827586206897,4,1,0,15,1,0
199888,344.827586206897,4,1,0,15,1,0
199890,344.827586206897,4,1,0,15,1,0
199892,344.827586206897,4,1,0,15,1,0
199894,344.827586206897,4,1,0,15,1,0
199896,344.827586206897,4,1,0,15,1,0
199898,344.827586206897,4,1,0,15,1,0
199900,344.827586206897,4,1,0,15,1,0
199902,344.827586206897,4,1,0,15,1,0
199904,344.827586206897,4,1,0,15,1,0
199906,344.827586206897,4,1,0,15,1,0
199908,344.827586206897,4,1,0,15,1,0
199910,344.827586206897,4,1,0,15,1,0
199912,344.827586206897,4,1,0,15,1,0
199914,344.827586206897,4,1,0,15,1,0
199916,344.827586206897,4,1,0,15,1,0
199918,344.827586206897,4,1,0,15,1,0
199920,344.827586206897,4,1,0,15,1,0
199922,344.827586206897,4,1,0,15,1,0
199924,344.827586206897,4,1,0,15,1,0
199926,344.827586206897,4,1,0,15,1,0
199928,344.827586206897,4,1,0,15,1,0
199930,344.827586206897,4,1,0,15,1,0
199932,344.827586206897,4,1,0,15,1,0
199934,344.827586206897,4,1,0,15,1,0
199936,344.827586206897,4,1,0,15,1,0
199938,344.827586206897,4,1,0,15,1,0
199940,344.827586206897,4,1,0,15,1,0
199942,344.827586206897,4,1,0,15,1,0
199944,344.827586206897,4,1,0,15,1,0
199946,344.827586206897,4,1,0,15,1,0
199948,344.827586206897,4,1,0,15,1,0
199950,344.827586206897,4,1,0,15,1,0
199952,344.827586206897,4,1,0,15,1,0
199954,344.827586206897,4,1,0,15,1,0
199956,344.827586206897,4,1,0,15,1,0
199958,344.827586206897,4,1,0,15,1,0
199960,344.827586206897,4,1,0,15,1,0
199962,344.827586206897,4,1,0,15,1,0
199964,344.827586206897,4,1,0,15,1,0
199966,344.827586206897,4,1,0,15,1,0
199968,344.827586206897,4,1,0,15,1,0
199970,344.827586206897,4,1,0,15,1,0
199972,344.827586206897,4,1,0,15,1,0
199974,344.827586206897,4,1,0,15,1,0
199976,344.827586206897,4,1,0,15,1,0
199978,344.827586206897,4,1,0,15,1,0
199980,344.827586206897,4,1,0,15,1,0
199982,344.827586206897,4,1,0,15,1,0
199984,344.827586206897,4,1,0,15,1,0
199986,344.827586206897,4,1,0,15,1,0
199988,344.827586206897,4,1,0,15,1,0
199990,344.827586206897,4,1,0,15,1,0
199992,344.827586206897,4,1,0,15,1,0
199994,344.827586206897,4,1,0,15,1,0
199996,344.827586206897,4,1,0,15,1,0
199998,344.827586206897,4,1,0,15,1,0
200000,344.827586206897,4,1,0,15,1,0
200002,344.827586206897,4,1,0,15,1,0
200004,344.827586206897,4,1,0,15,1,0
200006,344.827586206897,4,1,0,15,1,0
200008,344.827586206897,4,1,0,15,1,0
200010,344.827586206897,4,1,0,15,1,0
200012,344.827586206897,4,1,0,15,1,0
200014,344.827586206897,4,1,0,15,1,0
200016,344.827586206897,4,1,0,15,1,0
200018,344.827586206897,4,1,0,15,1,0
200020,344.827586206897,4,1,0,15,1,0
200022,344.827586206897,4,1,0,15,1,0
200024,344.827586206897,4,1,0,15,1,0
200026,344.827586206897,4,1,0,15,1,0
200028,344.827586206897,4,1,0,15,1,0
200030,344.827586206897,4,1,0,15,1,0
200032,344.827586206897,4,1,0,15,1,0
200034,344.827586206897,4,1,0,15,1,0
200036,344.827586206897,4,1,0,15,1,0
200038,344.827586206897,4,1,0,15,1,0
200040,344.827586206897,4,1,0,15,1,0
200042,344.827586206897,4,1,0,15,1,0
200044,344.827586206897,4,1,0,15,1,0
200046,344.827586206897,4,1,0,15,1,0
200048,344.827586206897,4,1,0,15,1,0
200050,344.827586206897,4,1,0,15,1,0
200052,344.827586206897,4,1,0,15,1,0
200054,344.827586206897,4,1,0,15,1,0
200056,344.827586206897,4,1,0,15,1,0
200058,344.827586206897,4,1,0,15,1,0
200060,344.827586206897,4,1,0,15,1,0
200062,344.827586206897,4,1,0,15,1,0
200064,344.827586206897,4,1,0,15,1,0
200066,344.827586206897,4,1,0,15,1,0
200068,344.827586206897,4,1,0,15,1,0
200070,344.827586206897,4,1,0,15,1,0
200072,344.827586206897,4,1,0,15,1,0
200074,344.827586206897,4,1,0,15,1,0
200076,344.827586206897,4,1,0,15,1,0
200078,344.827586206897,4,1,0,15,1,0
200080,344.827586206897,4,1,0,15,1,0
200082,344.827586206897,4,1,0,15,1,0
200084,344.827586206897,4,1,0,15,1,0
200086,344.827586206897,4,1,0,15,1,0
200088,344.827586206897,4,1,0,15,1,0
200090,344.827586206897,4,1,0,15,1,0
200092,344.827586206897,4,1,0,15,1,0
200094,344.827586206897,4,1,0,15,1,0
200096,344.827586206897,4,1,0,15,1,0
200098,344.827586206897,4,1,0,15,1,0
200100,344.827586206897,4,1,0,15,1,0
200102,344.827586206897,4,1,0,15,1,0
200104,344.827586206897,4,1,0,15,1,0
200106,344.827586206897,4,1,0,15,1,0
200108,344.827586206897,4,1,0,15,1,0
200110,344.827586206897,4,1,0,15,1,0
200112,344.827586206897,4,1,0,15,1,0
200114,344.827586206897,4,1,0,15,1,0
200116,344.827586206897,4,1,0,15,1,0
200118,344.827586206897,4,1,0,15,1,0
200120,344.827586206897,4,1,0,15,1,0
200122,344.827586206897,4,1,0,15,1,0
200124,344.827586206897,4,1,0,15,1,0
200126,344.827586206897,4,1,0,15,1,0
200129,344.827586206897,4,1,0,15,1,0
200991,-62.5,4,1,0,15,0,0
201034,-250,4,1,0,15,0,0
201077,-62.5,4,1,0,15,0,0
201120,-250,4,1,0,15,0,0
201163,-62.5,4,1,0,15,0,0
201206,-250,4,1,0,15,0,0
201249,-62.5,4,1,0,15,0,0
201292,-250,4,1,0,15,0,0
201335,-62.5,4,1,0,15,0,0
201379,-250,4,1,0,15,0,0
201422,-62.5,4,1,0,15,0,0
201465,-250,4,1,0,15,0,0
201508,-62.5,4,1,0,15,0,0
201551,-250,4,1,0,15,0,0
201594,-62.5,4,1,0,15,0,0
201637,-250,4,1,0,15,0,0
201680,155.413793103449,4,1,0,15,1,0
201694,60000,4,1,0,15,1,0
201708,155.413793103449,4,1,0,15,1,0
201723,60000,4,1,0,15,1,0
201737,155.413793103449,4,1,0,15,1,0
201751,60000,4,1,0,15,1,0
201766,155.413793103449,4,1,0,15,1,0
201780,60000,4,1,0,15,1,0
201795,155.413793103449,4,1,0,15,1,0
201809,60000,4,1,0,15,1,0
201823,155.413793103449,4,1,0,15,1,0
201838,60000,4,1,0,15,1,0
201852,155.413793103449,4,1,0,15,1,0
201866,60000,4,1,0,15,1,0
201881,155.413793103449,4,1,0,15,1,0
201895,60000,4,1,0,15,1,0
201910,155.413793103449,4,1,0,15,1,0
201924,60000,4,1,0,15,1,0
201938,155.413793103449,4,1,0,15,1,0
201953,60000,4,1,0,15,1,0
201967,155.413793103449,4,1,0,15,1,0
201981,60000,4,1,0,15,1,0
201996,155.413793103449,4,1,0,15,1,0
202010,60000,4,1,0,15,1,0
202025,344.827586206897,4,1,0,15,1,0
205128,-83.3333333333333,4,1,0,15,0,0
205214,-90.9090909090909,4,1,0,15,0,0
205300,-95.2380952380952,4,1,0,15,0,0
205387,-100,4,1,0,15,0,0
205473,160.413793103449,4,1,0,15,1,0
205487,60000,4,1,0,15,1,0
205501,160.413793103449,4,1,0,15,1,0
205516,60000,4,1,0,15,1,0
205530,160.413793103449,4,1,0,15,1,0
205544,60000,4,1,0,15,1,0
205559,160.413793103449,4,1,0,15,1,0
205573,60000,4,1,0,15,1,0
205588,160.413793103449,4,1,0,15,1,0
205602,60000,4,1,0,15,1,0
205616,160.413793103449,4,1,0,15,1,0
205631,60000,4,1,0,15,1,0
205645,160.413793103449,4,1,0,15,1,0
205659,60000,4,1,0,15,1,0
205674,160.413793103449,4,1,0,15,1,0
205688,60000,4,1,0,15,1,0
205703,160.413793103449,4,1,0,15,1,0
205717,60000,4,1,0,15,1,0
205731,160.413793103449,4,1,0,15,1,0
205746,60000,4,1,0,15,1,0
205760,160.413793103449,4,1,0,15,1,0
205774,60000,4,1,0,15,1,0
205789,160.413793103449,4,1,0,15,1,0
205803,60000,4,1,0,15,1,0
205819,344.827586206897,4,1,0,15,1,0
206165,344.827586206897,4,1,0,15,1,0
206508,344.827586206897,4,1,0,15,1,0
206510,344.827586206897,4,1,0,15,1,0
206512,344.827586206897,4,1,0,15,1,0
206514,344.827586206897,4,1,0,15,1,0
206516,344.827586206897,4,1,0,15,1,0
206518,344.827586206897,4,1,0,15,1,0
206520,344.827586206897,4,1,0,15,1,0
206522,344.827586206897,4,1,0,15,1,0
206524,344.827586206897,4,1,0,15,1,0
206526,344.827586206897,4,1,0,15,1,0
206528,344.827586206897,4,1,0,15,1,0
206530,344.827586206897,4,1,0,15,1,0
206532,344.827586206897,4,1,0,15,1,0
206534,344.827586206897,4,1,0,15,1,0
206536,344.827586206897,4,1,0,15,1,0
206538,344.827586206897,4,1,0,15,1,0
206540,344.827586206897,4,1,0,15,1,0
206542,344.827586206897,4,1,0,15,1,0
206544,344.827586206897,4,1,0,15,1,0
206546,344.827586206897,4,1,0,15,1,0
206548,344.827586206897,4,1,0,15,1,0
206550,344.827586206897,4,1,0,15,1,0
206552,344.827586206897,4,1,0,15,1,0
206554,344.827586206897,4,1,0,15,1,0
206556,344.827586206897,4,1,0,15,1,0
206558,344.827586206897,4,1,0,15,1,0
206560,344.827586206897,4,1,0,15,1,0
206562,344.827586206897,4,1,0,15,1,0
206564,344.827586206897,4,1,0,15,1,0
206567,344.827586206897,4,1,0,15,1,0
206569,344.827586206897,4,1,0,15,1,0
206571,344.827586206897,4,1,0,15,1,0
206573,344.827586206897,4,1,0,15,1,0
206575,344.827586206897,4,1,0,15,1,0
206577,344.827586206897,4,1,0,15,1,0
206579,344.827586206897,4,1,0,15,1,0
206581,344.827586206897,4,1,0,15,1,0
206583,344.827586206897,4,1,0,15,1,0
206585,344.827586206897,4,1,0,15,1,0
206587,344.827586206897,4,1,0,15,1,0
206589,344.827586206897,4,1,0,15,1,0
206591,344.827586206897,4,1,0,15,1,0
206593,344.827586206897,4,1,0,15,1,0
206595,344.827586206897,4,1,0,15,1,0
206597,344.827586206897,4,1,0,15,1,0
206599,344.827586206897,4,1,0,15,1,0
206601,344.827586206897,4,1,0,15,1,0
206603,344.827586206897,4,1,0,15,1,0
206605,344.827586206897,4,1,0,15,1,0
206607,344.827586206897,4,1,0,15,1,0
206609,344.827586206897,4,1,0,15,1,0
206611,344.827586206897,4,1,0,15,1,0
206613,344.827586206897,4,1,0,15,1,0
206615,344.827586206897,4,1,0,15,1,0
206617,344.827586206897,4,1,0,15,1,0
206619,344.827586206897,4,1,0,15,1,0
206621,344.827586206897,4,1,0,15,1,0
206624,344.827586206897,4,1,0,15,1,0
206626,344.827586206897,4,1,0,15,1,0
206628,344.827586206897,4,1,0,15,1,0
206630,344.827586206897,4,1,0,15,1,0
206632,344.827586206897,4,1,0,15,1,0
206634,344.827586206897,4,1,0,15,1,0
206636,344.827586206897,4,1,0,15,1,0
206638,344.827586206897,4,1,0,15,1,0
206640,344.827586206897,4,1,0,15,1,0
206642,344.827586206897,4,1,0,15,1,0
206644,344.827586206897,4,1,0,15,1,0
206646,344.827586206897,4,1,0,15,1,0
206648,344.827586206897,4,1,0,15,1,0
206650,344.827586206897,4,1,0,15,1,0
206652,344.827586206897,4,1,0,15,1,0
206654,344.827586206897,4,1,0,15,1,0
206656,344.827586206897,4,1,0,15,1,0
206658,344.827586206897,4,1,0,15,1,0
206660,344.827586206897,4,1,0,15,1,0
206662,344.827586206897,4,1,0,15,1,0
206664,344.827586206897,4,1,0,15,1,0
206666,344.827586206897,4,1,0,15,1,0
206668,344.827586206897,4,1,0,15,1,0
206670,344.827586206897,4,1,0,15,1,0
206672,344.827586206897,4,1,0,15,1,0
206674,344.827586206897,4,1,0,15,1,0
206676,344.827586206897,4,1,0,15,1,0
206678,344.827586206897,4,1,0,15,1,0
206681,344.827586206897,4,1,0,15,1,0
206854,344.827586206897,4,1,0,15,1,0
206856,344.827586206897,4,1,0,15,1,0
206858,344.827586206897,4,1,0,15,1,0
206860,344.827586206897,4,1,0,15,1,0
206862,344.827586206897,4,1,0,15,1,0
206864,344.827586206897,4,1,0,15,1,0
206866,344.827586206897,4,1,0,15,1,0
206868,344.827586206897,4,1,0,15,1,0
206870,344.827586206897,4,1,0,15,1,0
206872,344.827586206897,4,1,0,15,1,0
206874,344.827586206897,4,1,0,15,1,0
206876,344.827586206897,4,1,0,15,1,0
206878,344.827586206897,4,1,0,15,1,0
206880,344.827586206897,4,1,0,15,1,0
206882,344.827586206897,4,1,0,15,1,0
206884,344.827586206897,4,1,0,15,1,0
206886,344.827586206897,4,1,0,15,1,0
206888,344.827586206897,4,1,0,15,1,0
206890,344.827586206897,4,1,0,15,1,0
206892,344.827586206897,4,1,0,15,1,0
206894,344.827586206897,4,1,0,15,1,0
206896,344.827586206897,4,1,0,15,1,0
206898,344.827586206897,4,1,0,15,1,0
206900,344.827586206897,4,1,0,15,1,0
206902,344.827586206897,4,1,0,15,1,0
206904,344.827586206897,4,1,0,15,1,0
206906,344.827586206897,4,1,0,15,1,0
206908,344.827586206897,4,1,0,15,1,0
206910,344.827586206897,4,1,0,15,1,0
206913,344.827586206897,4,1,0,15,1,0
206915,344.827586206897,4,1,0,15,1,0
206917,344.827586206897,4,1,0,15,1,0
206919,344.827586206897,4,1,0,15,1,0
206921,344.827586206897,4,1,0,15,1,0
206923,344.827586206897,4,1,0,15,1,0
206925,344.827586206897,4,1,0,15,1,0
206927,344.827586206897,4,1,0,15,1,0
206929,344.827586206897,4,1,0,15,1,0
206931,344.827586206897,4,1,0,15,1,0
206933,344.827586206897,4,1,0,15,1,0
206935,344.827586206897,4,1,0,15,1,0
206937,344.827586206897,4,1,0,15,1,0
206939,344.827586206897,4,1,0,15,1,0
206941,344.827586206897,4,1,0,15,1,0
206943,344.827586206897,4,1,0,15,1,0
206945,344.827586206897,4,1,0,15,1,0
206947,344.827586206897,4,1,0,15,1,0
206949,344.827586206897,4,1,0,15,1,0
206951,344.827586206897,4,1,0,15,1,0
206953,344.827586206897,4,1,0,15,1,0
206955,344.827586206897,4,1,0,15,1,0
206957,344.827586206897,4,1,0,15,1,0
206959,344.827586206897,4,1,0,15,1,0
206961,344.827586206897,4,1,0,15,1,0
206963,344.827586206897,4,1,0,15,1,0
206965,344.827586206897,4,1,0,15,1,0
206967,344.827586206897,4,1,0,15,1,0
206970,344.827586206897,4,1,0,15,1,0
206972,344.827586206897,4,1,0,15,1,0
206974,344.827586206897,4,1,0,15,1,0
206976,344.827586206897,4,1,0,15,1,0
206978,344.827586206897,4,1,0,15,1,0
206980,344.827586206897,4,1,0,15,1,0
206982,344.827586206897,4,1,0,15,1,0
206984,344.827586206897,4,1,0,15,1,0
206986,344.827586206897,4,1,0,15,1,0
206988,344.827586206897,4,1,0,15,1,0
206990,344.827586206897,4,1,0,15,1,0
206992,344.827586206897,4,1,0,15,1,0
206994,344.827586206897,4,1,0,15,1,0
206996,344.827586206897,4,1,0,15,1,0
206998,344.827586206897,4,1,0,15,1,0
207000,344.827586206897,4,1,0,15,1,0
207002,344.827586206897,4,1,0,15,1,0
207004,344.827586206897,4,1,0,15,1,0
207006,344.827586206897,4,1,0,15,1,0
207008,344.827586206897,4,1,0,15,1,0
207010,344.827586206897,4,1,0,15,1,0
207012,344.827586206897,4,1,0,15,1,0
207014,344.827586206897,4,1,0,15,1,0
207016,344.827586206897,4,1,0,15,1,0
207018,344.827586206897,4,1,0,15,1,0
207020,344.827586206897,4,1,0,15,1,0
207022,344.827586206897,4,1,0,15,1,0
207024,344.827586206897,4,1,0,15,1,0
207027,344.827586206897,4,1,0,15,1,0
207716,-52.6315789473684,4,1,0,15,0,0
207759,-1000,4,1,0,15,0,0
207802,-52.6315789473684,4,1,0,15,0,0
207845,-1000,4,1,0,15,0,0
207889,-52.6315789473684,4,1,0,15,0,0
207932,-1000,4,1,0,15,0,0
207975,-52.6315789473684,4,1,0,15,0,0
208018,-1000,4,1,0,15,0,0
208061,-52.6315789473684,4,1,0,15,0,0
208104,-1000,4,1,0,15,0,0
208147,-52.6315789473684,4,1,0,15,0,0
208190,-1000,4,1,0,15,0,0
208233,-100,4,1,0,15,0,0
210647,344.827586206897,4,1,0,15,1,0
210649,344.827586206897,4,1,0,15,1,0
210651,344.827586206897,4,1,0,15,1,0
210653,344.827586206897,4,1,0,15,1,0
210655,344.827586206897,4,1,0,15,1,0
210657,344.827586206897,4,1,0,15,1,0
210659,344.827586206897,4,1,0,15,1,0
210661,344.827586206897,4,1,0,15,1,0
210663,344.827586206897,4,1,0,15,1,0
210665,344.827586206897,4,1,0,15,1,0
210667,344.827586206897,4,1,0,15,1,0
210669,344.827586206897,4,1,0,15,1,0
210671,344.827586206897,4,1,0,15,1,0
210673,344.827586206897,4,1,0,15,1,0
210675,344.827586206897,4,1,0,15,1,0
210677,344.827586206897,4,1,0,15,1,0
210679,344.827586206897,4,1,0,15,1,0
210681,344.827586206897,4,1,0,15,1,0
210683,344.827586206897,4,1,0,15,1,0
210685,344.827586206897,4,1,0,15,1,0
210687,344.827586206897,4,1,0,15,1,0
210689,344.827586206897,4,1,0,15,1,0
210691,344.827586206897,4,1,0,15,1,0
210693,344.827586206897,4,1,0,15,1,0
210695,344.827586206897,4,1,0,15,1,0
210697,344.827586206897,4,1,0,15,1,0
210699,344.827586206897,4,1,0,15,1,0
210701,344.827586206897,4,1,0,15,1,0
210703,344.827586206897,4,1,0,15,1,0
210705,344.827586206897,4,1,0,15,1,0
210707,344.827586206897,4,1,0,15,1,0
210709,344.827586206897,4,1,0,15,1,0
210711,344.827586206897,4,1,0,15,1,0
210713,344.827586206897,4,1,0,15,1,0
210715,344.827586206897,4,1,0,15,1,0
210717,344.827586206897,4,1,0,15,1,0
210719,344.827586206897,4,1,0,15,1,0
210721,344.827586206897,4,1,0,15,1,0
210723,344.827586206897,4,1,0,15,1,0
210725,344.827586206897,4,1,0,15,1,0
210727,344.827586206897,4,1,0,15,1,0
210729,344.827586206897,4,1,0,15,1,0
210731,344.827586206897,4,1,0,15,1,0
210733,344.827586206897,4,1,0,15,1,0
210735,344.827586206897,4,1,0,15,1,0
210737,344.827586206897,4,1,0,15,1,0
210739,344.827586206897,4,1,0,15,1,0
210741,344.827586206897,4,1,0,15,1,0
210743,344.827586206897,4,1,0,15,1,0
210745,344.827586206897,4,1,0,15,1,0
210747,344.827586206897,4,1,0,15,1,0
210749,344.827586206897,4,1,0,15,1,0
210751,344.827586206897,4,1,0,15,1,0
210753,344.827586206897,4,1,0,15,1,0
210755,344.827586206897,4,1,0,15,1,0
210757,344.827586206897,4,1,0,15,1,0
210759,344.827586206897,4,1,0,15,1,0
210761,344.827586206897,4,1,0,15,1,0
210763,344.827586206897,4,1,0,15,1,0
210765,344.827586206897,4,1,0,15,1,0
210767,344.827586206897,4,1,0,15,1,0
210769,344.827586206897,4,1,0,15,1,0
210771,344.827586206897,4,1,0,15,1,0
210773,344.827586206897,4,1,0,15,1,0
210775,344.827586206897,4,1,0,15,1,0
210777,344.827586206897,4,1,0,15,1,0
210779,344.827586206897,4,1,0,15,1,0
210781,344.827586206897,4,1,0,15,1,0
210783,344.827586206897,4,1,0,15,1,0
210785,344.827586206897,4,1,0,15,1,0
210787,344.827586206897,4,1,0,15,1,0
210789,344.827586206897,4,1,0,15,1,0
210791,344.827586206897,4,1,0,15,1,0
210793,344.827586206897,4,1,0,15,1,0
210795,344.827586206897,4,1,0,15,1,0
210797,344.827586206897,4,1,0,15,1,0
210799,344.827586206897,4,1,0,15,1,0
210801,344.827586206897,4,1,0,15,1,0
210803,344.827586206897,4,1,0,15,1,0
210805,344.827586206897,4,1,0,15,1,0
210807,344.827586206897,4,1,0,15,1,0
210809,344.827586206897,4,1,0,15,1,0
210811,344.827586206897,4,1,0,15,1,0
210813,344.827586206897,4,1,0,15,1,0
210815,344.827586206897,4,1,0,15,1,0
210817,344.827586206897,4,1,0,15,1,0
210819,344.827586206897,4,1,0,15,1,0
210821,344.827586206897,4,1,0,15,1,0
210823,344.827586206897,4,1,0,15,1,0
210825,344.827586206897,4,1,0,15,1,0
210827,344.827586206897,4,1,0,15,1,0
210829,344.827586206897,4,1,0,15,1,0
210831,344.827586206897,4,1,0,15,1,0
210833,344.827586206897,4,1,0,15,1,0
210835,344.827586206897,4,1,0,15,1,0
210837,344.827586206897,4,1,0,15,1,0
210839,344.827586206897,4,1,0,15,1,0
210841,344.827586206897,4,1,0,15,1,0
210843,344.827586206897,4,1,0,15,1,0
210845,344.827586206897,4,1,0,15,1,0
210847,344.827586206897,4,1,0,15,1,0
210849,344.827586206897,4,1,0,15,1,0
210851,344.827586206897,4,1,0,15,1,0
210853,344.827586206897,4,1,0,15,1,0
210855,344.827586206897,4,1,0,15,1,0
210857,344.827586206897,4,1,0,15,1,0
210859,344.827586206897,4,1,0,15,1,0
210861,344.827586206897,4,1,0,15,1,0
210863,344.827586206897,4,1,0,15,1,0
210865,344.827586206897,4,1,0,15,1,0
210867,344.827586206897,4,1,0,15,1,0
210869,344.827586206897,4,1,0,15,1,0
210871,344.827586206897,4,1,0,15,1,0
210873,344.827586206897,4,1,0,15,1,0
210875,344.827586206897,4,1,0,15,1,0
210877,344.827586206897,4,1,0,15,1,0
210879,344.827586206897,4,1,0,15,1,0
210881,344.827586206897,4,1,0,15,1,0
210883,344.827586206897,4,1,0,15,1,0
210885,344.827586206897,4,1,0,15,1,0
210887,344.827586206897,4,1,0,15,1,0
210889,344.827586206897,4,1,0,15,1,0
210891,344.827586206897,4,1,0,15,1,0
210893,344.827586206897,4,1,0,15,1,0
210895,344.827586206897,4,1,0,15,1,0
210897,344.827586206897,4,1,0,15,1,0
210899,344.827586206897,4,1,0,15,1,0
210901,344.827586206897,4,1,0,15,1,0
210903,344.827586206897,4,1,0,15,1,0
210905,344.827586206897,4,1,0,15,1,0
210907,344.827586206897,4,1,0,15,1,0
210909,344.827586206897,4,1,0,15,1,0
210911,344.827586206897,4,1,0,15,1,0
210913,344.827586206897,4,1,0,15,1,0
210915,344.827586206897,4,1,0,15,1,0
210917,344.827586206897,4,1,0,15,1,0
210919,344.827586206897,4,1,0,15,1,0
210921,344.827586206897,4,1,0,15,1,0
210923,344.827586206897,4,1,0,15,1,0
210925,344.827586206897,4,1,0,15,1,0
210927,344.827586206897,4,1,0,15,1,0
210929,344.827586206897,4,1,0,15,1,0
210931,344.827586206897,4,1,0,15,1,0
210933,344.827586206897,4,1,0,15,1,0
210935,344.827586206897,4,1,0,15,1,0
210937,344.827586206897,4,1,0,15,1,0
210939,344.827586206897,4,1,0,15,1,0
210941,344.827586206897,4,1,0,15,1,0
210943,344.827586206897,4,1,0,15,1,0
210945,344.827586206897,4,1,0,15,1,0
210947,344.827586206897,4,1,0,15,1,0
210949,344.827586206897,4,1,0,15,1,0
210951,344.827586206897,4,1,0,15,1,0
210953,344.827586206897,4,1,0,15,1,0
210955,344.827586206897,4,1,0,15,1,0
210957,344.827586206897,4,1,0,15,1,0
210959,344.827586206897,4,1,0,15,1,0
210961,344.827586206897,4,1,0,15,1,0
210963,344.827586206897,4,1,0,15,1,0
210965,344.827586206897,4,1,0,15,1,0
210967,344.827586206897,4,1,0,15,1,0
210969,344.827586206897,4,1,0,15,1,0
210971,344.827586206897,4,1,0,15,1,0
210973,344.827586206897,4,1,0,15,1,0
210975,344.827586206897,4,1,0,15,1,0
210977,344.827586206897,4,1,0,15,1,0
210979,344.827586206897,4,1,0,15,1,0
210981,344.827586206897,4,1,0,15,1,0
210983,344.827586206897,4,1,0,15,1,0
210985,344.827586206897,4,1,0,15,1,0
210987,344.827586206897,4,1,0,15,1,0
210989,344.827586206897,4,1,0,15,1,0
210992,344.827586206897,4,1,0,15,1,0
210994,344.827586206897,4,1,0,15,1,0
210996,344.827586206897,4,1,0,15,1,0
210998,344.827586206897,4,1,0,15,1,0
211000,344.827586206897,4,1,0,15,1,0
211002,344.827586206897,4,1,0,15,1,0
211004,344.827586206897,4,1,0,15,1,0
211006,344.827586206897,4,1,0,15,1,0
211008,344.827586206897,4,1,0,15,1,0
211010,344.827586206897,4,1,0,15,1,0
211012,344.827586206897,4,1,0,15,1,0
211014,344.827586206897,4,1,0,15,1,0
211016,344.827586206897,4,1,0,15,1,0
211018,344.827586206897,4,1,0,15,1,0
211020,344.827586206897,4,1,0,15,1,0
211022,344.827586206897,4,1,0,15,1,0
211024,344.827586206897,4,1,0,15,1,0
211026,344.827586206897,4,1,0,15,1,0
211028,344.827586206897,4,1,0,15,1,0
211030,344.827586206897,4,1,0,15,1,0
211032,344.827586206897,4,1,0,15,1,0
211034,344.827586206897,4,1,0,15,1,0
211036,344.827586206897,4,1,0,15,1,0
211038,344.827586206897,4,1,0,15,1,0
211040,344.827586206897,4,1,0,15,1,0
211042,344.827586206897,4,1,0,15,1,0
211044,344.827586206897,4,1,0,15,1,0
211046,344.827586206897,4,1,0,15,1,0
211048,344.827586206897,4,1,0,15,1,0
211050,344.827586206897,4,1,0,15,1,0
211052,344.827586206897,4,1,0,15,1,0
211054,344.827586206897,4,1,0,15,1,0
211056,344.827586206897,4,1,0,15,1,0
211058,344.827586206897,4,1,0,15,1,0
211060,344.827586206897,4,1,0,15,1,0
211062,344.827586206897,4,1,0,15,1,0
211064,344.827586206897,4,1,0,15,1,0
211066,344.827586206897,4,1,0,15,1,0
211068,344.827586206897,4,1,0,15,1,0
211070,344.827586206897,4,1,0,15,1,0
211072,344.827586206897,4,1,0,15,1,0
211074,344.827586206897,4,1,0,15,1,0
211076,344.827586206897,4,1,0,15,1,0
211078,344.827586206897,4,1,0,15,1,0
211080,344.827586206897,4,1,0,15,1,0
211082,344.827586206897,4,1,0,15,1,0
211084,344.827586206897,4,1,0,15,1,0
211086,344.827586206897,4,1,0,15,1,0
211088,344.827586206897,4,1,0,15,1,0
211090,344.827586206897,4,1,0,15,1,0
211092,344.827586206897,4,1,0,15,1,0
211094,344.827586206897,4,1,0,15,1,0
211096,344.827586206897,4,1,0,15,1,0
211098,344.827586206897,4,1,0,15,1,0
211100,344.827586206897,4,1,0,15,1,0
211102,344.827586206897,4,1,0,15,1,0
211104,344.827586206897,4,1,0,15,1,0
211106,344.827586206897,4,1,0,15,1,0
211108,344.827586206897,4,1,0,15,1,0
211110,344.827586206897,4,1,0,15,1,0
211112,344.827586206897,4,1,0,15,1,0
211114,344.827586206897,4,1,0,15,1,0
211116,344.827586206897,4,1,0,15,1,0
211118,344.827586206897,4,1,0,15,1,0
211120,344.827586206897,4,1,0,15,1,0
211122,344.827586206897,4,1,0,15,1,0
211124,344.827586206897,4,1,0,15,1,0
211126,344.827586206897,4,1,0,15,1,0
211128,344.827586206897,4,1,0,15,1,0
211130,344.827586206897,4,1,0,15,1,0
211132,344.827586206897,4,1,0,15,1,0
211134,344.827586206897,4,1,0,15,1,0
211136,344.827586206897,4,1,0,15,1,0
211138,344.827586206897,4,1,0,15,1,0
211140,344.827586206897,4,1,0,15,1,0
211142,344.827586206897,4,1,0,15,1,0
211144,344.827586206897,4,1,0,15,1,0
211146,344.827586206897,4,1,0,15,1,0
211148,344.827586206897,4,1,0,15,1,0
211150,344.827586206897,4,1,0,15,1,0
211152,344.827586206897,4,1,0,15,1,0
211154,344.827586206897,4,1,0,15,1,0
211156,344.827586206897,4,1,0,15,1,0
211158,344.827586206897,4,1,0,15,1,0
211160,344.827586206897,4,1,0,15,1,0
211162,344.827586206897,4,1,0,15,1,0
211164,344.827586206897,4,1,0,15,1,0
211166,344.827586206897,4,1,0,15,1,0
211168,344.827586206897,4,1,0,15,1,0
211170,344.827586206897,4,1,0,15,1,0
211172,344.827586206897,4,1,0,15,1,0
211174,344.827586206897,4,1,0,15,1,0
211176,344.827586206897,4,1,0,15,1,0
211178,344.827586206897,4,1,0,15,1,0
211180,344.827586206897,4,1,0,15,1,0
211182,344.827586206897,4,1,0,15,1,0
211184,344.827586206897,4,1,0,15,1,0
211186,344.827586206897,4,1,0,15,1,0
211188,344.827586206897,4,1,0,15,1,0
211190,344.827586206897,4,1,0,15,1,0
211192,344.827586206897,4,1,0,15,1,0
211194,344.827586206897,4,1,0,15,1,0
211196,344.827586206897,4,1,0,15,1,0
211198,344.827586206897,4,1,0,15,1,0
211200,344.827586206897,4,1,0,15,1,0
211202,344.827586206897,4,1,0,15,1,0
211204,344.827586206897,4,1,0,15,1,0
211206,344.827586206897,4,1,0,15,1,0
211208,344.827586206897,4,1,0,15,1,0
211210,344.827586206897,4,1,0,15,1,0
211212,344.827586206897,4,1,0,15,1,0
211214,344.827586206897,4,1,0,15,1,0
211216,344.827586206897,4,1,0,15,1,0
211218,344.827586206897,4,1,0,15,1,0
211220,344.827586206897,4,1,0,15,1,0
211222,344.827586206897,4,1,0,15,1,0
211224,344.827586206897,4,1,0,15,1,0
211226,344.827586206897,4,1,0,15,1,0
211228,344.827586206897,4,1,0,15,1,0
211230,344.827586206897,4,1,0,15,1,0
211232,344.827586206897,4,1,0,15,1,0
211234,344.827586206897,4,1,0,15,1,0
211236,344.827586206897,4,1,0,15,1,0
211238,344.827586206897,4,1,0,15,1,0
211240,344.827586206897,4,1,0,15,1,0
211242,344.827586206897,4,1,0,15,1,0
211244,344.827586206897,4,1,0,15,1,0
211246,344.827586206897,4,1,0,15,1,0
211248,344.827586206897,4,1,0,15,1,0
211250,344.827586206897,4,1,0,15,1,0
211252,344.827586206897,4,1,0,15,1,0
211254,344.827586206897,4,1,0,15,1,0
211256,344.827586206897,4,1,0,15,1,0
211258,344.827586206897,4,1,0,15,1,0
211260,344.827586206897,4,1,0,15,1,0
211262,344.827586206897,4,1,0,15,1,0
211264,344.827586206897,4,1,0,15,1,0
211266,344.827586206897,4,1,0,15,1,0
211268,344.827586206897,4,1,0,15,1,0
211270,344.827586206897,4,1,0,15,1,0
211272,344.827586206897,4,1,0,15,1,0
211274,344.827586206897,4,1,0,15,1,0
211276,344.827586206897,4,1,0,15,1,0
211278,344.827586206897,4,1,0,15,1,0
211280,344.827586206897,4,1,0,15,1,0
211282,344.827586206897,4,1,0,15,1,0
211284,344.827586206897,4,1,0,15,1,0
211286,344.827586206897,4,1,0,15,1,0
211288,344.827586206897,4,1,0,15,1,0
211290,344.827586206897,4,1,0,15,1,0
211292,344.827586206897,4,1,0,15,1,0
211294,344.827586206897,4,1,0,15,1,0
211296,344.827586206897,4,1,0,15,1,0
211298,344.827586206897,4,1,0,15,1,0
211300,344.827586206897,4,1,0,15,1,0
211302,344.827586206897,4,1,0,15,1,0
211304,344.827586206897,4,1,0,15,1,0
211306,344.827586206897,4,1,0,15,1,0
211308,344.827586206897,4,1,0,15,1,0
211310,344.827586206897,4,1,0,15,1,0
211312,344.827586206897,4,1,0,15,1,0
211314,344.827586206897,4,1,0,15,1,0
211316,344.827586206897,4,1,0,15,1,0
211318,344.827586206897,4,1,0,15,1,0
211320,344.827586206897,4,1,0,15,1,0
211322,344.827586206897,4,1,0,15,1,0
211324,344.827586206897,4,1,0,15,1,0
211326,344.827586206897,4,1,0,15,1,0
211328,344.827586206897,4,1,0,15,1,0
211330,344.827586206897,4,1,0,15,1,0
211332,344.827586206897,4,1,0,15,1,0
211334,344.827586206897,4,1,0,15,1,0
211337,344.827586206897,4,1,0,15,1,0
212716,155.413793103449,4,1,0,15,1,0
212730,60000,4,1,0,15,1,0
212744,155.413793103449,4,1,0,15,1,0
212759,60000,4,1,0,15,1,0
212773,155.413793103449,4,1,0,15,1,0
212787,60000,4,1,0,15,1,0
212802,155.413793103449,4,1,0,15,1,0
212816,60000,4,1,0,15,1,0
212831,155.413793103449,4,1,0,15,1,0
212845,60000,4,1,0,15,1,0
212859,155.413793103449,4,1,0,15,1,0
212874,60000,4,1,0,15,1,0
212888,155.413793103449,4,1,0,15,1,0
212902,60000,4,1,0,15,1,0
212917,155.413793103449,4,1,0,15,1,0
212931,60000,4,1,0,15,1,0
212946,155.413793103449,4,1,0,15,1,0
212960,60000,4,1,0,15,1,0
212974,155.413793103449,4,1,0,15,1,0
212989,60000,4,1,0,15,1,0
213003,155.413793103449,4,1,0,15,1,0
213017,60000,4,1,0,15,1,0
213032,155.413793103449,4,1,0,15,1,0
213046,60000,4,1,0,15,1,0
213061,344.827586206897,4,1,0,15,1,0
215819,-100,4,1,0,15,0,0
216164,265.251989389921,4,1,0,15,1,0
216167,265.865525217345,4,1,0,15,1,0
216170,266.481905878591,4,1,0,15,1,0
216174,267.101151205962,4,1,0,15,1,0
216177,267.723281216535,4,1,0,15,1,0
216181,268.348316114317,4,1,0,15,1,0
216184,268.976276292431,4,1,0,15,1,0
216188,269.607182335338,4,1,0,15,1,0
216191,270.241055021079,4,1,0,15,1,0
216195,270.877915323564,4,1,0,15,1,0
216198,271.51778441488,4,1,0,15,1,0
216201,272.160683667638,4,1,0,15,1,0
216205,272.806634657355,4,1,0,15,1,0
216208,273.455659164867,4,1,0,15,1,0
216212,274.107779178773,4,1,0,15,1,0
216215,274.763016897926,4,1,0,15,1,0
216219,275.421394733943,4,1,0,15,1,0
216222,276.082935313769,4,1,0,15,1,0
216226,276.747661482261,4,1,0,15,1,0
216229,277.415596304825,4,1,0,15,1,0
216233,278.086763070078,4,1,0,15,1,0
216236,278.76118529256,4,1,0,15,1,0
216239,279.438886715476,4,1,0,15,1,0
216243,280.119891313483,4,1,0,15,1,0
216246,280.804223295519,4,1,0,15,1,0
216250,281.491907107671,4,1,0,15,1,0
216253,282.182967436086,4,1,0,15,1,0
216257,282.877429209924,4,1,0,15,1,0
216260,283.575317604356,4,1,0,15,1,0
216264,284.276658043608,4,1,0,15,1,0
216267,284.981476204047,4,1,0,15,1,0
216270,285.689798017313,4,1,0,15,1,0
216274,286.401649673503,4,1,0,15,1,0
216277,287.117057624394,4,1,0,15,1,0
216281,287.836048586725,4,1,0,15,1,0
216284,288.558649545521,4,1,0,15,1,0
216288,289.284887757464,4,1,0,15,1,0
216291,290.014790754329,4,1,0,15,1,0
216295,290.748386346456,4,1,0,15,1,0
216298,291.485702626287,4,1,0,15,1,0
216302,292.226767971947,4,1,0,15,1,0
216305,292.97161105089,4,1,0,15,1,0
216308,293.720260823592,4,1,0,15,1,0
216312,294.472746547307,4,1,0,15,1,0
216315,295.229097779878,4,1,0,15,1,0
216319,295.989344383603,4,1,0,15,1,0
216322,296.753516529171,4,1,0,15,1,0
216326,297.521644699652,4,1,0,15,1,0
216329,298.293759694548,4,1,0,15,1,0
216333,299.069892633909,4,1,0,15,1,0
216336,299.850074962519,4,1,0,15,1,0
216339,300.634338454139,4,1,0,15,1,0
216343,301.422715215819,4,1,0,15,1,0
216346,302.215237692285,4,1,0,15,1,0
216350,303.011938670384,4,1,0,15,1,0
216353,303.81285128361,4,1,0,15,1,0
216357,304.618009016693,4,1,0,15,1,0
216360,305.427445710272,4,1,0,15,1,0
216364,306.241195565628,4,1,0,15,1,0
216367,307.059293149508,4,1,0,15,1,0
216371,307.881773399015,4,1,0,15,1,0
216374,308.708671626586,4,1,0,15,1,0
216377,309.540023525042,4,1,0,15,1,0
216381,310.375865172725,4,1,0,15,1,0
216384,311.216233038716,4,1,0,15,1,0
216388,312.061163988142,4,1,0,15,1,0
216391,312.910695287565,4,1,0,15,1,0
216395,313.764864610461,4,1,0,15,1,0
216398,314.623710042789,4,1,0,15,1,0
216402,315.487270088652,4,1,0,15,1,0
216405,316.355583676052,4,1,0,15,1,0
216408,317.228690162739,4,1,0,15,1,0
216412,318.106629342156,4,1,0,15,1,0
216415,318.989441449488,4,1,0,15,1,0
216419,319.877167167808,4,1,0,15,1,0
216422,320.769847634323,4,1,0,15,1,0
216426,321.667524446732,4,1,0,15,1,0
216429,322.570239669689,4,1,0,15,1,0
216433,323.478035841367,4,1,0,15,1,0
216436,324.390955980148,4,1,0,15,1,0
216440,325.309043591412,4,1,0,15,1,0
216443,326.232342674453,4,1,0,15,1,0
216446,327.160897729504,4,1,0,15,1,0
216450,328.094753764888,4,1,0,15,1,0
216453,329.033956304291,4,1,0,15,1,0
216457,329.97855139416,4,1,0,15,1,0
216460,330.928585611226,4,1,0,15,1,0
216464,331.884106070161,4,1,0,15,1,0
216467,332.845160431368,4,1,0,15,1,0
216471,333.811796908903,4,1,0,15,1,0
216474,334.784064278541,4,1,0,15,1,0
216477,335.762011885976,4,1,0,15,1,0
216481,336.745689655173,4,1,0,15,1,0
216484,337.735148096863,4,1,0,15,1,0
216488,338.730438317188,4,1,0,15,1,0
216491,339.731612026499,4,1,0,15,1,0
216495,340.738721548317,4,1,0,15,1,0
216498,341.751819828441,4,1,0,15,1,0
216502,342.770960444232,4,1,0,15,1,0
216505,343.796197614055,4,1,0,15,1,0
216509,160.413793103449,4,1,0,15,1,0
216523,60000,4,1,0,15,1,0
216537,160.413793103449,4,1,0,15,1,0
216552,60000,4,1,0,15,1,0
216566,160.413793103449,4,1,0,15,1,0
216580,60000,4,1,0,15,1,0
216595,160.413793103449,4,1,0,15,1,0
216609,60000,4,1,0,15,1,0
216624,160.413793103449,4,1,0,15,1,0
216638,60000,4,1,0,15,1,0
216652,160.413793103449,4,1,0,15,1,0
216667,60000,4,1,0,15,1,0
216681,160.413793103449,4,1,0,15,1,0
216695,60000,4,1,0,15,1,0
216710,160.413793103449,4,1,0,15,1,0
216724,60000,4,1,0,15,1,0
216739,160.413793103449,4,1,0,15,1,0
216753,60000,4,1,0,15,1,0
216767,160.413793103449,4,1,0,15,1,0
216782,60000,4,1,0,15,1,0
216796,160.413793103449,4,1,0,15,1,0
216810,60000,4,1,0,15,1,0
216825,160.413793103449,4,1,0,15,1,0
216839,60000,4,1,0,15,1,0
216855,344.827586206897,4,1,0,15,1,0
216855,-95.2380952380952,4,1,0,15,0,0
217199,-93.4579439252336,4,1,0,15,0,0
217544,-90.9090909090909,4,1,0,15,0,0
217889,-83.3333333333333,4,1,0,15,0,0
218148,-10,4,1,0,15,0,0
218234,-111.111111111111,4,1,0,15,0,0

[HitObjects]
320,192,8924,5,0,0:0:0:0:
64,192,8924,1,0,0:0:0:0:
192,192,9096,1,0,0:0:0:0:
320,192,9268,1,0,0:0:0:0:
64,192,9441,1,0,0:0:0:0:
448,192,9613,128,0,9656:0:0:0:0:
64,192,9786,1,0,0:0:0:0:
192,192,9958,1,0,0:0:0:0:
320,192,10130,1,0,0:0:0:0:
192,192,10303,1,0,0:0:0:0:
448,192,10475,128,0,10518:0:0:0:0:
64,192,10648,1,0,0:0:0:0:
192,192,10820,1,0,0:0:0:0:
320,192,10992,1,0,0:0:0:0:
64,192,11165,1,0,0:0:0:0:
448,192,11337,128,0,11380:0:0:0:0:
192,192,11510,1,0,0:0:0:0:
320,192,11682,1,0,0:0:0:0:
64,192,11682,1,0,0:0:0:0:
192,192,11855,1,0,0:0:0:0:
320,192,12027,1,0,0:0:0:0:
64,192,12199,1,0,0:0:0:0:
448,192,12372,128,0,12458:0:0:0:0:
64,192,12544,1,0,0:0:0:0:
192,192,12717,1,0,0:0:0:0:
320,192,12889,1,0,0:0:0:0:
64,192,13061,1,0,0:0:0:0:
192,192,13061,1,0,0:0:0:0:
448,192,13234,128,0,13320:0:0:0:0:
64,192,13406,1,0,0:0:0:0:
192,192,13579,1,0,0:0:0:0:
320,192,13751,1,0,0:0:0:0:
64,192,13751,1,0,0:0:0:0:
192,192,13924,1,0,0:0:0:0:
448,192,14096,128,0,14182:0:0:0:0:
192,192,14268,1,0,0:0:0:0:
64,192,14441,1,0,0:0:0:0:
320,192,14441,1,0,0:0:0:0:
192,192,14613,1,0,0:0:0:0:
320,192,14786,1,0,0:0:0:0:
64,192,14958,1,0,0:0:0:0:
448,192,15130,128,0,15174:0:0:0:0:
64,192,15303,1,0,0:0:0:0:
192,192,15475,1,0,0:0:0:0:
320,192,15648,1,0,0:0:0:0:
192,192,15820,1,0,0:0:0:0:
448,192,15992,128,0,16036:0:0:0:0:
64,192,16165,1,0,0:0:0:0:
192,192,16337,1,0,0:0:0:0:
320,192,16510,1,0,0:0:0:0:
64,192,16682,1,0,0:0:0:0:
448,192,16855,128,0,16898:0:0:0:0:
192,192,17027,1,0,0:0:0:0:
320,192,17199,1,0,0:0:0:0:
64,192,17199,1,0,0:0:0:0:
192,192,17372,1,0,0:0:0:0:
320,192,17544,1,0,0:0:0:0:
192,192,17717,1,0,0:0:0:0:
448,192,17889,128,0,17975:0:0:0:0:
192,192,18061,1,0,0:0:0:0:
64,192,18234,1,0,0:0:0:0:
320,192,18406,1,0,0:0:0:0:
192,192,18579,1,0,0:0:0:0:
64,192,18579,1,0,0:0:0:0:
448,192,18751,128,0,18837:0:0:0:0:
192,192,18924,1,0,0:0:0:0:
64,192,19096,1,0,0:0:0:0:
320,192,19268,1,0,0:0:0:0:
192,192,19441,1,0,0:0:0:0:
448,192,19613,128,0,19699:0:0:0:0:
64,192,19786,1,0,0:0:0:0:
448,192,19958,1,0,0:0:0:0:
320,192,19958,1,0,0:0:0:0:
192,192,20130,1,0,0:0:0:0:
64,192,20217,1,0,0:0:0:0:
320,192,20303,1,0,0:0:0:0:
64,192,20475,1,0,0:0:0:0:
320,192,20561,1,0,0:0:0:0:
448,192,20648,128,0,20691:0:0:0:0:
64,192,20820,1,0,0:0:0:0:
448,192,20906,1,0,0:0:0:0:
192,192,20992,1,0,0:0:0:0:
320,192,21165,1,0,0:0:0:0:
64,192,21251,1,0,0:0:0:0:
192,192,21337,1,0,0:0:0:0:
448,192,21510,128,0,21553:0:0:0:0:
192,192,21596,1,0,0:0:0:0:
64,192,21682,1,0,0:0:0:0:
192,192,21855,1,0,0:0:0:0:
448,192,21941,1,0,0:0:0:0:
320,192,22027,1,0,0:0:0:0:
64,192,22199,1,0,0:0:0:0:
192,192,22286,1,0,0:0:0:0:
448,192,22372,128,0,22415:0:0:0:0:
192,192,22544,1,0,0:0:0:0:
448,192,22630,1,0,0:0:0:0:
64,192,22717,1,0,0:0:0:0:
320,192,22717,1,0,0:0:0:0:
192,192,22889,1,0,0:0:0:0:
64,192,22975,1,0,0:0:0:0:
320,192,23061,1,0,0:0:0:0:
64,192,23234,1,0,0:0:0:0:
192,192,23320,1,0,0:0:0:0:
448,192,23406,128,0,23492:0:0:0:0:
64,192,23579,1,0,0:0:0:0:
448,192,23665,1,0,0:0:0:0:
192,192,23751,1,0,0:0:0:0:
320,192,23924,1,0,0:0:0:0:
448,192,24010,1,0,0:0:0:0:
192,192,24096,1,0,0:0:0:0:
64,192,24096,1,0,0:0:0:0:
448,192,24268,128,0,24355:0:0:0:0:
192,192,24355,1,0,0:0:0:0:
64,192,24441,1,0,0:0:0:0:
192,192,24613,1,0,0:0:0:0:
448,192,24699,1,0,0:0:0:0:
64,192,24786,1,0,0:0:0:0:
320,192,24786,1,0,0:0:0:0:
192,192,24958,1,0,0:0:0:0:
64,192,25044,1,0,0:0:0:0:
448,192,25130,128,0,25217:0:0:0:0:
64,192,25303,1,0,0:0:0:0:
192,192,25389,1,0,0:0:0:0:
320,192,25475,1,0,0:0:0:0:
448,192,25475,1,0,0:0:0:0:
192,192,25648,1,0,0:0:0:0:
448,192,25734,1,0,0:0:0:0:
320,192,25820,1,0,0:0:0:0:
192,192,25820,1,0,0:0:0:0:
64,192,25992,1,0,0:0:0:0:
192,192,26079,1,0,0:0:0:0:
448,192,26165,128,0,26208:0:0:0:0:
64,192,26337,1,0,0:0:0:0:
320,192,26337,1,0,0:0:0:0:
448,192,26424,1,0,0:0:0:0:
192,192,26510,1,0,0:0:0:0:
64,192,26510,1,0,0:0:0:0:
320,192,26682,1,0,0:0:0:0:
192,192,26855,1,0,0:0:0:0:
448,192,26855,1,0,0:0:0:0:
448,192,27027,128,0,27070:0:0:0:0:
320,192,27027,1,0,0:0:0:0:
64,192,27199,1,0,0:0:0:0:
192,192,27372,1,0,0:0:0:0:
448,192,27372,1,0,0:0:0:0:
320,192,27544,1,0,0:0:0:0:
192,192,27630,1,0,0:0:0:0:
320,192,27717,1,0,0:0:0:0:
64,192,27803,1,0,0:0:0:0:
448,192,27889,128,0,27932:0:0:0:0:
192,192,27889,1,0,0:0:0:0:
192,192,28061,1,0,0:0:0:0:
448,192,28148,1,0,0:0:0:0:
64,192,28234,1,0,0:0:0:0:
320,192,28234,1,0,0:0:0:0:
192,192,28406,1,0,0:0:0:0:
448,192,28492,1,0,0:0:0:0:
320,192,28579,1,0,0:0:0:0:
64,192,28579,1,0,0:0:0:0:
192,192,28751,1,0,0:0:0:0:
320,192,28837,1,0,0:0:0:0:
448,192,28924,128,0,29010:0:0:0:0:
192,192,28924,1,0,0:0:0:0:
64,192,29010,1,0,0:0:0:0:
192,192,29096,1,0,0:0:0:0:
320,192,29096,1,0,0:0:0:0:
64,192,29268,1,0,0:0:0:0:
448,192,29268,1,0,0:0:0:0:
320,192,29441,1,0,0:0:0:0:
448,192,29527,1,0,0:0:0:0:
64,192,29613,1,0,0:0:0:0:
192,192,29613,1,0,0:0:0:0:
448,192,29786,128,0,29872:0:0:0:0:
192,192,29786,1,0,0:0:0:0:
192,192,29958,1,0,0:0:0:0:
320,192,29958,1,0,0:0:0:0:
64,192,30130,1,0,0:0:0:0:
448,192,30130,1,0,0:0:0:0:
320,192,30217,1,0,0:0:0:0:
448,192,30303,1,0,0:0:0:0:
192,192,30389,1,0,0:0:0:0:
64,192,30389,1,0,0:0:0:0:
320,192,30475,1,0,0:0:0:0:
448,192,30648,128,0,30734:0:0:0:0:
192,192,30648,1,0,0:0:0:0:
64,192,30648,1,0,0:0:0:0:
64,192,30820,1,0,0:0:0:0:
448,192,30906,1,0,0:0:0:0:
320,192,30906,1,0,0:0:0:0:
64,192,30992,128,0,31036:0:0:0:0:
192,192,30992,128,0,31036:0:0:0:0:
448,192,30992,128,0,31036:0:0:0:0:
64,192,31165,1,0,0:0:0:0:
320,192,31165,1,0,0:0:0:0:
448,192,31222,1,0,0:0:0:0:
192,192,31280,1,0,0:0:0:0:
448,192,31337,1,0,0:0:0:0:
320,192,31395,1,0,0:0:0:0:
192,192,31452,1,0,0:0:0:0:
320,192,31510,1,0,0:0:0:0:
192,192,31596,1,0,0:0:0:0:
64,192,31682,1,0,0:0:0:0:
448,192,31682,1,0,0:0:0:0:
192,192,31768,1,0,0:0:0:0:
64,192,31855,1,0,0:0:0:0:
448,192,31855,1,0,0:0:0:0:
320,192,31855,1,0,0:0:0:0:
448,192,32027,1,0,0:0:0:0:
192,192,32027,1,0,0:0:0:0:
320,192,32199,1,0,0:0:0:0:
448,192,32242,1,0,0:0:0:0:
64,192,32286,1,0,0:0:0:0:
192,192,32329,1,0,0:0:0:0:
448,192,32372,1,0,0:0:0:0:
320,192,32372,1,0,0:0:0:0:
448,192,32544,1,0,0:0:0:0:
320,192,32544,1,0,0:0:0:0:
64,192,32544,1,0,0:0:0:0:
192,192,32602,1,0,0:0:0:0:
320,192,32659,1,0,0:0:0:0:
192,192,32717,1,0,0:0:0:0:
320,192,32803,1,0,0:0:0:0:
192,192,32889,1,0,0:0:0:0:
64,192,32889,1,0,0:0:0:0:
320,192,32975,1,0,0:0:0:0:
448,192,33061,1,0,0:0:0:0:
320,192,33148,1,0,0:0:0:0:
448,192,33234,1,0,0:0:0:0:
64,192,33234,1,0,0:0:0:0:
192,192,33234,1,0,0:0:0:0:
320,192,33406,128,0,33449:0:0:0:0:
192,192,33406,128,0,33449:0:0:0:0:
192,192,33579,1,0,0:0:0:0:
64,192,33751,128,0,33794:0:0:0:0:
448,192,33751,128,0,33794:0:0:0:0:
64,192,33924,1,0,0:0:0:0:
320,192,33924,1,0,0:0:0:0:
448,192,33981,1,0,0:0:0:0:
192,192,34038,1,0,0:0:0:0:
64,192,34096,1,0,0:0:0:0:
320,192,34153,1,0,0:0:0:0:
192,192,34211,1,0,0:0:0:0:
320,192,34268,1,0,0:0:0:0:
448,192,34311,1,0,0:0:0:0:
64,192,34355,1,0,0:0:0:0:
192,192,34383,1,0,0:0:0:0:
448,192,34441,1,0,0:0:0:0:
320,192,34441,1,0,0:0:0:0:
192,192,34527,1,0,0:0:0:0:
64,192,34613,1,0,0:0:0:0:
320,192,34613,1,0,0:0:0:0:
448,192,34786,1,0,0:0:0:0:
64,192,34786,1,0,0:0:0:0:
320,192,34843,1,0,0:0:0:0:
192,192,34901,1,0,0:0:0:0:
64,192,34958,1,0,0:0:0:0:
448,192,34958,1,0,0:0:0:0:
320,192,35001,1,0,0:0:0:0:
192,192,35044,1,0,0:0:0:0:
448,192,35087,1,0,0:0:0:0:
64,192,35130,1,0,0:0:0:0:
320,192,35130,1,0,0:0:0:0:
192,192,35303,1,0,0:0:0:0:
64,192,35303,1,0,0:0:0:0:
320,192,35346,1,0,0:0:0:0:
448,192,35389,1,0,0:0:0:0:
192,192,35432,1,0,0:0:0:0:
64,192,35475,1,0,0:0:0:0:
320,192,35533,1,0,0:0:0:0:
192,192,35590,1,0,0:0:0:0:
64,192,35648,1,0,0:0:0:0:
448,192,35648,1,0,0:0:0:0:
320,192,35734,1,0,0:0:0:0:
192,192,35734,1,0,0:0:0:0:
448,192,35820,1,0,0:0:0:0:
320,192,35906,1,0,0:0:0:0:
448,192,35992,1,0,0:0:0:0:
64,192,35992,1,0,0:0:0:0:
192,192,36079,1,0,0:0:0:0:
448,192,36165,1,0,0:0:0:0:
320,192,36165,128,0,36208:0:0:0:0:
64,192,36165,128,0,36208:0:0:0:0:
64,192,36337,1,0,0:0:0:0:
448,192,36510,128,0,36553:0:0:0:0:
192,192,36510,128,0,36553:0:0:0:0:
320,192,36682,1,0,0:0:0:0:
64,192,36682,1,0,0:0:0:0:
192,192,36740,1,0,0:0:0:0:
448,192,36797,1,0,0:0:0:0:
320,192,36855,1,0,0:0:0:0:
192,192,36941,1,0,0:0:0:0:
448,192,37027,1,0,0:0:0:0:
64,192,37113,1,0,0:0:0:0:
448,192,37199,1,0,0:0:0:0:
192,192,37286,1,0,0:0:0:0:
448,192,37372,1,0,0:0:0:0:
320,192,37372,1,0,0:0:0:0:
192,192,37458,1,0,0:0:0:0:
64,192,37544,1,0,0:0:0:0:
320,192,37544,1,0,0:0:0:0:
448,192,37602,1,0,0:0:0:0:
192,192,37659,1,0,0:0:0:0:
320,192,37717,1,0,0:0:0:0:
448,192,37760,1,0,0:0:0:0:
64,192,37803,1,0,0:0:0:0:
192,192,37846,1,0,0:0:0:0:
448,192,37889,1,0,0:0:0:0:
320,192,37889,1,0,0:0:0:0:
192,192,38061,1,0,0:0:0:0:
64,192,38105,1,0,0:0:0:0:
320,192,38148,1,0,0:0:0:0:
448,192,38191,1,0,0:0:0:0:
192,192,38234,1,0,0:0:0:0:
64,192,38291,1,0,0:0:0:0:
320,192,38349,1,0,0:0:0:0:
448,192,38406,1,0,0:0:0:0:
192,192,38406,1,0,0:0:0:0:
64,192,38492,1,0,0:0:0:0:
192,192,38579,1,0,0:0:0:0:
320,192,38665,1,0,0:0:0:0:
448,192,38751,1,0,0:0:0:0:
192,192,38751,1,0,0:0:0:0:
64,192,38751,1,0,0:0:0:0:
320,192,38924,128,0,38967:0:0:0:0:
64,192,38924,128,0,38967:0:0:0:0:
192,192,39096,1,0,0:0:0:0:
320,192,39268,128,0,39311:0:0:0:0:
192,192,39268,128,0,39311:0:0:0:0:
320,192,39441,1,0,0:0:0:0:
448,192,39484,1,0,0:0:0:0:
192,192,39527,1,0,0:0:0:0:
64,192,39570,1,0,0:0:0:0:
320,192,39613,1,0,0:0:0:0:
448,192,39613,1,0,0:0:0:0:
192,192,39699,1,0,0:0:0:0:
320,192,39786,1,0,0:0:0:0:
64,192,39872,1,0,0:0:0:0:
320,192,39958,1,0,0:0:0:0:
192,192,39958,1,0,0:0:0:0:
64,192,40044,1,0,0:0:0:0:
448,192,40130,1,0,0:0:0:0:
320,192,40130,1,0,0:0:0:0:
448,192,40303,128,0,40346:0:0:0:0:
192,192,40303,128,0,40346:0:0:0:0:
320,192,40475,1,0,0:0:0:0:
320,192,40648,128,0,40691:0:0:0:0:
64,192,40648,128,0,40691:0:0:0:0:
448,192,40820,1,0,0:0:0:0:
192,192,40820,1,0,0:0:0:0:
448,192,40992,1,0,0:0:0:0:
192,192,40992,1,0,0:0:0:0:
320,192,41165,1,0,0:0:0:0:
64,192,41165,1,0,0:0:0:0:
448,192,41251,1,0,0:0:0:0:
64,192,41337,1,0,0:0:0:0:
448,192,41424,1,0,0:0:0:0:
192,192,41424,1,0,0:0:0:0:
320,192,41510,1,0,0:0:0:0:
448,192,41510,1,0,0:0:0:0:
64,192,41510,1,0,0:0:0:0:
448,192,41682,1,0,0:0:0:0:
192,192,41682,1,0,0:0:0:0:
320,192,41855,1,0,0:0:0:0:
64,192,41855,1,0,0:0:0:0:
448,192,41941,1,0,0:0:0:0:
192,192,41941,1,0,0:0:0:0:
448,192,42027,1,0,0:0:0:0:
320,192,42027,1,0,0:0:0:0:
64,192,42027,1,0,0:0:0:0:
192,192,42199,1,0,0:0:0:0:
320,192,42242,1,0,0:0:0:0:
448,192,42286,1,0,0:0:0:0:
192,192,42329,1,0,0:0:0:0:
64,192,42372,1,0,0:0:0:0:
192,192,42429,1,0,0:0:0:0:
320,192,42487,1,0,0:0:0:0:
64,192,42544,1,0,0:0:0:0:
448,192,42630,1,0,0:0:0:0:
320,192,42717,1,0,0:0:0:0:
64,192,42717,1,0,0:0:0:0:
448,192,42803,1,0,0:0:0:0:
192,192,42889,1,0,0:0:0:0:
64,192,42889,1,0,0:0:0:0:
448,192,43061,1,0,0:0:0:0:
64,192,43061,1,0,0:0:0:0:
192,192,43119,1,0,0:0:0:0:
320,192,43176,1,0,0:0:0:0:
64,192,43234,1,0,0:0:0:0:
192,192,43277,1,0,0:0:0:0:
448,192,43320,1,0,0:0:0:0:
320,192,43363,1,0,0:0:0:0:
192,192,43406,1,0,0:0:0:0:
64,192,43406,1,0,0:0:0:0:
192,192,43579,1,0,0:0:0:0:
64,192,43579,1,0,0:0:0:0:
320,192,43622,1,0,0:0:0:0:
448,192,43665,1,0,0:0:0:0:
192,192,43708,1,0,0:0:0:0:
64,192,43751,1,0,0:0:0:0:
320,192,43809,1,0,0:0:0:0:
192,192,43866,1,0,0:0:0:0:
448,192,43924,1,0,0:0:0:0:
320,192,43924,1,0,0:0:0:0:
64,192,44010,1,0,0:0:0:0:
448,192,44096,1,0,0:0:0:0:
192,192,44182,1,0,0:0:0:0:
448,192,44268,1,0,0:0:0:0:
320,192,44268,1,0,0:0:0:0:
64,192,44268,1,0,0:0:0:0:
192,192,44441,128,0,44484:0:0:0:0:
320,192,44441,128,0,44484:0:0:0:0:
64,192,44613,1,0,0:0:0:0:
448,192,44786,128,0,44829:0:0:0:0:
64,192,44786,128,0,44829:0:0:0:0:
320,192,44958,1,0,0:0:0:0:
448,192,45001,1,0,0:0:0:0:
192,192,45044,1,0,0:0:0:0:
64,192,45087,1,0,0:0:0:0:
448,192,45130,1,0,0:0:0:0:
320,192,45130,1,0,0:0:0:0:
192,192,45217,1,0,0:0:0:0:
448,192,45303,1,0,0:0:0:0:
64,192,45389,1,0,0:0:0:0:
448,192,45475,1,0,0:0:0:0:
64,192,45561,1,0,0:0:0:0:
448,192,45648,1,0,0:0:0:0:
192,192,45648,1,0,0:0:0:0:
448,192,45820,1,0,0:0:0:0:
320,192,45820,1,0,0:0:0:0:
64,192,45820,1,0,0:0:0:0:
192,192,45878,1,0,0:0:0:0:
320,192,45935,1,0,0:0:0:0:
64,192,45992,1,0,0:0:0:0:
192,192,46036,1,0,0:0:0:0:
448,192,46079,1,0,0:0:0:0:
320,192,46122,1,0,0:0:0:0:
192,192,46165,1,0,0:0:0:0:
64,192,46165,1,0,0:0:0:0:
448,192,46337,1,0,0:0:0:0:
320,192,46380,1,0,0:0:0:0:
192,192,46424,1,0,0:0:0:0:
64,192,46467,1,0,0:0:0:0:
320,192,46510,1,0,0:0:0:0:
448,192,46510,1,0,0:0:0:0:
192,192,46596,1,0,0:0:0:0:
448,192,46682,1,0,0:0:0:0:
64,192,46682,1,0,0:0:0:0:
320,192,46768,1,0,0:0:0:0:
192,192,46768,1,0,0:0:0:0:
64,192,46855,1,0,0:0:0:0:
192,192,46941,1,0,0:0:0:0:
64,192,47027,1,0,0:0:0:0:
448,192,47027,1,0,0:0:0:0:
320,192,47027,1,0,0:0:0:0:
192,192,47113,1,0,0:0:0:0:
320,192,47199,128,0,47242:0:0:0:0:
64,192,47199,128,0,47242:0:0:0:0:
448,192,47372,1,0,0:0:0:0:
448,192,47544,128,0,47587:0:0:0:0:
192,192,47544,128,0,47587:0:0:0:0:
320,192,47717,1,0,0:0:0:0:
448,192,47774,1,0,0:0:0:0:
192,192,47832,1,0,0:0:0:0:
64,192,47889,1,0,0:0:0:0:
320,192,47889,1,0,0:0:0:0:
448,192,48061,1,0,0:0:0:0:
192,192,48061,1,0,0:0:0:0:
320,192,48148,1,0,0:0:0:0:
448,192,48234,1,0,0:0:0:0:
64,192,48234,1,0,0:0:0:0:
192,192,48291,1,0,0:0:0:0:
320,192,48349,1,0,0:0:0:0:
448,192,48406,1,0,0:0:0:0:
64,192,48406,1,0,0:0:0:0:
448,192,48579,1,0,0:0:0:0:
320,192,48579,1,0,0:0:0:0:
192,192,48579,1,0,0:0:0:0:
64,192,48665,1,0,0:0:0:0:
448,192,48751,1,0,0:0:0:0:
320,192,48809,1,0,0:0:0:0:
192,192,48866,1,0,0:0:0:0:
64,192,48924,1,0,0:0:0:0:
448,192,48924,1,0,0:0:0:0:
192,192,49010,1,0,0:0:0:0:
320,192,49096,1,0,0:0:0:0:
64,192,49096,1,0,0:0:0:0:
448,192,49182,1,0,0:0:0:0:
192,192,49268,1,0,0:0:0:0:
320,192,49326,1,0,0:0:0:0:
448,192,49383,1,0,0:0:0:0:
192,192,49441,1,0,0:0:0:0:
64,192,49441,1,0,0:0:0:0:
320,192,49527,1,0,0:0:0:0:
192,192,49613,1,0,0:0:0:0:
320,192,49699,1,0,0:0:0:0:
64,192,49786,1,0,0:0:0:0:
448,192,49786,1,0,0:0:0:0:
192,192,49843,1,0,0:0:0:0:
320,192,49901,1,0,0:0:0:0:
448,192,49958,1,0,0:0:0:0:
64,192,49958,1,0,0:0:0:0:
192,192,50044,1,0,0:0:0:0:
320,192,50130,1,0,0:0:0:0:
448,192,50130,1,0,0:0:0:0:
192,192,50217,1,0,0:0:0:0:
448,192,50303,1,0,0:0:0:0:
64,192,50303,1,0,0:0:0:0:
320,192,50303,1,0,0:0:0:0:
192,192,50389,1,0,0:0:0:0:
64,192,50475,1,0,0:0:0:0:
320,192,50475,1,0,0:0:0:0:
192,192,50561,1,0,0:0:0:0:
448,192,50561,1,0,0:0:0:0:
320,192,50648,1,0,0:0:0:0:
192,192,50734,1,0,0:0:0:0:
64,192,50734,1,0,0:0:0:0:
448,192,50820,1,0,0:0:0:0:
320,192,50820,1,0,0:0:0:0:
192,192,50906,1,0,0:0:0:0:
64,192,50906,1,0,0:0:0:0:
320,192,50992,1,0,0:0:0:0:
448,192,51079,1,0,0:0:0:0:
192,192,51079,1,0,0:0:0:0:
64,192,51165,1,0,0:0:0:0:
320,192,51165,1,0,0:0:0:0:
192,192,51251,1,0,0:0:0:0:
448,192,51251,1,0,0:0:0:0:
64,192,51337,1,0,0:0:0:0:
448,192,51424,1,0,0:0:0:0:
320,192,51424,1,0,0:0:0:0:
192,192,51510,1,0,0:0:0:0:
64,192,51510,1,0,0:0:0:0:
448,192,51596,1,0,0:0:0:0:
320,192,51596,1,0,0:0:0:0:
192,192,51682,1,0,0:0:0:0:
64,192,51682,1,0,0:0:0:0:
320,192,51740,1,0,0:0:0:0:
448,192,51740,1,0,0:0:0:0:
192,192,51797,1,0,0:0:0:0:
320,192,51855,1,0,0:0:0:0:
448,192,51855,1,0,0:0:0:0:
64,192,51912,1,0,0:0:0:0:
192,192,51969,1,0,0:0:0:0:
448,192,52027,1,0,0:0:0:0:
320,192,52027,1,0,0:0:0:0:
64,192,52084,1,0,0:0:0:0:
192,192,52142,1,0,0:0:0:0:
448,192,52199,1,0,0:0:0:0:
320,192,52257,1,0,0:0:0:0:
192,192,52314,1,0,0:0:0:0:
64,192,52372,128,0,52978:0:0:0:0:
320,192,52447,128,0,52764:0:0:0:0:
448,192,52709,128,0,52978:0:0:0:0:
64,192,53061,128,0,53751:0:0:0:0:
192,192,53061,128,0,53751:0:0:0:0:
320,192,53061,128,0,53751:0:0:0:0:
448,192,53061,128,0,53751:0:0:0:0:
448,192,54441,1,0,0:0:0:0:
320,192,54441,1,0,0:0:0:0:
192,192,54441,1,0,0:0:0:0:
64,192,54441,1,0,0:0:0:0:
64,192,54527,1,0,0:0:0:0:
192,192,54613,1,0,0:0:0:0:
320,192,54699,1,0,0:0:0:0:
448,192,54785,1,0,0:0:0:0:
320,192,54872,1,0,0:0:0:0:
192,192,54958,1,0,0:0:0:0:
448,192,54958,1,0,0:0:0:0:
320,192,54958,1,0,0:0:0:0:
64,192,54958,1,0,0:0:0:0:
192,192,55044,1,0,0:0:0:0:
64,192,55130,1,0,0:0:0:0:
192,192,55216,1,0,0:0:0:0:
320,192,55303,1,0,0:0:0:0:
448,192,55389,1,0,0:0:0:0:
64,192,55475,1,0,0:0:0:0:
448,192,55475,1,0,0:0:0:0:
320,192,55475,1,0,0:0:0:0:
192,192,55532,1,0,0:0:0:0:
320,192,55590,1,0,0:0:0:0:
192,192,55647,1,0,0:0:0:0:
320,192,55705,1,0,0:0:0:0:
448,192,55762,1,0,0:0:0:0:
192,192,55820,1,0,0:0:0:0:
320,192,55877,1,0,0:0:0:0:
64,192,55935,1,0,0:0:0:0:
192,192,55992,1,0,0:0:0:0:
448,192,56050,1,0,0:0:0:0:
320,192,56107,1,0,0:0:0:0:
192,192,56165,1,0,0:0:0:0:
320,192,57199,1,0,0:0:0:0:
448,192,57199,1,0,0:0:0:0:
192,192,57199,1,0,0:0:0:0:
64,192,57199,1,0,0:0:0:0:
64,192,57285,1,0,0:0:0:0:
192,192,57371,1,0,0:0:0:0:
320,192,57457,1,0,0:0:0:0:
192,192,57543,1,0,0:0:0:0:
448,192,57630,1,0,0:0:0:0:
320,192,57630,1,0,0:0:0:0:
448,192,57716,1,0,0:0:0:0:
320,192,57716,1,0,0:0:0:0:
192,192,57716,1,0,0:0:0:0:
64,192,57716,1,0,0:0:0:0:
64,192,57802,1,0,0:0:0:0:
320,192,57888,1,0,0:0:0:0:
448,192,57974,1,0,0:0:0:0:
320,192,58061,1,0,0:0:0:0:
192,192,58147,1,0,0:0:0:0:
64,192,58147,1,0,0:0:0:0:
448,192,58233,1,0,0:0:0:0:
192,192,58233,1,0,0:0:0:0:
64,192,58233,1,0,0:0:0:0:
320,192,58290,1,0,0:0:0:0:
192,192,58348,1,0,0:0:0:0:
320,192,58405,1,0,0:0:0:0:
64,192,58463,1,0,0:0:0:0:
192,192,58520,1,0,0:0:0:0:
448,192,58578,1,0,0:0:0:0:
320,192,58635,1,0,0:0:0:0:
192,192,58693,1,0,0:0:0:0:
448,192,58750,1,0,0:0:0:0:
320,192,58808,1,0,0:0:0:0:
192,192,58865,1,0,0:0:0:0:
64,192,58923,1,0,0:0:0:0:
448,192,58923,1,0,0:0:0:0:
320,192,59956,1,0,0:0:0:0:
448,192,59956,1,0,0:0:0:0:
64,192,59956,1,0,0:0:0:0:
192,192,59956,1,0,0:0:0:0:
64,192,60042,1,0,0:0:0:0:
192,192,60128,1,0,0:0:0:0:
448,192,60214,1,0,0:0:0:0:
320,192,60300,1,0,0:0:0:0:
192,192,60387,1,0,0:0:0:0:
64,192,60387,1,0,0:0:0:0:
448,192,60473,1,0,0:0:0:0:
320,192,60473,1,0,0:0:0:0:
64,192,60473,1,0,0:0:0:0:
448,192,60559,1,0,0:0:0:0:
320,192,60588,1,0,0:0:0:0:
64,192,60645,1,0,0:0:0:0:
192,192,60703,1,0,0:0:0:0:
320,192,60760,1,0,0:0:0:0:
64,192,60818,1,0,0:0:0:0:
320,192,60904,1,0,0:0:0:0:
448,192,60990,1,0,0:0:0:0:
64,192,60990,1,0,0:0:0:0:
192,192,60990,1,0,0:0:0:0:
320,192,61047,1,0,0:0:0:0:
64,192,61076,1,0,0:0:0:0:
192,192,61105,1,0,0:0:0:0:
448,192,61162,1,0,0:0:0:0:
320,192,61220,1,0,0:0:0:0:
192,192,61249,1,0,0:0:0:0:
448,192,61292,1,0,0:0:0:0:
320,192,61335,1,0,0:0:0:0:
192,192,61378,1,0,0:0:0:0:
64,192,61421,1,0,0:0:0:0:
320,192,61464,1,0,0:0:0:0:
448,192,61507,1,0,0:0:0:0:
192,192,61550,1,0,0:0:0:0:
64,192,61593,1,0,0:0:0:0:
448,192,61637,1,0,0:0:0:0:
320,192,61680,1,0,0:0:0:0:
448,192,62714,1,0,0:0:0:0:
192,192,62714,1,0,0:0:0:0:
64,192,62714,1,0,0:0:0:0:
320,192,62714,128,0,63403:0:0:0:0:
64,192,63058,1,0,0:0:0:0:
448,192,63058,1,0,0:0:0:0:
448,192,63403,128,0,64007:0:0:0:0:
192,192,63403,1,0,0:0:0:0:
64,192,63576,1,0,0:0:0:0:
192,192,63576,1,0,0:0:0:0:
320,192,63748,1,0,0:0:0:0:
64,192,63748,1,0,0:0:0:0:
448,192,64093,128,0,64782:0:0:0:0:
320,192,64093,128,0,64782:0:0:0:0:
192,192,64093,128,0,64782:0:0:0:0:
64,192,64093,128,0,64782:0:0:0:0:
448,192,65472,1,0,0:0:0:0:
192,192,65472,1,0,0:0:0:0:
64,192,65472,1,0,0:0:0:0:
320,192,65472,1,0,0:0:0:0:
64,192,65558,1,0,0:0:0:0:
192,192,65644,1,0,0:0:0:0:
448,192,65730,1,0,0:0:0:0:
192,192,65816,1,0,0:0:0:0:
448,192,65903,1,0,0:0:0:0:
448,192,65989,1,0,0:0:0:0:
320,192,65989,1,0,0:0:0:0:
192,192,65989,1,0,0:0:0:0:
64,192,65989,1,0,0:0:0:0:
64,192,66075,1,0,0:0:0:0:
320,192,66161,1,0,0:0:0:0:
192,192,66247,1,0,0:0:0:0:
448,192,66334,1,0,0:0:0:0:
320,192,66420,1,0,0:0:0:0:
448,192,66506,1,0,0:0:0:0:
320,192,66506,1,0,0:0:0:0:
64,192,66506,1,0,0:0:0:0:
192,192,66506,1,0,0:0:0:0:
64,192,66592,1,0,0:0:0:0:
192,192,66621,1,0,0:0:0:0:
448,192,66678,1,0,0:0:0:0:
320,192,66736,1,0,0:0:0:0:
64,192,66793,1,0,0:0:0:0:
320,192,66851,1,0,0:0:0:0:
192,192,66908,1,0,0:0:0:0:
448,192,66966,1,0,0:0:0:0:
320,192,67023,1,0,0:0:0:0:
64,192,67081,1,0,0:0:0:0:
192,192,67138,1,0,0:0:0:0:
448,192,68234,1,0,0:0:0:0:
320,192,68234,1,0,0:0:0:0:
192,192,68234,1,0,0:0:0:0:
64,192,68234,1,0,0:0:0:0:
320,192,68320,1,0,0:0:0:0:
64,192,68406,1,0,0:0:0:0:
192,192,68492,1,0,0:0:0:0:
448,192,68578,1,0,0:0:0:0:
192,192,68665,1,0,0:0:0:0:
448,192,68751,1,0,0:0:0:0:
320,192,68751,1,0,0:0:0:0:
192,192,68751,1,0,0:0:0:0:
64,192,68751,1,0,0:0:0:0:
320,192,68837,1,0,0:0:0:0:
64,192,68923,1,0,0:0:0:0:
448,192,69009,1,0,0:0:0:0:
320,192,69096,1,0,0:0:0:0:
64,192,69182,1,0,0:0:0:0:
448,192,69268,1,0,0:0:0:0:
320,192,69268,1,0,0:0:0:0:
192,192,69268,1,0,0:0:0:0:
64,192,69268,1,0,0:0:0:0:
448,192,69354,1,0,0:0:0:0:
320,192,69383,1,0,0:0:0:0:
64,192,69440,1,0,0:0:0:0:
320,192,69505,1,0,0:0:0:0:
192,192,69555,1,0,0:0:0:0:
448,192,69613,1,0,0:0:0:0:
320,192,69677,1,0,0:0:0:0:
64,192,69728,1,0,0:0:0:0:
192,192,69785,1,0,0:0:0:0:
320,192,69828,1,0,0:0:0:0:
448,192,69871,1,0,0:0:0:0:
192,192,69915,1,0,0:0:0:0:
64,192,69958,1,0,0:0:0:0:
320,192,70993,1,0,0:0:0:0:
448,192,70993,1,0,0:0:0:0:
64,192,70993,1,0,0:0:0:0:
192,192,70993,1,0,0:0:0:0:
64,192,71079,1,0,0:0:0:0:
192,192,71165,1,0,0:0:0:0:
320,192,71251,1,0,0:0:0:0:
192,192,71337,1,0,0:0:0:0:
320,192,71424,1,0,0:0:0:0:
448,192,71424,1,0,0:0:0:0:
448,192,71510,1,0,0:0:0:0:
320,192,71510,1,0,0:0:0:0:
192,192,71510,1,0,0:0:0:0:
64,192,71567,1,0,0:0:0:0:
192,192,71625,1,0,0:0:0:0:
320,192,71682,1,0,0:0:0:0:
64,192,71740,1,0,0:0:0:0:
192,192,71797,1,0,0:0:0:0:
448,192,71855,1,0,0:0:0:0:
320,192,71941,1,0,0:0:0:0:
448,192,72027,1,0,0:0:0:0:
320,192,72027,1,0,0:0:0:0:
64,192,72027,1,0,0:0:0:0:
192,192,72084,1,0,0:0:0:0:
64,192,72142,1,0,0:0:0:0:
320,192,72199,1,0,0:0:0:0:
192,192,72257,1,0,0:0:0:0:
448,192,72314,1,0,0:0:0:0:
320,192,72372,1,0,0:0:0:0:
64,192,72429,1,0,0:0:0:0:
192,192,72487,1,0,0:0:0:0:
448,192,72544,1,0,0:0:0:0:
320,192,72544,1,0,0:0:0:0:
64,192,72602,1,0,0:0:0:0:
192,192,72659,1,0,0:0:0:0:
448,192,72717,1,0,0:0:0:0:
320,192,72717,1,0,0:0:0:0:
192,192,72774,1,0,0:0:0:0:
64,192,72832,1,0,0:0:0:0:
320,192,72889,1,0,0:0:0:0:
192,192,72947,1,0,0:0:0:0:
448,192,73004,1,0,0:0:0:0:
320,192,73061,1,0,0:0:0:0:
64,192,73119,1,0,0:0:0:0:
192,192,73176,1,0,0:0:0:0:
448,192,73234,1,0,0:0:0:0:
320,192,73234,1,0,0:0:0:0:
64,192,73291,1,0,0:0:0:0:
192,192,73349,1,0,0:0:0:0:
448,192,73406,1,0,0:0:0:0:
320,192,73406,1,0,0:0:0:0:
192,192,73464,1,0,0:0:0:0:
64,192,73521,1,0,0:0:0:0:
448,192,73579,1,0,0:0:0:0:
192,192,73636,1,0,0:0:0:0:
320,192,73694,1,0,0:0:0:0:
64,192,73751,1,0,0:0:0:0:
320,192,73809,1,0,0:0:0:0:
448,192,73866,1,0,0:0:0:0:
192,192,73924,1,0,0:0:0:0:
64,192,73924,1,0,0:0:0:0:
320,192,73981,1,0,0:0:0:0:
448,192,74038,1,0,0:0:0:0:
192,192,74096,1,0,0:0:0:0:
64,192,74096,1,0,0:0:0:0:
448,192,74153,1,0,0:0:0:0:
320,192,74211,1,0,0:0:0:0:
64,192,74268,1,0,0:0:0:0:
320,192,74326,1,0,0:0:0:0:
192,192,74383,1,0,0:0:0:0:
64,192,74441,1,0,0:0:0:0:
320,192,74498,1,0,0:0:0:0:
448,192,74556,1,0,0:0:0:0:
64,192,74613,1,0,0:0:0:0:
192,192,74613,1,0,0:0:0:0:
320,192,74671,1,0,0:0:0:0:
448,192,74728,1,0,0:0:0:0:
192,192,74786,1,0,0:0:0:0:
64,192,74786,1,0,0:0:0:0:
448,192,74843,1,0,0:0:0:0:
320,192,74901,1,0,0:0:0:0:
192,192,74958,1,0,0:0:0:0:
64,192,75015,1,0,0:0:0:0:
320,192,75073,1,0,0:0:0:0:
192,192,75130,1,0,0:0:0:0:
64,192,75130,1,0,0:0:0:0:
448,192,75130,1,0,0:0:0:0:
320,192,75217,1,0,0:0:0:0:
192,192,75303,1,0,0:0:0:0:
64,192,75303,1,0,0:0:0:0:
320,192,75389,1,0,0:0:0:0:
448,192,75475,1,0,0:0:0:0:
64,192,75475,1,0,0:0:0:0:
192,192,75561,1,0,0:0:0:0:
448,192,75648,1,0,0:0:0:0:
320,192,75648,1,0,0:0:0:0:
64,192,75734,1,0,0:0:0:0:
192,192,75820,1,0,0:0:0:0:
448,192,75820,1,0,0:0:0:0:
320,192,75906,1,0,0:0:0:0:
192,192,75993,1,0,0:0:0:0:
448,192,75993,1,0,0:0:0:0:
320,192,76079,1,0,0:0:0:0:
192,192,76165,1,0,0:0:0:0:
64,192,76165,1,0,0:0:0:0:
448,192,76222,1,0,0:0:0:0:
320,192,76280,1,0,0:0:0:0:
448,192,76337,1,0,0:0:0:0:
64,192,76337,1,0,0:0:0:0:
192,192,76395,1,0,0:0:0:0:
64,192,76452,1,0,0:0:0:0:
448,192,76510,1,0,0:0:0:0:
320,192,76510,1,0,0:0:0:0:
192,192,76596,1,0,0:0:0:0:
64,192,76682,1,0,0:0:0:0:
448,192,76682,1,0,0:0:0:0:
192,192,76768,1,0,0:0:0:0:
64,192,76855,1,0,0:0:0:0:
320,192,76855,1,0,0:0:0:0:
192,192,76941,1,0,0:0:0:0:
448,192,77027,1,0,0:0:0:0:
320,192,77027,1,0,0:0:0:0:
192,192,77113,1,0,0:0:0:0:
448,192,77199,1,0,0:0:0:0:
320,192,77199,1,0,0:0:0:0:
64,192,77286,1,0,0:0:0:0:
192,192,77372,1,0,0:0:0:0:
448,192,77372,1,0,0:0:0:0:
320,192,77458,1,0,0:0:0:0:
192,192,77544,1,0,0:0:0:0:
64,192,77544,1,0,0:0:0:0:
448,192,77602,1,0,0:0:0:0:
320,192,77659,1,0,0:0:0:0:
448,192,77717,1,0,0:0:0:0:
64,192,77717,1,0,0:0:0:0:
192,192,77774,1,0,0:0:0:0:
64,192,77832,1,0,0:0:0:0:
448,192,77889,1,0,0:0:0:0:
320,192,77889,1,0,0:0:0:0:
192,192,77975,1,0,0:0:0:0:
64,192,78061,1,0,0:0:0:0:
320,192,78061,1,0,0:0:0:0:
192,192,78148,1,0,0:0:0:0:
448,192,78234,1,0,0:0:0:0:
320,192,78234,1,0,0:0:0:0:
64,192,78320,1,0,0:0:0:0:
448,192,78406,1,0,0:0:0:0:
192,192,78406,1,0,0:0:0:0:
320,192,78493,1,0,0:0:0:0:
192,192,78579,1,0,0:0:0:0:
64,192,78579,1,0,0:0:0:0:
320,192,78665,1,0,0:0:0:0:
64,192,78751,1,0,0:0:0:0:
192,192,78837,1,0,0:0:0:0:
448,192,78924,1,0,0:0:0:0:
320,192,78924,1,0,0:0:0:0:
64,192,78981,1,0,0:0:0:0:
192,192,79038,1,0,0:0:0:0:
448,192,79096,1,0,0:0:0:0:
64,192,79096,1,0,0:0:0:0:
320,192,79153,1,0,0:0:0:0:
448,192,79211,1,0,0:0:0:0:
192,192,79268,1,0,0:0:0:0:
64,192,79268,1,0,0:0:0:0:
320,192,79355,1,0,0:0:0:0:
448,192,79441,1,0,0:0:0:0:
64,192,79441,1,0,0:0:0:0:
192,192,79527,1,0,0:0:0:0:
448,192,79613,1,0,0:0:0:0:
320,192,79613,1,0,0:0:0:0:
64,192,79699,1,0,0:0:0:0:
192,192,79786,1,0,0:0:0:0:
448,192,79786,1,0,0:0:0:0:
320,192,79872,1,0,0:0:0:0:
192,192,79958,1,0,0:0:0:0:
64,192,79958,1,0,0:0:0:0:
320,192,80044,1,0,0:0:0:0:
448,192,80130,1,0,0:0:0:0:
64,192,80130,1,0,0:0:0:0:
192,192,80217,1,0,0:0:0:0:
448,192,80303,1,0,0:0:0:0:
320,192,80303,1,0,0:0:0:0:
64,192,80360,1,0,0:0:0:0:
192,192,80418,1,0,0:0:0:0:
64,192,80475,1,0,0:0:0:0:
448,192,80475,1,0,0:0:0:0:
320,192,80533,1,0,0:0:0:0:
448,192,80590,1,0,0:0:0:0:
192,192,80648,1,0,0:0:0:0:
64,192,80648,1,0,0:0:0:0:
320,192,80734,1,0,0:0:0:0:
64,192,80820,1,0,0:0:0:0:
448,192,80820,1,0,0:0:0:0:
192,192,80906,1,0,0:0:0:0:
448,192,80993,1,0,0:0:0:0:
320,192,80993,1,0,0:0:0:0:
64,192,80993,1,0,0:0:0:0:
192,192,81079,1,0,0:0:0:0:
448,192,81165,1,0,0:0:0:0:
320,192,81165,1,0,0:0:0:0:
192,192,81251,1,0,0:0:0:0:
64,192,81337,1,0,0:0:0:0:
448,192,81337,1,0,0:0:0:0:
320,192,81337,1,0,0:0:0:0:
192,192,81424,1,0,0:0:0:0:
64,192,81510,1,0,0:0:0:0:
320,192,81510,1,0,0:0:0:0:
448,192,81596,1,0,0:0:0:0:
320,192,81682,1,0,0:0:0:0:
192,192,81682,1,0,0:0:0:0:
64,192,81682,1,0,0:0:0:0:
448,192,81768,1,0,0:0:0:0:
192,192,81855,1,0,0:0:0:0:
64,192,81855,1,0,0:0:0:0:
320,192,81941,1,0,0:0:0:0:
448,192,82027,1,0,0:0:0:0:
192,192,82027,1,0,0:0:0:0:
64,192,82027,1,0,0:0:0:0:
320,192,82113,1,0,0:0:0:0:
448,192,82199,1,0,0:0:0:0:
64,192,82199,1,0,0:0:0:0:
192,192,82286,1,0,0:0:0:0:
448,192,82372,1,0,0:0:0:0:
320,192,82372,1,0,0:0:0:0:
64,192,82372,1,0,0:0:0:0:
192,192,82458,1,0,0:0:0:0:
448,192,82544,1,0,0:0:0:0:
320,192,82544,1,0,0:0:0:0:
192,192,82630,1,0,0:0:0:0:
64,192,82717,1,0,0:0:0:0:
448,192,82717,1,0,0:0:0:0:
320,192,82717,1,0,0:0:0:0:
192,192,82803,1,0,0:0:0:0:
64,192,82889,1,0,0:0:0:0:
448,192,82889,1,0,0:0:0:0:
320,192,82975,1,0,0:0:0:0:
192,192,83061,1,0,0:0:0:0:
64,192,83061,1,0,0:0:0:0:
448,192,83061,1,0,0:0:0:0:
320,192,83148,1,0,0:0:0:0:
192,192,83234,1,0,0:0:0:0:
64,192,83234,1,0,0:0:0:0:
320,192,83320,1,0,0:0:0:0:
448,192,83406,1,0,0:0:0:0:
64,192,83406,1,0,0:0:0:0:
192,192,83493,1,0,0:0:0:0:
320,192,83493,1,0,0:0:0:0:
448,192,83579,1,0,0:0:0:0:
64,192,83579,1,0,0:0:0:0:
192,192,83665,1,0,0:0:0:0:
320,192,83665,1,0,0:0:0:0:
64,192,83751,1,0,0:0:0:0:
448,192,83837,1,0,0:0:0:0:
320,192,83837,1,0,0:0:0:0:
192,192,83924,1,0,0:0:0:0:
64,192,83924,1,0,0:0:0:0:
448,192,84010,1,0,0:0:0:0:
320,192,84010,1,0,0:0:0:0:
64,192,84096,1,0,0:0:0:0:
192,192,84139,1,0,0:0:0:0:
320,192,84182,1,0,0:0:0:0:
448,192,84225,1,0,0:0:0:0:
192,192,84268,1,0,0:0:0:0:
320,192,84311,1,0,0:0:0:0:
64,192,84355,1,0,0:0:0:0:
192,192,84398,1,0,0:0:0:0:
448,192,84441,1,0,0:0:0:0:
320,192,84484,1,0,0:0:0:0:
64,192,84527,1,0,0:0:0:0:
448,192,84570,1,0,0:0:0:0:
192,192,84613,1,0,0:0:0:0:
320,192,84656,1,0,0:0:0:0:
64,192,84699,1,0,0:0:0:0:
448,192,84699,1,0,0:0:0:0:
192,192,84743,1,0,0:0:0:0:
448,192,84786,1,0,0:0:0:0:
320,192,84786,128,0,85130:0:0:0:0:
192,192,85130,1,0,0:0:0:0:
448,192,85173,1,0,0:0:0:0:
320,192,85217,1,0,0:0:0:0:
64,192,85260,1,0,0:0:0:0:
64,192,85475,1,0,0:0:0:0:
192,192,85533,1,0,0:0:0:0:
320,192,85561,1,0,0:0:0:0:
64,192,85604,1,0,0:0:0:0:
448,192,85648,1,0,0:0:0:0:
448,192,85734,1,0,0:0:0:0:
192,192,85820,1,0,0:0:0:0:
64,192,85820,1,0,0:0:0:0:
320,192,85906,1,0,0:0:0:0:
448,192,85906,1,0,0:0:0:0:
64,192,85992,1,0,0:0:0:0:
64,192,86079,1,0,0:0:0:0:
448,192,86165,1,0,0:0:0:0:
320,192,86165,1,0,0:0:0:0:
192,192,86165,1,0,0:0:0:0:
64,192,86251,1,0,0:0:0:0:
320,192,86337,1,0,0:0:0:0:
448,192,86395,1,0,0:0:0:0:
192,192,86452,1,0,0:0:0:0:
320,192,86510,1,0,0:0:0:0:
448,192,86510,1,0,0:0:0:0:
64,192,86567,1,0,0:0:0:0:
192,192,86625,1,0,0:0:0:0:
448,192,86682,1,0,0:0:0:0:
320,192,86682,1,0,0:0:0:0:
192,192,86768,1,0,0:0:0:0:
448,192,86854,1,0,0:0:0:0:
320,192,86912,1,0,0:0:0:0:
192,192,86969,1,0,0:0:0:0:
320,192,87027,1,0,0:0:0:0:
448,192,87027,1,0,0:0:0:0:
64,192,87084,1,0,0:0:0:0:
192,192,87142,1,0,0:0:0:0:
448,192,87199,1,0,0:0:0:0:
320,192,87199,1,0,0:0:0:0:
192,192,87286,1,0,0:0:0:0:
320,192,87372,1,0,0:0:0:0:
448,192,87429,1,0,0:0:0:0:
192,192,87487,1,0,0:0:0:0:
320,192,87544,1,0,0:0:0:0:
448,192,87544,1,0,0:0:0:0:
64,192,87602,1,0,0:0:0:0:
192,192,87659,1,0,0:0:0:0:
448,192,87717,1,0,0:0:0:0:
320,192,87717,1,0,0:0:0:0:
192,192,87803,1,0,0:0:0:0:
448,192,87889,1,0,0:0:0:0:
320,192,87946,1,0,0:0:0:0:
192,192,88004,1,0,0:0:0:0:
320,192,88061,1,0,0:0:0:0:
448,192,88061,1,0,0:0:0:0:
192,192,88148,1,0,0:0:0:0:
64,192,88234,1,0,0:0:0:0:
448,192,88234,1,0,0:0:0:0:
320,192,88234,1,0,0:0:0:0:
192,192,88320,1,0,0:0:0:0:
64,192,88406,1,0,0:0:0:0:
320,192,88406,1,0,0:0:0:0:
448,192,88464,1,0,0:0:0:0:
192,192,88521,1,0,0:0:0:0:
64,192,88579,1,0,0:0:0:0:
448,192,88579,1,0,0:0:0:0:
320,192,88579,1,0,0:0:0:0:
192,192,88665,1,0,0:0:0:0:
448,192,88751,1,0,0:0:0:0:
64,192,88751,1,0,0:0:0:0:
320,192,88837,1,0,0:0:0:0:
64,192,88923,128,0,88981:0:0:0:0:
320,192,88981,128,0,89038:0:0:0:0:
448,192,89038,128,0,89096:0:0:0:0:
64,192,89096,128,0,89153:0:0:0:0:
192,192,89153,128,0,89211:0:0:0:0:
448,192,89211,128,0,89268:0:0:0:0:
320,192,89268,1,0,0:0:0:0:
64,192,89268,128,0,89440:0:0:0:0:
192,192,89354,1,0,0:0:0:0:
320,192,89440,1,0,0:0:0:0:
448,192,89440,128,0,89613:0:0:0:0:
192,192,89527,1,0,0:0:0:0:
64,192,89613,1,0,0:0:0:0:
320,192,89613,128,0,89786:0:0:0:0:
192,192,89699,1,0,0:0:0:0:
64,192,89786,128,0,89958:0:0:0:0:
448,192,89786,1,0,0:0:0:0:
192,192,89872,1,0,0:0:0:0:
320,192,89958,1,0,0:0:0:0:
448,192,89958,128,0,90303:0:0:0:0:
192,192,90044,1,0,0:0:0:0:
320,192,90130,128,0,90303:0:0:0:0:
64,192,90130,1,0,0:0:0:0:
192,192,90217,1,0,0:0:0:0:
64,192,90303,128,0,90648:0:0:0:0:
320,192,90389,1,0,0:0:0:0:
192,192,90475,128,0,90648:0:0:0:0:
320,192,90561,1,0,0:0:0:0:
448,192,90648,1,0,0:0:0:0:
320,192,90648,1,0,0:0:0:0:
192,192,90734,1,0,0:0:0:0:
64,192,90734,1,0,0:0:0:0:
448,192,90820,1,0,0:0:0:0:
320,192,90820,1,0,0:0:0:0:
64,192,90906,1,0,0:0:0:0:
448,192,90992,1,0,0:0:0:0:
192,192,90992,1,0,0:0:0:0:
320,192,91079,1,0,0:0:0:0:
64,192,91079,1,0,0:0:0:0:
192,192,91165,1,0,0:0:0:0:
448,192,91165,1,0,0:0:0:0:
64,192,91251,1,0,0:0:0:0:
448,192,91337,1,0,0:0:0:0:
320,192,91380,1,0,0:0:0:0:
64,192,91394,1,0,0:0:0:0:
192,192,91452,1,0,0:0:0:0:
448,192,91466,1,0,0:0:0:0:
320,192,91509,1,0,0:0:0:0:
64,192,91552,1,0,0:0:0:0:
192,192,91595,1,0,0:0:0:0:
320,192,91638,1,0,0:0:0:0:
448,192,91682,1,0,0:0:0:0:
64,192,91682,1,0,0:0:0:0:
320,192,91768,1,0,0:0:0:0:
192,192,91854,1,0,0:0:0:0:
64,192,91911,1,0,0:0:0:0:
320,192,91969,1,0,0:0:0:0:
192,192,92026,1,0,0:0:0:0:
64,192,92026,1,0,0:0:0:0:
448,192,92084,1,0,0:0:0:0:
320,192,92141,1,0,0:0:0:0:
64,192,92199,1,0,0:0:0:0:
192,192,92199,1,0,0:0:0:0:
320,192,92285,1,0,0:0:0:0:
64,192,92371,1,0,0:0:0:0:
192,192,92429,1,0,0:0:0:0:
320,192,92486,1,0,0:0:0:0:
192,192,92544,1,0,0:0:0:0:
64,192,92544,1,0,0:0:0:0:
448,192,92601,1,0,0:0:0:0:
320,192,92659,1,0,0:0:0:0:
64,192,92716,1,0,0:0:0:0:
192,192,92716,1,0,0:0:0:0:
320,192,92802,1,0,0:0:0:0:
192,192,92888,1,0,0:0:0:0:
64,192,92946,1,0,0:0:0:0:
320,192,93003,1,0,0:0:0:0:
192,192,93061,1,0,0:0:0:0:
64,192,93061,1,0,0:0:0:0:
448,192,93118,1,0,0:0:0:0:
320,192,93176,1,0,0:0:0:0:
64,192,93233,1,0,0:0:0:0:
192,192,93233,1,0,0:0:0:0:
320,192,93319,1,0,0:0:0:0:
64,192,93406,1,0,0:0:0:0:
192,192,93463,1,0,0:0:0:0:
320,192,93521,1,0,0:0:0:0:
192,192,93578,1,0,0:0:0:0:
64,192,93578,1,0,0:0:0:0:
320,192,93664,1,0,0:0:0:0:
448,192,93750,1,0,0:0:0:0:
64,192,93750,1,0,0:0:0:0:
192,192,93750,1,0,0:0:0:0:
320,192,93837,1,0,0:0:0:0:
448,192,93923,1,0,0:0:0:0:
192,192,93923,1,0,0:0:0:0:
64,192,93980,1,0,0:0:0:0:
320,192,94038,1,0,0:0:0:0:
448,192,94095,1,0,0:0:0:0:
64,192,94095,1,0,0:0:0:0:
192,192,94095,1,0,0:0:0:0:
320,192,94182,1,0,0:0:0:0:
64,192,94268,1,0,0:0:0:0:
448,192,94268,1,0,0:0:0:0:
192,192,94354,1,0,0:0:0:0:
320,192,94440,128,0,94498:0:0:0:0:
64,192,94440,1,0,0:0:0:0:
448,192,94498,128,0,94555:0:0:0:0:
192,192,94555,128,0,94613:0:0:0:0:
320,192,94613,128,0,94670:0:0:0:0:
64,192,94670,128,0,94727:0:0:0:0:
192,192,94727,128,0,94785:0:0:0:0:
448,192,94785,1,0,0:0:0:0:
320,192,94828,1,0,0:0:0:0:
64,192,94871,1,0,0:0:0:0:
192,192,94914,1,0,0:0:0:0:
448,192,94957,1,0,0:0:0:0:
320,192,95000,1,0,0:0:0:0:
192,192,95044,1,0,0:0:0:0:
448,192,95087,1,0,0:0:0:0:
320,192,95130,1,0,0:0:0:0:
64,192,95130,1,0,0:0:0:0:
192,192,95187,1,0,0:0:0:0:
64,192,95245,1,0,0:0:0:0:
448,192,95245,1,0,0:0:0:0:
320,192,95302,1,0,0:0:0:0:
448,192,95360,1,0,0:0:0:0:
64,192,95360,1,0,0:0:0:0:
192,192,95417,1,0,0:0:0:0:
64,192,95460,1,0,0:0:0:0:
448,192,95460,1,0,0:0:0:0:
320,192,95460,1,0,0:0:0:0:
192,192,95562,1,0,0:0:0:0:
320,192,95648,1,0,0:0:0:0:
448,192,95648,1,0,0:0:0:0:
192,192,95734,1,0,0:0:0:0:
448,192,95820,1,0,0:0:0:0:
64,192,95820,1,0,0:0:0:0:
320,192,95879,1,0,0:0:0:0:
192,192,95936,1,0,0:0:0:0:
448,192,95994,1,0,0:0:0:0:
320,192,95994,1,0,0:0:0:0:
64,192,96051,1,0,0:0:0:0:
192,192,96109,1,0,0:0:0:0:
448,192,96165,1,0,0:0:0:0:
320,192,96165,1,0,0:0:0:0:
192,192,96221,1,0,0:0:0:0:
64,192,96221,1,0,0:0:0:0:
448,192,96278,1,0,0:0:0:0:
320,192,96335,1,0,0:0:0:0:
192,192,96335,1,0,0:0:0:0:
64,192,96335,128,0,96510:0:0:0:0:
320,192,96510,1,0,0:0:0:0:
448,192,96553,1,0,0:0:0:0:
192,192,96596,1,0,0:0:0:0:
320,192,96639,1,0,0:0:0:0:
64,192,96681,1,0,0:0:0:0:
320,192,96770,1,0,0:0:0:0:
448,192,96770,1,0,0:0:0:0:
320,192,96856,1,0,0:0:0:0:
64,192,96856,1,0,0:0:0:0:
448,192,96856,1,0,0:0:0:0:
192,192,96942,1,0,0:0:0:0:
448,192,97028,1,0,0:0:0:0:
320,192,97028,1,0,0:0:0:0:
192,192,97086,1,0,0:0:0:0:
64,192,97143,1,0,0:0:0:0:
448,192,97201,1,0,0:0:0:0:
320,192,97201,1,0,0:0:0:0:
192,192,97201,1,0,0:0:0:0:
64,192,97287,1,0,0:0:0:0:
320,192,97373,1,0,0:0:0:0:
448,192,97373,1,0,0:0:0:0:
192,192,97459,1,0,0:0:0:0:
448,192,97546,1,0,0:0:0:0:
64,192,97546,1,0,0:0:0:0:
320,192,97603,1,0,0:0:0:0:
192,192,97661,1,0,0:0:0:0:
448,192,97718,1,0,0:0:0:0:
64,192,97718,1,0,0:0:0:0:
320,192,97718,1,0,0:0:0:0:
192,192,97804,1,0,0:0:0:0:
320,192,97890,1,0,0:0:0:0:
192,192,97977,1,0,0:0:0:0:
448,192,98063,1,0,0:0:0:0:
64,192,98063,1,0,0:0:0:0:
320,192,98120,1,0,0:0:0:0:
192,192,98178,1,0,0:0:0:0:
64,192,98235,1,0,0:0:0:0:
448,192,98235,1,0,0:0:0:0:
320,192,98235,1,0,0:0:0:0:
192,192,98321,1,0,0:0:0:0:
448,192,98408,1,0,0:0:0:0:
320,192,98494,1,0,0:0:0:0:
64,192,98580,1,0,0:0:0:0:
448,192,98580,1,0,0:0:0:0:
192,192,98638,1,0,0:0:0:0:
320,192,98695,1,0,0:0:0:0:
448,192,98752,1,0,0:0:0:0:
192,192,98752,1,0,0:0:0:0:
64,192,98752,1,0,0:0:0:0:
320,192,98839,1,0,0:0:0:0:
192,192,98925,1,0,0:0:0:0:
320,192,99011,1,0,0:0:0:0:
448,192,99097,1,0,0:0:0:0:
64,192,99097,1,0,0:0:0:0:
192,192,99155,1,0,0:0:0:0:
320,192,99212,1,0,0:0:0:0:
448,192,99270,1,0,0:0:0:0:
192,192,99270,1,0,0:0:0:0:
64,192,99270,1,0,0:0:0:0:
320,192,99356,1,0,0:0:0:0:
448,192,99442,1,0,0:0:0:0:
64,192,99442,1,0,0:0:0:0:
192,192,99528,1,0,0:0:0:0:
448,192,99615,1,0,0:0:0:0:
320,192,99615,1,0,0:0:0:0:
192,192,99672,1,0,0:0:0:0:
64,192,99729,1,0,0:0:0:0:
448,192,99787,1,0,0:0:0:0:
320,192,99787,1,0,0:0:0:0:
192,192,99873,1,0,0:0:0:0:
448,192,99959,1,0,0:0:0:0:
320,192,99959,1,0,0:0:0:0:
64,192,99959,128,0,100132:0:0:0:0:
192,192,100046,1,0,0:0:0:0:
448,192,100132,128,0,100304:0:0:0:0:
320,192,100132,1,0,0:0:0:0:
64,192,100218,1,0,0:0:0:0:
192,192,100304,128,0,100474:0:0:0:0:
320,192,100388,1,0,0:0:0:0:
448,192,100474,128,0,100646:0:0:0:0:
64,192,100474,1,0,0:0:0:0:
320,192,100560,1,0,0:0:0:0:
64,192,100646,128,0,100819:0:0:0:0:
192,192,100646,1,0,0:0:0:0:
448,192,100733,1,0,0:0:0:0:
320,192,100819,128,0,100991:0:0:0:0:
64,192,100905,1,0,0:0:0:0:
192,192,100991,1,0,0:0:0:0:
448,192,100991,128,0,101166:0:0:0:0:
320,192,101080,1,0,0:0:0:0:
64,192,101166,128,0,101338:0:0:0:0:
192,192,101166,1,0,0:0:0:0:
320,192,101252,1,0,0:0:0:0:
192,192,101338,1,0,0:0:0:0:
448,192,101338,1,0,0:0:0:0:
320,192,101425,1,0,0:0:0:0:
64,192,101511,1,0,0:0:0:0:
448,192,101511,1,0,0:0:0:0:
192,192,101597,1,0,0:0:0:0:
64,192,101683,1,0,0:0:0:0:
448,192,101683,1,0,0:0:0:0:
320,192,101683,1,0,0:0:0:0:
192,192,101769,1,0,0:0:0:0:
64,192,101856,1,0,0:0:0:0:
448,192,101856,1,0,0:0:0:0:
320,192,101942,1,0,0:0:0:0:
192,192,102028,1,0,0:0:0:0:
448,192,102028,1,0,0:0:0:0:
320,192,102114,1,0,0:0:0:0:
64,192,102114,1,0,0:0:0:0:
192,192,102200,1,0,0:0:0:0:
448,192,102200,1,0,0:0:0:0:
64,192,102287,1,0,0:0:0:0:
448,192,102373,1,0,0:0:0:0:
320,192,102373,1,0,0:0:0:0:
192,192,102373,1,0,0:0:0:0:
64,192,102416,1,0,0:0:0:0:
192,192,102473,1,0,0:0:0:0:
448,192,102473,1,0,0:0:0:0:
320,192,102531,1,0,0:0:0:0:
448,192,102588,1,0,0:0:0:0:
64,192,102588,1,0,0:0:0:0:
192,192,102646,1,0,0:0:0:0:
320,192,102703,128,0,102890:0:0:0:0:
448,192,102703,128,0,102890:0:0:0:0:
448,192,103062,1,0,0:0:0:0:
64,192,103062,1,0,0:0:0:0:
192,192,103120,1,0,0:0:0:0:
320,192,103177,1,0,0:0:0:0:
448,192,103235,1,0,0:0:0:0:
192,192,103235,1,0,0:0:0:0:
64,192,103235,1,0,0:0:0:0:
320,192,103321,1,0,0:0:0:0:
64,192,103407,1,0,0:0:0:0:
192,192,103493,1,0,0:0:0:0:
64,192,103580,1,0,0:0:0:0:
448,192,103580,1,0,0:0:0:0:
320,192,103637,1,0,0:0:0:0:
192,192,103695,1,0,0:0:0:0:
64,192,103752,1,0,0:0:0:0:
448,192,103752,1,0,0:0:0:0:
320,192,103752,1,0,0:0:0:0:
192,192,103838,1,0,0:0:0:0:
448,192,103924,1,0,0:0:0:0:
320,192,104011,1,0,0:0:0:0:
64,192,104097,1,0,0:0:0:0:
448,192,104097,1,0,0:0:0:0:
192,192,104154,1,0,0:0:0:0:
320,192,104212,1,0,0:0:0:0:
448,192,104269,1,0,0:0:0:0:
64,192,104269,1,0,0:0:0:0:
192,192,104269,1,0,0:0:0:0:
320,192,104355,1,0,0:0:0:0:
64,192,104442,1,0,0:0:0:0:
192,192,104528,1,0,0:0:0:0:
448,192,104614,1,0,0:0:0:0:
64,192,104614,1,0,0:0:0:0:
320,192,104672,1,0,0:0:0:0:
192,192,104729,1,0,0:0:0:0:
64,192,104786,1,0,0:0:0:0:
448,192,104786,1,0,0:0:0:0:
320,192,104830,1,0,0:0:0:0:
192,192,104873,1,0,0:0:0:0:
448,192,104916,1,0,0:0:0:0:
320,192,104959,1,0,0:0:0:0:
64,192,105016,1,0,0:0:0:0:
192,192,105074,1,0,0:0:0:0:
448,192,105131,1,0,0:0:0:0:
320,192,105131,1,0,0:0:0:0:
192,192,105189,1,0,0:0:0:0:
320,192,105246,1,0,0:0:0:0:
192,192,105304,1,0,0:0:0:0:
64,192,105304,1,0,0:0:0:0:
448,192,105390,1,0,0:0:0:0:
192,192,105476,1,0,0:0:0:0:
64,192,105476,1,0,0:0:0:0:
320,192,105476,1,0,0:0:0:0:
448,192,105562,1,0,0:0:0:0:
192,192,105649,1,0,0:0:0:0:
320,192,105735,1,0,0:0:0:0:
448,192,105821,1,0,0:0:0:0:
64,192,105821,1,0,0:0:0:0:
192,192,105876,1,0,0:0:0:0:
320,192,105934,1,0,0:0:0:0:
192,192,105993,1,0,0:0:0:0:
320,192,106048,1,0,0:0:0:0:
64,192,106107,1,0,0:0:0:0:
448,192,106162,1,0,0:0:0:0:
192,192,106162,1,0,0:0:0:0:
64,192,106237,1,0,0:0:0:0:
448,192,106324,1,0,0:0:0:0:
192,192,106324,1,0,0:0:0:0:
320,192,106324,1,0,0:0:0:0:
64,192,106424,1,0,0:0:0:0:
192,192,106510,1,0,0:0:0:0:
448,192,106510,1,0,0:0:0:0:
320,192,106596,1,0,0:0:0:0:
192,192,106682,1,0,0:0:0:0:
320,192,106768,1,0,0:0:0:0:
192,192,106854,1,0,0:0:0:0:
448,192,106854,1,0,0:0:0:0:
64,192,106854,1,0,0:0:0:0:
320,192,106941,1,0,0:0:0:0:
192,192,107027,1,0,0:0:0:0:
64,192,107027,1,0,0:0:0:0:
320,192,107113,1,0,0:0:0:0:
448,192,107199,1,0,0:0:0:0:
192,192,107199,1,0,0:0:0:0:
64,192,107199,1,0,0:0:0:0:
320,192,107285,1,0,0:0:0:0:
64,192,107372,1,0,0:0:0:0:
192,192,107372,1,0,0:0:0:0:
64,192,107458,1,0,0:0:0:0:
448,192,107544,1,0,0:0:0:0:
320,192,107544,1,0,0:0:0:0:
192,192,107544,1,0,0:0:0:0:
448,192,108234,128,0,108836:0:0:0:0:
320,192,108234,128,0,108836:0:0:0:0:
192,192,108234,128,0,108836:0:0:0:0:
64,192,108234,128,0,108836:0:0:0:0:
64,192,108925,1,0,0:0:0:0:
448,192,108925,1,0,0:0:0:0:
320,192,108925,1,0,0:0:0:0:
192,192,109011,1,0,0:0:0:0:
448,192,109097,1,0,0:0:0:0:
320,192,109097,1,0,0:0:0:0:
192,192,109183,1,0,0:0:0:0:
64,192,109183,1,0,0:0:0:0:
448,192,109269,1,0,0:0:0:0:
320,192,109269,1,0,0:0:0:0:
192,192,109356,1,0,0:0:0:0:
64,192,109356,1,0,0:0:0:0:
448,192,109442,1,0,0:0:0:0:
320,192,109442,1,0,0:0:0:0:
192,192,109442,1,0,0:0:0:0:
64,192,109442,1,0,0:0:0:0:
448,192,109528,1,0,0:0:0:0:
320,192,109528,1,0,0:0:0:0:
192,192,109614,1,0,0:0:0:0:
64,192,109614,1,0,0:0:0:0:
448,192,109700,1,0,0:0:0:0:
320,192,109700,1,0,0:0:0:0:
192,192,109787,1,0,0:0:0:0:
64,192,109787,1,0,0:0:0:0:
448,192,109873,1,0,0:0:0:0:
320,192,109873,1,0,0:0:0:0:
192,192,109959,1,0,0:0:0:0:
64,192,109959,1,0,0:0:0:0:
448,192,109959,1,0,0:0:0:0:
320,192,109959,1,0,0:0:0:0:
192,192,110045,1,0,0:0:0:0:
64,192,110045,1,0,0:0:0:0:
448,192,110131,1,0,0:0:0:0:
320,192,110131,1,0,0:0:0:0:
192,192,110218,1,0,0:0:0:0:
64,192,110218,1,0,0:0:0:0:
448,192,110304,1,0,0:0:0:0:
320,192,110304,1,0,0:0:0:0:
64,192,110304,1,0,0:0:0:0:
192,192,110361,1,0,0:0:0:0:
320,192,110419,1,0,0:0:0:0:
448,192,110476,1,0,0:0:0:0:
64,192,110476,1,0,0:0:0:0:
192,192,110562,1,0,0:0:0:0:
448,192,110591,1,0,0:0:0:0:
320,192,110649,1,0,0:0:0:0:
64,192,110677,1,0,0:0:0:0:
448,192,110735,1,0,0:0:0:0:
192,192,110764,1,0,0:0:0:0:
320,192,110821,1,0,0:0:0:0:
64,192,110850,1,0,0:0:0:0:
448,192,110907,1,0,0:0:0:0:
192,192,110950,1,0,0:0:0:0:
64,192,110993,1,0,0:0:0:0:
320,192,111022,1,0,0:0:0:0:
192,192,111080,1,0,0:0:0:0:
320,192,111137,1,0,0:0:0:0:
192,192,111195,1,0,0:0:0:0:
320,192,111252,1,0,0:0:0:0:
64,192,111252,1,0,0:0:0:0:
448,192,111338,128,0,111381:0:0:0:0:
448,192,111682,1,0,0:0:0:0:
320,192,111682,1,0,0:0:0:0:
64,192,111682,1,0,0:0:0:0:
192,192,111740,1,0,0:0:0:0:
320,192,111797,1,0,0:0:0:0:
64,192,111855,1,0,0:0:0:0:
192,192,111912,1,0,0:0:0:0:
320,192,111970,1,0,0:0:0:0:
448,192,112027,1,0,0:0:0:0:
192,192,112070,1,0,0:0:0:0:
320,192,112113,1,0,0:0:0:0:
64,192,112156,1,0,0:0:0:0:
192,192,112200,1,0,0:0:0:0:
448,192,112243,1,0,0:0:0:0:
320,192,112286,1,0,0:0:0:0:
192,192,112329,1,0,0:0:0:0:
64,192,112372,1,0,0:0:0:0:
448,192,112372,1,0,0:0:0:0:
320,192,112372,1,0,0:0:0:0:
192,192,112429,1,0,0:0:0:0:
320,192,112487,1,0,0:0:0:0:
192,192,112544,1,0,0:0:0:0:
64,192,112602,1,0,0:0:0:0:
320,192,112631,1,0,0:0:0:0:
192,192,112717,1,0,0:0:0:0:
448,192,112717,1,0,0:0:0:0:
64,192,112803,1,0,0:0:0:0:
448,192,112889,1,0,0:0:0:0:
320,192,112889,1,0,0:0:0:0:
448,192,112975,1,0,0:0:0:0:
320,192,112975,1,0,0:0:0:0:
192,192,113062,1,0,0:0:0:0:
64,192,113062,1,0,0:0:0:0:
320,192,113119,1,0,0:0:0:0:
448,192,113177,1,0,0:0:0:0:
192,192,113234,1,0,0:0:0:0:
320,192,113292,1,0,0:0:0:0:
64,192,113349,1,0,0:0:0:0:
192,192,113406,1,0,0:0:0:0:
448,192,113406,1,0,0:0:0:0:
320,192,113493,1,0,0:0:0:0:
192,192,113579,1,0,0:0:0:0:
64,192,113579,1,0,0:0:0:0:
320,192,113636,1,0,0:0:0:0:
192,192,113694,1,0,0:0:0:0:
448,192,113751,1,0,0:0:0:0:
64,192,113751,1,0,0:0:0:0:
320,192,113794,1,0,0:0:0:0:
192,192,113837,1,0,0:0:0:0:
448,192,113880,1,0,0:0:0:0:
320,192,113923,1,0,0:0:0:0:
192,192,113966,1,0,0:0:0:0:
64,192,114009,1,0,0:0:0:0:
320,192,114052,1,0,0:0:0:0:
448,192,114096,1,0,0:0:0:0:
192,192,114139,1,0,0:0:0:0:
320,192,114182,1,0,0:0:0:0:
64,192,114225,1,0,0:0:0:0:
192,192,114268,1,0,0:0:0:0:
320,192,114311,1,0,0:0:0:0:
64,192,114354,1,0,0:0:0:0:
192,192,114397,1,0,0:0:0:0:
320,192,114441,1,0,0:0:0:0:
448,192,114441,1,0,0:0:0:0:
448,192,114527,1,0,0:0:0:0:
320,192,114527,1,0,0:0:0:0:
192,192,114613,1,0,0:0:0:0:
64,192,114613,1,0,0:0:0:0:
448,192,114699,1,0,0:0:0:0:
320,192,114699,1,0,0:0:0:0:
192,192,114785,1,0,0:0:0:0:
64,192,114785,1,0,0:0:0:0:
448,192,114872,1,0,0:0:0:0:
320,192,114872,1,0,0:0:0:0:
448,192,114958,1,0,0:0:0:0:
192,192,114958,1,0,0:0:0:0:
64,192,114958,1,0,0:0:0:0:
320,192,114958,1,0,0:0:0:0:
192,192,115044,1,0,0:0:0:0:
64,192,115044,1,0,0:0:0:0:
448,192,115130,1,0,0:0:0:0:
320,192,115130,1,0,0:0:0:0:
192,192,115216,1,0,0:0:0:0:
64,192,115216,1,0,0:0:0:0:
448,192,115303,1,0,0:0:0:0:
320,192,115303,1,0,0:0:0:0:
192,192,115389,1,0,0:0:0:0:
64,192,115389,1,0,0:0:0:0:
448,192,115475,1,0,0:0:0:0:
320,192,115475,1,0,0:0:0:0:
192,192,115475,1,0,0:0:0:0:
64,192,115475,1,0,0:0:0:0:
448,192,115561,1,0,0:0:0:0:
320,192,115561,1,0,0:0:0:0:
192,192,115647,1,0,0:0:0:0:
64,192,115647,1,0,0:0:0:0:
448,192,115734,1,0,0:0:0:0:
320,192,115734,1,0,0:0:0:0:
64,192,115820,1,0,0:0:0:0:
448,192,115820,1,0,0:0:0:0:
320,192,115820,1,0,0:0:0:0:
192,192,115877,1,0,0:0:0:0:
64,192,115935,1,0,0:0:0:0:
192,192,115992,1,0,0:0:0:0:
448,192,115992,1,0,0:0:0:0:
320,192,116078,1,0,0:0:0:0:
64,192,116107,1,0,0:0:0:0:
192,192,116165,1,0,0:0:0:0:
448,192,116208,1,0,0:0:0:0:
320,192,116251,1,0,0:0:0:0:
64,192,116294,1,0,0:0:0:0:
192,192,116337,1,0,0:0:0:0:
448,192,116380,1,0,0:0:0:0:
320,192,116423,1,0,0:0:0:0:
192,192,116466,1,0,0:0:0:0:
448,192,116509,1,0,0:0:0:0:
64,192,116509,1,0,0:0:0:0:
320,192,116566,1,0,0:0:0:0:
192,192,116624,1,0,0:0:0:0:
320,192,116681,1,0,0:0:0:0:
192,192,116739,1,0,0:0:0:0:
320,192,116796,1,0,0:0:0:0:
192,192,116854,1,0,0:0:0:0:
64,192,116854,1,0,0:0:0:0:
448,192,116911,1,0,0:0:0:0:
64,192,116969,1,0,0:0:0:0:
448,192,117026,1,0,0:0:0:0:
64,192,117084,1,0,0:0:0:0:
448,192,117141,1,0,0:0:0:0:
64,192,117200,1,0,0:0:0:0:
320,192,117200,1,0,0:0:0:0:
192,192,117200,128,0,117544:0:0:0:0:
448,192,117372,128,0,117544:0:0:0:0:
320,192,117544,128,0,117717:0:0:0:0:
64,192,117717,128,0,117889:0:0:0:0:
192,192,117760,128,0,117889:0:0:0:0:
320,192,117803,128,0,117889:0:0:0:0:
448,192,117889,1,0,0:0:0:0:
64,192,118062,1,0,0:0:0:0:
320,192,118062,1,0,0:0:0:0:
448,192,118234,1,0,0:0:0:0:
192,192,118234,1,0,0:0:0:0:
448,192,118406,1,0,0:0:0:0:
64,192,118406,1,0,0:0:0:0:
320,192,118406,1,0,0:0:0:0:
448,192,118579,1,0,0:0:0:0:
192,192,118579,1,0,0:0:0:0:
64,192,118751,1,0,0:0:0:0:
320,192,118751,1,0,0:0:0:0:
448,192,118924,1,0,0:0:0:0:
320,192,118924,1,0,0:0:0:0:
64,192,118924,1,0,0:0:0:0:
192,192,118924,1,0,0:0:0:0:
192,192,119010,1,0,0:0:0:0:
64,192,119010,1,0,0:0:0:0:
448,192,119096,1,0,0:0:0:0:
320,192,119096,1,0,0:0:0:0:
192,192,119182,1,0,0:0:0:0:
64,192,119182,1,0,0:0:0:0:
320,192,119268,128,0,119613:0:0:0:0:
448,192,119268,128,0,119786:0:0:0:0:
192,192,119613,1,0,0:0:0:0:
64,192,119671,1,0,0:0:0:0:
192,192,119728,1,0,0:0:0:0:
320,192,119786,1,0,0:0:0:0:
448,192,119843,1,0,0:0:0:0:
448,192,119958,1,0,0:0:0:0:
320,192,119958,1,0,0:0:0:0:
64,192,119958,1,0,0:0:0:0:
192,192,119958,1,0,0:0:0:0:
192,192,120044,1,0,0:0:0:0:
64,192,120044,1,0,0:0:0:0:
448,192,120131,1,0,0:0:0:0:
320,192,120131,1,0,0:0:0:0:
192,192,120217,1,0,0:0:0:0:
64,192,120217,1,0,0:0:0:0:
448,192,120303,1,0,0:0:0:0:
320,192,120303,1,0,0:0:0:0:
192,192,120389,1,0,0:0:0:0:
64,192,120389,1,0,0:0:0:0:
448,192,120475,1,0,0:0:0:0:
320,192,120475,1,0,0:0:0:0:
192,192,120475,1,0,0:0:0:0:
64,192,120475,1,0,0:0:0:0:
448,192,120562,1,0,0:0:0:0:
320,192,120562,1,0,0:0:0:0:
192,192,120648,1,0,0:0:0:0:
64,192,120648,1,0,0:0:0:0:
448,192,120734,1,0,0:0:0:0:
320,192,120734,1,0,0:0:0:0:
192,192,120820,1,0,0:0:0:0:
64,192,120820,1,0,0:0:0:0:
448,192,120906,1,0,0:0:0:0:
320,192,120906,1,0,0:0:0:0:
192,192,120993,1,0,0:0:0:0:
64,192,120993,1,0,0:0:0:0:
448,192,120993,1,0,0:0:0:0:
320,192,120993,1,0,0:0:0:0:
192,192,121079,1,0,0:0:0:0:
64,192,121079,1,0,0:0:0:0:
448,192,121165,1,0,0:0:0:0:
320,192,121165,1,0,0:0:0:0:
192,192,121251,1,0,0:0:0:0:
64,192,121251,1,0,0:0:0:0:
448,192,121337,1,0,0:0:0:0:
320,192,121337,1,0,0:0:0:0:
64,192,121337,1,0,0:0:0:0:
192,192,121395,1,0,0:0:0:0:
320,192,121452,1,0,0:0:0:0:
448,192,121510,1,0,0:0:0:0:
64,192,121510,1,0,0:0:0:0:
320,192,121596,1,0,0:0:0:0:
192,192,121682,1,0,0:0:0:0:
64,192,121768,1,0,0:0:0:0:
448,192,121768,1,0,0:0:0:0:
320,192,121768,1,0,0:0:0:0:
192,192,121855,1,0,0:0:0:0:
320,192,121941,1,0,0:0:0:0:
64,192,122027,1,0,0:0:0:0:
448,192,122027,1,0,0:0:0:0:
192,192,122085,1,0,0:0:0:0:
448,192,122142,1,0,0:0:0:0:
64,192,122200,1,0,0:0:0:0:
320,192,122257,1,0,0:0:0:0:
64,192,122314,1,0,0:0:0:0:
448,192,122372,1,0,0:0:0:0:
320,192,122372,1,0,0:0:0:0:
192,192,122372,1,0,0:0:0:0:
64,192,122458,1,0,0:0:0:0:
192,192,122544,1,0,0:0:0:0:
448,192,122544,1,0,0:0:0:0:
320,192,122631,1,0,0:0:0:0:
192,192,122717,1,0,0:0:0:0:
64,192,122760,1,0,0:0:0:0:
320,192,122774,1,0,0:0:0:0:
448,192,122832,1,0,0:0:0:0:
192,192,122889,1,0,0:0:0:0:
64,192,122932,1,0,0:0:0:0:
448,192,122947,1,0,0:0:0:0:
320,192,123004,1,0,0:0:0:0:
192,192,123062,1,0,0:0:0:0:
64,192,123105,1,0,0:0:0:0:
320,192,123119,1,0,0:0:0:0:
448,192,123177,1,0,0:0:0:0:
192,192,123234,1,0,0:0:0:0:
64,192,123277,1,0,0:0:0:0:
448,192,123291,1,0,0:0:0:0:
320,192,123349,1,0,0:0:0:0:
192,192,123406,1,0,0:0:0:0:
64,192,123406,1,0,0:0:0:0:
448,192,123464,1,0,0:0:0:0:
320,192,123521,1,0,0:0:0:0:
64,192,123579,1,0,0:0:0:0:
192,192,123636,1,0,0:0:0:0:
320,192,123694,1,0,0:0:0:0:
448,192,123751,1,0,0:0:0:0:
64,192,123751,1,0,0:0:0:0:
192,192,123794,1,0,0:0:0:0:
320,192,123837,1,0,0:0:0:0:
448,192,123881,1,0,0:0:0:0:
192,192,123924,1,0,0:0:0:0:
64,192,123924,1,0,0:0:0:0:
192,192,124010,1,0,0:0:0:0:
64,192,124010,1,0,0:0:0:0:
448,192,124096,1,0,0:0:0:0:
320,192,124096,1,0,0:0:0:0:
192,192,124139,1,0,0:0:0:0:
64,192,124182,1,0,0:0:0:0:
320,192,124225,1,0,0:0:0:0:
192,192,124268,1,0,0:0:0:0:
448,192,124312,1,0,0:0:0:0:
320,192,124355,1,0,0:0:0:0:
64,192,124398,1,0,0:0:0:0:
448,192,124441,1,0,0:0:0:0:
192,192,124441,1,0,0:0:0:0:
320,192,124527,1,0,0:0:0:0:
64,192,124613,1,0,0:0:0:0:
448,192,124613,1,0,0:0:0:0:
192,192,124700,1,0,0:0:0:0:
64,192,124786,1,0,0:0:0:0:
448,192,124786,1,0,0:0:0:0:
320,192,124829,1,0,0:0:0:0:
192,192,124872,1,0,0:0:0:0:
448,192,124915,1,0,0:0:0:0:
320,192,124958,1,0,0:0:0:0:
64,192,125001,1,0,0:0:0:0:
192,192,125044,1,0,0:0:0:0:
320,192,125087,1,0,0:0:0:0:
448,192,125131,1,0,0:0:0:0:
192,192,125174,1,0,0:0:0:0:
64,192,125217,1,0,0:0:0:0:
320,192,125260,1,0,0:0:0:0:
448,192,125303,1,0,0:0:0:0:
192,192,125346,1,0,0:0:0:0:
320,192,125389,1,0,0:0:0:0:
448,192,125432,1,0,0:0:0:0:
64,192,125476,1,0,0:0:0:0:
192,192,125476,1,0,0:0:0:0:
192,192,125562,1,0,0:0:0:0:
64,192,125562,1,0,0:0:0:0:
448,192,125648,1,0,0:0:0:0:
320,192,125648,1,0,0:0:0:0:
192,192,125734,1,0,0:0:0:0:
64,192,125734,1,0,0:0:0:0:
448,192,125820,1,0,0:0:0:0:
320,192,125820,1,0,0:0:0:0:
192,192,125907,1,0,0:0:0:0:
64,192,125907,1,0,0:0:0:0:
448,192,125993,1,0,0:0:0:0:
192,192,125993,1,0,0:0:0:0:
64,192,125993,1,0,0:0:0:0:
320,192,125993,1,0,0:0:0:0:
448,192,126079,1,0,0:0:0:0:
320,192,126079,1,0,0:0:0:0:
192,192,126165,1,0,0:0:0:0:
64,192,126165,1,0,0:0:0:0:
320,192,126251,1,0,0:0:0:0:
448,192,126251,1,0,0:0:0:0:
192,192,126338,1,0,0:0:0:0:
64,192,126338,1,0,0:0:0:0:
448,192,126424,1,0,0:0:0:0:
320,192,126424,1,0,0:0:0:0:
448,192,126510,1,0,0:0:0:0:
320,192,126510,1,0,0:0:0:0:
192,192,126510,1,0,0:0:0:0:
64,192,126510,1,0,0:0:0:0:
192,192,126596,1,0,0:0:0:0:
64,192,126596,1,0,0:0:0:0:
448,192,126682,1,0,0:0:0:0:
320,192,126682,1,0,0:0:0:0:
192,192,126769,1,0,0:0:0:0:
64,192,126769,1,0,0:0:0:0:
448,192,126855,1,0,0:0:0:0:
320,192,126855,1,0,0:0:0:0:
64,192,126855,1,0,0:0:0:0:
192,192,126912,1,0,0:0:0:0:
320,192,126970,1,0,0:0:0:0:
448,192,127027,1,0,0:0:0:0:
192,192,127085,1,0,0:0:0:0:
320,192,127142,1,0,0:0:0:0:
64,192,127200,1,0,0:0:0:0:
448,192,127200,1,0,0:0:0:0:
320,192,127257,1,0,0:0:0:0:
192,192,127315,1,0,0:0:0:0:
320,192,127372,1,0,0:0:0:0:
192,192,127430,1,0,0:0:0:0:
64,192,127487,1,0,0:0:0:0:
448,192,127544,1,0,0:0:0:0:
320,192,127544,1,0,0:0:0:0:
192,192,127602,1,0,0:0:0:0:
320,192,127659,1,0,0:0:0:0:
64,192,127717,1,0,0:0:0:0:
448,192,127717,1,0,0:0:0:0:
192,192,127774,1,0,0:0:0:0:
320,192,127832,1,0,0:0:0:0:
192,192,127889,1,0,0:0:0:0:
64,192,127889,1,0,0:0:0:0:
320,192,127947,1,0,0:0:0:0:
448,192,128004,1,0,0:0:0:0:
320,192,128062,1,0,0:0:0:0:
192,192,128062,1,0,0:0:0:0:
64,192,128119,1,0,0:0:0:0:
192,192,128177,1,0,0:0:0:0:
448,192,128234,1,0,0:0:0:0:
320,192,128234,1,0,0:0:0:0:
192,192,128292,1,0,0:0:0:0:
320,192,128349,1,0,0:0:0:0:
448,192,128407,1,0,0:0:0:0:
64,192,128407,1,0,0:0:0:0:
192,192,128464,1,0,0:0:0:0:
320,192,128521,1,0,0:0:0:0:
192,192,128579,1,0,0:0:0:0:
64,192,128579,1,0,0:0:0:0:
320,192,128636,1,0,0:0:0:0:
448,192,128694,1,0,0:0:0:0:
320,192,128751,1,0,0:0:0:0:
192,192,128751,1,0,0:0:0:0:
64,192,128809,1,0,0:0:0:0:
192,192,128866,1,0,0:0:0:0:
320,192,128924,1,0,0:0:0:0:
448,192,129010,1,0,0:0:0:0:
64,192,129039,1,0,0:0:0:0:
320,192,129096,1,0,0:0:0:0:
192,192,129182,1,0,0:0:0:0:
448,192,129182,1,0,0:0:0:0:
64,192,129240,1,0,0:0:0:0:
320,192,129269,1,0,0:0:0:0:
192,192,129326,1,0,0:0:0:0:
448,192,129355,1,0,0:0:0:0:
64,192,129384,1,0,0:0:0:0:
320,192,129441,1,0,0:0:0:0:
192,192,129470,1,0,0:0:0:0:
448,192,129527,1,0,0:0:0:0:
64,192,129527,1,0,0:0:0:0:
320,192,129613,1,0,0:0:0:0:
192,192,129613,1,0,0:0:0:0:
64,192,129671,1,0,0:0:0:0:
448,192,129700,1,0,0:0:0:0:
192,192,129728,1,0,0:0:0:0:
320,192,129786,1,0,0:0:0:0:
320,192,129872,1,0,0:0:0:0:
192,192,129958,1,0,0:0:0:0:
64,192,129958,1,0,0:0:0:0:
192,192,130044,1,0,0:0:0:0:
448,192,130128,1,0,0:0:0:0:
320,192,130128,1,0,0:0:0:0:
448,192,130216,1,0,0:0:0:0:
320,192,130216,1,0,0:0:0:0:
192,192,130303,1,0,0:0:0:0:
64,192,130303,1,0,0:0:0:0:
448,192,130303,1,0,0:0:0:0:
320,192,130303,1,0,0:0:0:0:
192,192,130475,1,0,0:0:0:0:
320,192,130647,1,0,0:0:0:0:
64,192,130820,128,0,130992:0:0:0:0:
448,192,130992,128,0,131035:0:0:0:0:
64,192,131165,1,0,0:0:0:0:
192,192,131337,1,0,0:0:0:0:
320,192,131509,1,0,0:0:0:0:
64,192,131682,128,0,131854:0:0:0:0:
448,192,131854,128,0,131897:0:0:0:0:
64,192,132027,1,0,0:0:0:0:
192,192,132199,1,0,0:0:0:0:
320,192,132371,1,0,0:0:0:0:
64,192,132544,128,0,132716:0:0:0:0:
448,192,132716,128,0,132759:0:0:0:0:
192,192,132716,128,0,132803:0:0:0:0:
64,192,132889,1,0,0:0:0:0:
448,192,133061,128,0,133147:0:0:0:0:
320,192,133061,128,0,133104:0:0:0:0:
192,192,133234,1,0,0:0:0:0:
320,192,133406,1,0,0:0:0:0:
64,192,133578,128,0,133751:0:0:0:0:
448,192,133751,128,0,133837:0:0:0:0:
64,192,133923,1,0,0:0:0:0:
192,192,134096,1,0,0:0:0:0:
320,192,134268,1,0,0:0:0:0:
64,192,134440,128,0,134613:0:0:0:0:
448,192,134613,128,0,134699:0:0:0:0:
192,192,134785,1,0,0:0:0:0:
64,192,134958,1,0,0:0:0:0:
320,192,134958,128,0,135001:0:0:0:0:
192,192,135130,1,0,0:0:0:0:
64,192,135303,128,0,135475:0:0:0:0:
448,192,135475,128,0,135561:0:0:0:0:
192,192,135475,128,0,135518:0:0:0:0:
64,192,135647,1,0,0:0:0:0:
320,192,135820,128,0,135906:0:0:0:0:
448,192,135820,128,0,135863:0:0:0:0:
192,192,135992,1,0,0:0:0:0:
320,192,136165,1,0,0:0:0:0:
64,192,136337,128,0,136509:0:0:0:0:
448,192,136509,128,0,136553:0:0:0:0:
192,192,136682,1,0,0:0:0:0:
64,192,136854,1,0,0:0:0:0:
320,192,137027,1,0,0:0:0:0:
64,192,137199,128,0,137371:0:0:0:0:
448,192,137371,128,0,137415:0:0:0:0:
192,192,137544,1,0,0:0:0:0:
64,192,137716,1,0,0:0:0:0:
320,192,137889,1,0,0:0:0:0:
64,192,138061,128,0,138234:0:0:0:0:
448,192,138234,128,0,138277:0:0:0:0:
192,192,138234,128,0,138320:0:0:0:0:
64,192,138406,1,0,0:0:0:0:
448,192,138578,128,0,138665:0:0:0:0:
320,192,138578,128,0,138621:0:0:0:0:
192,192,138751,1,0,0:0:0:0:
320,192,138923,1,0,0:0:0:0:
64,192,139096,128,0,139268:0:0:0:0:
448,192,139268,128,0,139354:0:0:0:0:
320,192,139440,1,0,0:0:0:0:
64,192,139613,1,0,0:0:0:0:
192,192,139613,128,0,139656:0:0:0:0:
320,192,139785,1,0,0:0:0:0:
64,192,139958,128,0,140001:0:0:0:0:
192,192,139958,128,0,140130:0:0:0:0:
448,192,140130,128,0,140216:0:0:0:0:
64,192,140303,1,0,0:0:0:0:
320,192,140475,1,0,0:0:0:0:
320,192,140647,128,0,140820:0:0:0:0:
64,192,140647,1,0,0:0:0:0:
192,192,140820,128,0,140992:0:0:0:0:
448,192,140992,128,0,141165:0:0:0:0:
192,192,141165,128,0,141337:0:0:0:0:
448,192,141337,128,0,143751:0:0:0:0:
64,192,141337,128,0,141510:0:0:0:0:
192,192,141510,128,0,141682:0:0:0:0:
64,192,141682,128,0,141855:0:0:0:0:
192,192,141855,128,0,142027:0:0:0:0:
64,192,142027,128,0,142199:0:0:0:0:
192,192,142199,128,0,142372:0:0:0:0:
64,192,142372,128,0,142544:0:0:0:0:
192,192,142544,128,0,142717:0:0:0:0:
64,192,142717,128,0,142889:0:0:0:0:
192,192,142889,128,0,143061:0:0:0:0:
64,192,143061,128,0,143234:0:0:0:0:
192,192,143234,128,0,143406:0:0:0:0:
64,192,143406,128,0,143579:0:0:0:0:
192,192,143579,128,0,143751:0:0:0:0:
64,192,143751,128,0,143924:0:0:0:0:
320,192,143751,128,0,144096:0:0:0:0:
192,192,143924,128,0,144096:0:0:0:0:
64,192,144096,128,0,144268:0:0:0:0:
448,192,144096,128,0,145992:0:0:0:0:
320,192,144268,128,0,144441:0:0:0:0:
64,192,144441,128,0,144613:0:0:0:0:
320,192,144613,128,0,144786:0:0:0:0:
64,192,144786,128,0,144958:0:0:0:0:
320,192,144958,128,0,145130:0:0:0:0:
64,192,145130,128,0,145303:0:0:0:0:
320,192,145303,128,0,145475:0:0:0:0:
64,192,145475,128,0,145648:0:0:0:0:
320,192,145648,128,0,145820:0:0:0:0:
64,192,145820,128,0,145992:0:0:0:0:
192,192,145992,128,0,146510:0:0:0:0:
320,192,145992,128,0,146165:0:0:0:0:
448,192,146165,128,0,146337:0:0:0:0:
320,192,146337,128,0,146510:0:0:0:0:
64,192,146510,128,0,146855:0:0:0:0:
448,192,146510,128,0,146682:0:0:0:0:
192,192,146682,128,0,146855:0:0:0:0:
448,192,146855,128,0,149268:0:0:0:0:
320,192,146855,128,0,147027:0:0:0:0:
64,192,147027,128,0,147199:0:0:0:0:
320,192,147199,128,0,147372:0:0:0:0:
64,192,147372,128,0,147544:0:0:0:0:
320,192,147544,128,0,147717:0:0:0:0:
192,192,147544,1,0,0:0:0:0:
64,192,147717,128,0,147889:0:0:0:0:
320,192,147889,128,0,148061:0:0:0:0:
192,192,147889,1,0,0:0:0:0:
64,192,148061,128,0,148234:0:0:0:0:
320,192,148234,128,0,148406:0:0:0:0:
192,192,148234,1,0,0:0:0:0:
192,192,148406,128,0,148579:0:0:0:0:
64,192,148406,1,0,0:0:0:0:
64,192,148579,128,0,148751:0:0:0:0:
320,192,148579,1,0,0:0:0:0:
320,192,148751,128,0,148924:0:0:0:0:
192,192,148751,1,0,0:0:0:0:
192,192,148924,128,0,149096:0:0:0:0:
64,192,148924,1,0,0:0:0:0:
64,192,149096,128,0,149268:0:0:0:0:
320,192,149096,1,0,0:0:0:0:
192,192,149268,1,0,0:0:0:0:
320,192,149268,128,0,149441:0:0:0:0:
64,192,149441,128,0,149613:0:0:0:0:
192,192,149441,1,0,0:0:0:0:
448,192,149441,1,0,0:0:0:0:
448,192,149613,1,0,0:0:0:0:
320,192,149699,1,0,0:0:0:0:
448,192,149786,1,0,0:0:0:0:
64,192,149786,1,0,0:0:0:0:
320,192,149872,1,0,0:0:0:0:
192,192,149872,1,0,0:0:0:0:
448,192,149958,1,0,0:0:0:0:
64,192,149958,1,0,0:0:0:0:
320,192,150045,1,0,0:0:0:0:
192,192,150045,1,0,0:0:0:0:
64,192,150131,1,0,0:0:0:0:
320,192,150217,1,0,0:0:0:0:
192,192,150217,1,0,0:0:0:0:
448,192,150303,1,0,0:0:0:0:
64,192,150303,1,0,0:0:0:0:
192,192,150389,1,0,0:0:0:0:
320,192,150389,1,0,0:0:0:0:
448,192,150476,1,0,0:0:0:0:
320,192,150562,1,0,0:0:0:0:
192,192,150562,1,0,0:0:0:0:
448,192,150648,1,0,0:0:0:0:
64,192,150648,1,0,0:0:0:0:
192,192,150734,1,0,0:0:0:0:
320,192,150734,1,0,0:0:0:0:
64,192,150820,1,0,0:0:0:0:
192,192,150907,1,0,0:0:0:0:
320,192,150907,1,0,0:0:0:0:
448,192,150993,1,0,0:0:0:0:
320,192,151036,1,0,0:0:0:0:
64,192,151079,1,0,0:0:0:0:
192,192,151122,1,0,0:0:0:0:
320,192,151165,1,0,0:0:0:0:
448,192,151208,1,0,0:0:0:0:
192,192,151251,1,0,0:0:0:0:
64,192,151294,1,0,0:0:0:0:
320,192,151337,1,0,0:0:0:0:
448,192,151380,1,0,0:0:0:0:
192,192,151423,1,0,0:0:0:0:
320,192,151466,1,0,0:0:0:0:
448,192,151509,1,0,0:0:0:0:
192,192,151552,1,0,0:0:0:0:
320,192,151595,1,0,0:0:0:0:
64,192,151638,1,0,0:0:0:0:
448,192,151660,1,0,0:0:0:0:
320,192,151726,1,0,0:0:0:0:
192,192,151769,1,0,0:0:0:0:
448,192,151833,1,0,0:0:0:0:
448,192,151941,1,0,0:0:0:0:
448,192,152049,1,0,0:0:0:0:
448,192,152243,1,0,0:0:0:0:
448,192,152372,128,0,153058:0:0:0:0:
320,192,152372,128,0,153058:0:0:0:0:
192,192,152372,128,0,153058:0:0:0:0:
64,192,152372,128,0,153058:0:0:0:0:
448,192,153751,1,0,0:0:0:0:
320,192,153751,1,0,0:0:0:0:
192,192,153751,1,0,0:0:0:0:
64,192,153751,1,0,0:0:0:0:
64,192,153837,1,0,0:0:0:0:
192,192,153923,1,0,0:0:0:0:
320,192,154009,1,0,0:0:0:0:
448,192,154095,1,0,0:0:0:0:
320,192,154182,1,0,0:0:0:0:
448,192,154268,1,0,0:0:0:0:
320,192,154268,1,0,0:0:0:0:
64,192,154268,1,0,0:0:0:0:
192,192,154268,1,0,0:0:0:0:
64,192,154354,1,0,0:0:0:0:
320,192,154440,1,0,0:0:0:0:
192,192,154526,1,0,0:0:0:0:
448,192,154613,1,0,0:0:0:0:
320,192,154699,1,0,0:0:0:0:
448,192,154785,1,0,0:0:0:0:
192,192,154785,1,0,0:0:0:0:
64,192,154785,1,0,0:0:0:0:
320,192,154785,1,0,0:0:0:0:
192,192,154871,1,0,0:0:0:0:
320,192,154900,1,0,0:0:0:0:
448,192,154957,1,0,0:0:0:0:
192,192,155001,1,0,0:0:0:0:
64,192,155044,1,0,0:0:0:0:
320,192,155087,1,0,0:0:0:0:
448,192,155130,1,0,0:0:0:0:
192,192,155187,1,0,0:0:0:0:
320,192,155245,1,0,0:0:0:0:
64,192,155302,1,0,0:0:0:0:
192,192,155360,1,0,0:0:0:0:
320,192,155417,1,0,0:0:0:0:
448,192,155472,1,0,0:0:0:0:
448,192,156509,1,0,0:0:0:0:
320,192,156509,1,0,0:0:0:0:
192,192,156509,1,0,0:0:0:0:
64,192,156509,1,0,0:0:0:0:
64,192,156595,1,0,0:0:0:0:
192,192,156595,1,0,0:0:0:0:
320,192,156681,1,0,0:0:0:0:
448,192,156767,1,0,0:0:0:0:
320,192,156853,1,0,0:0:0:0:
192,192,156853,1,0,0:0:0:0:
64,192,156940,1,0,0:0:0:0:
448,192,157026,1,0,0:0:0:0:
320,192,157026,1,0,0:0:0:0:
192,192,157026,1,0,0:0:0:0:
64,192,157026,1,0,0:0:0:0:
448,192,157112,1,0,0:0:0:0:
320,192,157112,1,0,0:0:0:0:
64,192,157198,1,0,0:0:0:0:
192,192,157284,1,0,0:0:0:0:
320,192,157371,1,0,0:0:0:0:
448,192,157371,1,0,0:0:0:0:
64,192,157457,1,0,0:0:0:0:
320,192,157543,1,0,0:0:0:0:
192,192,157543,1,0,0:0:0:0:
64,192,157543,1,0,0:0:0:0:
448,192,157543,1,0,0:0:0:0:
448,192,157629,1,0,0:0:0:0:
64,192,157672,1,0,0:0:0:0:
320,192,157715,1,0,0:0:0:0:
192,192,157773,1,0,0:0:0:0:
448,192,157802,1,0,0:0:0:0:
320,192,157845,1,0,0:0:0:0:
64,192,157888,1,0,0:0:0:0:
448,192,157931,1,0,0:0:0:0:
320,192,157974,1,0,0:0:0:0:
192,192,158017,1,0,0:0:0:0:
64,192,158060,1,0,0:0:0:0:
320,192,158103,1,0,0:0:0:0:
192,192,158146,1,0,0:0:0:0:
320,192,158190,1,0,0:0:0:0:
448,192,158230,1,0,0:0:0:0:
320,192,159266,1,0,0:0:0:0:
192,192,159266,1,0,0:0:0:0:
64,192,159266,1,0,0:0:0:0:
448,192,159266,1,0,0:0:0:0:
448,192,159352,1,0,0:0:0:0:
64,192,159352,1,0,0:0:0:0:
320,192,159438,1,0,0:0:0:0:
192,192,159524,1,0,0:0:0:0:
320,192,159610,1,0,0:0:0:0:
64,192,159610,1,0,0:0:0:0:
448,192,159697,1,0,0:0:0:0:
448,192,159783,1,0,0:0:0:0:
320,192,159783,1,0,0:0:0:0:
192,192,159783,1,0,0:0:0:0:
64,192,159783,1,0,0:0:0:0:
64,192,159869,1,0,0:0:0:0:
192,192,159869,1,0,0:0:0:0:
320,192,159955,1,0,0:0:0:0:
192,192,160013,1,0,0:0:0:0:
320,192,160070,1,0,0:0:0:0:
448,192,160128,1,0,0:0:0:0:
64,192,160214,1,0,0:0:0:0:
448,192,160300,1,0,0:0:0:0:
320,192,160300,1,0,0:0:0:0:
192,192,160300,1,0,0:0:0:0:
64,192,160300,1,0,0:0:0:0:
320,192,160386,1,0,0:0:0:0:
192,192,160415,1,0,0:0:0:0:
64,192,160472,1,0,0:0:0:0:
448,192,160472,1,0,0:0:0:0:
320,192,160530,1,0,0:0:0:0:
192,192,160559,1,0,0:0:0:0:
320,192,160645,1,0,0:0:0:0:
64,192,160688,1,0,0:0:0:0:
192,192,160731,1,0,0:0:0:0:
448,192,160774,1,0,0:0:0:0:
320,192,160817,1,0,0:0:0:0:
64,192,160860,1,0,0:0:0:0:
448,192,160903,1,0,0:0:0:0:
192,192,160947,1,0,0:0:0:0:
320,192,160990,128,0,161171:0:0:0:0:
192,192,161171,128,0,161248:0:0:0:0:
320,192,161248,128,0,161351:0:0:0:0:
64,192,161351,1,0,0:0:0:0:
448,192,161351,128,0,161429:0:0:0:0:
320,192,161429,128,0,161515:0:0:0:0:
192,192,161515,128,0,161602:0:0:0:0:
320,192,161602,128,0,161688:0:0:0:0:
192,192,161688,128,0,161774:0:0:0:0:
64,192,161774,128,0,161861:0:0:0:0:
192,192,161860,128,0,161946:0:0:0:0:
320,192,161946,128,0,162027:0:0:0:0:
448,192,162027,128,0,163406:0:0:0:0:
192,192,162027,1,0,0:0:0:0:
64,192,162027,1,0,0:0:0:0:
192,192,162371,1,0,0:0:0:0:
64,192,162371,1,0,0:0:0:0:
192,192,162716,128,0,163061:0:0:0:0:
320,192,162716,1,0,0:0:0:0:
64,192,162889,1,0,0:0:0:0:
320,192,163061,1,0,0:0:0:0:
64,192,163061,1,0,0:0:0:0:
192,192,163147,1,0,0:0:0:0:
64,192,163233,1,0,0:0:0:0:
192,192,163320,1,0,0:0:0:0:
320,192,163406,1,0,0:0:0:0:
64,192,163406,1,0,0:0:0:0:
448,192,163492,1,0,0:0:0:0:
192,192,163578,1,0,0:0:0:0:
64,192,163578,1,0,0:0:0:0:
320,192,163664,1,0,0:0:0:0:
192,192,163751,1,0,0:0:0:0:
64,192,163751,1,0,0:0:0:0:
448,192,163751,1,0,0:0:0:0:
320,192,163837,1,0,0:0:0:0:
64,192,163923,1,0,0:0:0:0:
448,192,163923,1,0,0:0:0:0:
192,192,164009,1,0,0:0:0:0:
448,192,164095,1,0,0:0:0:0:
320,192,164095,1,0,0:0:0:0:
192,192,164182,1,0,0:0:0:0:
64,192,164268,1,0,0:0:0:0:
448,192,164268,1,0,0:0:0:0:
320,192,164354,1,0,0:0:0:0:
192,192,164440,1,0,0:0:0:0:
64,192,164440,1,0,0:0:0:0:
448,192,164440,1,0,0:0:0:0:
320,192,164498,1,0,0:0:0:0:
448,192,164555,1,0,0:0:0:0:
64,192,164555,1,0,0:0:0:0:
192,192,164613,1,0,0:0:0:0:
64,192,164670,1,0,0:0:0:0:
320,192,164670,1,0,0:0:0:0:
448,192,164728,1,0,0:0:0:0:
320,192,164785,1,0,0:0:0:0:
64,192,164785,1,0,0:0:0:0:
192,192,164871,1,0,0:0:0:0:
448,192,164958,1,0,0:0:0:0:
320,192,164958,1,0,0:0:0:0:
192,192,165044,1,0,0:0:0:0:
64,192,165130,1,0,0:0:0:0:
448,192,165130,1,0,0:0:0:0:
320,192,165130,1,0,0:0:0:0:
192,192,165216,1,0,0:0:0:0:
64,192,165302,1,0,0:0:0:0:
448,192,165302,1,0,0:0:0:0:
320,192,165389,1,0,0:0:0:0:
192,192,165475,1,0,0:0:0:0:
64,192,165475,1,0,0:0:0:0:
320,192,165561,1,0,0:0:0:0:
448,192,165647,1,0,0:0:0:0:
192,192,165647,1,0,0:0:0:0:
64,192,165733,1,0,0:0:0:0:
448,192,165820,1,0,0:0:0:0:
320,192,165820,1,0,0:0:0:0:
192,192,165820,1,0,0:0:0:0:
64,192,165877,1,0,0:0:0:0:
192,192,165935,1,0,0:0:0:0:
448,192,165935,1,0,0:0:0:0:
320,192,165992,1,0,0:0:0:0:
448,192,166049,1,0,0:0:0:0:
64,192,166049,1,0,0:0:0:0:
192,192,166107,1,0,0:0:0:0:
64,192,166164,1,0,0:0:0:0:
448,192,166164,1,0,0:0:0:0:
320,192,166251,1,0,0:0:0:0:
192,192,166337,1,0,0:0:0:0:
64,192,166337,1,0,0:0:0:0:
320,192,166423,1,0,0:0:0:0:
448,192,166509,1,0,0:0:0:0:
192,192,166509,1,0,0:0:0:0:
64,192,166509,1,0,0:0:0:0:
320,192,166595,1,0,0:0:0:0:
448,192,166682,1,0,0:0:0:0:
64,192,166682,1,0,0:0:0:0:
192,192,166768,1,0,0:0:0:0:
448,192,166854,1,0,0:0:0:0:
320,192,166854,1,0,0:0:0:0:
64,192,166940,1,0,0:0:0:0:
192,192,167027,1,0,0:0:0:0:
448,192,167027,1,0,0:0:0:0:
320,192,167113,1,0,0:0:0:0:
192,192,167199,1,0,0:0:0:0:
64,192,167199,1,0,0:0:0:0:
448,192,167199,1,0,0:0:0:0:
320,192,167256,1,0,0:0:0:0:
448,192,167314,1,0,0:0:0:0:
64,192,167314,1,0,0:0:0:0:
192,192,167371,1,0,0:0:0:0:
320,192,167429,1,0,0:0:0:0:
64,192,167429,1,0,0:0:0:0:
448,192,167486,1,0,0:0:0:0:
320,192,167544,1,0,0:0:0:0:
192,192,167544,1,0,0:0:0:0:
64,192,167544,1,0,0:0:0:0:
448,192,167630,1,0,0:0:0:0:
320,192,167716,1,0,0:0:0:0:
192,192,167716,1,0,0:0:0:0:
64,192,167802,1,0,0:0:0:0:
192,192,167889,1,0,0:0:0:0:
448,192,167889,1,0,0:0:0:0:
320,192,167889,1,0,0:0:0:0:
64,192,167975,1,0,0:0:0:0:
192,192,168061,1,0,0:0:0:0:
448,192,168061,1,0,0:0:0:0:
320,192,168147,1,0,0:0:0:0:
192,192,168233,1,0,0:0:0:0:
64,192,168233,1,0,0:0:0:0:
320,192,168320,1,0,0:0:0:0:
448,192,168406,1,0,0:0:0:0:
64,192,168406,1,0,0:0:0:0:
192,192,168492,1,0,0:0:0:0:
448,192,168578,1,0,0:0:0:0:
320,192,168578,1,0,0:0:0:0:
64,192,168578,1,0,0:0:0:0:
192,192,168636,1,0,0:0:0:0:
320,192,168693,1,0,0:0:0:0:
448,192,168693,1,0,0:0:0:0:
192,192,168751,1,0,0:0:0:0:
64,192,168808,1,0,0:0:0:0:
320,192,168866,1,0,0:0:0:0:
192,192,168923,1,0,0:0:0:0:
64,192,168923,1,0,0:0:0:0:
448,192,168923,1,0,0:0:0:0:
320,192,169009,1,0,0:0:0:0:
192,192,169095,1,0,0:0:0:0:
64,192,169095,1,0,0:0:0:0:
320,192,169182,1,0,0:0:0:0:
448,192,169268,1,0,0:0:0:0:
192,192,169268,1,0,0:0:0:0:
64,192,169268,1,0,0:0:0:0:
320,192,169354,1,0,0:0:0:0:
192,192,169440,1,0,0:0:0:0:
64,192,169440,1,0,0:0:0:0:
320,192,169527,1,0,0:0:0:0:
448,192,169613,1,0,0:0:0:0:
192,192,169613,1,0,0:0:0:0:
64,192,169613,1,0,0:0:0:0:
320,192,169699,1,0,0:0:0:0:
192,192,169785,1,0,0:0:0:0:
64,192,169785,1,0,0:0:0:0:
320,192,169871,1,0,0:0:0:0:
448,192,169958,1,0,0:0:0:0:
192,192,169958,1,0,0:0:0:0:
64,192,169958,1,0,0:0:0:0:
320,192,170044,1,0,0:0:0:0:
64,192,170130,1,0,0:0:0:0:
448,192,170130,1,0,0:0:0:0:
192,192,170216,1,0,0:0:0:0:
448,192,170302,1,0,0:0:0:0:
320,192,170302,1,0,0:0:0:0:
64,192,170302,1,0,0:0:0:0:
192,192,170389,1,0,0:0:0:0:
448,192,170475,1,0,0:0:0:0:
320,192,170475,1,0,0:0:0:0:
192,192,170561,1,0,0:0:0:0:
64,192,170647,1,0,0:0:0:0:
448,192,170647,1,0,0:0:0:0:
320,192,170647,1,0,0:0:0:0:
192,192,170733,1,0,0:0:0:0:
320,192,170820,1,0,0:0:0:0:
448,192,170820,1,0,0:0:0:0:
192,192,170906,1,0,0:0:0:0:
64,192,170992,1,0,0:0:0:0:
448,192,170992,1,0,0:0:0:0:
320,192,170992,1,0,0:0:0:0:
192,192,171078,1,0,0:0:0:0:
448,192,171164,1,0,0:0:0:0:
320,192,171164,1,0,0:0:0:0:
192,192,171251,1,0,0:0:0:0:
64,192,171337,1,0,0:0:0:0:
448,192,171337,1,0,0:0:0:0:
320,192,171423,1,0,0:0:0:0:
192,192,171509,1,0,0:0:0:0:
64,192,171509,1,0,0:0:0:0:
320,192,171595,1,0,0:0:0:0:
448,192,171682,1,0,0:0:0:0:
64,192,171682,1,0,0:0:0:0:
192,192,171768,1,0,0:0:0:0:
320,192,171768,1,0,0:0:0:0:
64,192,171854,1,0,0:0:0:0:
448,192,171854,1,0,0:0:0:0:
192,192,171940,1,0,0:0:0:0:
320,192,171940,1,0,0:0:0:0:
64,192,172027,1,0,0:0:0:0:
448,192,172113,1,0,0:0:0:0:
320,192,172113,1,0,0:0:0:0:
192,192,172199,1,0,0:0:0:0:
64,192,172199,1,0,0:0:0:0:
320,192,172285,1,0,0:0:0:0:
448,192,172285,1,0,0:0:0:0:
192,192,172371,1,0,0:0:0:0:
64,192,172414,1,0,0:0:0:0:
320,192,172457,1,0,0:0:0:0:
448,192,172500,1,0,0:0:0:0:
192,192,172543,1,0,0:0:0:0:
320,192,172586,1,0,0:0:0:0:
448,192,172629,1,0,0:0:0:0:
192,192,172672,1,0,0:0:0:0:
64,192,172716,1,0,0:0:0:0:
320,192,172759,1,0,0:0:0:0:
448,192,172802,1,0,0:0:0:0:
192,192,172845,1,0,0:0:0:0:
320,192,172888,1,0,0:0:0:0:
64,192,172931,1,0,0:0:0:0:
192,192,172974,1,0,0:0:0:0:
320,192,173017,1,0,0:0:0:0:
448,192,173039,1,0,0:0:0:0:
192,192,173039,1,0,0:0:0:0:
64,192,173039,1,0,0:0:0:0:
320,192,173148,1,0,0:0:0:0:
448,192,173234,1,0,0:0:0:0:
320,192,173320,1,0,0:0:0:0:
192,192,173349,1,0,0:0:0:0:
448,192,173406,1,0,0:0:0:0:
64,192,173406,1,0,0:0:0:0:
320,192,173464,1,0,0:0:0:0:
192,192,173521,1,0,0:0:0:0:
448,192,173837,1,0,0:0:0:0:
320,192,173880,1,0,0:0:0:0:
64,192,173924,1,0,0:0:0:0:
64,192,174010,1,0,0:0:0:0:
448,192,174096,1,0,0:0:0:0:
192,192,174096,1,0,0:0:0:0:
320,192,174182,1,0,0:0:0:0:
192,192,174268,1,0,0:0:0:0:
64,192,174268,1,0,0:0:0:0:
320,192,174355,1,0,0:0:0:0:
448,192,174441,1,0,0:0:0:0:
192,192,174441,1,0,0:0:0:0:
64,192,174441,1,0,0:0:0:0:
320,192,174527,1,0,0:0:0:0:
448,192,174613,1,0,0:0:0:0:
64,192,174613,1,0,0:0:0:0:
192,192,174671,1,0,0:0:0:0:
320,192,174728,1,0,0:0:0:0:
448,192,174786,1,0,0:0:0:0:
64,192,174786,1,0,0:0:0:0:
192,192,174872,1,0,0:0:0:0:
320,192,174958,1,0,0:0:0:0:
448,192,174958,1,0,0:0:0:0:
192,192,175016,1,0,0:0:0:0:
64,192,175073,1,0,0:0:0:0:
448,192,175130,1,0,0:0:0:0:
320,192,175130,1,0,0:0:0:0:
192,192,175217,1,0,0:0:0:0:
448,192,175303,1,0,0:0:0:0:
64,192,175303,1,0,0:0:0:0:
192,192,175360,1,0,0:0:0:0:
320,192,175418,1,0,0:0:0:0:
448,192,175475,1,0,0:0:0:0:
64,192,175475,1,0,0:0:0:0:
192,192,175562,1,0,0:0:0:0:
448,192,175648,1,0,0:0:0:0:
64,192,175648,1,0,0:0:0:0:
320,192,175705,1,0,0:0:0:0:
192,192,175763,1,0,0:0:0:0:
448,192,175820,1,0,0:0:0:0:
64,192,175820,1,0,0:0:0:0:
192,192,175906,1,0,0:0:0:0:
448,192,175993,1,0,0:0:0:0:
320,192,175993,1,0,0:0:0:0:
192,192,176050,1,0,0:0:0:0:
64,192,176107,1,0,0:0:0:0:
448,192,176165,1,0,0:0:0:0:
192,192,176165,1,0,0:0:0:0:
320,192,176251,1,0,0:0:0:0:
192,192,176337,1,0,0:0:0:0:
64,192,176337,1,0,0:0:0:0:
320,192,176395,1,0,0:0:0:0:
448,192,176452,1,0,0:0:0:0:
320,192,176510,1,0,0:0:0:0:
64,192,176510,1,0,0:0:0:0:
192,192,176596,1,0,0:0:0:0:
64,192,176682,1,0,0:0:0:0:
448,192,176682,1,0,0:0:0:0:
320,192,176740,1,0,0:0:0:0:
192,192,176797,1,0,0:0:0:0:
448,192,176855,1,0,0:0:0:0:
320,192,176855,1,0,0:0:0:0:
192,192,176941,1,0,0:0:0:0:
448,192,177027,1,0,0:0:0:0:
320,192,177027,1,0,0:0:0:0:
192,192,177084,1,0,0:0:0:0:
64,192,177142,1,0,0:0:0:0:
448,192,177199,1,0,0:0:0:0:
192,192,177199,1,0,0:0:0:0:
320,192,177286,1,0,0:0:0:0:
192,192,177372,1,0,0:0:0:0:
64,192,177372,1,0,0:0:0:0:
448,192,177429,1,0,0:0:0:0:
320,192,177487,1,0,0:0:0:0:
192,192,177544,1,0,0:0:0:0:
64,192,177544,1,0,0:0:0:0:
320,192,177630,1,0,0:0:0:0:
448,192,177717,1,0,0:0:0:0:
64,192,177717,1,0,0:0:0:0:
192,192,177774,1,0,0:0:0:0:
320,192,177832,1,0,0:0:0:0:
448,192,177889,1,0,0:0:0:0:
64,192,177889,1,0,0:0:0:0:
192,192,177975,1,0,0:0:0:0:
64,192,178062,1,0,0:0:0:0:
448,192,178062,1,0,0:0:0:0:
320,192,178119,1,0,0:0:0:0:
192,192,178176,1,0,0:0:0:0:
320,192,178234,1,0,0:0:0:0:
64,192,178234,1,0,0:0:0:0:
192,192,178320,1,0,0:0:0:0:
320,192,178406,1,0,0:0:0:0:
448,192,178406,1,0,0:0:0:0:
64,192,178464,1,0,0:0:0:0:
192,192,178521,1,0,0:0:0:0:
448,192,178579,1,0,0:0:0:0:
320,192,178579,1,0,0:0:0:0:
192,192,178665,1,0,0:0:0:0:
64,192,178751,1,0,0:0:0:0:
320,192,178751,1,0,0:0:0:0:
448,192,178809,1,0,0:0:0:0:
192,192,178866,1,0,0:0:0:0:
320,192,178924,1,0,0:0:0:0:
448,192,178924,1,0,0:0:0:0:
64,192,179010,1,0,0:0:0:0:
192,192,179096,1,0,0:0:0:0:
448,192,179096,1,0,0:0:0:0:
320,192,179153,1,0,0:0:0:0:
192,192,179211,1,0,0:0:0:0:
448,192,179268,1,0,0:0:0:0:
64,192,179268,1,0,0:0:0:0:
192,192,179355,1,0,0:0:0:0:
64,192,179441,1,0,0:0:0:0:
448,192,179441,1,0,0:0:0:0:
320,192,179498,1,0,0:0:0:0:
192,192,179556,1,0,0:0:0:0:
64,192,179613,1,0,0:0:0:0:
448,192,179613,1,0,0:0:0:0:
320,192,179656,1,0,0:0:0:0:
192,192,179699,1,0,0:0:0:0:
448,192,179743,1,0,0:0:0:0:
320,192,179786,1,0,0:0:0:0:
64,192,179829,1,0,0:0:0:0:
192,192,179872,1,0,0:0:0:0:
320,192,179915,1,0,0:0:0:0:
448,192,179958,1,0,0:0:0:0:
64,192,179958,1,0,0:0:0:0:
192,192,180044,1,0,0:0:0:0:
448,192,180130,1,0,0:0:0:0:
320,192,180130,1,0,0:0:0:0:
192,192,180188,1,0,0:0:0:0:
64,192,180245,1,0,0:0:0:0:
448,192,180303,1,0,0:0:0:0:
320,192,180303,1,0,0:0:0:0:
192,192,180389,1,0,0:0:0:0:
320,192,180475,1,0,0:0:0:0:
64,192,180475,1,0,0:0:0:0:
192,192,180533,1,0,0:0:0:0:
448,192,180590,1,0,0:0:0:0:
320,192,180648,1,0,0:0:0:0:
64,192,180648,1,0,0:0:0:0:
192,192,180734,1,0,0:0:0:0:
320,192,180820,1,0,0:0:0:0:
448,192,180820,1,0,0:0:0:0:
192,192,180878,1,0,0:0:0:0:
64,192,180935,1,0,0:0:0:0:
448,192,180993,1,0,0:0:0:0:
320,192,180993,1,0,0:0:0:0:
192,192,181079,1,0,0:0:0:0:
64,192,181165,1,0,0:0:0:0:
320,192,181165,1,0,0:0:0:0:
448,192,181222,1,0,0:0:0:0:
192,192,181280,1,0,0:0:0:0:
320,192,181337,1,0,0:0:0:0:
448,192,181337,1,0,0:0:0:0:
192,192,181424,1,0,0:0:0:0:
64,192,181510,1,0,0:0:0:0:
448,192,181510,1,0,0:0:0:0:
320,192,181567,1,0,0:0:0:0:
192,192,181625,1,0,0:0:0:0:
448,192,181682,1,0,0:0:0:0:
320,192,181682,1,0,0:0:0:0:
64,192,181682,1,0,0:0:0:0:
192,192,181768,1,0,0:0:0:0:
64,192,181855,1,0,0:0:0:0:
448,192,181855,1,0,0:0:0:0:
320,192,181912,1,0,0:0:0:0:
192,192,181970,1,0,0:0:0:0:
64,192,182027,1,0,0:0:0:0:
448,192,182027,1,0,0:0:0:0:
320,192,182113,1,0,0:0:0:0:
192,192,182113,1,0,0:0:0:0:
448,192,182199,1,0,0:0:0:0:
64,192,182199,1,0,0:0:0:0:
192,192,182257,1,0,0:0:0:0:
320,192,182314,1,0,0:0:0:0:
448,192,182372,1,0,0:0:0:0:
64,192,182372,1,0,0:0:0:0:
192,192,182458,1,0,0:0:0:0:
320,192,182544,1,0,0:0:0:0:
448,192,182544,1,0,0:0:0:0:
192,192,182602,1,0,0:0:0:0:
64,192,182659,1,0,0:0:0:0:
448,192,182717,1,0,0:0:0:0:
320,192,182717,1,0,0:0:0:0:
192,192,182803,1,0,0:0:0:0:
320,192,182889,1,0,0:0:0:0:
448,192,182889,1,0,0:0:0:0:
192,192,182947,1,0,0:0:0:0:
64,192,183004,1,0,0:0:0:0:
320,192,183062,1,0,0:0:0:0:
448,192,183105,1,0,0:0:0:0:
192,192,183148,1,0,0:0:0:0:
64,192,183191,1,0,0:0:0:0:
320,192,183234,1,0,0:0:0:0:
448,192,183277,1,0,0:0:0:0:
192,192,183320,1,0,0:0:0:0:
320,192,183363,1,0,0:0:0:0:
448,192,183406,1,0,0:0:0:0:
64,192,183406,1,0,0:0:0:0:
192,192,183493,1,0,0:0:0:0:
320,192,183521,1,0,0:0:0:0:
448,192,183600,1,0,0:0:0:0:
320,192,183665,1,0,0:0:0:0:
192,192,183665,1,0,0:0:0:0:
448,192,183751,1,0,0:0:0:0:
64,192,183751,1,0,0:0:0:0:
192,192,183837,1,0,0:0:0:0:
448,192,183924,1,0,0:0:0:0:
320,192,183924,1,0,0:0:0:0:
64,192,183981,1,0,0:0:0:0:
192,192,184039,1,0,0:0:0:0:
64,192,184096,1,0,0:0:0:0:
320,192,184096,1,0,0:0:0:0:
192,192,184182,1,0,0:0:0:0:
448,192,184268,1,0,0:0:0:0:
320,192,184268,1,0,0:0:0:0:
192,192,184326,1,0,0:0:0:0:
64,192,184383,1,0,0:0:0:0:
448,192,184441,1,0,0:0:0:0:
320,192,184441,1,0,0:0:0:0:
64,192,184498,1,0,0:0:0:0:
192,192,184556,1,0,0:0:0:0:
448,192,184613,1,0,0:0:0:0:
320,192,184613,1,0,0:0:0:0:
448,192,184699,1,0,0:0:0:0:
320,192,184699,1,0,0:0:0:0:
64,192,184743,1,0,0:0:0:0:
192,192,184786,1,0,0:0:0:0:
320,192,184829,1,0,0:0:0:0:
448,192,184872,1,0,0:0:0:0:
192,192,184915,1,0,0:0:0:0:
64,192,184958,1,0,0:0:0:0:
448,192,184987,1,0,0:0:0:0:
320,192,185016,1,0,0:0:0:0:
192,192,185044,1,0,0:0:0:0:
64,192,185073,1,0,0:0:0:0:
448,192,185475,1,0,0:0:0:0:
320,192,185475,1,0,0:0:0:0:
64,192,185475,1,0,0:0:0:0:
192,192,185562,1,0,0:0:0:0:
448,192,185648,1,0,0:0:0:0:
64,192,185648,1,0,0:0:0:0:
320,192,185734,1,0,0:0:0:0:
192,192,185820,1,0,0:0:0:0:
64,192,185820,1,0,0:0:0:0:
448,192,185820,1,0,0:0:0:0:
320,192,185820,1,0,0:0:0:0:
192,192,185906,1,0,0:0:0:0:
320,192,185993,1,0,0:0:0:0:
448,192,185993,1,0,0:0:0:0:
64,192,186079,1,0,0:0:0:0:
192,192,186165,1,0,0:0:0:0:
448,192,186165,1,0,0:0:0:0:
320,192,186165,1,0,0:0:0:0:
64,192,186251,1,0,0:0:0:0:
448,192,186337,1,0,0:0:0:0:
320,192,186337,1,0,0:0:0:0:
192,192,186424,1,0,0:0:0:0:
64,192,186510,1,0,0:0:0:0:
448,192,186510,1,0,0:0:0:0:
320,192,186510,1,0,0:0:0:0:
192,192,186510,1,0,0:0:0:0:
448,192,186596,1,0,0:0:0:0:
320,192,186682,1,0,0:0:0:0:
192,192,186682,1,0,0:0:0:0:
64,192,186768,1,0,0:0:0:0:
448,192,186855,1,0,0:0:0:0:
320,192,186855,1,0,0:0:0:0:
192,192,186855,1,0,0:0:0:0:
64,192,186941,1,0,0:0:0:0:
448,192,187027,1,0,0:0:0:0:
192,192,187027,1,0,0:0:0:0:
320,192,187113,1,0,0:0:0:0:
192,192,187199,1,0,0:0:0:0:
64,192,187199,1,0,0:0:0:0:
448,192,187199,1,0,0:0:0:0:
320,192,187199,1,0,0:0:0:0:
64,192,187286,1,0,0:0:0:0:
448,192,187372,1,0,0:0:0:0:
192,192,187372,1,0,0:0:0:0:
320,192,187458,1,0,0:0:0:0:
192,192,187544,1,0,0:0:0:0:
64,192,187544,1,0,0:0:0:0:
448,192,187544,1,0,0:0:0:0:
320,192,187630,1,0,0:0:0:0:
64,192,187717,1,0,0:0:0:0:
192,192,187717,1,0,0:0:0:0:
448,192,187803,1,0,0:0:0:0:
448,192,187889,1,0,0:0:0:0:
320,192,187889,1,0,0:0:0:0:
192,192,187889,1,0,0:0:0:0:
64,192,187889,1,0,0:0:0:0:
64,192,187975,1,0,0:0:0:0:
192,192,188062,1,0,0:0:0:0:
320,192,188062,1,0,0:0:0:0:
448,192,188148,1,0,0:0:0:0:
192,192,188234,1,0,0:0:0:0:
64,192,188234,1,0,0:0:0:0:
320,192,188234,1,0,0:0:0:0:
448,192,188320,1,0,0:0:0:0:
320,192,188406,1,0,0:0:0:0:
192,192,188406,1,0,0:0:0:0:
64,192,188493,1,0,0:0:0:0:
448,192,188579,1,0,0:0:0:0:
320,192,188579,1,0,0:0:0:0:
192,192,188579,1,0,0:0:0:0:
64,192,188579,1,0,0:0:0:0:
320,192,188665,1,0,0:0:0:0:
192,192,188751,1,0,0:0:0:0:
64,192,188751,1,0,0:0:0:0:
448,192,188837,1,0,0:0:0:0:
320,192,188924,1,0,0:0:0:0:
192,192,188924,1,0,0:0:0:0:
64,192,188924,1,0,0:0:0:0:
448,192,189010,1,0,0:0:0:0:
320,192,189096,1,0,0:0:0:0:
64,192,189096,1,0,0:0:0:0:
192,192,189182,1,0,0:0:0:0:
448,192,189268,1,0,0:0:0:0:
320,192,189268,1,0,0:0:0:0:
192,192,189268,1,0,0:0:0:0:
64,192,189268,1,0,0:0:0:0:
448,192,189355,1,0,0:0:0:0:
320,192,189441,1,0,0:0:0:0:
64,192,189441,1,0,0:0:0:0:
192,192,189527,1,0,0:0:0:0:
64,192,189613,1,0,0:0:0:0:
448,192,189613,1,0,0:0:0:0:
320,192,189613,1,0,0:0:0:0:
192,192,189699,1,0,0:0:0:0:
64,192,189786,1,0,0:0:0:0:
320,192,189786,1,0,0:0:0:0:
448,192,189872,1,0,0:0:0:0:
448,192,189958,1,0,0:0:0:0:
320,192,189958,1,0,0:0:0:0:
192,192,189958,1,0,0:0:0:0:
64,192,189958,1,0,0:0:0:0:
192,192,190044,1,0,0:0:0:0:
448,192,190130,1,0,0:0:0:0:
320,192,190130,1,0,0:0:0:0:
64,192,190217,1,0,0:0:0:0:
192,192,190303,1,0,0:0:0:0:
320,192,190303,1,0,0:0:0:0:
448,192,190303,1,0,0:0:0:0:
64,192,190389,1,0,0:0:0:0:
448,192,190475,1,0,0:0:0:0:
192,192,190475,1,0,0:0:0:0:
320,192,190475,1,0,0:0:0:0:
64,192,190562,1,0,0:0:0:0:
320,192,190648,1,0,0:0:0:0:
192,192,190705,1,0,0:0:0:0:
448,192,190734,1,0,0:0:0:0:
64,192,190763,1,0,0:0:0:0:
320,192,190820,1,0,0:0:0:0:
192,192,190820,1,0,0:0:0:0:
64,192,190878,1,0,0:0:0:0:
448,192,190906,1,0,0:0:0:0:
192,192,190935,1,0,0:0:0:0:
448,192,190993,1,0,0:0:0:0:
320,192,190993,1,0,0:0:0:0:
192,192,191079,1,0,0:0:0:0:
320,192,191165,1,0,0:0:0:0:
192,192,191222,1,0,0:0:0:0:
320,192,191280,1,0,0:0:0:0:
448,192,191337,1,0,0:0:0:0:
192,192,191337,1,0,0:0:0:0:
64,192,191337,1,0,0:0:0:0:
320,192,191424,1,0,0:0:0:0:
64,192,191510,1,0,0:0:0:0:
192,192,191510,1,0,0:0:0:0:
320,192,191567,1,0,0:0:0:0:
64,192,191625,1,0,0:0:0:0:
448,192,191682,1,0,0:0:0:0:
320,192,191682,1,0,0:0:0:0:
192,192,191682,1,0,0:0:0:0:
64,192,191768,1,0,0:0:0:0:
448,192,191855,1,0,0:0:0:0:
320,192,191855,1,0,0:0:0:0:
192,192,191912,1,0,0:0:0:0:
448,192,191970,1,0,0:0:0:0:
192,192,192027,1,0,0:0:0:0:
64,192,192027,1,0,0:0:0:0:
320,192,192027,1,0,0:0:0:0:
448,192,192113,1,0,0:0:0:0:
192,192,192199,1,0,0:0:0:0:
64,192,192199,1,0,0:0:0:0:
320,192,192257,1,0,0:0:0:0:
192,192,192314,1,0,0:0:0:0:
320,192,192372,1,0,0:0:0:0:
448,192,192372,1,0,0:0:0:0:
64,192,192372,1,0,0:0:0:0:
192,192,192458,1,0,0:0:0:0:
320,192,192544,1,0,0:0:0:0:
448,192,192544,1,0,0:0:0:0:
64,192,192602,1,0,0:0:0:0:
448,192,192659,1,0,0:0:0:0:
320,192,192717,1,0,0:0:0:0:
192,192,192717,1,0,0:0:0:0:
64,192,192717,1,0,0:0:0:0:
448,192,192803,1,0,0:0:0:0:
64,192,192889,1,0,0:0:0:0:
192,192,192889,1,0,0:0:0:0:
320,192,192947,1,0,0:0:0:0:
64,192,193004,1,0,0:0:0:0:
448,192,193062,1,0,0:0:0:0:
320,192,193062,1,0,0:0:0:0:
192,192,193062,1,0,0:0:0:0:
64,192,193148,1,0,0:0:0:0:
192,192,193176,1,0,0:0:0:0:
320,192,193234,1,0,0:0:0:0:
448,192,193277,1,0,0:0:0:0:
192,192,193320,1,0,0:0:0:0:
64,192,193363,1,0,0:0:0:0:
320,192,193406,1,0,0:0:0:0:
448,192,193406,1,0,0:0:0:0:
192,192,193464,1,0,0:0:0:0:
320,192,193521,1,0,0:0:0:0:
192,192,193579,1,0,0:0:0:0:
64,192,193636,1,0,0:0:0:0:
192,192,193694,1,0,0:0:0:0:
64,192,193751,1,0,0:0:0:0:
448,192,193751,1,0,0:0:0:0:
320,192,193751,1,0,0:0:0:0:
192,192,193837,1,0,0:0:0:0:
448,192,193924,1,0,0:0:0:0:
320,192,193924,1,0,0:0:0:0:
192,192,194010,1,0,0:0:0:0:
448,192,194096,1,0,0:0:0:0:
320,192,194096,1,0,0:0:0:0:
192,192,194153,1,0,0:0:0:0:
64,192,194211,1,0,0:0:0:0:
448,192,194268,1,0,0:0:0:0:
320,192,194268,1,0,0:0:0:0:
192,192,194326,1,0,0:0:0:0:
64,192,194383,1,0,0:0:0:0:
448,192,194441,1,0,0:0:0:0:
192,192,194441,1,0,0:0:0:0:
320,192,194498,1,0,0:0:0:0:
448,192,194556,1,0,0:0:0:0:
64,192,194556,1,0,0:0:0:0:
192,192,194613,1,0,0:0:0:0:
448,192,194671,1,0,0:0:0:0:
320,192,194728,1,0,0:0:0:0:
448,192,194786,1,0,0:0:0:0:
64,192,194786,1,0,0:0:0:0:
192,192,194786,1,0,0:0:0:0:
320,192,194872,1,0,0:0:0:0:
192,192,194958,1,0,0:0:0:0:
64,192,194958,1,0,0:0:0:0:
320,192,195044,1,0,0:0:0:0:
448,192,195130,1,0,0:0:0:0:
64,192,195130,1,0,0:0:0:0:
320,192,195217,1,0,0:0:0:0:
192,192,195217,1,0,0:0:0:0:
64,192,195303,1,0,0:0:0:0:
448,192,195303,1,0,0:0:0:0:
192,192,195389,1,0,0:0:0:0:
320,192,195389,1,0,0:0:0:0:
64,192,195475,1,0,0:0:0:0:
448,192,195475,1,0,0:0:0:0:
192,192,195562,1,0,0:0:0:0:
320,192,195562,1,0,0:0:0:0:
64,192,195648,1,0,0:0:0:0:
448,192,195648,1,0,0:0:0:0:
192,192,195734,1,0,0:0:0:0:
320,192,195734,1,0,0:0:0:0:
448,192,195820,1,0,0:0:0:0:
64,192,195820,128,0,196165:0:0:0:0:
320,192,195906,128,0,195993:0:0:0:0:
192,192,195993,128,0,196079:0:0:0:0:
448,192,196079,128,0,196165:0:0:0:0:
320,192,196165,128,0,196251:0:0:0:0:
192,192,196251,128,0,196337:0:0:0:0:
64,192,196337,128,0,196424:0:0:0:0:
448,192,196337,1,0,0:0:0:0:
320,192,196337,1,0,0:0:0:0:
192,192,196424,128,0,196510:0:0:0:0:
448,192,196510,1,0,0:0:0:0:
320,192,196510,1,0,0:0:0:0:
192,192,196596,1,0,0:0:0:0:
448,192,196682,1,0,0:0:0:0:
320,192,196682,1,0,0:0:0:0:
64,192,196682,1,0,0:0:0:0:
192,192,196768,1,0,0:0:0:0:
320,192,196855,1,0,0:0:0:0:
448,192,196855,1,0,0:0:0:0:
64,192,196912,1,0,0:0:0:0:
192,192,196970,1,0,0:0:0:0:
448,192,197027,1,0,0:0:0:0:
320,192,197027,1,0,0:0:0:0:
64,192,197027,1,0,0:0:0:0:
320,192,197113,1,0,0:0:0:0:
64,192,197199,1,0,0:0:0:0:
192,192,197199,1,0,0:0:0:0:
320,192,197286,1,0,0:0:0:0:
192,192,197372,1,0,0:0:0:0:
64,192,197372,1,0,0:0:0:0:
448,192,197429,1,0,0:0:0:0:
320,192,197487,1,0,0:0:0:0:
448,192,197544,1,0,0:0:0:0:
64,192,197544,1,0,0:0:0:0:
192,192,197544,1,0,0:0:0:0:
192,192,197630,1,0,0:0:0:0:
320,192,197717,1,0,0:0:0:0:
448,192,197717,1,0,0:0:0:0:
192,192,197803,1,0,0:0:0:0:
320,192,197889,1,0,0:0:0:0:
448,192,197889,1,0,0:0:0:0:
64,192,197947,1,0,0:0:0:0:
192,192,198004,1,0,0:0:0:0:
320,192,198062,1,0,0:0:0:0:
64,192,198062,1,0,0:0:0:0:
448,192,198062,1,0,0:0:0:0:
320,192,198148,1,0,0:0:0:0:
192,192,198234,1,0,0:0:0:0:
64,192,198234,1,0,0:0:0:0:
320,192,198320,1,0,0:0:0:0:
192,192,198406,1,0,0:0:0:0:
64,192,198406,1,0,0:0:0:0:
448,192,198464,1,0,0:0:0:0:
320,192,198521,1,0,0:0:0:0:
448,192,198579,1,0,0:0:0:0:
64,192,198579,1,0,0:0:0:0:
192,192,198579,1,0,0:0:0:0:
192,192,198665,1,0,0:0:0:0:
320,192,198751,1,0,0:0:0:0:
448,192,198751,1,0,0:0:0:0:
192,192,198837,1,0,0:0:0:0:
320,192,198924,1,0,0:0:0:0:
448,192,198924,1,0,0:0:0:0:
64,192,198981,1,0,0:0:0:0:
192,192,199039,1,0,0:0:0:0:
64,192,199096,1,0,0:0:0:0:
448,192,199096,1,0,0:0:0:0:
320,192,199182,1,0,0:0:0:0:
192,192,199268,1,0,0:0:0:0:
448,192,199268,128,0,199613:0:0:0:0:
64,192,199355,1,0,0:0:0:0:
320,192,199441,1,0,0:0:0:0:
64,192,199527,1,0,0:0:0:0:
320,192,199613,1,0,0:0:0:0:
192,192,199613,128,0,199785:0:0:0:0:
448,192,199699,1,0,0:0:0:0:
320,192,199785,128,0,199958:0:0:0:0:
64,192,199785,1,0,0:0:0:0:
192,192,199870,1,0,0:0:0:0:
64,192,199958,128,0,200129:0:0:0:0:
448,192,199958,1,0,0:0:0:0:
192,192,200044,1,0,0:0:0:0:
448,192,200129,128,0,200301:0:0:0:0:
320,192,200129,1,0,0:0:0:0:
192,192,200215,1,0,0:0:0:0:
64,192,200301,128,0,200473:0:0:0:0:
320,192,200301,1,0,0:0:0:0:
448,192,200387,1,0,0:0:0:0:
192,192,200473,128,0,200646:0:0:0:0:
320,192,200473,1,0,0:0:0:0:
448,192,200560,1,0,0:0:0:0:
320,192,200646,128,0,200818:0:0:0:0:
64,192,200732,1,0,0:0:0:0:
192,192,200818,128,0,200991:0:0:0:0:
320,192,200904,1,0,0:0:0:0:
448,192,200991,1,0,0:0:0:0:
64,192,200991,1,0,0:0:0:0:
320,192,201077,1,0,0:0:0:0:
192,192,201077,1,0,0:0:0:0:
448,192,201163,1,0,0:0:0:0:
64,192,201163,1,0,0:0:0:0:
320,192,201249,1,0,0:0:0:0:
192,192,201249,1,0,0:0:0:0:
448,192,201335,1,0,0:0:0:0:
320,192,201335,1,0,0:0:0:0:
64,192,201335,1,0,0:0:0:0:
192,192,201422,1,0,0:0:0:0:
448,192,201508,1,0,0:0:0:0:
320,192,201508,1,0,0:0:0:0:
192,192,201594,1,0,0:0:0:0:
64,192,201594,1,0,0:0:0:0:
448,192,201680,1,0,0:0:0:0:
320,192,201680,1,0,0:0:0:0:
192,192,201737,1,0,0:0:0:0:
64,192,201795,1,0,0:0:0:0:
320,192,201852,1,0,0:0:0:0:
192,192,201895,1,0,0:0:0:0:
448,192,201938,1,0,0:0:0:0:
320,192,201981,1,0,0:0:0:0:
64,192,202025,1,0,0:0:0:0:
192,192,202025,1,0,0:0:0:0:
64,192,202111,1,0,0:0:0:0:
320,192,202139,1,0,0:0:0:0:
448,192,202197,1,0,0:0:0:0:
192,192,202254,1,0,0:0:0:0:
64,192,202312,1,0,0:0:0:0:
448,192,202369,1,0,0:0:0:0:
320,192,202369,1,0,0:0:0:0:
448,192,202456,1,0,0:0:0:0:
320,192,202456,1,0,0:0:0:0:
192,192,202542,1,0,0:0:0:0:
64,192,202542,1,0,0:0:0:0:
192,192,202628,1,0,0:0:0:0:
448,192,202657,1,0,0:0:0:0:
320,192,202714,1,0,0:0:0:0:
64,192,202772,1,0,0:0:0:0:
192,192,202829,1,0,0:0:0:0:
448,192,202887,1,0,0:0:0:0:
320,192,202887,1,0,0:0:0:0:
448,192,202973,1,0,0:0:0:0:
320,192,202973,1,0,0:0:0:0:
192,192,203059,1,0,0:0:0:0:
64,192,203059,1,0,0:0:0:0:
64,192,203145,1,0,0:0:0:0:
320,192,203174,1,0,0:0:0:0:
448,192,203231,1,0,0:0:0:0:
192,192,203289,1,0,0:0:0:0:
64,192,203346,1,0,0:0:0:0:
320,192,203404,1,0,0:0:0:0:
448,192,203404,1,0,0:0:0:0:
320,192,203490,1,0,0:0:0:0:
448,192,203490,1,0,0:0:0:0:
64,192,203576,1,0,0:0:0:0:
192,192,203576,1,0,0:0:0:0:
192,192,203662,1,0,0:0:0:0:
448,192,203691,1,0,0:0:0:0:
320,192,203749,1,0,0:0:0:0:
64,192,203806,1,0,0:0:0:0:
192,192,203864,1,0,0:0:0:0:
448,192,203921,1,0,0:0:0:0:
320,192,203921,1,0,0:0:0:0:
448,192,204007,1,0,0:0:0:0:
320,192,204007,1,0,0:0:0:0:
192,192,204093,1,0,0:0:0:0:
64,192,204093,1,0,0:0:0:0:
64,192,204180,1,0,0:0:0:0:
320,192,204208,1,0,0:0:0:0:
448,192,204266,1,0,0:0:0:0:
192,192,204323,1,0,0:0:0:0:
64,192,204381,1,0,0:0:0:0:
320,192,204438,1,0,0:0:0:0:
448,192,204438,1,0,0:0:0:0:
320,192,204525,1,0,0:0:0:0:
448,192,204525,1,0,0:0:0:0:
64,192,204611,1,0,0:0:0:0:
192,192,204611,1,0,0:0:0:0:
64,192,204697,1,0,0:0:0:0:
192,192,204697,1,0,0:0:0:0:
448,192,204783,1,0,0:0:0:0:
320,192,204783,1,0,0:0:0:0:
192,192,204841,1,0,0:0:0:0:
320,192,204898,1,0,0:0:0:0:
192,192,204956,1,0,0:0:0:0:
64,192,204956,1,0,0:0:0:0:
320,192,205042,1,0,0:0:0:0:
192,192,205128,1,0,0:0:0:0:
64,192,205128,1,0,0:0:0:0:
448,192,205171,1,0,0:0:0:0:
320,192,205214,1,0,0:0:0:0:
192,192,205257,1,0,0:0:0:0:
64,192,205300,1,0,0:0:0:0:
320,192,205343,1,0,0:0:0:0:
192,192,205387,1,0,0:0:0:0:
448,192,205430,1,0,0:0:0:0:
320,192,205473,1,0,0:0:0:0:
64,192,205473,1,0,0:0:0:0:
192,192,205559,1,0,0:0:0:0:
448,192,205588,1,0,0:0:0:0:
320,192,205645,1,0,0:0:0:0:
448,192,205731,1,0,0:0:0:0:
192,192,205760,1,0,0:0:0:0:
64,192,205819,1,0,0:0:0:0:
320,192,205819,1,0,0:0:0:0:
448,192,205876,1,0,0:0:0:0:
192,192,205933,1,0,0:0:0:0:
64,192,205991,1,0,0:0:0:0:
448,192,206034,1,0,0:0:0:0:
320,192,206077,1,0,0:0:0:0:
192,192,206120,1,0,0:0:0:0:
64,192,206163,1,0,0:0:0:0:
320,192,206222,1,0,0:0:0:0:
192,192,206279,1,0,0:0:0:0:
320,192,206337,1,0,0:0:0:0:
64,192,206394,1,0,0:0:0:0:
192,192,206452,1,0,0:0:0:0:
448,192,206508,1,0,0:0:0:0:
320,192,206508,1,0,0:0:0:0:
192,192,206567,1,0,0:0:0:0:
64,192,206567,1,0,0:0:0:0:
448,192,206624,1,0,0:0:0:0:
320,192,206624,1,0,0:0:0:0:
192,192,206681,1,0,0:0:0:0:
320,192,206767,1,0,0:0:0:0:
448,192,206854,1,0,0:0:0:0:
64,192,206854,1,0,0:0:0:0:
192,192,206896,1,0,0:0:0:0:
320,192,206939,1,0,0:0:0:0:
448,192,206982,1,0,0:0:0:0:
192,192,207027,1,0,0:0:0:0:
64,192,207027,1,0,0:0:0:0:
192,192,207113,1,0,0:0:0:0:
64,192,207113,1,0,0:0:0:0:
320,192,207199,1,0,0:0:0:0:
448,192,207199,1,0,0:0:0:0:
192,192,207256,1,0,0:0:0:0:
64,192,207314,1,0,0:0:0:0:
448,192,207371,1,0,0:0:0:0:
320,192,207371,1,0,0:0:0:0:
192,192,207429,1,0,0:0:0:0:
64,192,207486,1,0,0:0:0:0:
320,192,207544,128,0,207716:0:0:0:0:
448,192,207544,1,0,0:0:0:0:
64,192,207716,128,0,207889:0:0:0:0:
448,192,207716,1,0,0:0:0:0:
448,192,207802,1,0,0:0:0:0:
320,192,207889,128,0,208061:0:0:0:0:
192,192,207889,1,0,0:0:0:0:
192,192,207975,1,0,0:0:0:0:
64,192,208061,128,0,208233:0:0:0:0:
448,192,208061,1,0,0:0:0:0:
448,192,208147,1,0,0:0:0:0:
192,192,208233,1,0,0:0:0:0:
320,192,208233,1,0,0:0:0:0:
448,192,208320,1,0,0:0:0:0:
192,192,208406,1,0,0:0:0:0:
64,192,208406,1,0,0:0:0:0:
192,192,208492,1,0,0:0:0:0:
64,192,208492,1,0,0:0:0:0:
448,192,208578,1,0,0:0:0:0:
320,192,208578,1,0,0:0:0:0:
192,192,208636,1,0,0:0:0:0:
320,192,208693,1,0,0:0:0:0:
64,192,208751,1,0,0:0:0:0:
320,192,208837,1,0,0:0:0:0:
448,192,208923,1,0,0:0:0:0:
64,192,208923,1,0,0:0:0:0:
192,192,208923,1,0,0:0:0:0:
192,192,209009,1,0,0:0:0:0:
64,192,209009,1,0,0:0:0:0:
320,192,209095,1,0,0:0:0:0:
448,192,209095,1,0,0:0:0:0:
64,192,209153,1,0,0:0:0:0:
320,192,209210,1,0,0:0:0:0:
192,192,209268,1,0,0:0:0:0:
320,192,209354,1,0,0:0:0:0:
448,192,209440,1,0,0:0:0:0:
192,192,209440,1,0,0:0:0:0:
64,192,209440,1,0,0:0:0:0:
64,192,209527,1,0,0:0:0:0:
192,192,209527,1,0,0:0:0:0:
448,192,209613,1,0,0:0:0:0:
320,192,209613,1,0,0:0:0:0:
192,192,209670,1,0,0:0:0:0:
320,192,209728,1,0,0:0:0:0:
64,192,209785,1,0,0:0:0:0:
320,192,209871,1,0,0:0:0:0:
64,192,209958,1,0,0:0:0:0:
448,192,209958,1,0,0:0:0:0:
192,192,209958,1,0,0:0:0:0:
192,192,210044,1,0,0:0:0:0:
64,192,210044,1,0,0:0:0:0:
448,192,210130,1,0,0:0:0:0:
320,192,210130,1,0,0:0:0:0:
192,192,210187,1,0,0:0:0:0:
320,192,210245,1,0,0:0:0:0:
448,192,210302,1,0,0:0:0:0:
64,192,210302,128,0,210647:0:0:0:0:
192,192,210360,1,0,0:0:0:0:
320,192,210417,1,0,0:0:0:0:
448,192,210475,1,0,0:0:0:0:
192,192,210532,1,0,0:0:0:0:
320,192,210590,1,0,0:0:0:0:
448,192,210647,128,0,210819:0:0:0:0:
64,192,210733,128,0,210819:0:0:0:0:
192,192,210819,128,0,210905:0:0:0:0:
320,192,210819,128,0,210905:0:0:0:0:
64,192,210905,128,0,210992:0:0:0:0:
320,192,210992,128,0,211078:0:0:0:0:
448,192,210992,128,0,211078:0:0:0:0:
192,192,211078,128,0,211164:0:0:0:0:
320,192,211164,128,0,211250:0:0:0:0:
64,192,211164,128,0,211250:0:0:0:0:
448,192,211250,128,0,211337:0:0:0:0:
192,192,211337,128,0,211423:0:0:0:0:
320,192,211337,128,0,211423:0:0:0:0:
64,192,211423,128,0,211509:0:0:0:0:
448,192,211509,128,0,211595:0:0:0:0:
192,192,211509,128,0,211595:0:0:0:0:
320,192,211595,128,0,211681:0:0:0:0:
64,192,211681,128,0,212026:0:0:0:0:
448,192,211681,128,0,211768:0:0:0:0:
320,192,211768,128,0,211854:0:0:0:0:
192,192,211854,128,0,211940:0:0:0:0:
320,192,211940,128,0,212026:0:0:0:0:
448,192,212026,1,0,0:0:0:0:
320,192,212112,1,0,0:0:0:0:
192,192,212199,1,0,0:0:0:0:
448,192,212199,1,0,0:0:0:0:
320,192,212285,1,0,0:0:0:0:
64,192,212285,1,0,0:0:0:0:
192,192,212371,1,0,0:0:0:0:
64,192,212457,1,0,0:0:0:0:
320,192,212457,1,0,0:0:0:0:
448,192,212543,1,0,0:0:0:0:
192,192,212543,1,0,0:0:0:0:
320,192,212630,1,0,0:0:0:0:
448,192,212716,1,0,0:0:0:0:
64,192,212716,1,0,0:0:0:0:
320,192,212773,1,0,0:0:0:0:
64,192,212831,1,0,0:0:0:0:
192,192,212831,1,0,0:0:0:0:
320,192,212888,1,0,0:0:0:0:
192,192,212946,1,0,0:0:0:0:
64,192,212946,1,0,0:0:0:0:
448,192,213003,1,0,0:0:0:0:
64,192,213061,1,0,0:0:0:0:
192,192,213061,1,0,0:0:0:0:
320,192,213061,1,0,0:0:0:0:
192,192,213233,1,0,0:0:0:0:
448,192,213233,1,0,0:0:0:0:
64,192,213233,1,0,0:0:0:0:
448,192,213405,1,0,0:0:0:0:
320,192,213405,1,0,0:0:0:0:
64,192,213405,1,0,0:0:0:0:
448,192,213578,1,0,0:0:0:0:
320,192,213578,1,0,0:0:0:0:
192,192,213578,128,0,213750:0:0:0:0:
64,192,213750,1,0,0:0:0:0:
448,192,213750,1,0,0:0:0:0:
320,192,213750,1,0,0:0:0:0:
192,192,213923,1,0,0:0:0:0:
64,192,213923,1,0,0:0:0:0:
448,192,213923,1,0,0:0:0:0:
192,192,214095,1,0,0:0:0:0:
64,192,214095,1,0,0:0:0:0:
320,192,214095,128,0,214267:0:0:0:0:
448,192,214267,1,0,0:0:0:0:
192,192,214267,1,0,0:0:0:0:
64,192,214267,1,0,0:0:0:0:
448,192,214440,1,0,0:0:0:0:
320,192,214440,1,0,0:0:0:0:
192,192,214440,1,0,0:0:0:0:
64,192,214440,1,0,0:0:0:0:
192,192,214612,128,0,214785:0:0:0:0:
320,192,214612,1,0,0:0:0:0:
448,192,214612,1,0,0:0:0:0:
320,192,214785,1,0,0:0:0:0:
64,192,214785,1,0,0:0:0:0:
448,192,214785,1,0,0:0:0:0:
192,192,214957,1,0,0:0:0:0:
64,192,214957,1,0,0:0:0:0:
448,192,214957,1,0,0:0:0:0:
320,192,215129,128,0,215302:0:0:0:0:
192,192,215129,1,0,0:0:0:0:
64,192,215129,1,0,0:0:0:0:
192,192,215302,1,0,0:0:0:0:
448,192,215302,1,0,0:0:0:0:
64,192,215302,1,0,0:0:0:0:
64,192,215474,1,0,0:0:0:0:
448,192,215474,1,0,0:0:0:0:
320,192,215474,1,0,0:0:0:0:
192,192,215532,1,0,0:0:0:0:
448,192,215589,1,0,0:0:0:0:
320,192,215589,1,0,0:0:0:0:
64,192,215647,1,0,0:0:0:0:
192,192,215733,1,0,0:0:0:0:
320,192,215733,1,0,0:0:0:0:
64,192,215819,128,0,215992:0:0:0:0:
448,192,215819,128,0,215992:0:0:0:0:
320,192,215992,1,0,0:0:0:0:
192,192,215992,1,0,0:0:0:0:
320,192,216078,1,0,0:0:0:0:
192,192,216078,1,0,0:0:0:0:
64,192,216164,128,0,216336:0:0:0:0:
448,192,216164,128,0,216336:0:0:0:0:
320,192,216336,1,0,0:0:0:0:
192,192,216336,1,0,0:0:0:0:
192,192,216422,1,0,0:0:0:0:
320,192,216422,1,0,0:0:0:0:
64,192,216509,128,0,216681:0:0:0:0:
448,192,216509,128,0,216681:0:0:0:0:
320,192,216681,1,0,0:0:0:0:
192,192,216681,1,0,0:0:0:0:
192,192,216767,1,0,0:0:0:0:
320,192,216767,1,0,0:0:0:0:
64,192,216839,128,0,217027:0:0:0:0:
448,192,216839,128,0,217027:0:0:0:0:
320,192,217027,1,0,0:0:0:0:
192,192,217027,1,0,0:0:0:0:
192,192,217113,1,0,0:0:0:0:
320,192,217113,1,0,0:0:0:0:
64,192,217199,1,0,0:0:0:0:
448,192,217199,1,0,0:0:0:0:
320,192,217286,1,0,0:0:0:0:
192,192,217372,1,0,0:0:0:0:
64,192,217372,1,0,0:0:0:0:
448,192,217372,1,0,0:0:0:0:
192,192,217458,1,0,0:0:0:0:
64,192,217458,1,0,0:0:0:0:
448,192,217544,1,0,0:0:0:0:
320,192,217544,1,0,0:0:0:0:
192,192,217630,1,0,0:0:0:0:
64,192,217630,1,0,0:0:0:0:
448,192,217717,1,0,0:0:0:0:
320,192,217717,1,0,0:0:0:0:
448,192,217803,1,0,0:0:0:0:
320,192,217803,1,0,0:0:0:0:
192,192,217889,1,0,0:0:0:0:
64,192,217889,1,0,0:0:0:0:
320,192,217975,1,0,0:0:0:0:
64,192,217975,1,0,0:0:0:0:
448,192,217975,1,0,0:0:0:0:
448,192,218061,1,0,0:0:0:0:
320,192,218061,1,0,0:0:0:0:
192,192,218061,1,0,0:0:0:0:
448,192,218148,1,0,0:0:0:0:
320,192,218148,1,0,0:0:0:0:
448,192,218579,128,0,218622:0:0:0:0:
320,192,218579,128,0,218665:0:0:0:0:
64,192,218579,128,0,218622:0:0:0:0:
192,192,218579,128,0,218665:0:0:0:0:
