osu file format v14

[General]
AudioFilename: crystal.mp3
AudioLeadIn: 0
PreviewTime: 196333
Countdown: 0
SampleSet: Soft
StackLeniency: 0.7
Mode: 3
LetterboxInBreaks: 0
SpecialStyle: 0
WidescreenStoryboard: 1

[Editor]
DistanceSpacing: 0.8
BeatDivisor: 4
GridSize: 16
TimelineZoom: 1.999395

[Metadata]
Title:crystallized
TitleUnicode:crystallized
Artist:Camellia
ArtistUnicode:Camellia
Creator:Amethyst507
Version:shattered
Source:
Tags:
BeatmapID:1257524
BeatmapSetID:594546

[Difficulty]
HPDrainRate:8.6
CircleSize:4
OverallDifficulty:8.1
ApproachRate:5
SliderMultiplier:1
SliderTickRate:4

[Events]
//Background and Video events
0,0,"cryst.jpg",0,0
//Break Periods
//Storyboard Layer 0 (Background)
//Storyboard Layer 1 (Fail)
//Storyboard Layer 2 (Pass)
//Storyboard Layer 3 (Foreground)
//Storyboard Layer 4 (Overlay)
//Storyboard Sound Samples

[TimingPoints]
8920,344.827586206897,4,2,0,20,1,0
8920,-172.413793103448,4,2,0,15,0,0
9609.625,-169.491525423729,4,2,0,15,0,0
10299.25,-166.666666666667,4,2,0,15,0,0
10988.875,-163.934426229508,4,2,0,15,0,0
11678.5,-161.290322580645,4,2,0,15,0,0
12368.125,-158.730158730159,4,2,0,15,0,0
13057.75,-156.25,4,2,0,15,0,0
13747.375,-153.846153846154,4,2,0,15,0,0
14437,-151.515151515152,4,2,0,15,0,0
15126.625,-149.253731343284,4,2,0,15,0,0
15816.25,-147.058823529412,4,2,0,15,0,0
16505.875,-144.927536231884,4,2,0,15,0,0
17195.5,-142.857142857143,4,2,0,15,0,0
17885.125,-140.845070422535,4,2,0,15,0,0
18574.75,-138.888888888889,4,2,0,15,0,0
19264.375,-136.986301369863,4,2,0,15,0,0
19954,-135.135135135135,4,2,0,15,0,0
20643.625,-133.333333333333,4,2,0,15,0,0
21333.25,-131.578947368421,4,2,0,15,0,0
22022.875,-129.87012987013,4,2,0,15,0,0
22712.5,-128.205128205128,4,2,0,15,0,0
23402.125,-126.582278481013,4,2,0,15,0,0
24091.75,-125,4,2,0,15,0,0
24781.375,-123.456790123457,4,2,0,15,0,0
25471,-121.951219512195,4,2,0,15,0,0
26160.625,-120.481927710843,4,2,0,15,0,0
26850.25,-119.047619047619,4,2,0,15,0,0
27539.875,-117.647058823529,4,2,0,15,0,0
28229.5,-116.279069767442,4,2,0,15,0,0
28919.125,-114.942528735632,4,2,0,15,0,0
29608.75,-113.636363636364,4,2,0,15,0,0
30298.375,-112.359550561798,4,2,0,15,0,0
30988,-10,4,2,0,15,0,0
31002,-166.666666666667,4,2,0,20,0,0
31333,-111.111111111111,4,2,0,20,0,0
32023,-10,4,2,0,15,0,0
32031,-166.666666666667,4,2,0,20,0,0
32368,-100,4,2,0,20,0,0
32540,-10,4,2,0,15,0,0
32548,-166.666666666667,4,2,0,20,0,0
32885,-111.111111111111,4,2,0,20,0,0
33402,-10,4,2,0,15,0,0
33410,-166.666666666667,4,2,0,20,0,0
33747,-10,4,2,0,15,0,0
33761,-166.666666666667,4,2,0,20,0,0
34092,-111.111111111111,4,2,0,20,0,0
34782,-10,4,2,0,15,0,0
34790,-166.666666666667,4,2,0,20,0,0
35126,-111.111111111111,4,2,0,20,0,0
35299,-10,4,2,0,15,0,0
35307,-166.666666666667,4,2,0,20,0,0
35644,-111.111111111111,4,2,0,20,0,0
36506,-10,4,2,0,15,0,0
36520,-166.666666666667,4,2,0,20,0,0
36851,-111.111111111111,4,2,0,20,0,0
37540,-10,4,2,0,15,0,0
37548,-166.666666666667,4,2,0,20,0,0
37885,-111.111111111111,4,2,0,20,0,0
38057,-10,4,2,0,15,0,0
38065,-166.666666666667,4,2,0,20,0,0
38402,-111.111111111111,4,2,0,20,0,0
38920,-10,4,2,0,15,0,0
38928,-166.666666666667,4,2,0,20,0,0
39264,-10,4,2,0,15,0,0
39278,-166.666666666667,4,2,0,20,0,0
39609,-111.111111111111,4,2,0,20,0,0
40299,-10,4,2,0,15,0,0
40307,-166.666666666667,4,2,0,20,0,0
40644,-111.111111111111,4,2,0,20,0,0
40816,-16.6666666666667,4,2,0,15,0,0
40824,-111.111111111111,4,2,0,20,0,0
40988,-16.6666666666667,4,2,0,15,0,0
40996,-111.111111111111,4,2,0,20,0,0
41506,-16.6666666666667,4,2,0,15,0,0
41514,-111.111111111111,4,2,0,20,0,0
41678,-16.6666666666667,4,2,0,15,0,0
41686,-111.111111111111,4,2,0,20,0,0
42023,-55.5555555555556,4,2,0,20,0,0
42045,-100,4,2,0,20,0,0
42368,-55.5555555555556,4,2,0,20,0,0
42390,-100,4,2,0,20,0,0
43057,-55.5555555555556,4,2,0,20,0,0
43079,-100,4,2,0,20,0,0
43402,-55.5555555555556,4,2,0,20,0,0
43424,-100,4,2,0,20,0,0
43575,-55.5555555555556,4,2,0,20,0,0
43597,-100,4,2,0,20,0,0
44437,-55.5555555555556,4,2,0,20,0,0
44459,-100,4,2,0,20,0,0
44782,-55.5555555555556,4,2,0,20,0,0
44804,-100,4,2,0,20,0,0
45126,-55.5555555555556,4,2,0,20,0,0
45148,-100,4,2,0,20,0,0
45816,-55.5555555555556,4,2,0,20,0,0
45838,-100,4,2,0,20,0,0
46161,-55.5555555555556,4,2,0,20,0,0
46183,-100,4,2,0,20,0,0
46333,-55.5555555555556,4,2,0,20,0,0
46355,-100,4,2,0,20,0,0
47195,-55.5555555555556,4,2,0,20,0,0
47217,-100,4,2,0,20,0,0
47540,-55.5555555555556,4,2,0,20,0,0
47562,-100,4,2,0,20,0,0
47885,-55.5555555555556,4,2,0,20,0,0
47907,-100,4,2,0,20,0,0
48575,-55.5555555555556,4,2,0,20,0,0
48597,-100,4,2,0,20,0,0
48920,-55.5555555555556,4,2,0,20,0,0
48942,-100,4,2,0,20,0,0
49092,-55.5555555555556,4,2,0,20,0,0
49114,-100,4,2,0,20,0,0
49954,-55.5555555555556,4,2,0,20,0,0
49976,-100,4,2,0,20,0,0
50299,338.068965517242,4,2,0,20,1,0
50342,351.862068965518,4,2,0,20,1,0
50385,331.551724137931,4,2,0,20,1,0
50428,359.206896551725,4,2,0,20,1,0
50471,325.310344827587,4,2,0,20,1,0
50514,366.827586206897,4,2,0,20,1,0
50557,319.275862068966,4,2,0,20,1,0
50600,374.827586206897,4,2,0,20,1,0
50644,313.48275862069,4,2,0,20,1,0
50687,383.137931034483,4,2,0,20,1,0
50730,307.896551724138,4,2,0,20,1,0
50773,391.862068965518,4,2,0,20,1,0
50816,302.48275862069,4,2,0,20,1,0
50859,400.96551724138,4,2,0,20,1,0
50902,297.275862068966,4,2,0,20,1,0
50945,410.517241379311,4,2,0,20,1,0
50988,292.241379310345,4,2,0,20,1,0
51031,420.517241379311,4,2,0,20,1,0
51075,287.344827586207,4,2,0,20,1,0
51118,431.034482758621,4,2,0,20,1,0
51161,282.655172413793,4,2,0,20,1,0
51204,442.103448275863,4,2,0,20,1,0
51247,278.103448275862,4,2,0,20,1,0
51290,453.724137931035,4,2,0,20,1,0
51333,273.689655172414,4,2,0,20,1,0
51376,466.000000000001,4,2,0,20,1,0
51419,269.379310344828,4,2,0,20,1,0
51462,478.931034482759,4,2,0,20,1,0
51506,265.241379310345,4,2,0,20,1,0
51549,492.620689655173,4,2,0,20,1,0
51592,261.241379310345,4,2,0,20,1,0
51635,507.103448275863,4,2,0,20,1,0
51678,229.896551724138,4,2,0,20,1,0
51700,459.758620689656,4,2,0,20,1,0
51721,229.896551724138,4,2,0,20,1,0
51743,459.758620689656,4,2,0,20,1,0
51764,229.896551724138,4,2,0,20,1,0
51786,459.758620689656,4,2,0,20,1,0
51807,229.896551724138,4,2,0,20,1,0
51829,459.758620689656,4,2,0,20,1,0
51851,229.896551724138,4,2,0,20,1,0
51873,459.758620689656,4,2,0,20,1,0
51894,229.896551724138,4,2,0,20,1,0
51916,459.758620689656,4,2,0,20,1,0
51937,229.896551724138,4,2,0,20,1,0
51959,459.758620689656,4,2,0,20,1,0
51980,229.896551724138,4,2,0,20,1,0
52002,459.758620689656,4,2,0,20,1,0
52023,229.896551724138,4,2,0,20,1,0
52045,459.758620689656,4,2,0,20,1,0
52066,229.896551724138,4,2,0,20,1,0
52088,459.758620689656,4,2,0,20,1,0
52109,229.896551724138,4,2,0,20,1,0
52131,459.758620689656,4,2,0,20,1,0
52152,229.896551724138,4,2,0,20,1,0
52174,459.758620689656,4,2,0,20,1,0
52195,229.896551724138,4,2,0,20,1,0
52217,459.758620689656,4,2,0,20,1,0
52238,229.896551724138,4,2,0,20,1,0
52260,459.758620689656,4,2,0,20,1,0
52282,229.896551724138,4,2,0,20,1,0
52304,459.758620689656,4,2,0,20,1,0
52325,229.896551724138,4,2,0,20,1,0
52347,459.758620689656,4,2,0,20,1,0
52368,344.827586206897,4,2,0,20,1,0
52368,-500,4,2,0,15,0,0
52383.3111111111,-416.666666666667,4,2,0,15,0,0
52398.6222222222,-370.37037037037,4,2,0,15,0,0
52413.9333333333,-322.58064516129,4,2,0,15,0,0
52429.2444444444,-294.117647058824,4,2,0,15,0,0
52444.5555555556,-263.157894736842,4,2,0,15,0,0
52459.8666666667,-243.90243902439,4,2,0,15,0,0
52475.1777777778,-222.222222222222,4,2,0,15,0,0
52490.4888888889,-208.333333333333,4,2,0,15,0,0
52505.8,-192.307692307692,4,2,0,15,0,0
52521.1111111111,-178.571428571429,4,2,0,15,0,0
52536.4222222222,-169.491525423729,4,2,0,15,0,0
52551.7333333333,-158.730158730159,4,2,0,15,0,0
52567.0444444444,-151.515151515152,4,2,0,15,0,0
52582.3555555556,-142.857142857143,4,2,0,15,0,0
52597.6666666667,-136.986301369863,4,2,0,15,0,0
52612.9777777778,-129.87012987013,4,2,0,15,0,0
52628.2888888889,-125,4,2,0,15,0,0
52643.6,-119.047619047619,4,2,0,15,0,0
52658.9111111111,-113.636363636364,4,2,0,15,0,0
52674.2222222222,-109.89010989011,4,2,0,15,0,0
52689.5333333333,-105.263157894737,4,2,0,15,0,0
52704.8444444444,-102.040816326531,4,2,0,15,0,0
52720.1555555556,-98.0392156862745,4,2,0,15,0,0
52735.4666666667,-95.2380952380952,4,2,0,15,0,0
52750.7777777778,-91.743119266055,4,2,0,15,0,0
52766.0888888889,-89.2857142857143,4,2,0,15,0,0
52781.4,-86.2068965517241,4,2,0,15,0,0
52796.7111111111,-83.3333333333333,4,2,0,15,0,0
52812.0222222222,-81.3008130081301,4,2,0,15,0,0
52827.3333333333,-78.740157480315,4,2,0,15,0,0
52842.6444444444,-76.9230769230769,4,2,0,15,0,0
52857.9555555556,-74.6268656716418,4,2,0,15,0,0
52873.2666666667,-72.992700729927,4,2,0,15,0,0
52888.5777777778,-70.9219858156028,4,2,0,15,0,0
52903.8888888889,-69.4444444444444,4,2,0,15,0,0
52919.2,-67.5675675675676,4,2,0,15,0,0
52934.5111111111,-65.7894736842105,4,2,0,15,0,0
52949.8222222222,-64.5161290322581,4,2,0,15,0,0
52965.1333333333,-62.8930817610063,4,2,0,15,0,0
52980.4444444444,-61.7283950617284,4,2,0,15,0,0
52995.7555555556,-60.2409638554217,4,2,0,15,0,0
53011.0666666667,-59.1715976331361,4,2,0,15,0,0
53026.3777777778,-57.8034682080925,4,2,0,15,0,0
53041.6888888889,-56.8181818181818,4,2,0,15,0,0
53057,38.3103448275863,4,2,0,15,1,0
53143,383.137931034483,4,2,0,15,1,0
53173.15,391.862068965518,4,2,0,15,1,0
53203.3,400.96551724138,4,2,0,15,1,0
53233.45,410.517241379311,4,2,0,15,1,0
53263.6,420.517241379311,4,2,0,15,1,0
53293.75,431.034482758621,4,2,0,15,1,0
53323.9,442.103448275863,4,2,0,15,1,0
53354.05,453.724137931035,4,2,0,15,1,0
53384.2,466.000000000001,4,2,0,15,1,0
53414.35,478.931034482759,4,2,0,15,1,0
53444.5,492.620689655173,4,2,0,15,1,0
53474.65,507.103448275863,4,2,0,15,1,0
53504.8,522.48275862069,4,2,0,15,1,0
53534.95,538.793103448277,4,2,0,15,1,0
53565.1,556.172413793104,4,2,0,15,1,0
53595.25,574.724137931035,4,2,0,15,1,0
53625.4,594.517241379311,4,2,0,15,1,0
53655.55,615.758620689656,4,2,0,15,1,0
53685.7,638.586206896552,4,2,0,15,1,0
53715.85,663.137931034484,4,2,0,15,1,0
53746,129.137931034483,4,2,0,15,1,0
53919,148,4,2,0,15,1,0
53926.71641791,149.931034482759,4,2,0,15,1,0
53934.432835821,152.586206896552,4,2,0,15,1,0
53942.149253731,154.620689655173,4,2,0,15,1,0
53949.865671642,156.724137931035,4,2,0,15,1,0
53957.582089552,159.655172413793,4,2,0,15,1,0
53965.298507463,161.896551724138,4,2,0,15,1,0
53973.014925373,164.206896551724,4,2,0,15,1,0
53980.731343284,167.379310344828,4,2,0,15,1,0
53988.447761194,169.862068965517,4,2,0,15,1,0
53996.164179104,172.413793103449,4,2,0,15,1,0
54003.880597015,175.931034482759,4,2,0,15,1,0
54011.597014925,178.655172413793,4,2,0,15,1,0
54019.313432836,181.48275862069,4,2,0,15,1,0
54027.029850746,185.379310344828,4,2,0,15,1,0
54034.746268657,188.413793103449,4,2,0,15,1,0
54042.462686567,191.586206896552,4,2,0,15,1,0
54050.179104478,195.931034482759,4,2,0,15,1,0
54057.895522388,199.310344827586,4,2,0,15,1,0
54065.611940299,202.827586206897,4,2,0,15,1,0
54073.328358209,207.724137931035,4,2,0,15,1,0
54081.044776119,211.551724137931,4,2,0,15,1,0
54088.76119403,215.517241379311,4,2,0,15,1,0
54096.47761194,221.034482758621,4,2,0,15,1,0
54104.194029851,225.379310344828,4,2,0,15,1,0
54111.910447761,229.896551724138,4,2,0,15,1,0
54119.626865672,236.172413793104,4,2,0,15,1,0
54127.343283582,241.137931034483,4,2,0,15,1,0
54135.059701493,246.310344827587,4,2,0,15,1,0
54142.776119403,253.551724137931,4,2,0,15,1,0
54150.492537313,259.275862068966,4,2,0,15,1,0
54158.208955224,265.241379310345,4,2,0,15,1,0
54165.925373134,273.689655172414,4,2,0,15,1,0
54173.641791045,280.344827586207,4,2,0,15,1,0
54181.358208955,287.344827586207,4,2,0,15,1,0
54189.074626866,294.724137931035,4,2,0,15,1,0
54196.791044776,305.172413793104,4,2,0,15,1,0
54204.507462687,313.48275862069,4,2,0,15,1,0
54212.223880597,322.275862068966,4,2,0,15,1,0
54219.940298507,334.793103448276,4,2,0,15,1,0
54227.656716418,344.827586206897,4,2,0,15,1,0
54235.373134328,355.48275862069,4,2,0,15,1,0
54243.089552239,370.793103448276,4,2,0,15,1,0
54250.805970149,383.137931034483,4,2,0,15,1,0
54258.52238806,396.344827586207,4,2,0,15,1,0
54264,415.44827586207,4,2,0,15,1,0
54273.555555556,378.931034482759,4,2,0,15,1,0
54283.111111111,344.827586206897,4,2,0,15,1,0
54292.666666667,319.275862068966,4,2,0,15,1,0
54302.222222222,297.275862068966,4,2,0,15,1,0
54311.777777778,275.862068965518,4,2,0,15,1,0
54321.333333333,259.275862068966,4,2,0,15,1,0
54330.888888889,244.551724137931,4,2,0,15,1,0
54340.444444444,229.896551724138,4,2,0,15,1,0
54350,218.241379310345,4,2,0,15,1,0
54359.555555556,207.724137931035,4,2,0,15,1,0
54369.111111111,197.034482758621,4,2,0,15,1,0
54378.666666667,188.413793103449,4,2,0,15,1,0
54388.222222222,180.551724137931,4,2,0,15,1,0
54397.777777778,172.413793103449,4,2,0,15,1,0
54407.333333333,165.793103448276,4,2,0,15,1,0
54416.888888889,159.655172413793,4,2,0,15,1,0
54426.444444444,153.241379310345,4,2,0,15,1,0
54436,86.2068965517243,4,2,0,15,1,0
54487.75,1567.41379310345,4,2,0,15,1,0
54505,1326.27586206897,4,2,0,15,1,0
54522.25,1149.41379310345,4,2,0,15,1,0
54539.5,1014.20689655173,4,2,0,15,1,0
54556.75,907.44827586207,4,2,0,15,1,0
54574,821.034482758622,4,2,0,15,1,0
54591.25,749.620689655173,4,2,0,15,1,0
54608.5,689.655172413794,4,2,0,15,1,0
54625.75,638.586206896552,4,2,0,15,1,0
54643,594.517241379311,4,2,0,15,1,0
54660.25,556.172413793104,4,2,0,15,1,0
54677.5,522.48275862069,4,2,0,15,1,0
54694.75,492.620689655173,4,2,0,15,1,0
54712,466.000000000001,4,2,0,15,1,0
54729.25,442.103448275863,4,2,0,15,1,0
54746.5,420.517241379311,4,2,0,15,1,0
54763.75,400.96551724138,4,2,0,15,1,0
54781,383.137931034483,4,2,0,15,1,0
54953,57.4827586206897,4,2,0,15,1,0
54989.964285714,1567.41379310345,4,2,0,15,1,0
55002.285714286,1277.13793103448,4,2,0,15,1,0
55014.607142857,1112.34482758621,4,2,0,15,1,0
55026.928571429,985.206896551725,4,2,0,15,1,0
55039.25,884.172413793105,4,2,0,15,1,0
55051.571428571,801.93103448276,4,2,0,15,1,0
55063.892857143,733.689655172415,4,2,0,15,1,0
55076.214285714,676.137931034484,4,2,0,15,1,0
55088.535714286,615.758620689656,4,2,0,15,1,0
55100.857142857,574.724137931035,4,2,0,15,1,0
55113.178571429,538.793103448277,4,2,0,15,1,0
55125.5,507.103448275863,4,2,0,15,1,0
55137.821428571,478.931034482759,4,2,0,15,1,0
55150.142857143,453.724137931035,4,2,0,15,1,0
55162.464285714,431.034482758621,4,2,0,15,1,0
55174.785714286,405.689655172414,4,2,0,15,1,0
55187.107142857,387.448275862069,4,2,0,15,1,0
55199.428571429,370.793103448276,4,2,0,15,1,0
55211.75,355.48275862069,4,2,0,15,1,0
55224.071428571,341.413793103449,4,2,0,15,1,0
55236.392857143,328.413793103449,4,2,0,15,1,0
55248.714285714,316.344827586207,4,2,0,15,1,0
55261.035714286,302.48275862069,4,2,0,15,1,0
55273.357142857,292.241379310345,4,2,0,15,1,0
55285.678571429,282.655172413793,4,2,0,15,1,0
55298,273.689655172414,4,2,0,15,1,0
55471,43.1034482758621,4,2,0,15,1,0
55547.666666667,1326.27586206897,4,2,0,15,1,0
55566.833333333,1149.41379310345,4,2,0,15,1,0
55586,1014.20689655173,4,2,0,15,1,0
55605.166666667,907.44827586207,4,2,0,15,1,0
55624.333333333,821.034482758622,4,2,0,15,1,0
55643.5,749.620689655173,4,2,0,15,1,0
55662.666666667,689.655172413794,4,2,0,15,1,0
55681.833333333,638.586206896552,4,2,0,15,1,0
55701,594.517241379311,4,2,0,15,1,0
55720.166666667,556.172413793104,4,2,0,15,1,0
55739.333333333,522.48275862069,4,2,0,15,1,0
55758.5,492.620689655173,4,2,0,15,1,0
55777.666666667,466.000000000001,4,2,0,15,1,0
55796.833333333,442.103448275863,4,2,0,15,1,0
55816,420.517241379311,4,2,0,15,1,0
55835.166666667,400.96551724138,4,2,0,15,1,0
55854.333333333,383.137931034483,4,2,0,15,1,0
55873.5,366.827586206897,4,2,0,15,1,0
55892.666666667,351.862068965518,4,2,0,15,1,0
55911.833333333,338.068965517242,4,2,0,15,1,0
55931,325.310344827587,4,2,0,15,1,0
55950.166666667,313.48275862069,4,2,0,15,1,0
55969.333333333,302.48275862069,4,2,0,15,1,0
55988.5,292.241379310345,4,2,0,15,1,0
56007.666666667,282.655172413793,4,2,0,15,1,0
56026.833333333,273.689655172414,4,2,0,15,1,0
56046,265.241379310345,4,2,0,15,1,0
56065.166666667,257.344827586207,4,2,0,15,1,0
56084.333333333,249.862068965518,4,2,0,15,1,0
56103.5,242.827586206897,4,2,0,15,1,0
56122.666666667,236.172413793104,4,2,0,15,1,0
56141.833333333,229.896551724138,4,2,0,15,1,0
56160,103.551724137931,4,2,0,15,1,0
56167.76,104.48275862069,4,2,0,15,1,0
56175.52,105.448275862069,4,2,0,15,1,0
56183.28,106.413793103448,4,2,0,15,1,0
56191.04,107.413793103448,4,2,0,15,1,0
56198.8,108.448275862069,4,2,0,15,1,0
56206.56,109.48275862069,4,2,0,15,1,0
56214.32,110.51724137931,4,2,0,15,1,0
56222.08,111.586206896552,4,2,0,15,1,0
56229.84,112.689655172414,4,2,0,15,1,0
56237.6,113.793103448276,4,2,0,15,1,0
56245.36,114.931034482759,4,2,0,15,1,0
56253.12,116.103448275862,4,2,0,15,1,0
56260.88,117.275862068966,4,2,0,15,1,0
56268.64,118.48275862069,4,2,0,15,1,0
56276.4,119.724137931035,4,2,0,15,1,0
56284.16,121,4,2,0,15,1,0
56291.92,122.275862068966,4,2,0,15,1,0
56299.68,123.586206896552,4,2,0,15,1,0
56307.44,124.931034482759,4,2,0,15,1,0
56315.2,126.310344827586,4,2,0,15,1,0
56322.96,127.724137931035,4,2,0,15,1,0
56330.72,129.137931034483,4,2,0,15,1,0
56338.48,130.620689655173,4,2,0,15,1,0
56346.24,132.103448275862,4,2,0,15,1,0
56354,133.655172413793,4,2,0,15,1,0
56361.76,135.241379310345,4,2,0,15,1,0
56369.52,136.827586206897,4,2,0,15,1,0
56377.28,138.48275862069,4,2,0,15,1,0
56385.04,140.172413793104,4,2,0,15,1,0
56392.8,141.896551724138,4,2,0,15,1,0
56400.56,143.689655172414,4,2,0,15,1,0
56408.32,145.48275862069,4,2,0,15,1,0
56416.08,147.379310344828,4,2,0,15,1,0
56423.84,149.275862068966,4,2,0,15,1,0
56431.6,151.241379310345,4,2,0,15,1,0
56439.36,153.241379310345,4,2,0,15,1,0
56447.12,155.344827586207,4,2,0,15,1,0
56454.88,157.448275862069,4,2,0,15,1,0
56462.64,159.655172413793,4,2,0,15,1,0
56470.4,161.896551724138,4,2,0,15,1,0
56478.16,164.206896551724,4,2,0,15,1,0
56485.92,166.586206896552,4,2,0,15,1,0
56493.68,169.034482758621,4,2,0,15,1,0
56501.44,171.551724137931,4,2,0,15,1,0
56509.2,174.172413793104,4,2,0,15,1,0
56516.96,176.827586206897,4,2,0,15,1,0
56524.72,179.586206896552,4,2,0,15,1,0
56532.48,182.448275862069,4,2,0,15,1,0
56540.24,185.379310344828,4,2,0,15,1,0
56548,188.413793103449,4,2,0,15,1,0
56555.76,191.586206896552,4,2,0,15,1,0
56563.52,194.827586206897,4,2,0,15,1,0
56571.28,198.172413793104,4,2,0,15,1,0
56579.04,201.655172413793,4,2,0,15,1,0
56586.8,205.241379310345,4,2,0,15,1,0
56594.56,209,4,2,0,15,1,0
56602.32,212.862068965518,4,2,0,15,1,0
56610.08,216.862068965518,4,2,0,15,1,0
56617.84,221.034482758621,4,2,0,15,1,0
56625.6,225.379310344828,4,2,0,15,1,0
56633.36,229.896551724138,4,2,0,15,1,0
56641.12,234.586206896552,4,2,0,15,1,0
56648.88,239.448275862069,4,2,0,15,1,0
56656.64,244.551724137931,4,2,0,15,1,0
56664.4,249.862068965518,4,2,0,15,1,0
56672.16,255.413793103449,4,2,0,15,1,0
56679.92,261.241379310345,4,2,0,15,1,0
56687.68,267.310344827587,4,2,0,15,1,0
56695.44,273.689655172414,4,2,0,15,1,0
56703.2,280.344827586207,4,2,0,15,1,0
56710.96,287.344827586207,4,2,0,15,1,0
56718.72,294.724137931035,4,2,0,15,1,0
56726.48,302.48275862069,4,2,0,15,1,0
56734.24,310.655172413794,4,2,0,15,1,0
56742,319.275862068966,4,2,0,15,1,0
56749.76,328.413793103449,4,2,0,15,1,0
56757.52,338.068965517242,4,2,0,15,1,0
56765.28,348.310344827587,4,2,0,15,1,0
56773.04,359.206896551725,4,2,0,15,1,0
56780.8,370.793103448276,4,2,0,15,1,0
56788.56,383.137931034483,4,2,0,15,1,0
56796.32,396.344827586207,4,2,0,15,1,0
56804.08,410.517241379311,4,2,0,15,1,0
56811.84,425.724137931035,4,2,0,15,1,0
56819.6,442.103448275863,4,2,0,15,1,0
56827.36,459.758620689656,4,2,0,15,1,0
56835.12,478.931034482759,4,2,0,15,1,0
56842.88,499.758620689656,4,2,0,15,1,0
56850.64,522.48275862069,4,2,0,15,1,0
56858.4,547.344827586208,4,2,0,15,1,0
56866.16,574.724137931035,4,2,0,15,1,0
56873.92,604.96551724138,4,2,0,15,1,0
56881.68,638.586206896552,4,2,0,15,1,0
56889.44,676.137931034484,4,2,0,15,1,0
56897.2,718.379310344829,4,2,0,15,1,0
56904.96,766.275862068966,4,2,0,15,1,0
56912.72,821.034482758622,4,2,0,15,1,0
56920.48,884.172413793105,4,2,0,15,1,0
56928.24,957.862068965518,4,2,0,15,1,0
56936,43.1034482758621,4,2,0,15,1,0
56979,459.758620689656,4,2,0,15,1,0
57173,51.0689655172415,4,2,0,15,1,0
57194,86.2068965517243,4,2,0,15,1,0
57245.75,1567.41379310345,4,2,0,15,1,0
57263,1326.27586206897,4,2,0,15,1,0
57280.25,1149.41379310345,4,2,0,15,1,0
57297.5,1014.20689655173,4,2,0,15,1,0
57314.75,907.44827586207,4,2,0,15,1,0
57332,821.034482758622,4,2,0,15,1,0
57349.25,749.620689655173,4,2,0,15,1,0
57366.5,689.655172413794,4,2,0,15,1,0
57383.75,638.586206896552,4,2,0,15,1,0
57401,594.517241379311,4,2,0,15,1,0
57418.25,556.172413793104,4,2,0,15,1,0
57435.5,522.48275862069,4,2,0,15,1,0
57452.75,492.620689655173,4,2,0,15,1,0
57470,466.000000000001,4,2,0,15,1,0
57487.25,442.103448275863,4,2,0,15,1,0
57504.5,420.517241379311,4,2,0,15,1,0
57521.75,400.96551724138,4,2,0,15,1,0
57539,383.137931034483,4,2,0,15,1,0
57711,57.4827586206897,4,2,0,15,1,0
57747.964285714,1567.41379310345,4,2,0,15,1,0
57760.285714286,1277.13793103448,4,2,0,15,1,0
57772.607142857,1112.34482758621,4,2,0,15,1,0
57784.928571429,985.206896551725,4,2,0,15,1,0
57797.25,884.172413793105,4,2,0,15,1,0
57809.571428571,801.93103448276,4,2,0,15,1,0
57821.892857143,733.689655172415,4,2,0,15,1,0
57834.214285714,676.137931034484,4,2,0,15,1,0
57846.535714286,615.758620689656,4,2,0,15,1,0
57858.857142857,574.724137931035,4,2,0,15,1,0
57871.178571429,538.793103448277,4,2,0,15,1,0
57883.5,507.103448275863,4,2,0,15,1,0
57895.821428571,478.931034482759,4,2,0,15,1,0
57908.142857143,453.724137931035,4,2,0,15,1,0
57920.464285714,431.034482758621,4,2,0,15,1,0
57932.785714286,405.689655172414,4,2,0,15,1,0
57945.107142857,387.448275862069,4,2,0,15,1,0
57957.428571429,370.793103448276,4,2,0,15,1,0
57969.75,355.48275862069,4,2,0,15,1,0
57982.071428571,341.413793103449,4,2,0,15,1,0
57994.392857143,328.413793103449,4,2,0,15,1,0
58006.714285714,316.344827586207,4,2,0,15,1,0
58019.035714286,302.48275862069,4,2,0,15,1,0
58031.357142857,292.241379310345,4,2,0,15,1,0
58043.678571429,282.655172413793,4,2,0,15,1,0
58056,273.689655172414,4,2,0,15,1,0
58229,43.1034482758621,4,2,0,15,1,0
58305.666666667,1326.27586206897,4,2,0,15,1,0
58324.833333333,1149.41379310345,4,2,0,15,1,0
58344,1014.20689655173,4,2,0,15,1,0
58363.166666667,907.44827586207,4,2,0,15,1,0
58382.333333333,821.034482758622,4,2,0,15,1,0
58401.5,749.620689655173,4,2,0,15,1,0
58420.666666667,689.655172413794,4,2,0,15,1,0
58439.833333333,638.586206896552,4,2,0,15,1,0
58459,594.517241379311,4,2,0,15,1,0
58478.166666667,556.172413793104,4,2,0,15,1,0
58497.333333333,522.48275862069,4,2,0,15,1,0
58516.5,492.620689655173,4,2,0,15,1,0
58535.666666667,466.000000000001,4,2,0,15,1,0
58554.833333333,442.103448275863,4,2,0,15,1,0
58574,420.517241379311,4,2,0,15,1,0
58593.166666667,400.96551724138,4,2,0,15,1,0
58612.333333333,383.137931034483,4,2,0,15,1,0
58631.5,366.827586206897,4,2,0,15,1,0
58650.666666667,351.862068965518,4,2,0,15,1,0
58669.833333333,338.068965517242,4,2,0,15,1,0
58689,325.310344827587,4,2,0,15,1,0
58708.166666667,313.48275862069,4,2,0,15,1,0
58727.333333333,302.48275862069,4,2,0,15,1,0
58746.5,292.241379310345,4,2,0,15,1,0
58765.666666667,282.655172413793,4,2,0,15,1,0
58784.833333333,273.689655172414,4,2,0,15,1,0
58804,265.241379310345,4,2,0,15,1,0
58823.166666667,257.344827586207,4,2,0,15,1,0
58842.333333333,249.862068965518,4,2,0,15,1,0
58861.5,242.827586206897,4,2,0,15,1,0
58880.666666667,236.172413793104,4,2,0,15,1,0
58899.833333333,229.896551724138,4,2,0,15,1,0
58920,3448.27586206897,4,2,0,15,1,0
59070,47.448275862069,4,2,0,15,1,0
59091,3448.27586206897,4,2,0,15,1,0
59134,1044.93103448276,4,2,0,15,1,0
59177,3448.27586206897,4,2,0,15,1,0
59220,1044.93103448276,4,2,0,15,1,0
59241,58.7586206896552,4,2,0,15,1,0
59264,1379.31034482759,4,2,0,15,1,0
59414,54.0344827586208,4,2,0,15,1,0
59436,3448.27586206897,4,2,0,15,1,0
59479,556.172413793104,4,2,0,15,1,0
59500,3448.27586206897,4,2,0,15,1,0
59522,556.172413793104,4,2,0,15,1,0
59543,3448.27586206897,4,2,0,15,1,0
59565,556.172413793104,4,2,0,15,1,0
59586,3448.27586206897,4,2,0,15,1,0
59673,42.5862068965518,4,2,0,15,1,0
59695,129.137931034483,4,2,0,15,1,0
59704,3448.27586206897,4,2,0,15,1,0
59716,129.137931034483,4,2,0,15,1,0
59725,3448.27586206897,4,2,0,15,1,0
59738,129.137931034483,4,2,0,15,1,0
59747,3448.27586206897,4,2,0,15,1,0
59759,129.137931034483,4,2,0,15,1,0
59768,3448.27586206897,4,2,0,15,1,0
59781,129.137931034483,4,2,0,15,1,0
59790,3448.27586206897,4,2,0,15,1,0
59802,129.137931034483,4,2,0,15,1,0
59811,3448.27586206897,4,2,0,15,1,0
59824,129.137931034483,4,2,0,15,1,0
59833,3448.27586206897,4,2,0,15,1,0
59845,129.137931034483,4,2,0,15,1,0
59854,3448.27586206897,4,2,0,15,1,0
59867,129.137931034483,4,2,0,15,1,0
59876,3448.27586206897,4,2,0,15,1,0
59889,129.137931034483,4,2,0,15,1,0
59898,3448.27586206897,4,2,0,15,1,0
59910,129.137931034483,4,2,0,15,1,0
59919,3448.27586206897,4,2,0,15,1,0
59932,117.689655172414,4,2,0,15,1,0
59953,66.6896551724139,4,2,0,15,1,0
60004.75,1567.41379310345,4,2,0,15,1,0
60022,1326.27586206897,4,2,0,15,1,0
60039.25,1149.41379310345,4,2,0,15,1,0
60056.5,1014.20689655173,4,2,0,15,1,0
60073.75,907.44827586207,4,2,0,15,1,0
60091,821.034482758622,4,2,0,15,1,0
60108.25,749.620689655173,4,2,0,15,1,0
60125.5,689.655172413794,4,2,0,15,1,0
60142.75,638.586206896552,4,2,0,15,1,0
60160,594.517241379311,4,2,0,15,1,0
60177.25,556.172413793104,4,2,0,15,1,0
60194.5,522.48275862069,4,2,0,15,1,0
60211.75,492.620689655173,4,2,0,15,1,0
60229,466.000000000001,4,2,0,15,1,0
60246.25,442.103448275863,4,2,0,15,1,0
60263.5,420.517241379311,4,2,0,15,1,0
60280.75,400.96551724138,4,2,0,15,1,0
60298,383.137931034483,4,2,0,15,1,0
60470,57.4827586206897,4,2,0,15,1,0
60506.964285714,1567.41379310345,4,2,0,15,1,0
60519.285714286,1277.13793103448,4,2,0,15,1,0
60531.607142857,1112.34482758621,4,2,0,15,1,0
60543.928571429,985.206896551725,4,2,0,15,1,0
60556.25,884.172413793105,4,2,0,15,1,0
60568.571428571,801.93103448276,4,2,0,15,1,0
60580.892857143,733.689655172415,4,2,0,15,1,0
60593.214285714,676.137931034484,4,2,0,15,1,0
60605.535714286,615.758620689656,4,2,0,15,1,0
60617.857142857,574.724137931035,4,2,0,15,1,0
60630.178571429,538.793103448277,4,2,0,15,1,0
60642.5,507.103448275863,4,2,0,15,1,0
60654.821428571,478.931034482759,4,2,0,15,1,0
60667.142857143,453.724137931035,4,2,0,15,1,0
60679.464285714,431.034482758621,4,2,0,15,1,0
60691.785714286,405.689655172414,4,2,0,15,1,0
60704.107142857,387.448275862069,4,2,0,15,1,0
60716.428571429,370.793103448276,4,2,0,15,1,0
60728.75,355.48275862069,4,2,0,15,1,0
60741.071428571,341.413793103449,4,2,0,15,1,0
60753.392857143,328.413793103449,4,2,0,15,1,0
60765.714285714,316.344827586207,4,2,0,15,1,0
60778.035714286,302.48275862069,4,2,0,15,1,0
60790.357142857,292.241379310345,4,2,0,15,1,0
60802.678571429,282.655172413793,4,2,0,15,1,0
60815,273.689655172414,4,2,0,15,1,0
60988,43.1034482758621,4,2,0,15,1,0
61045.416666667,1567.41379310345,4,2,0,15,1,0
61064.555555556,1326.27586206897,4,2,0,15,1,0
61083.694444444,1149.41379310345,4,2,0,15,1,0
61102.833333333,1014.20689655173,4,2,0,15,1,0
61121.972222222,907.44827586207,4,2,0,15,1,0
61141.111111111,821.034482758622,4,2,0,15,1,0
61160.25,749.620689655173,4,2,0,15,1,0
61179.388888889,689.655172413794,4,2,0,15,1,0
61198.527777778,638.586206896552,4,2,0,15,1,0
61217.666666667,594.517241379311,4,2,0,15,1,0
61236.805555556,556.172413793104,4,2,0,15,1,0
61255.944444444,522.48275862069,4,2,0,15,1,0
61275.083333333,492.620689655173,4,2,0,15,1,0
61294.222222222,466.000000000001,4,2,0,15,1,0
61313.361111111,442.103448275863,4,2,0,15,1,0
61332.5,420.517241379311,4,2,0,15,1,0
61351.638888889,400.96551724138,4,2,0,15,1,0
61370.777777778,383.137931034483,4,2,0,15,1,0
61389.916666667,366.827586206897,4,2,0,15,1,0
61409.055555556,351.862068965518,4,2,0,15,1,0
61428.194444444,338.068965517242,4,2,0,15,1,0
61447.333333333,325.310344827587,4,2,0,15,1,0
61466.472222222,313.48275862069,4,2,0,15,1,0
61485.611111111,302.48275862069,4,2,0,15,1,0
61504.75,292.241379310345,4,2,0,15,1,0
61523.888888889,282.655172413793,4,2,0,15,1,0
61543.027777778,273.689655172414,4,2,0,15,1,0
61562.166666667,265.241379310345,4,2,0,15,1,0
61581.305555556,257.344827586207,4,2,0,15,1,0
61600.444444444,249.862068965518,4,2,0,15,1,0
61619.583333333,242.827586206897,4,2,0,15,1,0
61627.785714286,86.2068965517243,4,2,0,15,1,0
61678,129.137931034483,4,2,0,15,1,0
61764,514.655172413794,4,2,0,15,1,0
61850,1044.93103448276,4,2,0,15,1,0
62001,91.9655172413794,4,2,0,15,1,0
62023,176.827586206897,4,2,0,15,1,0
62044,3448.27586206897,4,2,0,15,1,0
62066,176.827586206897,4,2,0,15,1,0
62087,3448.27586206897,4,2,0,15,1,0
62109,176.827586206897,4,2,0,15,1,0
62130,3448.27586206897,4,2,0,15,1,0
62152,176.827586206897,4,2,0,15,1,0
62173,3448.27586206897,4,2,0,15,1,0
62195,34.4827586206897,4,2,0,15,1,0
62217,396.344827586207,4,2,0,15,1,0
62368,38.3103448275863,4,2,0,15,1,0
62411,547.344827586208,4,2,0,15,1,0
62712,86.2068965517243,4,2,0,15,1,0
62799,370.793103448276,4,2,0,15,1,0
63057,43.1034482758621,4,2,0,15,1,0
63079,415.44827586207,4,2,0,15,1,0
63553,86.2068965517243,4,2,0,15,1,0
63574,396.344827586207,4,2,0,15,1,0
63725,86.2068965517243,4,2,0,15,1,0
63747,191.586206896552,4,2,0,15,1,0
63833,229.896551724138,4,2,0,15,1,0
63919,287.344827586207,4,2,0,15,1,0
64005,431.034482758621,4,2,0,15,1,0
64092,38.3103448275863,4,2,0,15,1,0
64178,383.137931034483,4,2,0,15,1,0
64208.15,391.862068965518,4,2,0,15,1,0
64238.3,400.96551724138,4,2,0,15,1,0
64268.45,410.517241379311,4,2,0,15,1,0
64298.6,420.517241379311,4,2,0,15,1,0
64328.75,431.034482758621,4,2,0,15,1,0
64358.9,442.103448275863,4,2,0,15,1,0
64389.05,453.724137931035,4,2,0,15,1,0
64419.2,466.000000000001,4,2,0,15,1,0
64449.35,478.931034482759,4,2,0,15,1,0
64479.5,492.620689655173,4,2,0,15,1,0
64509.65,507.103448275863,4,2,0,15,1,0
64539.8,522.48275862069,4,2,0,15,1,0
64569.95,538.793103448277,4,2,0,15,1,0
64600.1,556.172413793104,4,2,0,15,1,0
64630.25,574.724137931035,4,2,0,15,1,0
64660.4,594.517241379311,4,2,0,15,1,0
64690.55,615.758620689656,4,2,0,15,1,0
64720.7,638.586206896552,4,2,0,15,1,0
64750.85,663.137931034484,4,2,0,15,1,0
64782,188.413793103449,4,2,0,15,1,0
64868,3448.27586206897,4,2,0,15,1,0
64889,160.379310344828,4,2,0,15,1,0
64911,3448.27586206897,4,2,0,15,1,0
64932,160.379310344828,4,2,0,15,1,0
64954,3448.27586206897,4,2,0,15,1,0
64975,160.379310344828,4,2,0,15,1,0
64997,3448.27586206897,4,2,0,15,1,0
65018,160.379310344828,4,2,0,15,1,0
65040,1915.72413793104,4,2,0,15,1,0
65083,186.379310344828,4,2,0,15,1,0
65126,1915.72413793104,4,2,0,15,1,0
65191,114.931034482759,4,2,0,15,1,0
65212,650.620689655173,4,2,0,15,1,0
65277,129.137931034483,4,2,0,15,1,0
65299,650.620689655173,4,2,0,15,1,0
65364,129.137931034483,4,2,0,15,1,0
65385,650.620689655173,4,2,0,15,1,0
65450,129.137931034483,4,2,0,15,1,0
65471,43.1034482758621,4,2,0,15,1,0
65522.75,1567.41379310345,4,2,0,15,1,0
65540,1326.27586206897,4,2,0,15,1,0
65557.25,1149.41379310345,4,2,0,15,1,0
65574.5,1014.20689655173,4,2,0,15,1,0
65591.75,907.44827586207,4,2,0,15,1,0
65609,821.034482758622,4,2,0,15,1,0
65626.25,749.620689655173,4,2,0,15,1,0
65643.5,689.655172413794,4,2,0,15,1,0
65660.75,638.586206896552,4,2,0,15,1,0
65678,594.517241379311,4,2,0,15,1,0
65695.25,556.172413793104,4,2,0,15,1,0
65712.5,522.48275862069,4,2,0,15,1,0
65729.75,492.620689655173,4,2,0,15,1,0
65747,466.000000000001,4,2,0,15,1,0
65764.25,442.103448275863,4,2,0,15,1,0
65781.5,420.517241379311,4,2,0,15,1,0
65798.75,400.96551724138,4,2,0,15,1,0
65816,383.137931034483,4,2,0,15,1,0
65988,57.4827586206897,4,2,0,15,1,0
66024.964285714,1567.41379310345,4,2,0,15,1,0
66037.285714286,1277.13793103448,4,2,0,15,1,0
66049.607142857,1112.34482758621,4,2,0,15,1,0
66061.928571429,985.206896551725,4,2,0,15,1,0
66074.25,884.172413793105,4,2,0,15,1,0
66086.571428571,801.93103448276,4,2,0,15,1,0
66098.892857143,733.689655172415,4,2,0,15,1,0
66111.214285714,676.137931034484,4,2,0,15,1,0
66123.535714286,615.758620689656,4,2,0,15,1,0
66135.857142857,574.724137931035,4,2,0,15,1,0
66148.178571429,538.793103448277,4,2,0,15,1,0
66160.5,507.103448275863,4,2,0,15,1,0
66172.821428571,478.931034482759,4,2,0,15,1,0
66185.142857143,453.724137931035,4,2,0,15,1,0
66197.464285714,431.034482758621,4,2,0,15,1,0
66209.785714286,405.689655172414,4,2,0,15,1,0
66222.107142857,387.448275862069,4,2,0,15,1,0
66234.428571429,370.793103448276,4,2,0,15,1,0
66246.75,355.48275862069,4,2,0,15,1,0
66259.071428571,341.413793103449,4,2,0,15,1,0
66271.392857143,328.413793103449,4,2,0,15,1,0
66283.714285714,316.344827586207,4,2,0,15,1,0
66296.035714286,302.48275862069,4,2,0,15,1,0
66308.357142857,292.241379310345,4,2,0,15,1,0
66320.678571429,282.655172413793,4,2,0,15,1,0
66333,273.689655172414,4,2,0,15,1,0
66506,86.2068965517243,4,2,0,15,1,0
66582.666666667,1326.27586206897,4,2,0,15,1,0
66601.833333333,1149.41379310345,4,2,0,15,1,0
66621,1014.20689655173,4,2,0,15,1,0
66640.166666667,907.44827586207,4,2,0,15,1,0
66659.333333333,821.034482758622,4,2,0,15,1,0
66678.5,749.620689655173,4,2,0,15,1,0
66697.666666667,689.655172413794,4,2,0,15,1,0
66716.833333333,638.586206896552,4,2,0,15,1,0
66736,594.517241379311,4,2,0,15,1,0
66755.166666667,556.172413793104,4,2,0,15,1,0
66774.333333333,522.48275862069,4,2,0,15,1,0
66793.5,492.620689655173,4,2,0,15,1,0
66812.666666667,466.000000000001,4,2,0,15,1,0
66831.833333333,442.103448275863,4,2,0,15,1,0
66851,420.517241379311,4,2,0,15,1,0
66870.166666667,400.96551724138,4,2,0,15,1,0
66889.333333333,383.137931034483,4,2,0,15,1,0
66908.5,366.827586206897,4,2,0,15,1,0
66927.666666667,351.862068965518,4,2,0,15,1,0
66946.833333333,338.068965517242,4,2,0,15,1,0
66966,325.310344827587,4,2,0,15,1,0
66985.166666667,313.48275862069,4,2,0,15,1,0
67004.333333333,302.48275862069,4,2,0,15,1,0
67023.5,292.241379310345,4,2,0,15,1,0
67042.666666667,282.655172413793,4,2,0,15,1,0
67061.833333333,273.689655172414,4,2,0,15,1,0
67081,265.241379310345,4,2,0,15,1,0
67100.166666667,257.344827586207,4,2,0,15,1,0
67119.333333333,249.862068965518,4,2,0,15,1,0
67138.5,242.827586206897,4,2,0,15,1,0
67157.666666667,236.172413793104,4,2,0,15,1,0
67176.833333333,229.896551724138,4,2,0,15,1,0
67195,114.931034482759,4,2,0,15,1,0
67215.9090909091,117.689655172414,4,2,0,15,1,0
67236.8181818182,120.586206896552,4,2,0,15,1,0
67257.7272727273,123.586206896552,4,2,0,15,1,0
67278.6363636364,126.758620689655,4,2,0,15,1,0
67299.5454545455,130.137931034483,4,2,0,15,1,0
67320.4545454545,133.655172413793,4,2,0,15,1,0
67341.3636363636,137.379310344828,4,2,0,15,1,0
67362.2727272727,141.310344827586,4,2,0,15,1,0
67383.1818181818,146.103448275862,4,2,0,15,1,0
67404.0909090909,150.586206896552,4,2,0,15,1,0
67425,155.344827586207,4,2,0,15,1,0
67445.9090909091,160.379310344828,4,2,0,15,1,0
67466.8181818182,165.793103448276,4,2,0,15,1,0
67487.7272727273,171.551724137931,4,2,0,15,1,0
67508.6363636364,177.758620689655,4,2,0,15,1,0
67529.5454545455,184.413793103449,4,2,0,15,1,0
67550.4545454545,191.586206896552,4,2,0,15,1,0
67571.3636363636,199.310344827586,4,2,0,15,1,0
67592.2727272727,207.724137931035,4,2,0,15,1,0
67613.1818181818,216.862068965518,4,2,0,15,1,0
67634.0909090909,226.862068965518,4,2,0,15,1,0
67655,237.827586206897,4,2,0,15,1,0
67675.9090909091,249.862068965518,4,2,0,15,1,0
67696.8181818182,263.241379310345,4,2,0,15,1,0
67717.7272727273,280.344827586207,4,2,0,15,1,0
67738.6363636364,297.275862068966,4,2,0,15,1,0
67759.5454545455,316.344827586207,4,2,0,15,1,0
67780.4545454545,338.068965517242,4,2,0,15,1,0
67801.3636363636,362.96551724138,4,2,0,15,1,0
67822.2727272727,391.862068965518,4,2,0,15,1,0
67843.1818181818,425.724137931035,4,2,0,15,1,0
67864.0909090909,466.000000000001,4,2,0,15,1,0
67885,514.655172413794,4,2,0,15,1,0
67950,106.758620689655,4,2,0,15,1,0
67971,514.655172413794,4,2,0,15,1,0
68036,106.758620689655,4,2,0,15,1,0
68057,514.655172413794,4,2,0,15,1,0
68122,106.758620689655,4,2,0,15,1,0
68143,514.655172413794,4,2,0,15,1,0
68208,106.758620689655,4,2,0,15,1,0
68230,43.1034482758621,4,2,0,15,1,0
68281.75,1567.41379310345,4,2,0,15,1,0
68299,1326.27586206897,4,2,0,15,1,0
68316.25,1149.41379310345,4,2,0,15,1,0
68333.5,1014.20689655173,4,2,0,15,1,0
68350.75,907.44827586207,4,2,0,15,1,0
68368,821.034482758622,4,2,0,15,1,0
68385.25,749.620689655173,4,2,0,15,1,0
68402.5,689.655172413794,4,2,0,15,1,0
68419.75,638.586206896552,4,2,0,15,1,0
68437,594.517241379311,4,2,0,15,1,0
68454.25,556.172413793104,4,2,0,15,1,0
68471.5,522.48275862069,4,2,0,15,1,0
68488.75,492.620689655173,4,2,0,15,1,0
68506,466.000000000001,4,2,0,15,1,0
68523.25,442.103448275863,4,2,0,15,1,0
68540.5,420.517241379311,4,2,0,15,1,0
68557.75,400.96551724138,4,2,0,15,1,0
68575,383.137931034483,4,2,0,15,1,0
68747,57.4827586206897,4,2,0,15,1,0
68783.964285714,1567.41379310345,4,2,0,15,1,0
68796.285714286,1277.13793103448,4,2,0,15,1,0
68808.607142857,1112.34482758621,4,2,0,15,1,0
68820.928571429,985.206896551725,4,2,0,15,1,0
68833.25,884.172413793105,4,2,0,15,1,0
68845.571428571,801.93103448276,4,2,0,15,1,0
68857.892857143,733.689655172415,4,2,0,15,1,0
68870.214285714,676.137931034484,4,2,0,15,1,0
68882.535714286,615.758620689656,4,2,0,15,1,0
68894.857142857,574.724137931035,4,2,0,15,1,0
68907.178571429,538.793103448277,4,2,0,15,1,0
68919.5,507.103448275863,4,2,0,15,1,0
68931.821428571,478.931034482759,4,2,0,15,1,0
68944.142857143,453.724137931035,4,2,0,15,1,0
68956.464285714,431.034482758621,4,2,0,15,1,0
68968.785714286,405.689655172414,4,2,0,15,1,0
68981.107142857,387.448275862069,4,2,0,15,1,0
68993.428571429,370.793103448276,4,2,0,15,1,0
69005.75,355.48275862069,4,2,0,15,1,0
69018.071428571,341.413793103449,4,2,0,15,1,0
69030.392857143,328.413793103449,4,2,0,15,1,0
69042.714285714,316.344827586207,4,2,0,15,1,0
69055.035714286,302.48275862069,4,2,0,15,1,0
69067.357142857,292.241379310345,4,2,0,15,1,0
69079.678571429,282.655172413793,4,2,0,15,1,0
69092,273.689655172414,4,2,0,15,1,0
69265,86.2068965517243,4,2,0,15,1,0
69341.666666667,1326.27586206897,4,2,0,15,1,0
69360.833333333,1149.41379310345,4,2,0,15,1,0
69380,1014.20689655173,4,2,0,15,1,0
69399.166666667,907.44827586207,4,2,0,15,1,0
69418.333333333,821.034482758622,4,2,0,15,1,0
69437.5,749.620689655173,4,2,0,15,1,0
69456.666666667,689.655172413794,4,2,0,15,1,0
69475.833333333,638.586206896552,4,2,0,15,1,0
69495,594.517241379311,4,2,0,15,1,0
69514.166666667,556.172413793104,4,2,0,15,1,0
69533.333333333,522.48275862069,4,2,0,15,1,0
69552.5,492.620689655173,4,2,0,15,1,0
69571.666666667,466.000000000001,4,2,0,15,1,0
69590.833333333,442.103448275863,4,2,0,15,1,0
69610,420.517241379311,4,2,0,15,1,0
69629.166666667,400.96551724138,4,2,0,15,1,0
69648.333333333,383.137931034483,4,2,0,15,1,0
69667.5,366.827586206897,4,2,0,15,1,0
69686.666666667,351.862068965518,4,2,0,15,1,0
69705.833333333,338.068965517242,4,2,0,15,1,0
69725,325.310344827587,4,2,0,15,1,0
69744.166666667,313.48275862069,4,2,0,15,1,0
69763.333333333,302.48275862069,4,2,0,15,1,0
69782.5,292.241379310345,4,2,0,15,1,0
69801.666666667,282.655172413793,4,2,0,15,1,0
69820.833333333,273.689655172414,4,2,0,15,1,0
69840,265.241379310345,4,2,0,15,1,0
69859.166666667,257.344827586207,4,2,0,15,1,0
69878.333333333,249.862068965518,4,2,0,15,1,0
69897.5,242.827586206897,4,2,0,15,1,0
69916.666666667,236.172413793104,4,2,0,15,1,0
69935.833333333,229.896551724138,4,2,0,15,1,0
69954,129.137931034483,4,2,0,15,1,0
70040,459.758620689656,4,2,0,15,1,0
70299,191.586206896552,4,2,0,15,1,0
70342,3448.27586206897,4,2,0,15,1,0
70374.375,183.413793103449,4,2,0,15,1,0
70417.375,3448.27586206897,4,2,0,15,1,0
70449.75,176.827586206897,4,2,0,15,1,0
70492.75,3448.27586206897,4,2,0,15,1,0
70525.125,169.862068965517,4,2,0,15,1,0
70568.125,3448.27586206897,4,2,0,15,1,0
70600.5,164.206896551724,4,2,0,15,1,0
70643.5,3448.27586206897,4,2,0,15,1,0
70675.875,158.896551724138,4,2,0,15,1,0
70718.875,3448.27586206897,4,2,0,15,1,0
70751.25,153.241379310345,4,2,0,15,1,0
70794.25,3448.27586206897,4,2,0,15,1,0
70826.625,148,4,2,0,15,1,0
70869.625,3448.27586206897,4,2,0,15,1,0
70902,143.689655172414,4,2,0,15,1,0
70945,3448.27586206897,4,2,0,15,1,0
70988,43.1034482758621,4,2,0,15,1,0
71039.75,1567.41379310345,4,2,0,15,1,0
71057,1326.27586206897,4,2,0,15,1,0
71074.25,1149.41379310345,4,2,0,15,1,0
71091.5,1014.20689655173,4,2,0,15,1,0
71108.75,907.44827586207,4,2,0,15,1,0
71126,821.034482758622,4,2,0,15,1,0
71143.25,749.620689655173,4,2,0,15,1,0
71160.5,689.655172413794,4,2,0,15,1,0
71177.75,638.586206896552,4,2,0,15,1,0
71195,594.517241379311,4,2,0,15,1,0
71212.25,556.172413793104,4,2,0,15,1,0
71229.5,522.48275862069,4,2,0,15,1,0
71246.75,492.620689655173,4,2,0,15,1,0
71264,466.000000000001,4,2,0,15,1,0
71281.25,442.103448275863,4,2,0,15,1,0
71298.5,420.517241379311,4,2,0,15,1,0
71315.75,400.96551724138,4,2,0,15,1,0
71333,383.137931034483,4,2,0,15,1,0
71505,57.4827586206897,4,2,0,15,1,0
71541.964285714,1567.41379310345,4,2,0,15,1,0
71554.285714286,1277.13793103448,4,2,0,15,1,0
71566.607142857,1112.34482758621,4,2,0,15,1,0
71578.928571429,985.206896551725,4,2,0,15,1,0
71591.25,884.172413793105,4,2,0,15,1,0
71603.571428571,801.93103448276,4,2,0,15,1,0
71615.892857143,733.689655172415,4,2,0,15,1,0
71628.214285714,676.137931034484,4,2,0,15,1,0
71640.535714286,615.758620689656,4,2,0,15,1,0
71652.857142857,574.724137931035,4,2,0,15,1,0
71665.178571429,538.793103448277,4,2,0,15,1,0
71677.5,507.103448275863,4,2,0,15,1,0
71689.821428571,478.931034482759,4,2,0,15,1,0
71702.142857143,453.724137931035,4,2,0,15,1,0
71714.464285714,431.034482758621,4,2,0,15,1,0
71726.785714286,405.689655172414,4,2,0,15,1,0
71739.107142857,387.448275862069,4,2,0,15,1,0
71751.428571429,370.793103448276,4,2,0,15,1,0
71763.75,355.48275862069,4,2,0,15,1,0
71776.071428571,341.413793103449,4,2,0,15,1,0
71788.392857143,328.413793103449,4,2,0,15,1,0
71800.714285714,316.344827586207,4,2,0,15,1,0
71813.035714286,302.48275862069,4,2,0,15,1,0
71825.357142857,292.241379310345,4,2,0,15,1,0
71837.678571429,282.655172413793,4,2,0,15,1,0
71850,273.689655172414,4,2,0,15,1,0
72023,86.2068965517243,4,2,0,15,1,0
72099.666666667,1326.27586206897,4,2,0,15,1,0
72118.833333333,1149.41379310345,4,2,0,15,1,0
72138,1014.20689655173,4,2,0,15,1,0
72157.166666667,907.44827586207,4,2,0,15,1,0
72176.333333333,821.034482758622,4,2,0,15,1,0
72195.5,749.620689655173,4,2,0,15,1,0
72214.666666667,689.655172413794,4,2,0,15,1,0
72233.833333333,638.586206896552,4,2,0,15,1,0
72253,594.517241379311,4,2,0,15,1,0
72272.166666667,556.172413793104,4,2,0,15,1,0
72291.333333333,522.48275862069,4,2,0,15,1,0
72310.5,492.620689655173,4,2,0,15,1,0
72329.666666667,466.000000000001,4,2,0,15,1,0
72348.833333333,442.103448275863,4,2,0,15,1,0
72368,420.517241379311,4,2,0,15,1,0
72387.166666667,400.96551724138,4,2,0,15,1,0
72406.333333333,383.137931034483,4,2,0,15,1,0
72425.5,366.827586206897,4,2,0,15,1,0
72444.666666667,351.862068965518,4,2,0,15,1,0
72463.833333333,338.068965517242,4,2,0,15,1,0
72483,325.310344827587,4,2,0,15,1,0
72502.166666667,313.48275862069,4,2,0,15,1,0
72521.333333333,302.48275862069,4,2,0,15,1,0
72540.5,292.241379310345,4,2,0,15,1,0
72559.666666667,282.655172413793,4,2,0,15,1,0
72578.833333333,273.689655172414,4,2,0,15,1,0
72598,265.241379310345,4,2,0,15,1,0
72617.166666667,257.344827586207,4,2,0,15,1,0
72636.333333333,249.862068965518,4,2,0,15,1,0
72655.5,242.827586206897,4,2,0,15,1,0
72674.666666667,236.172413793104,4,2,0,15,1,0
72693.833333333,229.896551724138,4,2,0,15,1,0
72712,344.827586206897,4,2,0,15,1,0
72712,-12.5,4,2,0,15,0,0
72769,344.827586206897,4,2,0,15,1,0
72769,-250,4,2,0,15,0,0
72826,344.827586206897,4,2,0,15,1,0
72826,-62.5,4,2,0,15,0,0
72884,344.827586206897,4,2,0,15,1,0
72884,-250,4,2,0,15,0,0
72941,344.827586206897,4,2,0,15,1,0
72941,-62.5,4,2,0,15,0,0
72999,344.827586206897,4,2,0,15,1,0
72999,-250,4,2,0,15,0,0
73056,344.827586206897,4,2,0,15,1,0
73056,-62.5,4,2,0,15,0,0
73114,344.827586206897,4,2,0,15,1,0
73114,-250,4,2,0,15,0,0
73171,344.827586206897,4,2,0,15,1,0
73171,-62.5,4,2,0,15,0,0
73229,344.827586206897,4,2,0,15,1,0
73229,-250,4,2,0,15,0,0
73286,344.827586206897,4,2,0,15,1,0
73286,-62.5,4,2,0,15,0,0
73344,344.827586206897,4,2,0,15,1,0
73344,-250,4,2,0,15,0,0
73403,344.827586206897,4,2,0,15,1,0
73403,-12.5,4,2,0,15,0,0
73445,344.827586206897,4,2,0,15,1,0
73445,-58.8235294117647,4,2,0,15,0,0
73488,344.827586206897,4,2,0,15,1,0
73488,-333.333333333333,4,2,0,15,0,0
73531,344.827586206897,4,2,0,15,1,0
73531,-58.8235294117647,4,2,0,15,0,0
73574,344.827586206897,4,2,0,15,1,0
73574,-333.333333333333,4,2,0,15,0,0
73618,344.827586206897,4,2,0,15,1,0
73618,-58.8235294117647,4,2,0,15,0,0
73661,344.827586206897,4,2,0,15,1,0
73661,-333.333333333333,4,2,0,15,0,0
73704,344.827586206897,4,2,0,15,1,0
73704,-58.8235294117647,4,2,0,15,0,0
73747,344.827586206897,4,2,0,15,1,0
73747,-333.333333333333,4,2,0,15,0,0
73790,344.827586206897,4,2,0,15,1,0
73790,-58.8235294117647,4,2,0,15,0,0
73833,344.827586206897,4,2,0,15,1,0
73833,-333.333333333333,4,2,0,15,0,0
73876,344.827586206897,4,2,0,15,1,0
73876,-58.8235294117647,4,2,0,15,0,0
73919,344.827586206897,4,2,0,15,1,0
73919,-333.333333333333,4,2,0,15,0,0
73962,344.827586206897,4,2,0,15,1,0
73962,-58.8235294117647,4,2,0,15,0,0
74005,344.827586206897,4,2,0,15,1,0
74005,-333.333333333333,4,2,0,15,0,0
74049,344.827586206897,4,2,0,15,1,0
74049,-58.8235294117647,4,2,0,15,0,0
74093,344.827586206897,4,2,0,15,1,0
74093,-12.5,4,2,0,15,0,0
74120,344.827586206897,4,2,0,15,1,0
74120,-500,4,2,0,15,0,0
74149,344.827586206897,4,2,0,15,1,0
74149,-55.5555555555556,4,2,0,15,0,0
74178,344.827586206897,4,2,0,15,1,0
74178,-500,4,2,0,15,0,0
74207,344.827586206897,4,2,0,15,1,0
74207,-55.5555555555556,4,2,0,15,0,0
74235,344.827586206897,4,2,0,15,1,0
74235,-500,4,2,0,15,0,0
74264,344.827586206897,4,2,0,15,1,0
74264,-55.5555555555556,4,2,0,15,0,0
74293,344.827586206897,4,2,0,15,1,0
74293,-500,4,2,0,15,0,0
74322,344.827586206897,4,2,0,15,1,0
74322,-55.5555555555556,4,2,0,15,0,0
74350,344.827586206897,4,2,0,15,1,0
74350,-500,4,2,0,15,0,0
74379,344.827586206897,4,2,0,15,1,0
74379,-55.5555555555556,4,2,0,15,0,0
74408,344.827586206897,4,2,0,15,1,0
74408,-500,4,2,0,15,0,0
74437,344.827586206897,4,2,0,15,1,0
74437,-55.5555555555556,4,2,0,15,0,0
74465,344.827586206897,4,2,0,15,1,0
74465,-500,4,2,0,15,0,0
74494,344.827586206897,4,2,0,15,1,0
74494,-55.5555555555556,4,2,0,15,0,0
74523,344.827586206897,4,2,0,15,1,0
74523,-500,4,2,0,15,0,0
74552,344.827586206897,4,2,0,15,1,0
74552,-55.5555555555556,4,2,0,15,0,0
74580,344.827586206897,4,2,0,15,1,0
74580,-500,4,2,0,15,0,0
74609,344.827586206897,4,2,0,15,1,0
74609,-55.5555555555556,4,2,0,15,0,0
74638,344.827586206897,4,2,0,15,1,0
74638,-500,4,2,0,15,0,0
74667,344.827586206897,4,2,0,15,1,0
74667,-55.5555555555556,4,2,0,15,0,0
74695,344.827586206897,4,2,0,15,1,0
74695,-500,4,2,0,15,0,0
74724,344.827586206897,4,2,0,15,1,0
74724,-55.5555555555556,4,2,0,15,0,0
74753,344.827586206897,4,2,0,15,1,0
74753,-500,4,2,0,15,0,0
74782,344.827586206897,4,2,0,15,1,0
74782,-12.5,4,2,0,15,0,0
74803,344.827586206897,4,2,0,15,1,0
74803,-1000,4,2,0,15,0,0
74824,344.827586206897,4,2,0,15,1,0
74824,-52.6315789473684,4,2,0,15,0,0
74846,344.827586206897,4,2,0,15,1,0
74846,-1000,4,2,0,15,0,0
74867,344.827586206897,4,2,0,15,1,0
74867,-52.6315789473684,4,2,0,15,0,0
74889,344.827586206897,4,2,0,15,1,0
74889,-1000,4,2,0,15,0,0
74910,344.827586206897,4,2,0,15,1,0
74910,-52.6315789473684,4,2,0,15,0,0
74932,344.827586206897,4,2,0,15,1,0
74932,-1000,4,2,0,15,0,0
74953,344.827586206897,4,2,0,15,1,0
74953,-52.6315789473684,4,2,0,15,0,0
74975,344.827586206897,4,2,0,15,1,0
74975,-1000,4,2,0,15,0,0
74996,344.827586206897,4,2,0,15,1,0
74996,-52.6315789473684,4,2,0,15,0,0
75018,344.827586206897,4,2,0,15,1,0
75018,-1000,4,2,0,15,0,0
75039,344.827586206897,4,2,0,15,1,0
75039,-52.6315789473684,4,2,0,15,0,0
75061,344.827586206897,4,2,0,15,1,0
75061,-1000,4,2,0,15,0,0
75082,344.827586206897,4,2,0,15,1,0
75082,-52.6315789473684,4,2,0,15,0,0
75105,344.827586206897,4,2,0,15,1,0
75105,-1000,4,2,0,15,0,0
75126,344.827586206897,4,2,0,15,1,0
75126,-25,4,2,0,15,0,0
75170,-100,4,2,0,15,0,0
75471,-71.4285714285714,4,2,0,15,0,0
75515,-100,4,2,0,15,0,0
75816,-71.4285714285714,4,2,0,15,0,0
75860,-100,4,2,0,15,0,0
76161,-71.4285714285714,4,2,0,15,0,0
76205,-100,4,2,0,15,0,0
76506,-71.4285714285714,4,2,0,15,0,0
76550,-100,4,2,0,15,0,0
76851,-71.4285714285714,4,2,0,15,0,0
76895,-100,4,2,0,15,0,0
77195,-71.4285714285714,4,2,0,15,0,0
77239,-100,4,2,0,15,0,0
77540,-71.4285714285714,4,2,0,15,0,0
77584,-100,4,2,0,15,0,0
77885,-71.4285714285714,4,2,0,15,0,0
77929,-100,4,2,0,15,0,0
78230,-71.4285714285714,4,2,0,15,0,0
78274,-100,4,2,0,15,0,0
78575,-71.4285714285714,4,2,0,15,0,0
78619,-100,4,2,0,15,0,0
78920,-71.4285714285714,4,2,0,15,0,0
78964,-100,4,2,0,15,0,0
79264,-71.4285714285714,4,2,0,15,0,0
79308,-100,4,2,0,15,0,0
79609,-71.4285714285714,4,2,0,15,0,0
79653,-100,4,2,0,15,0,0
79954,-71.4285714285714,4,2,0,15,0,0
79998,-100,4,2,0,15,0,0
80299,-71.4285714285714,4,2,0,15,0,0
80343,-100,4,2,0,15,0,0
80644,-46.9483568075117,4,2,0,15,0,0
80665,-111.111111111111,4,2,0,15,0,0
80988,-46.9483568075117,4,2,0,15,0,0
81009,-111.111111111111,4,2,0,15,0,0
81333,-46.9483568075117,4,2,0,15,0,0
81354,-111.111111111111,4,2,0,15,0,0
81678,-46.9483568075117,4,2,0,15,0,0
81699,-111.111111111111,4,2,0,15,0,0
82023,-46.9483568075117,4,2,0,15,0,0
82044,-111.111111111111,4,2,0,15,0,0
82368,-46.9483568075117,4,2,0,15,0,0
82389,-111.111111111111,4,2,0,15,0,0
82713,-46.9483568075117,4,2,0,15,0,0
82734,-111.111111111111,4,2,0,15,0,0
83057,-46.9483568075117,4,2,0,15,0,0
83078,-111.111111111111,4,2,0,15,0,0
83402,-84.7457627118644,4,2,0,20,0,0
83445,-121.951219512195,4,2,0,20,0,0
83489,-83.3333333333333,4,2,0,20,0,0
83532,-125,4,2,0,20,0,0
83575,-81.9672131147541,4,2,0,20,0,0
83618,-128.205128205128,4,2,0,20,0,0
83661,-80.6451612903226,4,2,0,20,0,0
83704,-131.578947368421,4,2,0,20,0,0
83747,-79.3650793650794,4,2,0,20,0,0
83790,-135.135135135135,4,2,0,20,0,0
83833,-78.125,4,2,0,20,0,0
83876,-138.888888888889,4,2,0,20,0,0
83920,-76.9230769230769,4,2,0,20,0,0
83963,-142.857142857143,4,2,0,20,0,0
84006,-75.7575757575758,4,2,0,20,0,0
84049,-147.058823529412,4,2,0,20,0,0
84092,-66.6666666666667,4,2,0,20,0,0
84114,-133.333333333333,4,2,0,20,0,0
84135,-66.6666666666667,4,2,0,20,0,0
84157,-133.333333333333,4,2,0,20,0,0
84178,-66.6666666666667,4,2,0,20,0,0
84200,-133.333333333333,4,2,0,20,0,0
84221,-66.6666666666667,4,2,0,20,0,0
84243,-133.333333333333,4,2,0,20,0,0
84265,-66.6666666666667,4,2,0,20,0,0
84287,-133.333333333333,4,2,0,20,0,0
84308,-66.6666666666667,4,2,0,20,0,0
84330,-133.333333333333,4,2,0,20,0,0
84351,-66.6666666666667,4,2,0,20,0,0
84373,-133.333333333333,4,2,0,20,0,0
84394,-66.6666666666667,4,2,0,20,0,0
84416,-133.333333333333,4,2,0,20,0,0
84437,-66.6666666666667,4,2,0,20,0,0
84459,-133.333333333333,4,2,0,20,0,0
84480,-66.6666666666667,4,2,0,20,0,0
84502,-133.333333333333,4,2,0,20,0,0
84523,-66.6666666666667,4,2,0,20,0,0
84545,-133.333333333333,4,2,0,20,0,0
84566,-66.6666666666667,4,2,0,20,0,0
84588,-133.333333333333,4,2,0,20,0,0
84609,-66.6666666666667,4,2,0,20,0,0
84631,-133.333333333333,4,2,0,20,0,0
84652,-66.6666666666667,4,2,0,20,0,0
84674,-133.333333333333,4,2,0,20,0,0
84696,-66.6666666666667,4,2,0,20,0,0
84718,-133.333333333333,4,2,0,20,0,0
84739,-66.6666666666667,4,2,0,20,0,0
84761,-133.333333333333,4,2,0,20,0,0
84782,34.4827586206897,4,2,0,20,1,0
84824,197.034482758621,4,2,0,15,1,0
84830.3076923077,198.172413793104,4,2,0,15,1,0
84836.6153846154,199.310344827586,4,2,0,15,1,0
84842.9230769231,200.48275862069,4,2,0,15,1,0
84849.2307692308,201.655172413793,4,2,0,15,1,0
84855.5384615385,202.827586206897,4,2,0,15,1,0
84861.8461538462,204.034482758621,4,2,0,15,1,0
84868.1538461538,205.241379310345,4,2,0,15,1,0
84874.4615384615,206.48275862069,4,2,0,15,1,0
84880.7692307692,207.724137931035,4,2,0,15,1,0
84887.0769230769,209,4,2,0,15,1,0
84893.3846153846,210.275862068966,4,2,0,15,1,0
84899.6923076923,211.551724137931,4,2,0,15,1,0
84906,212.862068965518,4,2,0,15,1,0
84912.3076923077,214.172413793104,4,2,0,15,1,0
84918.6153846154,215.517241379311,4,2,0,15,1,0
84924.9230769231,216.862068965518,4,2,0,15,1,0
84931.2307692308,218.241379310345,4,2,0,15,1,0
84937.5384615385,219.620689655173,4,2,0,15,1,0
84943.8461538462,221.034482758621,4,2,0,15,1,0
84950.1538461538,222.48275862069,4,2,0,15,1,0
84956.4615384615,223.931034482759,4,2,0,15,1,0
84962.7692307692,225.379310344828,4,2,0,15,1,0
84969.0769230769,226.862068965518,4,2,0,15,1,0
84975.3846153846,228.379310344828,4,2,0,15,1,0
84981.6923076923,229.896551724138,4,2,0,15,1,0
84988,231.413793103449,4,2,0,15,1,0
84994.3076923077,233,4,2,0,15,1,0
85000.6153846154,234.586206896552,4,2,0,15,1,0
85006.9230769231,236.172413793104,4,2,0,15,1,0
85013.2307692308,237.827586206897,4,2,0,15,1,0
85019.5384615385,239.448275862069,4,2,0,15,1,0
85025.8461538462,241.137931034483,4,2,0,15,1,0
85032.1538461538,242.827586206897,4,2,0,15,1,0
85038.4615384615,244.551724137931,4,2,0,15,1,0
85044.7692307692,246.310344827587,4,2,0,15,1,0
85051.0769230769,248.068965517242,4,2,0,15,1,0
85057.3846153846,249.862068965518,4,2,0,15,1,0
85063.6923076923,251.689655172414,4,2,0,15,1,0
85070,253.551724137931,4,2,0,15,1,0
85076.3076923077,255.413793103449,4,2,0,15,1,0
85082.6153846154,257.344827586207,4,2,0,15,1,0
85088.9230769231,259.275862068966,4,2,0,15,1,0
85095.2307692308,261.241379310345,4,2,0,15,1,0
85101.5384615385,263.241379310345,4,2,0,15,1,0
85107.8461538462,265.241379310345,4,2,0,15,1,0
85114.1538461538,267.310344827587,4,2,0,15,1,0
85120.4615384615,269.379310344828,4,2,0,15,1,0
85126.7692307692,271.517241379311,4,2,0,15,1,0
85133.0769230769,273.689655172414,4,2,0,15,1,0
85139.3846153846,275.862068965518,4,2,0,15,1,0
85145.6923076923,278.103448275862,4,2,0,15,1,0
85152,280.344827586207,4,2,0,15,1,0
85158.3076923077,282.655172413793,4,2,0,15,1,0
85164.6153846154,284.96551724138,4,2,0,15,1,0
85170.9230769231,287.344827586207,4,2,0,15,1,0
85177.2307692308,289.758620689656,4,2,0,15,1,0
85183.5384615385,292.241379310345,4,2,0,15,1,0
85189.8461538462,294.724137931035,4,2,0,15,1,0
85196.1538461538,297.275862068966,4,2,0,15,1,0
85202.4615384615,299.862068965518,4,2,0,15,1,0
85208.7692307692,302.48275862069,4,2,0,15,1,0
85215.0769230769,305.172413793104,4,2,0,15,1,0
85221.3846153846,307.896551724138,4,2,0,15,1,0
85227.6923076923,310.655172413794,4,2,0,15,1,0
85234,313.48275862069,4,2,0,15,1,0
85240.3076923077,316.344827586207,4,2,0,15,1,0
85246.6153846154,319.275862068966,4,2,0,15,1,0
85252.9230769231,322.275862068966,4,2,0,15,1,0
85259.2307692308,325.310344827587,4,2,0,15,1,0
85265.5384615385,328.413793103449,4,2,0,15,1,0
85271.8461538462,331.551724137931,4,2,0,15,1,0
85278.1538461538,334.793103448276,4,2,0,15,1,0
85284.4615384615,338.068965517242,4,2,0,15,1,0
85290.7692307692,341.413793103449,4,2,0,15,1,0
85297.0769230769,344.827586206897,4,2,0,15,1,0
85303.3846153846,348.310344827587,4,2,0,15,1,0
85309.6923076923,351.862068965518,4,2,0,15,1,0
85316,355.48275862069,4,2,0,15,1,0
85322.3076923077,359.206896551725,4,2,0,15,1,0
85328.6153846154,362.96551724138,4,2,0,15,1,0
85334.9230769231,366.827586206897,4,2,0,15,1,0
85341.2307692308,370.793103448276,4,2,0,15,1,0
85347.5384615385,374.827586206897,4,2,0,15,1,0
85353.8461538462,378.931034482759,4,2,0,15,1,0
85360.1538461538,383.137931034483,4,2,0,15,1,0
85366.4615384615,387.448275862069,4,2,0,15,1,0
85372.7692307692,391.862068965518,4,2,0,15,1,0
85379.0769230769,396.344827586207,4,2,0,15,1,0
85385.3846153846,400.96551724138,4,2,0,15,1,0
85391.6923076923,405.689655172414,4,2,0,15,1,0
85398,410.517241379311,4,2,0,15,1,0
85404.3076923077,415.44827586207,4,2,0,15,1,0
85410.6153846154,420.517241379311,4,2,0,15,1,0
85416.9230769231,425.724137931035,4,2,0,15,1,0
85423.2307692308,431.034482758621,4,2,0,15,1,0
85429.5384615385,436.48275862069,4,2,0,15,1,0
85435.8461538462,442.103448275863,4,2,0,15,1,0
85442.1538461538,447.827586206897,4,2,0,15,1,0
85448.4615384615,453.724137931035,4,2,0,15,1,0
85454.7692307692,459.758620689656,4,2,0,15,1,0
85461.0769230769,466.000000000001,4,2,0,15,1,0
85467.3846153846,472.379310344828,4,2,0,15,1,0
85473.6923076923,478.931034482759,4,2,0,15,1,0
85480,485.689655172414,4,2,0,15,1,0
85486.3076923077,492.620689655173,4,2,0,15,1,0
85492.6153846154,499.758620689656,4,2,0,15,1,0
85498.9230769231,507.103448275863,4,2,0,15,1,0
85505.2307692308,514.655172413794,4,2,0,15,1,0
85511.5384615385,522.48275862069,4,2,0,15,1,0
85517.8461538462,530.517241379311,4,2,0,15,1,0
85524.1538461538,538.793103448277,4,2,0,15,1,0
85530.4615384615,547.344827586208,4,2,0,15,1,0
85536.7692307692,556.172413793104,4,2,0,15,1,0
85543.0769230769,565.275862068966,4,2,0,15,1,0
85549.3846153846,574.724137931035,4,2,0,15,1,0
85555.6923076923,584.44827586207,4,2,0,15,1,0
85562,594.517241379311,4,2,0,15,1,0
85568.3076923077,604.96551724138,4,2,0,15,1,0
85574.6153846154,615.758620689656,4,2,0,15,1,0
85580.9230769231,626.96551724138,4,2,0,15,1,0
85587.2307692308,638.586206896552,4,2,0,15,1,0
85593.5384615385,650.620689655173,4,2,0,15,1,0
85599.8461538462,663.137931034484,4,2,0,15,1,0
85606.1538461538,676.137931034484,4,2,0,15,1,0
85612.4615384615,689.655172413794,4,2,0,15,1,0
85618.7692307692,703.724137931035,4,2,0,15,1,0
85625.0769230769,718.379310344829,4,2,0,15,1,0
85631.3846153846,733.689655172415,4,2,0,15,1,0
85637.6923076923,749.620689655173,4,2,0,15,1,0
85644,344.827586206897,4,2,0,15,1,0
85644,-222.222222222222,4,2,0,15,0,0
85730,-192.307692307692,4,2,0,20,0,0
85816,-153.846153846154,4,2,0,20,0,0
85902,-138.888888888889,4,2,0,20,0,0
85988,-117.647058823529,4,2,0,20,0,0
86075,-108.695652173913,4,2,0,20,0,0
86161,-100,4,2,0,20,0,0
86506,-83.3333333333333,4,2,0,15,0,0
86592,-90.9090909090909,4,2,0,15,0,0
86678,-100,4,2,0,15,0,0
86764,-111.111111111111,4,2,0,15,0,0
86850,-125,4,2,0,15,0,0
87023,-83.3333333333333,4,2,0,15,0,0
87109,-90.9090909090909,4,2,0,15,0,0
87195,-100,4,2,0,15,0,0
87281,-111.111111111111,4,2,0,15,0,0
87367,-125,4,2,0,15,0,0
87540,-83.3333333333333,4,2,0,15,0,0
87626,-90.9090909090909,4,2,0,15,0,0
87712,-100,4,2,0,15,0,0
87798,-111.111111111111,4,2,0,15,0,0
87884,-125,4,2,0,15,0,0
88057,-83.3333333333333,4,2,0,15,0,0
88143,-90.9090909090909,4,2,0,15,0,0
88229,-100,4,2,0,15,0,0
88315,-111.111111111111,4,2,0,15,0,0
88401,-125,4,2,0,15,0,0
88575,-71.4285714285714,4,2,0,15,0,0
88618,-100,4,2,0,15,0,0
88747,-71.4285714285714,4,2,0,15,0,0
88790,-100,4,2,0,15,0,0
88919,-50,4,2,0,20,0,0
88962,-149.253731343284,4,2,0,20,0,0
89092,-50,4,2,0,20,0,0
89135,-149.253731343284,4,2,0,20,0,0
89264,-83.3333333333333,4,2,0,15,0,0
89298.475,-84.0336134453782,4,2,0,15,0,0
89332.95,-84.7457627118644,4,2,0,15,0,0
89367.425,-85.4700854700855,4,2,0,15,0,0
89401.9,-86.2068965517241,4,2,0,15,0,0
89436.375,-86.9565217391304,4,2,0,15,0,0
89470.85,-87.719298245614,4,2,0,15,0,0
89505.325,-88.495575221239,4,2,0,15,0,0
89539.8,-89.2857142857143,4,2,0,15,0,0
89574.275,-90.0900900900901,4,2,0,15,0,0
89608.75,-90.9090909090909,4,2,0,15,0,0
89643.225,-91.743119266055,4,2,0,15,0,0
89677.7,-92.5925925925926,4,2,0,15,0,0
89712.175,-93.4579439252336,4,2,0,15,0,0
89746.65,-94.3396226415094,4,2,0,15,0,0
89781.125,-95.2380952380952,4,2,0,15,0,0
89815.6,-96.1538461538461,4,2,0,15,0,0
89850.075,-97.0873786407767,4,2,0,15,0,0
89884.55,-98.0392156862745,4,2,0,15,0,0
89919.025,-99.009900990099,4,2,0,15,0,0
89953.5,-100,4,2,0,15,0,0
89987.975,-101.010101010101,4,2,0,15,0,0
90022.45,-102.040816326531,4,2,0,15,0,0
90056.925,-103.092783505155,4,2,0,15,0,0
90091.4,-104.166666666667,4,2,0,15,0,0
90125.875,-105.263157894737,4,2,0,15,0,0
90160.35,-106.382978723404,4,2,0,15,0,0
90194.825,-107.52688172043,4,2,0,15,0,0
90229.3,-108.695652173913,4,2,0,15,0,0
90263.775,-109.89010989011,4,2,0,15,0,0
90298.25,-111.111111111111,4,2,0,15,0,0
90332.725,-112.359550561798,4,2,0,15,0,0
90367.2,-113.636363636364,4,2,0,15,0,0
90401.675,-114.942528735632,4,2,0,15,0,0
90436.15,-116.279069767442,4,2,0,15,0,0
90470.625,-117.647058823529,4,2,0,15,0,0
90505.1,-119.047619047619,4,2,0,15,0,0
90539.575,-120.481927710843,4,2,0,15,0,0
90574.05,-121.951219512195,4,2,0,15,0,0
90608.525,-123.456790123457,4,2,0,15,0,0
90643,-100,4,2,0,15,0,0
91333,-57.1428571428571,4,2,0,15,0,0
91376,-400,4,2,0,15,0,0
91419,-57.1428571428571,4,2,0,15,0,0
91462,-400,4,2,0,15,0,0
91505,-57.1428571428571,4,2,0,15,0,0
91548,-400,4,2,0,15,0,0
91592,-57.1428571428571,4,2,0,15,0,0
91635,-400,4,2,0,15,0,0
91678,-100,4,2,0,15,0,0
92023,-83.3333333333333,4,2,0,15,0,0
92109,-90.9090909090909,4,2,0,15,0,0
92195,-100,4,2,0,15,0,0
92281,-111.111111111111,4,2,0,15,0,0
92367,-125,4,2,0,15,0,0
92540,-83.3333333333333,4,2,0,15,0,0
92626,-90.9090909090909,4,2,0,15,0,0
92712,-100,4,2,0,15,0,0
92798,-111.111111111111,4,2,0,15,0,0
92884,-125,4,2,0,15,0,0
93057,-83.3333333333333,4,2,0,15,0,0
93143,-90.9090909090909,4,2,0,15,0,0
93229,-100,4,2,0,15,0,0
93315,-111.111111111111,4,2,0,15,0,0
93401,-125,4,2,0,15,0,0
93575,-83.3333333333333,4,2,0,15,0,0
93661,-90.9090909090909,4,2,0,15,0,0
93747,-100,4,2,0,15,0,0
93833,-111.111111111111,4,2,0,15,0,0
93919,-125,4,2,0,15,0,0
94092,-71.4285714285714,4,2,0,15,0,0
94135,-100,4,2,0,15,0,0
94264,-71.4285714285714,4,2,0,15,0,0
94307,-100,4,2,0,15,0,0
94437,-37.4531835205993,4,2,0,15,0,0
94458,-120.481927710843,4,2,0,15,0,0
94609,-37.4531835205993,4,2,0,15,0,0
94631,-120.481927710843,4,2,0,15,0,0
94781,-57.1428571428571,4,2,0,20,0,0
94803,-370.37037037037,4,2,0,20,0,0
94824,-57.1428571428571,4,2,0,20,0,0
94846,-370.37037037037,4,2,0,20,0,0
94867,-57.1428571428571,4,2,0,20,0,0
94889,-370.37037037037,4,2,0,20,0,0
94910,-57.1428571428571,4,2,0,20,0,0
94932,-370.37037037037,4,2,0,20,0,0
94954,-57.1428571428571,4,2,0,20,0,0
94976,-370.37037037037,4,2,0,20,0,0
94997,-57.1428571428571,4,2,0,20,0,0
95019,-370.37037037037,4,2,0,20,0,0
95040,-57.1428571428571,4,2,0,20,0,0
95062,-370.37037037037,4,2,0,20,0,0
95083,-57.1428571428571,4,2,0,20,0,0
95105,-370.37037037037,4,2,0,20,0,0
95126,-61.3496932515337,4,2,0,20,0,0
95169,-303.030303030303,4,2,0,20,0,0
95212,-61.3496932515337,4,2,0,20,0,0
95255,-303.030303030303,4,2,0,20,0,0
95299,-61.3496932515337,4,2,0,20,0,0
95342,-303.030303030303,4,2,0,20,0,0
95385,-61.3496932515337,4,2,0,20,0,0
95428,-303.030303030303,4,2,0,20,0,0
95471,-100,4,2,0,15,0,0
96161,-303.030303030303,4,2,0,15,0,0
96311,-15.7977883096366,4,2,0,15,0,0
96333,-100,4,2,0,15,0,0
96505,-303.030303030303,4,2,0,15,0,0
96655,-15.7977883096366,4,2,0,15,0,0
96678,-55.5555555555556,4,2,0,20,0,0
96721,-500,4,2,0,20,0,0
96764,-55.5555555555556,4,2,0,20,0,0
96807,-500,4,2,0,20,0,0
96850,-57.1428571428571,4,2,0,15,0,0
96878,-400,4,2,0,20,0,0
96907,-57.1428571428571,4,2,0,15,0,0
96935,-400,4,2,0,20,0,0
96964,-57.1428571428571,4,2,0,15,0,0
96992,-400,4,2,0,20,0,0
97022,-57.1428571428571,4,2,0,15,0,0
97050,-400,4,2,0,20,0,0
97079,-57.1428571428571,4,2,0,15,0,0
97107,-400,4,2,0,20,0,0
97137,-57.1428571428571,4,2,0,15,0,0
97165,-400,4,2,0,20,0,0
97195,-100,4,2,0,20,0,0
97540,-83.3333333333333,4,2,0,15,0,0
97626,-90.9090909090909,4,2,0,15,0,0
97712,-100,4,2,0,15,0,0
97798,-111.111111111111,4,2,0,15,0,0
97884,-125,4,2,0,15,0,0
98057,-83.3333333333333,4,2,0,15,0,0
98143,-90.9090909090909,4,2,0,15,0,0
98229,-100,4,2,0,15,0,0
98315,-111.111111111111,4,2,0,15,0,0
98401,-125,4,2,0,15,0,0
98575,-83.3333333333333,4,2,0,15,0,0
98661,-90.9090909090909,4,2,0,15,0,0
98747,-100,4,2,0,15,0,0
98833,-111.111111111111,4,2,0,15,0,0
98919,-125,4,2,0,15,0,0
99092,-83.3333333333333,4,2,0,15,0,0
99178,-90.9090909090909,4,2,0,15,0,0
99264,-100,4,2,0,15,0,0
99350,-111.111111111111,4,2,0,15,0,0
99436,-125,4,2,0,15,0,0
99609,-71.4285714285714,4,2,0,15,0,0
99652,-100,4,2,0,15,0,0
99781,-71.4285714285714,4,2,0,15,0,0
99824,-100,4,2,0,15,0,0
99954,-50,4,2,0,20,0,0
99997,-149.253731343284,4,2,0,20,0,0
100127,-50,4,2,0,20,0,0
100170,-149.253731343284,4,2,0,20,0,0
100299,-83.3333333333333,4,2,0,15,0,0
100333.475,-84.0336134453782,4,2,0,15,0,0
100367.95,-84.7457627118644,4,2,0,15,0,0
100402.425,-85.4700854700855,4,2,0,15,0,0
100436.9,-86.2068965517241,4,2,0,15,0,0
100471.375,-86.9565217391304,4,2,0,15,0,0
100505.85,-87.719298245614,4,2,0,15,0,0
100540.325,-88.495575221239,4,2,0,15,0,0
100574.8,-89.2857142857143,4,2,0,15,0,0
100609.275,-90.0900900900901,4,2,0,15,0,0
100643.75,-90.9090909090909,4,2,0,15,0,0
100678.225,-91.743119266055,4,2,0,15,0,0
100712.7,-92.5925925925926,4,2,0,15,0,0
100747.175,-93.4579439252336,4,2,0,15,0,0
100781.65,-94.3396226415094,4,2,0,15,0,0
100816.125,-95.2380952380952,4,2,0,15,0,0
100850.6,-96.1538461538461,4,2,0,15,0,0
100885.075,-97.0873786407767,4,2,0,15,0,0
100919.55,-98.0392156862745,4,2,0,15,0,0
100954.025,-99.009900990099,4,2,0,15,0,0
100988.5,-100,4,2,0,15,0,0
101022.975,-101.010101010101,4,2,0,15,0,0
101057.45,-102.040816326531,4,2,0,15,0,0
101091.925,-103.092783505155,4,2,0,15,0,0
101126.4,-104.166666666667,4,2,0,15,0,0
101160.875,-105.263157894737,4,2,0,15,0,0
101195.35,-106.382978723404,4,2,0,15,0,0
101229.825,-107.52688172043,4,2,0,15,0,0
101264.3,-108.695652173913,4,2,0,15,0,0
101298.775,-109.89010989011,4,2,0,15,0,0
101333.25,-111.111111111111,4,2,0,15,0,0
101367.725,-112.359550561798,4,2,0,15,0,0
101402.2,-113.636363636364,4,2,0,15,0,0
101436.675,-114.942528735632,4,2,0,15,0,0
101471.15,-116.279069767442,4,2,0,15,0,0
101505.625,-117.647058823529,4,2,0,15,0,0
101540.1,-119.047619047619,4,2,0,15,0,0
101574.575,-120.481927710843,4,2,0,15,0,0
101609.05,-121.951219512195,4,2,0,15,0,0
101643.525,-123.456790123457,4,2,0,15,0,0
101678,-100,4,2,0,15,0,0
102368,-57.1428571428571,4,2,0,15,0,0
102396,-400,4,2,0,20,0,0
102425,-57.1428571428571,4,2,0,15,0,0
102453,-400,4,2,0,20,0,0
102482,-57.1428571428571,4,2,0,15,0,0
102510,-400,4,2,0,20,0,0
102540,-57.1428571428571,4,2,0,15,0,0
102568,-400,4,2,0,20,0,0
102597,-57.1428571428571,4,2,0,15,0,0
102625,-400,4,2,0,20,0,0
102655,-57.1428571428571,4,2,0,15,0,0
102683,-400,4,2,0,20,0,0
102712,-10,4,2,0,20,0,0
102734,-1000,4,2,0,20,0,0
103036,-12.5,4,2,0,20,0,0
103057,-83.3333333333333,4,2,0,15,0,0
103143,-90.9090909090909,4,2,0,15,0,0
103229,-100,4,2,0,15,0,0
103315,-111.111111111111,4,2,0,15,0,0
103401,-125,4,2,0,15,0,0
103575,-83.3333333333333,4,2,0,15,0,0
103661,-90.9090909090909,4,2,0,15,0,0
103747,-100,4,2,0,15,0,0
103833,-111.111111111111,4,2,0,15,0,0
103919,-125,4,2,0,15,0,0
104092,-83.3333333333333,4,2,0,15,0,0
104178,-90.9090909090909,4,2,0,15,0,0
104264,-100,4,2,0,15,0,0
104350,-111.111111111111,4,2,0,15,0,0
104436,-125,4,2,0,15,0,0
104609,-83.3333333333333,4,2,0,15,0,0
104695,-90.9090909090909,4,2,0,15,0,0
104781,-100,4,2,0,15,0,0
104867,-111.111111111111,4,2,0,15,0,0
104953,-125,4,2,0,15,0,0
105126,-71.4285714285714,4,2,0,15,0,0
105169,-100,4,2,0,15,0,0
105298,-71.4285714285714,4,2,0,15,0,0
105341,-100,4,2,0,15,0,0
105471,-37.4531835205993,4,2,0,15,0,0
105493,-120.481927710843,4,2,0,15,0,0
105644,-37.4531835205993,4,2,0,15,0,0
105665,-120.481927710843,4,2,0,15,0,0
105816,-57.1428571428571,4,2,0,20,0,0
105838,-370.37037037037,4,2,0,20,0,0
105859,-57.1428571428571,4,2,0,20,0,0
105881,-370.37037037037,4,2,0,20,0,0
105902,-57.1428571428571,4,2,0,20,0,0
105924,-370.37037037037,4,2,0,20,0,0
105945,-57.1428571428571,4,2,0,20,0,0
105967,-370.37037037037,4,2,0,20,0,0
105989,-57.1428571428571,4,2,0,20,0,0
106011,-370.37037037037,4,2,0,20,0,0
106032,-57.1428571428571,4,2,0,20,0,0
106054,-370.37037037037,4,2,0,20,0,0
106075,-57.1428571428571,4,2,0,20,0,0
106097,-370.37037037037,4,2,0,20,0,0
106118,-57.1428571428571,4,2,0,20,0,0
106140,-370.37037037037,4,2,0,20,0,0
106161,-61.3496932515337,4,2,0,20,0,0
106204,-303.030303030303,4,2,0,20,0,0
106247,-61.3496932515337,4,2,0,20,0,0
106290,-303.030303030303,4,2,0,20,0,0
106334,-61.3496932515337,4,2,0,20,0,0
106377,-303.030303030303,4,2,0,20,0,0
106420,-61.3496932515337,4,2,0,20,0,0
106463,-303.030303030303,4,2,0,20,0,0
106506,-125,4,2,0,15,0,0
106678,-83.3333333333333,4,2,0,15,0,0
106850,-48.780487804878,4,2,0,15,0,0
106893,-114.942528735632,4,2,0,15,0,0
107023,-48.780487804878,4,2,0,15,0,0
107066,-114.942528735632,4,2,0,15,0,0
107195,-37.4531835205993,4,2,0,15,0,0
107238,-128.205128205128,4,2,0,15,0,0
107368,-48.780487804878,4,2,0,15,0,0
107411,-114.942528735632,4,2,0,15,0,0
107540,-10,4,2,0,20,0,0
107626,-250,4,2,0,15,0,0
107641.1,-227.272727272727,4,2,0,15,0,0
107656.2,-208.333333333333,4,2,0,15,0,0
107671.3,-192.307692307692,4,2,0,15,0,0
107686.4,-178.571428571429,4,2,0,15,0,0
107701.5,-166.666666666667,4,2,0,15,0,0
107716.6,-156.25,4,2,0,15,0,0
107731.7,-147.058823529412,4,2,0,15,0,0
107746.8,-138.888888888889,4,2,0,15,0,0
107761.9,-131.578947368421,4,2,0,15,0,0
107777,-125,4,2,0,15,0,0
107792.1,-119.047619047619,4,2,0,15,0,0
107807.2,-113.636363636364,4,2,0,15,0,0
107822.3,-108.695652173913,4,2,0,15,0,0
107837.4,-104.166666666667,4,2,0,15,0,0
107852.5,-100,4,2,0,15,0,0
107867.6,-96.1538461538461,4,2,0,15,0,0
107882.7,-92.5925925925926,4,2,0,15,0,0
107897.8,-89.2857142857143,4,2,0,15,0,0
107912.9,-86.2068965517241,4,2,0,15,0,0
107928,-83.3333333333333,4,2,0,15,0,0
107943.1,-80.6451612903226,4,2,0,15,0,0
107958.2,-78.125,4,2,0,15,0,0
107973.3,-75.7575757575758,4,2,0,15,0,0
107988.4,-73.5294117647059,4,2,0,15,0,0
108003.5,-71.4285714285714,4,2,0,15,0,0
108018.6,-69.4444444444444,4,2,0,15,0,0
108033.7,-67.5675675675676,4,2,0,15,0,0
108048.8,-65.7894736842105,4,2,0,15,0,0
108063.9,-64.1025641025641,4,2,0,15,0,0
108079,-62.5,4,2,0,15,0,0
108094.1,-60.9756097560976,4,2,0,15,0,0
108109.2,-59.5238095238095,4,2,0,15,0,0
108124.3,-58.1395348837209,4,2,0,15,0,0
108139.4,-56.8181818181818,4,2,0,15,0,0
108154.5,-55.5555555555556,4,2,0,15,0,0
108169.6,-54.3478260869565,4,2,0,15,0,0
108184.7,-53.1914893617021,4,2,0,15,0,0
108199.8,-52.0833333333333,4,2,0,15,0,0
108214.9,-51.0204081632653,4,2,0,15,0,0
108230,344.827586206897,4,2,0,15,1,0
108230,-10,4,2,0,15,0,0
108247.25,344.827586206897,4,2,0,15,1,0
108247.25,-51.0204081632653,4,2,0,15,0,0
108264.5,344.827586206897,4,2,0,15,1,0
108264.5,-52.0833333333333,4,2,0,15,0,0
108281.75,344.827586206897,4,2,0,15,1,0
108281.75,-53.1914893617021,4,2,0,15,0,0
108299,344.827586206897,4,2,0,15,1,0
108299,-54.3478260869565,4,2,0,15,0,0
108316.25,344.827586206897,4,2,0,15,1,0
108316.25,-55.5555555555556,4,2,0,15,0,0
108333.5,344.827586206897,4,2,0,15,1,0
108333.5,-56.8181818181818,4,2,0,15,0,0
108350.75,344.827586206897,4,2,0,15,1,0
108350.75,-58.1395348837209,4,2,0,15,0,0
108368,344.827586206897,4,2,0,15,1,0
108368,-59.5238095238095,4,2,0,15,0,0
108385.25,344.827586206897,4,2,0,15,1,0
108385.25,-60.9756097560976,4,2,0,15,0,0
108402.5,344.827586206897,4,2,0,15,1,0
108402.5,-62.5,4,2,0,15,0,0
108419.75,344.827586206897,4,2,0,15,1,0
108419.75,-64.1025641025641,4,2,0,15,0,0
108437,344.827586206897,4,2,0,15,1,0
108437,-65.7894736842105,4,2,0,15,0,0
108454.25,344.827586206897,4,2,0,15,1,0
108454.25,-67.5675675675676,4,2,0,15,0,0
108471.5,344.827586206897,4,2,0,15,1,0
108471.5,-69.4444444444444,4,2,0,15,0,0
108488.75,344.827586206897,4,2,0,15,1,0
108488.75,-71.4285714285714,4,2,0,15,0,0
108506,344.827586206897,4,2,0,15,1,0
108506,-73.5294117647059,4,2,0,15,0,0
108523.25,344.827586206897,4,2,0,15,1,0
108523.25,-75.7575757575758,4,2,0,15,0,0
108540.5,344.827586206897,4,2,0,15,1,0
108540.5,-78.125,4,2,0,15,0,0
108557.75,344.827586206897,4,2,0,15,1,0
108557.75,-80.6451612903226,4,2,0,15,0,0
108575,344.827586206897,4,2,0,15,1,0
108575,-83.3333333333333,4,2,0,15,0,0
108592.25,344.827586206897,4,2,0,15,1,0
108592.25,-86.2068965517241,4,2,0,15,0,0
108609.5,344.827586206897,4,2,0,15,1,0
108609.5,-89.2857142857143,4,2,0,15,0,0
108626.75,344.827586206897,4,2,0,15,1,0
108626.75,-92.5925925925926,4,2,0,15,0,0
108644,344.827586206897,4,2,0,15,1,0
108644,-96.1538461538461,4,2,0,15,0,0
108661.25,344.827586206897,4,2,0,15,1,0
108661.25,-100,4,2,0,15,0,0
108678.5,344.827586206897,4,2,0,15,1,0
108678.5,-104.166666666667,4,2,0,15,0,0
108695.75,344.827586206897,4,2,0,15,1,0
108695.75,-108.695652173913,4,2,0,15,0,0
108713,344.827586206897,4,2,0,15,1,0
108713,-113.636363636364,4,2,0,15,0,0
108730.25,344.827586206897,4,2,0,15,1,0
108730.25,-119.047619047619,4,2,0,15,0,0
108747.5,344.827586206897,4,2,0,15,1,0
108747.5,-125,4,2,0,15,0,0
108764.75,344.827586206897,4,2,0,15,1,0
108764.75,-131.578947368421,4,2,0,15,0,0
108782,344.827586206897,4,2,0,15,1,0
108782,-138.888888888889,4,2,0,15,0,0
108799.25,344.827586206897,4,2,0,15,1,0
108799.25,-147.058823529412,4,2,0,15,0,0
108816.5,344.827586206897,4,2,0,15,1,0
108816.5,-156.25,4,2,0,15,0,0
108833.75,344.827586206897,4,2,0,15,1,0
108833.75,-166.666666666667,4,2,0,15,0,0
108851,344.827586206897,4,2,0,15,1,0
108851,-178.571428571429,4,2,0,15,0,0
108868.25,344.827586206897,4,2,0,15,1,0
108868.25,-192.307692307692,4,2,0,15,0,0
108885.5,344.827586206897,4,2,0,15,1,0
108885.5,-25,4,2,0,15,0,0
108919,344.827586206897,4,2,0,20,1,0
108920,-50,4,2,0,20,0,0
108962,-250,4,2,0,20,0,0
108984,-62.5,4,2,0,20,0,0
109005,-250,4,2,0,20,0,0
109027,-62.5,4,2,0,20,0,0
109049,-250,4,2,0,20,0,0
109071,-62.5,4,2,0,20,0,0
109092,-250,4,2,0,20,0,0
109114,-62.5,4,2,0,20,0,0
109135,-250,4,2,0,20,0,0
109157,-62.5,4,2,0,20,0,0
109178,-250,4,2,0,20,0,0
109200,-62.5,4,2,0,20,0,0
109221,-250,4,2,0,20,0,0
109243,-62.5,4,2,0,20,0,0
109264,-100,4,2,0,20,0,0
109436,-50,4,2,0,20,0,0
109478,-400,4,2,0,20,0,0
109500,-57.1428571428571,4,2,0,20,0,0
109521,-400,4,2,0,20,0,0
109543,-57.1428571428571,4,2,0,20,0,0
109565,-400,4,2,0,20,0,0
109587,-57.1428571428571,4,2,0,20,0,0
109608,-400,4,2,0,20,0,0
109630,-57.1428571428571,4,2,0,20,0,0
109651,-400,4,2,0,20,0,0
109673,-57.1428571428571,4,2,0,20,0,0
109694,-400,4,2,0,20,0,0
109716,-62.5,4,2,0,20,0,0
109737,-400,4,2,0,20,0,0
109759,-62.5,4,2,0,20,0,0
109780,-100,4,2,0,20,0,0
109954,-50,4,2,0,20,0,0
109996,-1000,4,2,0,20,0,0
110018,-52.6315789473684,4,2,0,20,0,0
110039,-1000,4,2,0,20,0,0
110061,-52.6315789473684,4,2,0,20,0,0
110083,-1000,4,2,0,20,0,0
110105,-52.6315789473684,4,2,0,20,0,0
110126,-1000,4,2,0,20,0,0
110148,-52.6315789473684,4,2,0,20,0,0
110169,-1000,4,2,0,20,0,0
110191,-52.6315789473684,4,2,0,20,0,0
110212,-1000,4,2,0,20,0,0
110234,-52.6315789473684,4,2,0,20,0,0
110255,-1000,4,2,0,20,0,0
110277,-52.6315789473684,4,2,0,20,0,0
110298,-59.8802395209581,4,2,0,20,0,0
110332,-303.030303030303,4,2,0,20,0,0
110368,-59.8802395209581,4,2,0,20,0,0
110402,-303.030303030303,4,2,0,20,0,0
110436,-59.8802395209581,4,2,0,20,0,0
110470,-303.030303030303,4,2,0,20,0,0
110505,-59.8802395209581,4,2,0,20,0,0
110539,-303.030303030303,4,2,0,20,0,0
110574,-59.8802395209581,4,2,0,20,0,0
110608,-303.030303030303,4,2,0,20,0,0
110643,-59.8802395209581,4,2,0,20,0,0
110677,-303.030303030303,4,2,0,20,0,0
110712,-59.8802395209581,4,2,0,20,0,0
110746,-303.030303030303,4,2,0,20,0,0
110781,-59.8802395209581,4,2,0,20,0,0
110815,-303.030303030303,4,2,0,20,0,0
110850,-59.8802395209581,4,2,0,20,0,0
110884,-303.030303030303,4,2,0,20,0,0
110919,-59.8802395209581,4,2,0,20,0,0
110953,-303.030303030303,4,2,0,20,0,0
110988,-10,4,2,0,20,0,0
111032,-303.030303030303,4,2,0,20,0,0
111333,-10,4,2,0,20,0,0
111376,-1000,4,2,0,20,0,0
111656,-16.6666666666667,4,2,0,20,0,0
111678,-100,4,2,0,20,0,0
112368,-20,4,2,0,20,0,0
112411,-200,4,2,0,20,0,0
112669,-27.2479564032698,4,2,0,20,0,0
112712,-52.6315789473684,4,2,0,20,0,0
112756,-1000,4,2,0,20,0,0
112799,-52.6315789473684,4,2,0,20,0,0
112843,-1000,4,2,0,20,0,0
112885,-55.5555555555556,4,2,0,20,0,0
112928,-500,4,2,0,20,0,0
112971,-55.5555555555556,4,2,0,20,0,0
113014,-500,4,2,0,20,0,0
113057,-25,4,2,0,20,0,0
113079,-149.253731343284,4,2,0,20,0,0
113187,-35.3356890459364,4,2,0,20,0,0
113230,-100,4,2,0,20,0,0
113402,-25,4,2,0,20,0,0
113424,-149.253731343284,4,2,0,20,0,0
113532,-35.3356890459364,4,2,0,20,0,0
113575,-100,4,2,0,20,0,0
113747,344.827586206897,4,2,0,15,1,0
113747,-10,4,2,0,15,0,0
113764.25,344.827586206897,4,2,0,15,1,0
113764.25,-51.0204081632653,4,2,0,15,0,0
113781.5,344.827586206897,4,2,0,15,1,0
113781.5,-52.0833333333333,4,2,0,15,0,0
113798.75,344.827586206897,4,2,0,15,1,0
113798.75,-53.1914893617021,4,2,0,15,0,0
113816,344.827586206897,4,2,0,15,1,0
113816,-54.3478260869565,4,2,0,15,0,0
113833.25,344.827586206897,4,2,0,15,1,0
113833.25,-55.5555555555556,4,2,0,15,0,0
113850.5,344.827586206897,4,2,0,15,1,0
113850.5,-56.8181818181818,4,2,0,15,0,0
113867.75,344.827586206897,4,2,0,15,1,0
113867.75,-58.1395348837209,4,2,0,15,0,0
113885,344.827586206897,4,2,0,15,1,0
113885,-59.5238095238095,4,2,0,15,0,0
113902.25,344.827586206897,4,2,0,15,1,0
113902.25,-60.9756097560976,4,2,0,15,0,0
113919.5,344.827586206897,4,2,0,15,1,0
113919.5,-62.5,4,2,0,15,0,0
113936.75,344.827586206897,4,2,0,15,1,0
113936.75,-64.1025641025641,4,2,0,15,0,0
113954,344.827586206897,4,2,0,15,1,0
113954,-65.7894736842105,4,2,0,15,0,0
113971.25,344.827586206897,4,2,0,15,1,0
113971.25,-67.5675675675676,4,2,0,15,0,0
113988.5,344.827586206897,4,2,0,15,1,0
113988.5,-69.4444444444444,4,2,0,15,0,0
114005.75,344.827586206897,4,2,0,15,1,0
114005.75,-71.4285714285714,4,2,0,15,0,0
114023,344.827586206897,4,2,0,15,1,0
114023,-73.5294117647059,4,2,0,15,0,0
114040.25,344.827586206897,4,2,0,15,1,0
114040.25,-75.7575757575758,4,2,0,15,0,0
114057.5,344.827586206897,4,2,0,15,1,0
114057.5,-78.125,4,2,0,15,0,0
114074.75,344.827586206897,4,2,0,15,1,0
114074.75,-80.6451612903226,4,2,0,15,0,0
114092,344.827586206897,4,2,0,15,1,0
114092,-83.3333333333333,4,2,0,15,0,0
114109.25,344.827586206897,4,2,0,15,1,0
114109.25,-86.2068965517241,4,2,0,15,0,0
114126.5,344.827586206897,4,2,0,15,1,0
114126.5,-89.2857142857143,4,2,0,15,0,0
114143.75,344.827586206897,4,2,0,15,1,0
114143.75,-92.5925925925926,4,2,0,15,0,0
114161,344.827586206897,4,2,0,15,1,0
114161,-96.1538461538461,4,2,0,15,0,0
114178.25,344.827586206897,4,2,0,15,1,0
114178.25,-100,4,2,0,15,0,0
114195.5,344.827586206897,4,2,0,15,1,0
114195.5,-104.166666666667,4,2,0,15,0,0
114212.75,344.827586206897,4,2,0,15,1,0
114212.75,-108.695652173913,4,2,0,15,0,0
114230,344.827586206897,4,2,0,15,1,0
114230,-113.636363636364,4,2,0,15,0,0
114247.25,344.827586206897,4,2,0,15,1,0
114247.25,-119.047619047619,4,2,0,15,0,0
114264.5,344.827586206897,4,2,0,15,1,0
114264.5,-125,4,2,0,15,0,0
114281.75,344.827586206897,4,2,0,15,1,0
114281.75,-131.578947368421,4,2,0,15,0,0
114299,344.827586206897,4,2,0,15,1,0
114299,-138.888888888889,4,2,0,15,0,0
114316.25,344.827586206897,4,2,0,15,1,0
114316.25,-147.058823529412,4,2,0,15,0,0
114333.5,344.827586206897,4,2,0,15,1,0
114333.5,-156.25,4,2,0,15,0,0
114350.75,344.827586206897,4,2,0,15,1,0
114350.75,-166.666666666667,4,2,0,15,0,0
114368,344.827586206897,4,2,0,15,1,0
114368,-178.571428571429,4,2,0,15,0,0
114385.25,344.827586206897,4,2,0,15,1,0
114385.25,-192.307692307692,4,2,0,15,0,0
114402.5,344.827586206897,4,2,0,15,1,0
114402.5,-25,4,2,0,15,0,0
114437,344.827586206897,4,2,0,15,1,0
114437,-50,4,2,0,15,0,0
114479,-250,4,2,0,20,0,0
114501,-62.5,4,2,0,20,0,0
114522,-250,4,2,0,20,0,0
114544,-62.5,4,2,0,20,0,0
114566,-250,4,2,0,20,0,0
114588,-62.5,4,2,0,20,0,0
114609,-250,4,2,0,20,0,0
114631,-62.5,4,2,0,20,0,0
114652,-250,4,2,0,20,0,0
114674,-62.5,4,2,0,20,0,0
114695,-250,4,2,0,20,0,0
114717,-62.5,4,2,0,20,0,0
114738,-250,4,2,0,20,0,0
114760,-62.5,4,2,0,20,0,0
114781,-100,4,2,0,20,0,0
114953,-50,4,2,0,20,0,0
114995,-400,4,2,0,20,0,0
115017,-57.1428571428571,4,2,0,20,0,0
115038,-400,4,2,0,20,0,0
115060,-57.1428571428571,4,2,0,20,0,0
115082,-400,4,2,0,20,0,0
115104,-57.1428571428571,4,2,0,20,0,0
115125,-400,4,2,0,20,0,0
115147,-57.1428571428571,4,2,0,20,0,0
115168,-400,4,2,0,20,0,0
115190,-57.1428571428571,4,2,0,20,0,0
115211,-400,4,2,0,20,0,0
115233,-62.5,4,2,0,20,0,0
115254,-400,4,2,0,20,0,0
115276,-62.5,4,2,0,20,0,0
115297,-100,4,2,0,20,0,0
115471,-50,4,2,0,20,0,0
115513,-1000,4,2,0,20,0,0
115535,-52.6315789473684,4,2,0,20,0,0
115556,-1000,4,2,0,20,0,0
115578,-52.6315789473684,4,2,0,20,0,0
115600,-1000,4,2,0,20,0,0
115622,-52.6315789473684,4,2,0,20,0,0
115643,-1000,4,2,0,20,0,0
115665,-52.6315789473684,4,2,0,20,0,0
115686,-1000,4,2,0,20,0,0
115708,-52.6315789473684,4,2,0,20,0,0
115729,-1000,4,2,0,20,0,0
115751,-52.6315789473684,4,2,0,20,0,0
115772,-1000,4,2,0,20,0,0
115794,-52.6315789473684,4,2,0,20,0,0
115816,-54.054054054054,4,2,0,20,0,0
115859,-500,4,2,0,20,0,0
115902,-54.054054054054,4,2,0,20,0,0
115945,-500,4,2,0,20,0,0
115988,-54.054054054054,4,2,0,20,0,0
116031,-500,4,2,0,20,0,0
116075,-54.054054054054,4,2,0,20,0,0
116118,-500,4,2,0,20,0,0
116161,-54.054054054054,4,2,0,20,0,0
116204,-500,4,2,0,20,0,0
116247,-54.054054054054,4,2,0,20,0,0
116290,-500,4,2,0,20,0,0
116333,-54.054054054054,4,2,0,20,0,0
116376,-500,4,2,0,20,0,0
116419,-54.054054054054,4,2,0,20,0,0
116462,-500,4,2,0,20,0,0
116506,-16.6666666666667,4,2,0,20,0,0
116527,-120.481927710843,4,2,0,20,0,0
116850,-33.3333333333333,4,2,0,20,0,0
116891.2,-60.9756097560976,4,2,0,15,0,0
116911.8,-64.1025641025641,4,2,0,15,0,0
116932.4,-67.5675675675676,4,2,0,15,0,0
116953,-71.4285714285714,4,2,0,15,0,0
116973.6,-75.7575757575758,4,2,0,15,0,0
116994.2,-80.6451612903226,4,2,0,15,0,0
117014.8,-86.2068965517241,4,2,0,15,0,0
117035.4,-92.5925925925926,4,2,0,15,0,0
117056,-100,4,2,0,15,0,0
117195,-16.6666666666667,4,2,0,20,0,0
117238,-125,4,2,0,20,0,0
117540,-121.951219512195,4,2,0,15,0,0
117574.5,-116.279069767442,4,2,0,15,0,0
117609,-111.111111111111,4,2,0,15,0,0
117643.5,-106.382978723404,4,2,0,15,0,0
117678,-102.040816326531,4,2,0,15,0,0
117712.5,-98.0392156862744,4,2,0,15,0,0
117747,-94.3396226415095,4,2,0,15,0,0
117781.5,-90.9090909090908,4,2,0,15,0,0
117816,-87.7192982456139,4,2,0,15,0,0
117850.5,-84.7457627118647,4,2,0,15,0,0
117885,-25,4,2,0,20,0,0
117928,-149.253731343284,4,2,0,20,0,0
118057,-50,4,2,0,20,0,0
118079,-120.481927710843,4,2,0,20,0,0
118230,-50,4,2,0,20,0,0
118252,-120.481927710843,4,2,0,20,0,0
118402,-25,4,2,0,20,0,0
118445,-149.253731343284,4,2,0,20,0,0
118575,-50,4,2,0,20,0,0
118597,-120.481927710843,4,2,0,20,0,0
118747,-50,4,2,0,20,0,0
118769,-120.481927710843,4,2,0,20,0,0
118920,-55.5555555555556,4,2,0,20,0,0
118962,-500,4,2,0,20,0,0
119006,-55.5555555555556,4,2,0,20,0,0
119048,-500,4,2,0,20,0,0
119092,-52.6315789473684,4,2,0,20,0,0
119134,-1000,4,2,0,20,0,0
119178,-52.6315789473684,4,2,0,20,0,0
119221,-1000,4,2,0,20,0,0
119264,-10,4,2,0,20,0,0
119307,-1000,4,2,0,20,0,0
119609,-1000,4,2,0,15,0,0
119632,-500,4,2,0,15,0,0
119655,-333.333333333333,4,2,0,15,0,0
119678,-250,4,2,0,15,0,0
119701,-200,4,2,0,15,0,0
119724,-166.666666666667,4,2,0,15,0,0
119747,-142.857142857143,4,2,0,15,0,0
119770,-125,4,2,0,15,0,0
119793,-111.111111111111,4,2,0,15,0,0
119816,-100,4,2,0,15,0,0
119839,-90.9090909090909,4,2,0,15,0,0
119862,-83.3333333333333,4,2,0,15,0,0
119885,-76.9230769230769,4,2,0,15,0,0
119908,-71.4285714285714,4,2,0,15,0,0
119931,-26.1096605744125,4,2,0,15,0,0
119954,-58.8235294117647,4,2,0,20,0,0
119997,-333.333333333333,4,2,0,20,0,0
120040,-58.8235294117647,4,2,0,20,0,0
120083,-333.333333333333,4,2,0,20,0,0
120126,-58.8235294117647,4,2,0,20,0,0
120169,-333.333333333333,4,2,0,20,0,0
120212,-58.8235294117647,4,2,0,20,0,0
120255,-333.333333333333,4,2,0,20,0,0
120299,-58.8235294117647,4,2,0,20,0,0
120342,-333.333333333333,4,2,0,20,0,0
120385,-58.8235294117647,4,2,0,20,0,0
120428,-333.333333333333,4,2,0,20,0,0
120471,-46.9483568075117,4,2,0,20,0,0
120514,-333.333333333333,4,2,0,20,0,0
120557,-58.8235294117647,4,2,0,20,0,0
120600,-333.333333333333,4,2,0,20,0,0
120644,-58.8235294117647,4,2,0,20,0,0
120687,-333.333333333333,4,2,0,20,0,0
120730,-58.8235294117647,4,2,0,20,0,0
120773,-333.333333333333,4,2,0,20,0,0
120816,-46.9483568075117,4,2,0,20,0,0
120859,-333.333333333333,4,2,0,20,0,0
120902,-46.9483568075117,4,2,0,20,0,0
120945,-333.333333333333,4,2,0,20,0,0
120988,-58.8235294117647,4,2,0,20,0,0
121031,-333.333333333333,4,2,0,20,0,0
121075,-58.8235294117647,4,2,0,20,0,0
121118,-333.333333333333,4,2,0,20,0,0
121161,-58.8235294117647,4,2,0,20,0,0
121204,-333.333333333333,4,2,0,20,0,0
121247,-58.8235294117647,4,2,0,20,0,0
121290,-333.333333333333,4,2,0,20,0,0
121333,-46.9483568075117,4,2,0,20,0,0
121376,-333.333333333333,4,2,0,20,0,0
121419,-58.8235294117647,4,2,0,20,0,0
121462,-333.333333333333,4,2,0,20,0,0
121506,-62.5,4,2,0,20,0,0
121527,-68.9655172413793,4,2,0,20,0,0
121549,-76.9230769230769,4,2,0,20,0,0
121570,-86.9565217391304,4,2,0,20,0,0
121592,-100,4,2,0,20,0,0
121764,-44.4444444444445,4,2,0,20,0,0
121807,-72.992700729927,4,2,0,20,0,0
121850,-80,4,2,0,20,0,0
121894,-88.4955752212389,4,2,0,20,0,0
121937,-93.4579439252336,4,2,0,20,0,0
121980,-105.263157894737,4,2,0,20,0,0
122023,-52.6315789473684,4,2,0,20,0,0
122066,-1000,4,2,0,20,0,0
122109,-52.6315789473684,4,2,0,20,0,0
122152,-1000,4,2,0,20,0,0
122195,-51.2820512820513,4,2,0,20,0,0
122217,-1000,4,2,0,20,0,0
122238,-51.2820512820513,4,2,0,20,0,0
122260,-1000,4,2,0,20,0,0
122281,-51.2820512820513,4,2,0,20,0,0
122303,-1000,4,2,0,20,0,0
122325,-51.2820512820513,4,2,0,20,0,0
122347,-1000,4,2,0,20,0,0
122368,-10,4,2,0,20,0,0
122411,-133.333333333333,4,2,0,20,0,0
122712,-25,4,2,0,20,0,0
122734,-1000,4,2,0,20,0,0
122799,-100,4,2,0,20,0,0
122885,-59.8802395209581,4,2,0,20,0,0
122928,-303.030303030303,4,2,0,20,0,0
122971,-100,4,2,0,20,0,0
123057,-59.8802395209581,4,2,0,20,0,0
123100,-303.030303030303,4,2,0,20,0,0
123143,-100,4,2,0,20,0,0
123230,-59.8802395209581,4,2,0,20,0,0
123273,-303.030303030303,4,2,0,20,0,0
123316,-100,4,2,0,20,0,0
123402,-55.5555555555556,4,2,0,20,0,0
123445,-500,4,2,0,20,0,0
123488,-55.5555555555556,4,2,0,20,0,0
123531,-500,4,2,0,20,0,0
123575,-55.5555555555556,4,2,0,20,0,0
123618,-500,4,2,0,20,0,0
123661,-55.5555555555556,4,2,0,20,0,0
123704,-500,4,2,0,20,0,0
123747,-57.1428571428571,4,2,0,20,0,0
123769,-400,4,2,0,20,0,0
123790,-57.1428571428571,4,2,0,20,0,0
123812,-400,4,2,0,20,0,0
123833,-57.1428571428571,4,2,0,20,0,0
123855,-400,4,2,0,20,0,0
123877,-57.1428571428571,4,2,0,20,0,0
123899,-400,4,2,0,20,0,0
123919,-26.6666666666667,4,2,0,20,0,0
123941,-133.333333333333,4,2,0,20,0,0
124006,-26.6666666666667,4,2,0,20,0,0
124028,-133.333333333333,4,2,0,20,0,0
124092,-16.6666666666667,4,2,0,20,0,0
124114,-133.333333333333,4,2,0,20,0,0
124243,-33.3333333333333,4,2,0,20,0,0
124264,-37.4531835205993,4,2,0,20,0,0
124307,-133.333333333333,4,2,0,20,0,0
124437,-37.4531835205993,4,2,0,20,0,0
124480,-158.730158730158,4,2,0,20,0,0
124609,-37.4531835205993,4,2,0,20,0,0
124652,-158.730158730158,4,2,0,20,0,0
124781,344.827586206897,4,2,0,15,1,0
124781,-10,4,2,0,15,0,0
124798.25,344.827586206897,4,2,0,15,1,0
124798.25,-51.0204081632653,4,2,0,15,0,0
124815.5,344.827586206897,4,2,0,15,1,0
124815.5,-52.0833333333333,4,2,0,15,0,0
124832.75,344.827586206897,4,2,0,15,1,0
124832.75,-53.1914893617021,4,2,0,15,0,0
124850,344.827586206897,4,2,0,15,1,0
124850,-54.3478260869565,4,2,0,15,0,0
124867.25,344.827586206897,4,2,0,15,1,0
124867.25,-55.5555555555556,4,2,0,15,0,0
124884.5,344.827586206897,4,2,0,15,1,0
124884.5,-56.8181818181818,4,2,0,15,0,0
124901.75,344.827586206897,4,2,0,15,1,0
124901.75,-58.1395348837209,4,2,0,15,0,0
124919,344.827586206897,4,2,0,15,1,0
124919,-59.5238095238095,4,2,0,15,0,0
124936.25,344.827586206897,4,2,0,15,1,0
124936.25,-60.9756097560976,4,2,0,15,0,0
124953.5,344.827586206897,4,2,0,15,1,0
124953.5,-62.5,4,2,0,15,0,0
124970.75,344.827586206897,4,2,0,15,1,0
124970.75,-64.1025641025641,4,2,0,15,0,0
124988,344.827586206897,4,2,0,15,1,0
124988,-65.7894736842105,4,2,0,15,0,0
125005.25,344.827586206897,4,2,0,15,1,0
125005.25,-67.5675675675676,4,2,0,15,0,0
125022.5,344.827586206897,4,2,0,15,1,0
125022.5,-69.4444444444444,4,2,0,15,0,0
125039.75,344.827586206897,4,2,0,15,1,0
125039.75,-71.4285714285714,4,2,0,15,0,0
125057,344.827586206897,4,2,0,15,1,0
125057,-73.5294117647059,4,2,0,15,0,0
125074.25,344.827586206897,4,2,0,15,1,0
125074.25,-75.7575757575758,4,2,0,15,0,0
125091.5,344.827586206897,4,2,0,15,1,0
125091.5,-78.125,4,2,0,15,0,0
125108.75,344.827586206897,4,2,0,15,1,0
125108.75,-80.6451612903226,4,2,0,15,0,0
125126,344.827586206897,4,2,0,15,1,0
125126,-83.3333333333333,4,2,0,15,0,0
125143.25,344.827586206897,4,2,0,15,1,0
125143.25,-86.2068965517241,4,2,0,15,0,0
125160.5,344.827586206897,4,2,0,15,1,0
125160.5,-89.2857142857143,4,2,0,15,0,0
125177.75,344.827586206897,4,2,0,15,1,0
125177.75,-92.5925925925926,4,2,0,15,0,0
125195,344.827586206897,4,2,0,15,1,0
125195,-96.1538461538461,4,2,0,15,0,0
125212.25,344.827586206897,4,2,0,15,1,0
125212.25,-100,4,2,0,15,0,0
125229.5,344.827586206897,4,2,0,15,1,0
125229.5,-104.166666666667,4,2,0,15,0,0
125246.75,344.827586206897,4,2,0,15,1,0
125246.75,-108.695652173913,4,2,0,15,0,0
125264,344.827586206897,4,2,0,15,1,0
125264,-113.636363636364,4,2,0,15,0,0
125281.25,344.827586206897,4,2,0,15,1,0
125281.25,-119.047619047619,4,2,0,15,0,0
125298.5,344.827586206897,4,2,0,15,1,0
125298.5,-125,4,2,0,15,0,0
125315.75,344.827586206897,4,2,0,15,1,0
125315.75,-131.578947368421,4,2,0,15,0,0
125333,344.827586206897,4,2,0,15,1,0
125333,-138.888888888889,4,2,0,15,0,0
125350.25,344.827586206897,4,2,0,15,1,0
125350.25,-147.058823529412,4,2,0,15,0,0
125367.5,344.827586206897,4,2,0,15,1,0
125367.5,-156.25,4,2,0,15,0,0
125428,344.827586206897,4,2,0,15,1,0
125428,-25,4,2,0,15,0,0
125471,344.827586206897,4,2,0,20,1,0
125471,-50,4,2,0,20,0,0
125513,-250,4,2,0,20,0,0
125535,-62.5,4,2,0,20,0,0
125556,-250,4,2,0,20,0,0
125578,-62.5,4,2,0,20,0,0
125600,-250,4,2,0,20,0,0
125622,-62.5,4,2,0,20,0,0
125643,-250,4,2,0,20,0,0
125665,-62.5,4,2,0,20,0,0
125686,-250,4,2,0,20,0,0
125708,-62.5,4,2,0,20,0,0
125729,-250,4,2,0,20,0,0
125751,-62.5,4,2,0,20,0,0
125772,-250,4,2,0,20,0,0
125794,-62.5,4,2,0,20,0,0
125815,-100,4,2,0,20,0,0
125987,-50,4,2,0,20,0,0
126029,-400,4,2,0,20,0,0
126051,-57.1428571428571,4,2,0,20,0,0
126072,-400,4,2,0,20,0,0
126094,-57.1428571428571,4,2,0,20,0,0
126116,-400,4,2,0,20,0,0
126138,-57.1428571428571,4,2,0,20,0,0
126159,-400,4,2,0,20,0,0
126181,-57.1428571428571,4,2,0,20,0,0
126202,-400,4,2,0,20,0,0
126224,-57.1428571428571,4,2,0,20,0,0
126245,-400,4,2,0,20,0,0
126267,-62.5,4,2,0,20,0,0
126288,-400,4,2,0,20,0,0
126310,-62.5,4,2,0,20,0,0
126331,-100,4,2,0,20,0,0
126505,-50,4,2,0,20,0,0
126547,-1000,4,2,0,20,0,0
126569,-52.6315789473684,4,2,0,20,0,0
126590,-1000,4,2,0,20,0,0
126612,-52.6315789473684,4,2,0,20,0,0
126634,-1000,4,2,0,20,0,0
126656,-52.6315789473684,4,2,0,20,0,0
126677,-1000,4,2,0,20,0,0
126699,-52.6315789473684,4,2,0,20,0,0
126720,-1000,4,2,0,20,0,0
126742,-52.6315789473684,4,2,0,20,0,0
126763,-1000,4,2,0,20,0,0
126785,-52.6315789473684,4,2,0,20,0,0
126806,-1000,4,2,0,20,0,0
126828,-52.6315789473684,4,2,0,20,0,0
126851,-50,4,2,0,20,0,0
126937,-58.8235294117647,4,2,0,20,0,0
127023,-71.4285714285714,4,2,0,20,0,0
127109,-90.9090909090909,4,2,0,20,0,0
127196,-125,4,2,0,20,0,0
127282,-200,4,2,0,20,0,0
127540,-166.666666666667,4,2,0,20,0,0
127669,-59.8802395209581,4,2,0,20,0,0
127712,-166.666666666667,4,2,0,20,0,0
127841,-59.8802395209581,4,2,0,20,0,0
127885,-166.666666666667,4,2,0,20,0,0
128014,-59.8802395209581,4,2,0,20,0,0
128057,-166.666666666667,4,2,0,20,0,0
128186,-59.8802395209581,4,2,0,20,0,0
128230,-166.666666666667,4,2,0,20,0,0
128359,-59.8802395209581,4,2,0,20,0,0
128402,-166.666666666667,4,2,0,20,0,0
128531,-59.8802395209581,4,2,0,20,0,0
128575,-166.666666666667,4,2,0,20,0,0
128704,-59.8802395209581,4,2,0,20,0,0
128747,-166.666666666667,4,2,0,20,0,0
128876,-59.8802395209581,4,2,0,20,0,0
128919,-100,4,2,0,15,0,0
128962.129032258,-97.0873786407767,4,2,0,15,0,0
129005.258064516,-94.3396226415094,4,2,0,15,0,0
129048.387096774,-91.743119266055,4,2,0,15,0,0
129091.516129032,-89.2857142857143,4,2,0,15,0,0
129134.64516129,-86.9565217391304,4,2,0,15,0,0
129177.774193548,-85.4700854700855,4,2,0,15,0,0
129220.903225806,-83.3333333333333,4,2,0,15,0,0
129264.032258065,-81.3008130081301,4,2,0,15,0,0
129307.161290323,-79.3650793650794,4,2,0,15,0,0
129350.290322581,-77.5193798449612,4,2,0,15,0,0
129393.419354839,-75.7575757575758,4,2,0,15,0,0
129436.548387097,-74.0740740740741,4,2,0,15,0,0
129479.677419355,-72.463768115942,4,2,0,15,0,0
129522.806451613,-70.9219858156028,4,2,0,15,0,0
129565.935483871,-69.4444444444444,4,2,0,15,0,0
129609.064516129,-68.4931506849315,4,2,0,15,0,0
129652.193548387,-67.1140939597315,4,2,0,15,0,0
129695.322580645,-65.7894736842105,4,2,0,15,0,0
129738.451612903,-64.5161290322581,4,2,0,15,0,0
129781.580645161,-63.2911392405063,4,2,0,15,0,0
129824.709677419,-62.111801242236,4,2,0,15,0,0
129867.838709677,-60.9756097560976,4,2,0,15,0,0
129910.967741935,-59.8802395209581,4,2,0,15,0,0
129954.096774194,-58.8235294117647,4,2,0,15,0,0
129997.225806452,-57.8034682080925,4,2,0,15,0,0
130040.35483871,-57.1428571428571,4,2,0,15,0,0
130083.483870968,-56.1797752808989,4,2,0,15,0,0
130126.612903226,-55.2486187845304,4,2,0,15,0,0
130169.741935484,-54.3478260869565,4,2,0,15,0,0
130212.870967742,-53.475935828877,4,2,0,15,0,0
130256,-52.6315789473684,4,2,0,15,0,0
130299,-10,4,2,0,15,0,0
130393.62745098,-102.040816326531,4,2,0,15,0,0
130440.941176471,-103.092783505155,4,2,0,15,0,0
130488.254901961,-104.166666666667,4,2,0,15,0,0
130535.568627451,-105.263157894737,4,2,0,15,0,0
130582.882352941,-106.382978723404,4,2,0,15,0,0
130630.196078431,-107.52688172043,4,2,0,15,0,0
130677.509803922,-108.695652173913,4,2,0,15,0,0
130724.823529412,-109.89010989011,4,2,0,15,0,0
130772.137254902,-111.111111111111,4,2,0,15,0,0
130819.450980392,-112.359550561798,4,2,0,15,0,0
130866.764705882,-113.636363636364,4,2,0,15,0,0
130914.078431373,-114.942528735632,4,2,0,15,0,0
130961.392156863,-116.279069767442,4,2,0,15,0,0
131008.705882353,-117.647058823529,4,2,0,15,0,0
131056.019607843,-119.047619047619,4,2,0,15,0,0
131103.333333333,-120.481927710843,4,2,0,15,0,0
131150.647058824,-121.951219512195,4,2,0,15,0,0
131197.960784314,-123.456790123457,4,2,0,15,0,0
131245.274509804,-125,4,2,0,15,0,0
131292.588235294,-126.582278481013,4,2,0,15,0,0
131339.901960784,-128.205128205128,4,2,0,15,0,0
131387.215686275,-129.87012987013,4,2,0,15,0,0
131434.529411765,-131.578947368421,4,2,0,15,0,0
131481.843137255,-133.333333333333,4,2,0,15,0,0
131529.156862745,-133.333333333333,4,2,0,15,0,0
131576.470588235,-135.135135135135,4,2,0,15,0,0
131623.784313725,-136.986301369863,4,2,0,15,0,0
131671.098039216,-138.888888888889,4,2,0,15,0,0
131718.411764706,-140.845070422535,4,2,0,15,0,0
131765.725490196,-142.857142857143,4,2,0,15,0,0
131813.039215686,-144.927536231884,4,2,0,15,0,0
131860.352941176,-147.058823529412,4,2,0,15,0,0
131907.666666667,-149.253731343284,4,2,0,15,0,0
131954.980392157,-151.515151515152,4,2,0,15,0,0
132002.294117647,-153.846153846154,4,2,0,15,0,0
132049.607843137,-156.25,4,2,0,15,0,0
132096.921568627,-158.730158730159,4,2,0,15,0,0
132144.235294118,-161.290322580645,4,2,0,15,0,0
132191.549019608,-163.934426229508,4,2,0,15,0,0
132238.862745098,-166.666666666667,4,2,0,15,0,0
132286.176470588,-169.491525423729,4,2,0,15,0,0
132333.490196078,-172.413793103448,4,2,0,15,0,0
132380.803921569,-175.438596491228,4,2,0,15,0,0
132428.117647059,-178.571428571429,4,2,0,15,0,0
132475.431372549,-181.818181818182,4,2,0,15,0,0
132522.745098039,-185.185185185185,4,2,0,15,0,0
132570.058823529,-188.679245283019,4,2,0,15,0,0
132617.37254902,-192.307692307692,4,2,0,15,0,0
132664.68627451,-196.078431372549,4,2,0,15,0,0
132712,-200,4,2,0,15,0,0
132823.588235294,-204.081632653061,4,2,0,15,0,0
132935.176470588,-208.333333333333,4,2,0,15,0,0
133046.764705882,-212.765957446809,4,2,0,15,0,0
133158.352941176,-217.391304347826,4,2,0,15,0,0
133269.941176471,-222.222222222222,4,2,0,15,0,0
133381.529411765,-227.272727272727,4,2,0,15,0,0
133493.117647059,-232.558139534884,4,2,0,15,0,0
133604.705882353,-238.095238095238,4,2,0,15,0,0
133716.294117647,-243.90243902439,4,2,0,15,0,0
133827.882352941,-250,4,2,0,15,0,0
133939.470588235,-256.410256410256,4,2,0,15,0,0
134051.058823529,-263.157894736842,4,2,0,15,0,0
134162.647058824,-270.27027027027,4,2,0,15,0,0
134274.235294118,-277.777777777778,4,2,0,15,0,0
134385.823529412,-285.714285714286,4,2,0,15,0,0
134497.411764706,-294.117647058824,4,2,0,15,0,0
134609,-303.030303030303,4,2,0,15,0,0
141333,-294.117647058824,4,2,0,15,0,0
141505.404255319,-285.714285714286,4,2,0,15,0,0
141677.808510638,-277.777777777778,4,2,0,15,0,0
141850.212765957,-270.27027027027,4,2,0,15,0,0
142022.617021277,-263.157894736842,4,2,0,15,0,0
142195.021276596,-256.410256410256,4,2,0,15,0,0
142367.425531915,-250,4,2,0,15,0,0
142539.829787234,-243.90243902439,4,2,0,15,0,0
142712.234042553,-238.095238095238,4,2,0,15,0,0
142884.638297872,-232.558139534884,4,2,0,15,0,0
143057.042553191,-227.272727272727,4,2,0,15,0,0
143229.446808511,-222.222222222222,4,2,0,15,0,0
143401.85106383,-217.391304347826,4,2,0,15,0,0
143574.255319149,-212.765957446809,4,2,0,15,0,0
143746.659574468,-208.333333333333,4,2,0,15,0,0
143919.063829787,-204.081632653061,4,2,0,15,0,0
144091.468085106,-200,4,2,0,15,0,0
144263.872340426,-196.078431372549,4,2,0,15,0,0
144436.276595745,-192.307692307692,4,2,0,15,0,0
144608.680851064,-188.679245283019,4,2,0,15,0,0
144781.085106383,-185.185185185185,4,2,0,15,0,0
144953.489361702,-181.818181818182,4,2,0,15,0,0
145125.893617021,-178.571428571429,4,2,0,15,0,0
145298.29787234,-175.438596491228,4,2,0,15,0,0
145470.70212766,-172.413793103448,4,2,0,15,0,0
145643.106382979,-169.491525423729,4,2,0,15,0,0
145815.510638298,-166.666666666667,4,2,0,15,0,0
145987.914893617,-163.934426229508,4,2,0,15,0,0
146160.319148936,-161.290322580645,4,2,0,15,0,0
146332.723404255,-158.730158730159,4,2,0,15,0,0
146505.127659574,-156.25,4,2,0,15,0,0
146677.531914894,-153.846153846154,4,2,0,15,0,0
146849.936170213,-100,4,2,0,15,0,0
146936,-151.515151515152,4,2,0,15,0,0
147022.340425532,-100,4,2,0,15,0,0
147109,-149.253731343284,4,2,0,15,0,0
147194.744680851,-100,4,2,0,15,0,0
147281,-147.058823529412,4,2,0,15,0,0
147367.14893617,-100,4,2,0,15,0,0
147454,-144.927536231884,4,2,0,15,0,0
147539.553191489,-90.9090909090909,4,2,0,15,0,0
147583,-142.857142857143,4,2,0,15,0,0
147711.957446809,-90.9090909090909,4,2,0,15,0,0
147755,-140.845070422535,4,2,0,15,0,0
147884.361702128,-90.9090909090909,4,2,0,15,0,0
147928,-138.888888888889,4,2,0,15,0,0
148056.765957447,-90.9090909090909,4,2,0,15,0,0
148100,-136.986301369863,4,2,0,15,0,0
148229.170212766,-83.3333333333333,4,2,0,15,0,0
148273,-135.135135135135,4,2,0,15,0,0
148401.574468085,-83.3333333333333,4,2,0,15,0,0
148445,-133.333333333333,4,2,0,15,0,0
148573.978723404,-83.3333333333333,4,2,0,15,0,0
148618,-131.578947368421,4,2,0,15,0,0
148746.382978723,-83.3333333333333,4,2,0,15,0,0
148790,-129.87012987013,4,2,0,15,0,0
148918.787234043,-76.9230769230769,4,2,0,15,0,0
148962,-128.205128205128,4,2,0,15,0,0
149091.191489362,-76.9230769230769,4,2,0,15,0,0
149135,-126.582278481013,4,2,0,15,0,0
149263.595744681,-76.9230769230769,4,2,0,15,0,0
149307,-125,4,2,0,15,0,0
149436,-76.9230769230769,4,2,0,15,0,0
149480,-123.456790123457,4,2,0,15,0,0
149609,265.241379310345,4,2,0,20,1,0
149652,492.620689655173,4,2,0,20,1,0
149695,265.241379310345,4,2,0,20,1,0
149738,492.620689655173,4,2,0,20,1,0
149781,265.241379310345,4,2,0,20,1,0
149824,492.620689655173,4,2,0,20,1,0
149867,265.241379310345,4,2,0,20,1,0
149910,492.620689655173,4,2,0,20,1,0
149953,259.275862068966,4,2,0,20,1,0
149996,447.827586206897,4,2,0,20,1,0
150040,253.551724137931,4,2,0,20,1,0
150083,466.000000000001,4,2,0,20,1,0
150126,248.068965517242,4,2,0,20,1,0
150169,485.689655172414,4,2,0,20,1,0
150212,242.827586206897,4,2,0,20,1,0
150255,507.103448275863,4,2,0,20,1,0
150298,237.827586206897,4,2,0,20,1,0
150341,530.517241379311,4,2,0,20,1,0
150384,233,4,2,0,20,1,0
150427,556.172413793104,4,2,0,20,1,0
150471,228.379310344828,4,2,0,20,1,0
150514,703.724137931035,4,2,0,20,1,0
150557,223.931034482759,4,2,0,20,1,0
150600,957.862068965518,4,2,0,20,1,0
150643,219.620689655173,4,2,0,20,1,0
150686,1044.93103448276,4,2,0,20,1,0
150729,215.517241379311,4,2,0,20,1,0
150772,862.068965517243,4,2,0,20,1,0
150815,211.551724137931,4,2,0,20,1,0
150858,931.965517241381,4,2,0,20,1,0
150902,188.413793103449,4,2,0,20,1,0
150945,1915.72413793104,4,2,0,20,1,0
150988,188.413793103449,4,2,0,20,1,0
151017,1915.72413793104,4,2,0,20,1,0
151046,188.413793103449,4,2,0,20,1,0
151075,1915.72413793104,4,2,0,20,1,0
151103,188.413793103449,4,2,0,20,1,0
151132,1915.72413793104,4,2,0,20,1,0
151161,188.413793103449,4,2,0,20,1,0
151190,1915.72413793104,4,2,0,20,1,0
151218,188.413793103449,4,2,0,20,1,0
151247,1915.72413793104,4,2,0,20,1,0
151276,188.413793103449,4,2,0,20,1,0
151305,1915.72413793104,4,2,0,20,1,0
151333,181.48275862069,4,2,0,20,1,0
151362,2298.86206896552,4,2,0,20,1,0
151391,181.48275862069,4,2,0,20,1,0
151420,2298.86206896552,4,2,0,20,1,0
151448,181.48275862069,4,2,0,20,1,0
151477,2298.86206896552,4,2,0,20,1,0
151506,181.48275862069,4,2,0,20,1,0
151535,2298.86206896552,4,2,0,20,1,0
151563,181.48275862069,4,2,0,20,1,0
151592,2298.86206896552,4,2,0,20,1,0
151621,181.48275862069,4,2,0,20,1,0
151650,2298.86206896552,4,2,0,20,1,0
151678,344.827586206897,4,2,0,15,1,0
151678,-12.5,4,2,0,15,0,0
151699,-303.030303030303,4,2,0,15,0,0
151764,-12.5,4,2,0,15,0,0
151785,-303.030303030303,4,2,0,15,0,0
151850,-25,4,2,0,15,0,0
151871,-303.030303030303,4,2,0,15,0,0
151936,-28.5714285714286,4,2,0,15,0,0
151957,-303.030303030303,4,2,0,15,0,0
152023,-33.3333333333333,4,2,0,15,0,0
152066,-303.030303030303,4,2,0,15,0,0
152195,-33.3333333333333,4,2,0,15,0,0
152238,-149.253731343284,4,2,0,15,0,0
152368,38.3103448275863,4,2,0,15,1,0
152454,383.137931034483,4,2,0,15,1,0
152484.15,391.862068965518,4,2,0,15,1,0
152514.3,400.96551724138,4,2,0,15,1,0
152544.45,410.517241379311,4,2,0,15,1,0
152574.6,420.517241379311,4,2,0,15,1,0
152604.75,431.034482758621,4,2,0,15,1,0
152634.9,442.103448275863,4,2,0,15,1,0
152665.05,453.724137931035,4,2,0,15,1,0
152695.2,466.000000000001,4,2,0,15,1,0
152725.35,478.931034482759,4,2,0,15,1,0
152755.5,492.620689655173,4,2,0,15,1,0
152785.65,507.103448275863,4,2,0,15,1,0
152815.8,522.48275862069,4,2,0,15,1,0
152845.95,538.793103448277,4,2,0,15,1,0
152876.1,556.172413793104,4,2,0,15,1,0
152906.25,574.724137931035,4,2,0,15,1,0
152936.4,594.517241379311,4,2,0,15,1,0
152966.55,615.758620689656,4,2,0,15,1,0
152996.7,638.586206896552,4,2,0,15,1,0
153026.85,663.137931034484,4,2,0,15,1,0
153057,129.137931034483,4,2,0,15,1,0
153230,148,4,2,0,15,1,0
153237.71641791,149.931034482759,4,2,0,15,1,0
153245.432835821,152.586206896552,4,2,0,15,1,0
153253.149253731,154.620689655173,4,2,0,15,1,0
153260.865671642,156.724137931035,4,2,0,15,1,0
153268.582089552,159.655172413793,4,2,0,15,1,0
153276.298507463,161.896551724138,4,2,0,15,1,0
153284.014925373,164.206896551724,4,2,0,15,1,0
153291.731343284,167.379310344828,4,2,0,15,1,0
153299.447761194,169.862068965517,4,2,0,15,1,0
153307.164179104,172.413793103449,4,2,0,15,1,0
153314.880597015,175.931034482759,4,2,0,15,1,0
153322.597014925,178.655172413793,4,2,0,15,1,0
153330.313432836,181.48275862069,4,2,0,15,1,0
153338.029850746,185.379310344828,4,2,0,15,1,0
153345.746268657,188.413793103449,4,2,0,15,1,0
153353.462686567,191.586206896552,4,2,0,15,1,0
153361.179104478,195.931034482759,4,2,0,15,1,0
153368.895522388,199.310344827586,4,2,0,15,1,0
153376.611940299,202.827586206897,4,2,0,15,1,0
153384.328358209,207.724137931035,4,2,0,15,1,0
153392.044776119,211.551724137931,4,2,0,15,1,0
153399.76119403,215.517241379311,4,2,0,15,1,0
153407.47761194,221.034482758621,4,2,0,15,1,0
153415.194029851,225.379310344828,4,2,0,15,1,0
153422.910447761,229.896551724138,4,2,0,15,1,0
153430.626865672,236.172413793104,4,2,0,15,1,0
153438.343283582,241.137931034483,4,2,0,15,1,0
153446.059701493,246.310344827587,4,2,0,15,1,0
153453.776119403,253.551724137931,4,2,0,15,1,0
153461.492537313,259.275862068966,4,2,0,15,1,0
153469.208955224,265.241379310345,4,2,0,15,1,0
153476.925373134,273.689655172414,4,2,0,15,1,0
153484.641791045,280.344827586207,4,2,0,15,1,0
153492.358208955,287.344827586207,4,2,0,15,1,0
153500.074626866,294.724137931035,4,2,0,15,1,0
153507.791044776,305.172413793104,4,2,0,15,1,0
153515.507462687,313.48275862069,4,2,0,15,1,0
153523.223880597,322.275862068966,4,2,0,15,1,0
153530.940298507,334.793103448276,4,2,0,15,1,0
153538.656716418,344.827586206897,4,2,0,15,1,0
153546.373134328,355.48275862069,4,2,0,15,1,0
153554.089552239,370.793103448276,4,2,0,15,1,0
153561.805970149,383.137931034483,4,2,0,15,1,0
153569.52238806,396.344827586207,4,2,0,15,1,0
153575,415.44827586207,4,2,0,15,1,0
153584.555555556,378.931034482759,4,2,0,15,1,0
153594.111111111,344.827586206897,4,2,0,15,1,0
153603.666666667,319.275862068966,4,2,0,15,1,0
153613.222222222,297.275862068966,4,2,0,15,1,0
153622.777777778,275.862068965518,4,2,0,15,1,0
153632.333333333,259.275862068966,4,2,0,15,1,0
153641.888888889,244.551724137931,4,2,0,15,1,0
153651.444444444,229.896551724138,4,2,0,15,1,0
153661,218.241379310345,4,2,0,15,1,0
153670.555555556,207.724137931035,4,2,0,15,1,0
153680.111111111,197.034482758621,4,2,0,15,1,0
153689.666666667,188.413793103449,4,2,0,15,1,0
153699.222222222,180.551724137931,4,2,0,15,1,0
153708.777777778,172.413793103449,4,2,0,15,1,0
153718.333333333,165.793103448276,4,2,0,15,1,0
153727.888888889,159.655172413793,4,2,0,15,1,0
153737.444444444,153.241379310345,4,2,0,15,1,0
153747,86.2068965517243,4,2,0,15,1,0
153798.75,1567.41379310345,4,2,0,15,1,0
153816,1326.27586206897,4,2,0,15,1,0
153833.25,1149.41379310345,4,2,0,15,1,0
153850.5,1014.20689655173,4,2,0,15,1,0
153867.75,907.44827586207,4,2,0,15,1,0
153885,821.034482758622,4,2,0,15,1,0
153902.25,749.620689655173,4,2,0,15,1,0
153919.5,689.655172413794,4,2,0,15,1,0
153936.75,638.586206896552,4,2,0,15,1,0
153954,594.517241379311,4,2,0,15,1,0
153971.25,556.172413793104,4,2,0,15,1,0
153988.5,522.48275862069,4,2,0,15,1,0
154005.75,492.620689655173,4,2,0,15,1,0
154023,466.000000000001,4,2,0,15,1,0
154040.25,442.103448275863,4,2,0,15,1,0
154057.5,420.517241379311,4,2,0,15,1,0
154074.75,400.96551724138,4,2,0,15,1,0
154092,383.137931034483,4,2,0,15,1,0
154264,57.4827586206897,4,2,0,15,1,0
154300.964285714,1567.41379310345,4,2,0,15,1,0
154313.285714286,1277.13793103448,4,2,0,15,1,0
154325.607142857,1112.34482758621,4,2,0,15,1,0
154337.928571429,985.206896551725,4,2,0,15,1,0
154350.25,884.172413793105,4,2,0,15,1,0
154362.571428571,801.93103448276,4,2,0,15,1,0
154374.892857143,733.689655172415,4,2,0,15,1,0
154387.214285714,676.137931034484,4,2,0,15,1,0
154399.535714286,615.758620689656,4,2,0,15,1,0
154411.857142857,574.724137931035,4,2,0,15,1,0
154424.178571429,538.793103448277,4,2,0,15,1,0
154436.5,507.103448275863,4,2,0,15,1,0
154448.821428571,478.931034482759,4,2,0,15,1,0
154461.142857143,453.724137931035,4,2,0,15,1,0
154473.464285714,431.034482758621,4,2,0,15,1,0
154485.785714286,405.689655172414,4,2,0,15,1,0
154498.107142857,387.448275862069,4,2,0,15,1,0
154510.428571429,370.793103448276,4,2,0,15,1,0
154522.75,355.48275862069,4,2,0,15,1,0
154535.071428571,341.413793103449,4,2,0,15,1,0
154547.392857143,328.413793103449,4,2,0,15,1,0
154559.714285714,316.344827586207,4,2,0,15,1,0
154572.035714286,302.48275862069,4,2,0,15,1,0
154584.357142857,292.241379310345,4,2,0,15,1,0
154596.678571429,282.655172413793,4,2,0,15,1,0
154609,273.689655172414,4,2,0,15,1,0
154782,43.1034482758621,4,2,0,15,1,0
154858.666666667,1326.27586206897,4,2,0,15,1,0
154877.833333333,1149.41379310345,4,2,0,15,1,0
154897,1014.20689655173,4,2,0,15,1,0
154916.166666667,907.44827586207,4,2,0,15,1,0
154935.333333333,821.034482758622,4,2,0,15,1,0
154954.5,749.620689655173,4,2,0,15,1,0
154973.666666667,689.655172413794,4,2,0,15,1,0
154992.833333333,638.586206896552,4,2,0,15,1,0
155012,594.517241379311,4,2,0,15,1,0
155031.166666667,556.172413793104,4,2,0,15,1,0
155050.333333333,522.48275862069,4,2,0,15,1,0
155069.5,492.620689655173,4,2,0,15,1,0
155088.666666667,466.000000000001,4,2,0,15,1,0
155107.833333333,442.103448275863,4,2,0,15,1,0
155127,420.517241379311,4,2,0,15,1,0
155146.166666667,400.96551724138,4,2,0,15,1,0
155165.333333333,383.137931034483,4,2,0,15,1,0
155184.5,366.827586206897,4,2,0,15,1,0
155203.666666667,351.862068965518,4,2,0,15,1,0
155222.833333333,338.068965517242,4,2,0,15,1,0
155242,325.310344827587,4,2,0,15,1,0
155261.166666667,313.48275862069,4,2,0,15,1,0
155280.333333333,302.48275862069,4,2,0,15,1,0
155299.5,292.241379310345,4,2,0,15,1,0
155318.666666667,282.655172413793,4,2,0,15,1,0
155337.833333333,273.689655172414,4,2,0,15,1,0
155357,265.241379310345,4,2,0,15,1,0
155376.166666667,257.344827586207,4,2,0,15,1,0
155395.333333333,249.862068965518,4,2,0,15,1,0
155414.5,242.827586206897,4,2,0,15,1,0
155433.666666667,236.172413793104,4,2,0,15,1,0
155452.833333333,229.896551724138,4,2,0,15,1,0
155471,103.551724137931,4,2,0,15,1,0
155478.76,104.48275862069,4,2,0,15,1,0
155486.52,105.448275862069,4,2,0,15,1,0
155494.28,106.413793103448,4,2,0,15,1,0
155502.04,107.413793103448,4,2,0,15,1,0
155509.8,108.448275862069,4,2,0,15,1,0
155517.56,109.48275862069,4,2,0,15,1,0
155525.32,110.51724137931,4,2,0,15,1,0
155533.08,111.586206896552,4,2,0,15,1,0
155540.84,112.689655172414,4,2,0,15,1,0
155548.6,113.793103448276,4,2,0,15,1,0
155556.36,114.931034482759,4,2,0,15,1,0
155564.12,116.103448275862,4,2,0,15,1,0
155571.88,117.275862068966,4,2,0,15,1,0
155579.64,118.48275862069,4,2,0,15,1,0
155587.4,119.724137931035,4,2,0,15,1,0
155595.16,121,4,2,0,15,1,0
155602.92,122.275862068966,4,2,0,15,1,0
155610.68,123.586206896552,4,2,0,15,1,0
155618.44,124.931034482759,4,2,0,15,1,0
155626.2,126.310344827586,4,2,0,15,1,0
155633.96,127.724137931035,4,2,0,15,1,0
155641.72,129.137931034483,4,2,0,15,1,0
155649.48,130.620689655173,4,2,0,15,1,0
155657.24,132.103448275862,4,2,0,15,1,0
155665,133.655172413793,4,2,0,15,1,0
155672.76,135.241379310345,4,2,0,15,1,0
155680.52,136.827586206897,4,2,0,15,1,0
155688.28,138.48275862069,4,2,0,15,1,0
155696.04,140.172413793104,4,2,0,15,1,0
155703.8,141.896551724138,4,2,0,15,1,0
155711.56,143.689655172414,4,2,0,15,1,0
155719.32,145.48275862069,4,2,0,15,1,0
155727.08,147.379310344828,4,2,0,15,1,0
155734.84,149.275862068966,4,2,0,15,1,0
155742.6,151.241379310345,4,2,0,15,1,0
155750.36,153.241379310345,4,2,0,15,1,0
155758.12,155.344827586207,4,2,0,15,1,0
155765.88,157.448275862069,4,2,0,15,1,0
155773.64,159.655172413793,4,2,0,15,1,0
155781.4,161.896551724138,4,2,0,15,1,0
155789.16,164.206896551724,4,2,0,15,1,0
155796.92,166.586206896552,4,2,0,15,1,0
155804.68,169.034482758621,4,2,0,15,1,0
155812.44,171.551724137931,4,2,0,15,1,0
155820.2,174.172413793104,4,2,0,15,1,0
155827.96,176.827586206897,4,2,0,15,1,0
155835.72,179.586206896552,4,2,0,15,1,0
155843.48,182.448275862069,4,2,0,15,1,0
155851.24,185.379310344828,4,2,0,15,1,0
155859,188.413793103449,4,2,0,15,1,0
155866.76,191.586206896552,4,2,0,15,1,0
155874.52,194.827586206897,4,2,0,15,1,0
155882.28,198.172413793104,4,2,0,15,1,0
155890.04,201.655172413793,4,2,0,15,1,0
155897.8,205.241379310345,4,2,0,15,1,0
155905.56,209,4,2,0,15,1,0
155913.32,212.862068965518,4,2,0,15,1,0
155921.08,216.862068965518,4,2,0,15,1,0
155928.84,221.034482758621,4,2,0,15,1,0
155936.6,225.379310344828,4,2,0,15,1,0
155944.36,229.896551724138,4,2,0,15,1,0
155952.12,234.586206896552,4,2,0,15,1,0
155959.88,239.448275862069,4,2,0,15,1,0
155967.64,244.551724137931,4,2,0,15,1,0
155975.4,249.862068965518,4,2,0,15,1,0
155983.16,255.413793103449,4,2,0,15,1,0
155990.92,261.241379310345,4,2,0,15,1,0
155998.68,267.310344827587,4,2,0,15,1,0
156006.44,273.689655172414,4,2,0,15,1,0
156014.2,280.344827586207,4,2,0,15,1,0
156021.96,287.344827586207,4,2,0,15,1,0
156029.72,294.724137931035,4,2,0,15,1,0
156037.48,302.48275862069,4,2,0,15,1,0
156045.24,310.655172413794,4,2,0,15,1,0
156053,319.275862068966,4,2,0,15,1,0
156060.76,328.413793103449,4,2,0,15,1,0
156068.52,338.068965517242,4,2,0,15,1,0
156076.28,348.310344827587,4,2,0,15,1,0
156084.04,359.206896551725,4,2,0,15,1,0
156091.8,370.793103448276,4,2,0,15,1,0
156099.56,383.137931034483,4,2,0,15,1,0
156107.32,396.344827586207,4,2,0,15,1,0
156115.08,410.517241379311,4,2,0,15,1,0
156122.84,425.724137931035,4,2,0,15,1,0
156130.6,442.103448275863,4,2,0,15,1,0
156138.36,459.758620689656,4,2,0,15,1,0
156146.12,478.931034482759,4,2,0,15,1,0
156153.88,499.758620689656,4,2,0,15,1,0
156161.64,522.48275862069,4,2,0,15,1,0
156169.4,547.344827586208,4,2,0,15,1,0
156177.16,574.724137931035,4,2,0,15,1,0
156184.92,604.96551724138,4,2,0,15,1,0
156192.68,638.586206896552,4,2,0,15,1,0
156200.44,676.137931034484,4,2,0,15,1,0
156208.2,718.379310344829,4,2,0,15,1,0
156215.96,766.275862068966,4,2,0,15,1,0
156223.72,821.034482758622,4,2,0,15,1,0
156231.48,884.172413793105,4,2,0,15,1,0
156239.24,957.862068965518,4,2,0,15,1,0
156247,43.1034482758621,4,2,0,15,1,0
156290,459.758620689656,4,2,0,15,1,0
156484,51.0689655172415,4,2,0,15,1,0
156505,86.2068965517243,4,2,0,15,1,0
156556.75,1567.41379310345,4,2,0,15,1,0
156574,1326.27586206897,4,2,0,15,1,0
156591.25,1149.41379310345,4,2,0,15,1,0
156608.5,1014.20689655173,4,2,0,15,1,0
156625.75,907.44827586207,4,2,0,15,1,0
156643,821.034482758622,4,2,0,15,1,0
156660.25,749.620689655173,4,2,0,15,1,0
156677.5,689.655172413794,4,2,0,15,1,0
156694.75,638.586206896552,4,2,0,15,1,0
156712,594.517241379311,4,2,0,15,1,0
156729.25,556.172413793104,4,2,0,15,1,0
156746.5,522.48275862069,4,2,0,15,1,0
156763.75,492.620689655173,4,2,0,15,1,0
156781,466.000000000001,4,2,0,15,1,0
156798.25,442.103448275863,4,2,0,15,1,0
156815.5,420.517241379311,4,2,0,15,1,0
156832.75,400.96551724138,4,2,0,15,1,0
156850,383.137931034483,4,2,0,15,1,0
157022,57.4827586206897,4,2,0,15,1,0
157058.964285714,1567.41379310345,4,2,0,15,1,0
157071.285714286,1277.13793103448,4,2,0,15,1,0
157083.607142857,1112.34482758621,4,2,0,15,1,0
157095.928571429,985.206896551725,4,2,0,15,1,0
157108.25,884.172413793105,4,2,0,15,1,0
157120.571428571,801.93103448276,4,2,0,15,1,0
157132.892857143,733.689655172415,4,2,0,15,1,0
157145.214285714,676.137931034484,4,2,0,15,1,0
157157.535714286,615.758620689656,4,2,0,15,1,0
157169.857142857,574.724137931035,4,2,0,15,1,0
157182.178571429,538.793103448277,4,2,0,15,1,0
157194.5,507.103448275863,4,2,0,15,1,0
157206.821428571,478.931034482759,4,2,0,15,1,0
157219.142857143,453.724137931035,4,2,0,15,1,0
157231.464285714,431.034482758621,4,2,0,15,1,0
157243.785714286,405.689655172414,4,2,0,15,1,0
157256.107142857,387.448275862069,4,2,0,15,1,0
157268.428571429,370.793103448276,4,2,0,15,1,0
157280.75,355.48275862069,4,2,0,15,1,0
157293.071428571,341.413793103449,4,2,0,15,1,0
157305.392857143,328.413793103449,4,2,0,15,1,0
157317.714285714,316.344827586207,4,2,0,15,1,0
157330.035714286,302.48275862069,4,2,0,15,1,0
157342.357142857,292.241379310345,4,2,0,15,1,0
157354.678571429,282.655172413793,4,2,0,15,1,0
157367,273.689655172414,4,2,0,15,1,0
157540,43.1034482758621,4,2,0,15,1,0
157616.666666667,1326.27586206897,4,2,0,15,1,0
157635.833333333,1149.41379310345,4,2,0,15,1,0
157655,1014.20689655173,4,2,0,15,1,0
157674.166666667,907.44827586207,4,2,0,15,1,0
157693.333333333,821.034482758622,4,2,0,15,1,0
157712.5,749.620689655173,4,2,0,15,1,0
157731.666666667,689.655172413794,4,2,0,15,1,0
157750.833333333,638.586206896552,4,2,0,15,1,0
157770,594.517241379311,4,2,0,15,1,0
157789.166666667,556.172413793104,4,2,0,15,1,0
157808.333333333,522.48275862069,4,2,0,15,1,0
157827.5,492.620689655173,4,2,0,15,1,0
157846.666666667,466.000000000001,4,2,0,15,1,0
157865.833333333,442.103448275863,4,2,0,15,1,0
157885,420.517241379311,4,2,0,15,1,0
157904.166666667,400.96551724138,4,2,0,15,1,0
157923.333333333,383.137931034483,4,2,0,15,1,0
157942.5,366.827586206897,4,2,0,15,1,0
157961.666666667,351.862068965518,4,2,0,15,1,0
157980.833333333,338.068965517242,4,2,0,15,1,0
158000,325.310344827587,4,2,0,15,1,0
158019.166666667,313.48275862069,4,2,0,15,1,0
158038.333333333,302.48275862069,4,2,0,15,1,0
158057.5,292.241379310345,4,2,0,15,1,0
158076.666666667,282.655172413793,4,2,0,15,1,0
158095.833333333,273.689655172414,4,2,0,15,1,0
158115,265.241379310345,4,2,0,15,1,0
158134.166666667,257.344827586207,4,2,0,15,1,0
158153.333333333,249.862068965518,4,2,0,15,1,0
158172.5,242.827586206897,4,2,0,15,1,0
158191.666666667,236.172413793104,4,2,0,15,1,0
158210.833333333,229.896551724138,4,2,0,15,1,0
158231,3448.27586206897,4,2,0,15,1,0
158381,47.448275862069,4,2,0,15,1,0
158402,3448.27586206897,4,2,0,15,1,0
158445,1044.93103448276,4,2,0,15,1,0
158488,3448.27586206897,4,2,0,15,1,0
158531,1044.93103448276,4,2,0,15,1,0
158552,58.7586206896552,4,2,0,15,1,0
158575,1379.31034482759,4,2,0,15,1,0
158725,54.0344827586208,4,2,0,15,1,0
158747,3448.27586206897,4,2,0,15,1,0
158790,556.172413793104,4,2,0,15,1,0
158811,3448.27586206897,4,2,0,15,1,0
158833,556.172413793104,4,2,0,15,1,0
158854,3448.27586206897,4,2,0,15,1,0
158876,556.172413793104,4,2,0,15,1,0
158897,3448.27586206897,4,2,0,15,1,0
158984,42.5862068965518,4,2,0,15,1,0
159006,129.137931034483,4,2,0,15,1,0
159015,3448.27586206897,4,2,0,15,1,0
159027,129.137931034483,4,2,0,15,1,0
159036,3448.27586206897,4,2,0,15,1,0
159049,129.137931034483,4,2,0,15,1,0
159058,3448.27586206897,4,2,0,15,1,0
159070,129.137931034483,4,2,0,15,1,0
159079,3448.27586206897,4,2,0,15,1,0
159092,129.137931034483,4,2,0,15,1,0
159101,3448.27586206897,4,2,0,15,1,0
159113,129.137931034483,4,2,0,15,1,0
159122,3448.27586206897,4,2,0,15,1,0
159135,129.137931034483,4,2,0,15,1,0
159144,3448.27586206897,4,2,0,15,1,0
159156,129.137931034483,4,2,0,15,1,0
159165,3448.27586206897,4,2,0,15,1,0
159178,129.137931034483,4,2,0,15,1,0
159187,3448.27586206897,4,2,0,15,1,0
159200,129.137931034483,4,2,0,15,1,0
159209,3448.27586206897,4,2,0,15,1,0
159221,129.137931034483,4,2,0,15,1,0
159230,3448.27586206897,4,2,0,15,1,0
159243,117.689655172414,4,2,0,15,1,0
159264,66.6896551724139,4,2,0,15,1,0
159315.75,1567.41379310345,4,2,0,15,1,0
159333,1326.27586206897,4,2,0,15,1,0
159350.25,1149.41379310345,4,2,0,15,1,0
159367.5,1014.20689655173,4,2,0,15,1,0
159384.75,907.44827586207,4,2,0,15,1,0
159402,821.034482758622,4,2,0,15,1,0
159419.25,749.620689655173,4,2,0,15,1,0
159436.5,689.655172413794,4,2,0,15,1,0
159453.75,638.586206896552,4,2,0,15,1,0
159471,594.517241379311,4,2,0,15,1,0
159488.25,556.172413793104,4,2,0,15,1,0
159505.5,522.48275862069,4,2,0,15,1,0
159522.75,492.620689655173,4,2,0,15,1,0
159540,466.000000000001,4,2,0,15,1,0
159557.25,442.103448275863,4,2,0,15,1,0
159574.5,420.517241379311,4,2,0,15,1,0
159591.75,400.96551724138,4,2,0,15,1,0
159609,383.137931034483,4,2,0,15,1,0
159781,57.4827586206897,4,2,0,15,1,0
159817.964285714,1567.41379310345,4,2,0,15,1,0
159830.285714286,1277.13793103448,4,2,0,15,1,0
159842.607142857,1112.34482758621,4,2,0,15,1,0
159854.928571429,985.206896551725,4,2,0,15,1,0
159867.25,884.172413793105,4,2,0,15,1,0
159879.571428571,801.93103448276,4,2,0,15,1,0
159891.892857143,733.689655172415,4,2,0,15,1,0
159904.214285714,676.137931034484,4,2,0,15,1,0
159916.535714286,615.758620689656,4,2,0,15,1,0
159928.857142857,574.724137931035,4,2,0,15,1,0
159941.178571429,538.793103448277,4,2,0,15,1,0
159953.5,507.103448275863,4,2,0,15,1,0
159965.821428571,478.931034482759,4,2,0,15,1,0
159978.142857143,453.724137931035,4,2,0,15,1,0
159990.464285714,431.034482758621,4,2,0,15,1,0
160002.785714286,405.689655172414,4,2,0,15,1,0
160015.107142857,387.448275862069,4,2,0,15,1,0
160027.428571429,370.793103448276,4,2,0,15,1,0
160039.75,355.48275862069,4,2,0,15,1,0
160052.071428571,341.413793103449,4,2,0,15,1,0
160064.392857143,328.413793103449,4,2,0,15,1,0
160076.714285714,316.344827586207,4,2,0,15,1,0
160089.035714286,302.48275862069,4,2,0,15,1,0
160101.357142857,292.241379310345,4,2,0,15,1,0
160113.678571429,282.655172413793,4,2,0,15,1,0
160126,273.689655172414,4,2,0,15,1,0
160299,43.1034482758621,4,2,0,15,1,0
160356.416666667,1567.41379310345,4,2,0,15,1,0
160375.555555556,1326.27586206897,4,2,0,15,1,0
160394.694444444,1149.41379310345,4,2,0,15,1,0
160413.833333333,1014.20689655173,4,2,0,15,1,0
160432.972222222,907.44827586207,4,2,0,15,1,0
160452.111111111,821.034482758622,4,2,0,15,1,0
160471.25,749.620689655173,4,2,0,15,1,0
160490.388888889,689.655172413794,4,2,0,15,1,0
160509.527777778,638.586206896552,4,2,0,15,1,0
160528.666666667,594.517241379311,4,2,0,15,1,0
160547.805555556,556.172413793104,4,2,0,15,1,0
160566.944444444,522.48275862069,4,2,0,15,1,0
160586.083333333,492.620689655173,4,2,0,15,1,0
160605.222222222,466.000000000001,4,2,0,15,1,0
160624.361111111,442.103448275863,4,2,0,15,1,0
160643.5,420.517241379311,4,2,0,15,1,0
160662.638888889,400.96551724138,4,2,0,15,1,0
160681.777777778,383.137931034483,4,2,0,15,1,0
160700.916666667,366.827586206897,4,2,0,15,1,0
160720.055555556,351.862068965518,4,2,0,15,1,0
160739.194444444,338.068965517242,4,2,0,15,1,0
160758.333333333,325.310344827587,4,2,0,15,1,0
160777.472222222,313.48275862069,4,2,0,15,1,0
160796.611111111,302.48275862069,4,2,0,15,1,0
160815.75,292.241379310345,4,2,0,15,1,0
160834.888888889,282.655172413793,4,2,0,15,1,0
160854.027777778,273.689655172414,4,2,0,15,1,0
160873.166666667,265.241379310345,4,2,0,15,1,0
160892.305555556,257.344827586207,4,2,0,15,1,0
160911.444444444,249.862068965518,4,2,0,15,1,0
160930.583333333,242.827586206897,4,2,0,15,1,0
160938.785714286,86.2068965517243,4,2,0,15,1,0
160988,344.827586206897,4,2,0,15,1,0
160989,-100,4,2,0,15,0,0
161161,-52.6315789473684,4,2,0,15,0,0
161204,-1000,4,2,0,15,0,0
161247,-52.6315789473684,4,2,0,15,0,0
161290,-1000,4,2,0,15,0,0
161333,-52.6315789473684,4,2,0,15,0,0
161376,-1000,4,2,0,15,0,0
161419,-52.6315789473684,4,2,0,15,0,0
161462,-1000,4,2,0,15,0,0
161505,-55.5555555555556,4,2,0,15,0,0
161527,-303.030303030303,4,2,0,15,0,0
161549,-55.5555555555556,4,2,0,15,0,0
161571,-303.030303030303,4,2,0,15,0,0
161592,-55.5555555555556,4,2,0,15,0,0
161614,-303.030303030303,4,2,0,15,0,0
161635,-55.5555555555556,4,2,0,15,0,0
161657,-303.030303030303,4,2,0,15,0,0
161678,-55.5555555555556,4,2,0,15,0,0
161700,-303.030303030303,4,2,0,15,0,0
161721,-55.5555555555556,4,2,0,15,0,0
161743,-303.030303030303,4,2,0,15,0,0
161764,-55.5555555555556,4,2,0,15,0,0
161786,-303.030303030303,4,2,0,15,0,0
161807,-55.5555555555556,4,2,0,15,0,0
161829,-303.030303030303,4,2,0,15,0,0
161850,-55.5555555555556,4,2,0,15,0,0
161872,-303.030303030303,4,2,0,15,0,0
161893,-55.5555555555556,4,2,0,15,0,0
161915,-303.030303030303,4,2,0,15,0,0
161936,-55.5555555555556,4,2,0,15,0,0
161958,-303.030303030303,4,2,0,15,0,0
161980,-55.5555555555556,4,2,0,15,0,0
162002,-303.030303030303,4,2,0,15,0,0
162023,-30.5810397553517,4,2,0,15,0,0
162109,-166.666666666667,4,2,0,15,0,0
162346,-37.1747211895911,4,2,0,15,0,0
162368,-166.666666666667,4,2,0,15,0,0
162669,-37.1747211895911,4,2,0,15,0,0
162712,-149.253731343284,4,2,0,15,0,0
162863,-25.8397932816537,4,2,0,15,0,0
162885,-107.52688172043,4,2,0,15,0,0
163057,-10,4,2,0,15,0,0
163100,-25,4,2,0,15,0,0
163106.04,-25.4452926208651,4,2,0,15,0,0
163112.08,-25.9067357512953,4,2,0,15,0,0
163118.12,-26.3157894736842,4,2,0,15,0,0
163124.16,-26.8096514745308,4,2,0,15,0,0
163130.2,-27.3224043715847,4,2,0,15,0,0
163136.24,-27.8551532033426,4,2,0,15,0,0
163142.28,-28.4090909090909,4,2,0,15,0,0
163148.32,-28.9017341040462,4,2,0,15,0,0
163154.36,-29.4985250737463,4,2,0,15,0,0
163160.4,-30.1204819277108,4,2,0,15,0,0
163166.44,-30.7692307692308,4,2,0,15,0,0
163172.48,-31.4465408805031,4,2,0,15,0,0
163178.52,-32.0512820512821,4,2,0,15,0,0
163184.56,-32.7868852459016,4,2,0,15,0,0
163190.6,-33.5570469798658,4,2,0,15,0,0
163196.64,-34.3642611683849,4,2,0,15,0,0
163202.68,-35.2112676056338,4,2,0,15,0,0
163208.72,-35.9712230215827,4,2,0,15,0,0
163214.76,-36.90036900369,4,2,0,15,0,0
163220.8,-37.8787878787879,4,2,0,15,0,0
163226.84,-38.9105058365759,4,2,0,15,0,0
163232.88,-40,4,2,0,15,0,0
163238.92,-40.9836065573771,4,2,0,15,0,0
163244.96,-42.1940928270042,4,2,0,15,0,0
163251,-43.4782608695652,4,2,0,15,0,0
163257.04,-44.8430493273543,4,2,0,15,0,0
163263.08,-46.2962962962963,4,2,0,15,0,0
163269.12,-47.6190476190476,4,2,0,15,0,0
163275.16,-49.2610837438424,4,2,0,15,0,0
163281.2,-51.0204081632653,4,2,0,15,0,0
163287.24,-52.9100529100529,4,2,0,15,0,0
163293.28,-54.9450549450549,4,2,0,15,0,0
163299.32,-56.8181818181818,4,2,0,15,0,0
163305.36,-59.1715976331361,4,2,0,15,0,0
163311.4,-61.7283950617284,4,2,0,15,0,0
163317.44,-64.5161290322581,4,2,0,15,0,0
163323.48,-67.5675675675676,4,2,0,15,0,0
163329.52,-70.4225352112676,4,2,0,15,0,0
163335.56,-74.0740740740741,4,2,0,15,0,0
163341.6,-78.125,4,2,0,15,0,0
163347.64,-82.6446280991736,4,2,0,15,0,0
163353.68,-87.719298245614,4,2,0,15,0,0
163359.72,-92.5925925925926,4,2,0,15,0,0
163365.76,-99.009900990099,4,2,0,15,0,0
163371.8,-106.382978723404,4,2,0,15,0,0
163377.84,-114.942528735632,4,2,0,15,0,0
163383.88,-125,4,2,0,15,0,0
163389.92,-135.135135135135,4,2,0,15,0,0
163395.96,-149.253731343284,4,2,0,15,0,0
163402,-71.4285714285714,4,2,0,15,0,0
163436.4,-78.125,4,2,0,15,0,0
163470.8,-86.2068965517241,4,2,0,15,0,0
163505.2,-96.1538461538461,4,2,0,15,0,0
163539.6,-108.695652173913,4,2,0,15,0,0
163574,-125,4,2,0,15,0,0
163747,-71.4285714285714,4,2,0,15,0,0
163781.4,-78.125,4,2,0,15,0,0
163815.8,-86.2068965517241,4,2,0,15,0,0
163850.2,-96.1538461538461,4,2,0,15,0,0
163884.6,-108.695652173913,4,2,0,15,0,0
163919,-125,4,2,0,15,0,0
164092,-71.4285714285714,4,2,0,15,0,0
164126.4,-78.125,4,2,0,15,0,0
164160.8,-86.2068965517241,4,2,0,15,0,0
164195.2,-96.1538461538461,4,2,0,15,0,0
164229.6,-108.695652173913,4,2,0,15,0,0
164264,-125,4,2,0,15,0,0
164436,-71.4285714285714,4,2,0,15,0,0
164470.4,-78.125,4,2,0,15,0,0
164504.8,-86.2068965517241,4,2,0,15,0,0
164539.2,-96.1538461538461,4,2,0,15,0,0
164573.6,-108.695652173913,4,2,0,15,0,0
164608,-125,4,2,0,15,0,0
164781,-71.4285714285714,4,2,0,15,0,0
164815.4,-78.125,4,2,0,15,0,0
164849.8,-86.2068965517241,4,2,0,15,0,0
164884.2,-96.1538461538461,4,2,0,15,0,0
164918.6,-108.695652173913,4,2,0,15,0,0
164953,-125,4,2,0,15,0,0
165126,-71.4285714285714,4,2,0,15,0,0
165160.4,-78.125,4,2,0,15,0,0
165194.8,-86.2068965517241,4,2,0,15,0,0
165229.2,-96.1538461538461,4,2,0,15,0,0
165263.6,-108.695652173913,4,2,0,15,0,0
165298,-125,4,2,0,15,0,0
165471,-71.4285714285714,4,2,0,15,0,0
165505.4,-78.125,4,2,0,15,0,0
165539.8,-86.2068965517241,4,2,0,15,0,0
165574.2,-96.1538461538461,4,2,0,15,0,0
165608.6,-108.695652173913,4,2,0,15,0,0
165643,-125,4,2,0,15,0,0
165816,-71.4285714285714,4,2,0,15,0,0
165850.4,-78.125,4,2,0,15,0,0
165884.8,-86.2068965517241,4,2,0,15,0,0
165919.2,-96.1538461538461,4,2,0,15,0,0
165953.6,-108.695652173913,4,2,0,15,0,0
165988,-125,4,2,0,15,0,0
166161,-71.4285714285714,4,2,0,15,0,0
166195.4,-78.125,4,2,0,15,0,0
166229.8,-86.2068965517241,4,2,0,15,0,0
166264.2,-96.1538461538461,4,2,0,15,0,0
166298.6,-108.695652173913,4,2,0,15,0,0
166333,-125,4,2,0,15,0,0
166505,-71.4285714285714,4,2,0,15,0,0
166539.4,-78.125,4,2,0,15,0,0
166573.8,-86.2068965517241,4,2,0,15,0,0
166608.2,-96.1538461538461,4,2,0,15,0,0
166642.6,-108.695652173913,4,2,0,15,0,0
166677,-125,4,2,0,15,0,0
166850,-71.4285714285714,4,2,0,15,0,0
166884.4,-78.125,4,2,0,15,0,0
166918.8,-86.2068965517241,4,2,0,15,0,0
166953.2,-96.1538461538461,4,2,0,15,0,0
166987.6,-108.695652173913,4,2,0,15,0,0
167022,-125,4,2,0,15,0,0
167195,-71.4285714285714,4,2,0,15,0,0
167229.4,-78.125,4,2,0,15,0,0
167263.8,-86.2068965517241,4,2,0,15,0,0
167298.2,-96.1538461538461,4,2,0,15,0,0
167332.6,-108.695652173913,4,2,0,15,0,0
167367,-125,4,2,0,15,0,0
167540,-71.4285714285714,4,2,0,15,0,0
167574.4,-78.125,4,2,0,15,0,0
167608.8,-86.2068965517241,4,2,0,15,0,0
167643.2,-96.1538461538461,4,2,0,15,0,0
167677.6,-108.695652173913,4,2,0,15,0,0
167712,-125,4,2,0,15,0,0
167885,-71.4285714285714,4,2,0,15,0,0
167919.4,-78.125,4,2,0,15,0,0
167953.8,-86.2068965517241,4,2,0,15,0,0
167988.2,-96.1538461538461,4,2,0,15,0,0
168022.6,-108.695652173913,4,2,0,15,0,0
168057,-125,4,2,0,15,0,0
168230,-71.4285714285714,4,2,0,15,0,0
168264.4,-78.125,4,2,0,15,0,0
168298.8,-86.2068965517241,4,2,0,15,0,0
168333.2,-96.1538461538461,4,2,0,15,0,0
168367.6,-108.695652173913,4,2,0,15,0,0
168402,-125,4,2,0,15,0,0
168574,-71.4285714285714,4,2,0,15,0,0
168608.4,-78.125,4,2,0,15,0,0
168642.8,-86.2068965517241,4,2,0,15,0,0
168677.2,-96.1538461538461,4,2,0,15,0,0
168711.6,-108.695652173913,4,2,0,15,0,0
168746,-125,4,2,0,15,0,0
168920,-35.3356890459364,4,2,0,15,0,0
168941,-125,4,2,0,15,0,0
169264,-35.3356890459364,4,2,0,15,0,0
169285,-125,4,2,0,15,0,0
169609,-35.3356890459364,4,2,0,15,0,0
169630,-125,4,2,0,15,0,0
169954,-35.3356890459364,4,2,0,15,0,0
169975,-125,4,2,0,15,0,0
170299,-35.3356890459364,4,2,0,15,0,0
170320,-125,4,2,0,15,0,0
170644,-35.3356890459364,4,2,0,15,0,0
170665,-125,4,2,0,15,0,0
170989,-35.3356890459364,4,2,0,15,0,0
171010,-125,4,2,0,15,0,0
171333,-35.3356890459364,4,2,0,15,0,0
171354,-125,4,2,0,15,0,0
171678,-68.9655172413793,4,2,0,20,0,0
171721,-153.846153846154,4,2,0,20,0,0
171764,-67.5675675675676,4,2,0,20,0,0
171807,-161.290322580645,4,2,0,20,0,0
171851,-66.2251655629139,4,2,0,20,0,0
171894,-204.081632653061,4,2,0,20,0,0
171937,-64.9350649350649,4,2,0,20,0,0
171980,-277.777777777778,4,2,0,20,0,0
172023,-63.6942675159236,4,2,0,20,0,0
172066,-303.030303030303,4,2,0,20,0,0
172109,-62.5,4,2,0,20,0,0
172152,-250,4,2,0,20,0,0
172195,-61.3496932515337,4,2,0,20,0,0
172238,-270.27027027027,4,2,0,20,0,0
172282,-60.2409638554217,4,2,0,20,0,0
172325,-303.030303030303,4,2,0,20,0,0
172368,-52.6315789473684,4,2,0,20,0,0
172389,-303.030303030303,4,2,0,20,0,0
172411,-52.6315789473684,4,2,0,20,0,0
172432,-303.030303030303,4,2,0,20,0,0
172454,-52.6315789473684,4,2,0,20,0,0
172475,-303.030303030303,4,2,0,20,0,0
172497,-52.6315789473684,4,2,0,20,0,0
172518,-303.030303030303,4,2,0,20,0,0
172540,-52.6315789473684,4,2,0,20,0,0
172561,-303.030303030303,4,2,0,20,0,0
172583,-52.6315789473684,4,2,0,20,0,0
172604,-303.030303030303,4,2,0,20,0,0
172626,-52.6315789473684,4,2,0,20,0,0
172647,-303.030303030303,4,2,0,20,0,0
172670,-52.6315789473684,4,2,0,20,0,0
172691,-303.030303030303,4,2,0,20,0,0
172713,-52.6315789473684,4,2,0,20,0,0
172734,-303.030303030303,4,2,0,20,0,0
172756,-52.6315789473684,4,2,0,20,0,0
172777,-303.030303030303,4,2,0,20,0,0
172799,-52.6315789473684,4,2,0,20,0,0
172820,-303.030303030303,4,2,0,20,0,0
172842,-52.6315789473684,4,2,0,20,0,0
172863,-303.030303030303,4,2,0,20,0,0
172885,-52.6315789473684,4,2,0,20,0,0
172906,-303.030303030303,4,2,0,20,0,0
172928,-52.6315789473684,4,2,0,20,0,0
172949,-303.030303030303,4,2,0,20,0,0
172971,-52.6315789473684,4,2,0,20,0,0
172992,-303.030303030303,4,2,0,20,0,0
173014,-52.6315789473684,4,2,0,20,0,0
173035,-303.030303030303,4,2,0,20,0,0
173057,344.827586206897,4,2,0,20,1,0
173057,-10,4,2,0,20,0,0
173100,3448.27586206897,4,2,0,15,1,0
173104.555555556,3134.79310344828,4,2,0,15,1,0
173109.111111111,2873.55172413793,4,2,0,15,1,0
173113.666666667,2652.51724137931,4,2,0,15,1,0
173118.222222222,2463.06896551724,4,2,0,15,1,0
173122.777777778,2298.86206896552,4,2,0,15,1,0
173127.333333333,2155.17241379311,4,2,0,15,1,0
173131.888888889,2028.41379310345,4,2,0,15,1,0
173136.444444444,1915.72413793104,4,2,0,15,1,0
173141,1814.89655172414,4,2,0,15,1,0
173145.555555556,1724.13793103449,4,2,0,15,1,0
173150.111111111,1642.03448275862,4,2,0,15,1,0
173154.666666667,1567.41379310345,4,2,0,15,1,0
173159.222222222,1499.24137931035,4,2,0,15,1,0
173163.777777778,1436.79310344828,4,2,0,15,1,0
173168.333333333,1379.31034482759,4,2,0,15,1,0
173172.888888889,1326.27586206897,4,2,0,15,1,0
173177.444444444,1277.13793103448,4,2,0,15,1,0
173182,1231.51724137931,4,2,0,15,1,0
173186.555555556,1189.06896551724,4,2,0,15,1,0
173191.111111111,1149.41379310345,4,2,0,15,1,0
173195.666666667,1112.34482758621,4,2,0,15,1,0
173200.222222222,1077.58620689655,4,2,0,15,1,0
173204.777777778,1044.93103448276,4,2,0,15,1,0
173209.333333333,1014.20689655173,4,2,0,15,1,0
173213.888888889,985.206896551725,4,2,0,15,1,0
173218.444444444,957.862068965518,4,2,0,15,1,0
173223,931.965517241381,4,2,0,15,1,0
173227.555555556,907.44827586207,4,2,0,15,1,0
173232.111111111,884.172413793105,4,2,0,15,1,0
173236.666666667,862.068965517243,4,2,0,15,1,0
173241.222222222,841.034482758622,4,2,0,15,1,0
173245.777777778,821.034482758622,4,2,0,15,1,0
173250.333333333,801.93103448276,4,2,0,15,1,0
173254.888888889,783.689655172415,4,2,0,15,1,0
173259.444444444,766.275862068966,4,2,0,15,1,0
173264,749.620689655173,4,2,0,15,1,0
173268.555555556,733.689655172415,4,2,0,15,1,0
173273.111111111,718.379310344829,4,2,0,15,1,0
173277.666666667,703.724137931035,4,2,0,15,1,0
173282.222222222,689.655172413794,4,2,0,15,1,0
173286.777777778,676.137931034484,4,2,0,15,1,0
173291.333333333,663.137931034484,4,2,0,15,1,0
173295.888888889,650.620689655173,4,2,0,15,1,0
173300.444444444,638.586206896552,4,2,0,15,1,0
173305,626.96551724138,4,2,0,15,1,0
173309.555555556,615.758620689656,4,2,0,15,1,0
173314.111111111,604.96551724138,4,2,0,15,1,0
173318.666666667,594.517241379311,4,2,0,15,1,0
173323.222222222,584.44827586207,4,2,0,15,1,0
173327.777777778,574.724137931035,4,2,0,15,1,0
173332.333333333,565.275862068966,4,2,0,15,1,0
173336.888888889,556.172413793104,4,2,0,15,1,0
173341.444444444,547.344827586208,4,2,0,15,1,0
173346,538.793103448277,4,2,0,15,1,0
173350.555555556,530.517241379311,4,2,0,15,1,0
173355.111111111,522.48275862069,4,2,0,15,1,0
173359.666666667,514.655172413794,4,2,0,15,1,0
173364.222222222,507.103448275863,4,2,0,15,1,0
173368.777777778,499.758620689656,4,2,0,15,1,0
173373.333333333,492.620689655173,4,2,0,15,1,0
173377.888888889,485.689655172414,4,2,0,15,1,0
173382.444444444,478.931034482759,4,2,0,15,1,0
173387,472.379310344828,4,2,0,15,1,0
173391.555555556,466.000000000001,4,2,0,15,1,0
173396.111111111,459.758620689656,4,2,0,15,1,0
173400.666666667,453.724137931035,4,2,0,15,1,0
173405.222222222,447.827586206897,4,2,0,15,1,0
173409.777777778,442.103448275863,4,2,0,15,1,0
173414.333333333,436.48275862069,4,2,0,15,1,0
173418.888888889,431.034482758621,4,2,0,15,1,0
173423.444444444,425.724137931035,4,2,0,15,1,0
173428,420.517241379311,4,2,0,15,1,0
173432.555555556,415.44827586207,4,2,0,15,1,0
173437.111111111,410.517241379311,4,2,0,15,1,0
173441.666666667,405.689655172414,4,2,0,15,1,0
173446.222222222,400.96551724138,4,2,0,15,1,0
173450.777777778,396.344827586207,4,2,0,15,1,0
173455.333333333,391.862068965518,4,2,0,15,1,0
173459.888888889,387.448275862069,4,2,0,15,1,0
173464.444444444,383.137931034483,4,2,0,15,1,0
173469,378.931034482759,4,2,0,15,1,0
173473.555555556,374.827586206897,4,2,0,15,1,0
173478.111111111,370.793103448276,4,2,0,15,1,0
173482.666666667,366.827586206897,4,2,0,15,1,0
173487.222222222,362.96551724138,4,2,0,15,1,0
173491.777777778,359.206896551725,4,2,0,15,1,0
173496.333333333,355.48275862069,4,2,0,15,1,0
173500.888888889,351.862068965518,4,2,0,15,1,0
173505.444444444,348.310344827587,4,2,0,15,1,0
173510,344.827586206897,4,2,0,15,1,0
173514.555555556,341.413793103449,4,2,0,15,1,0
173519.111111111,338.068965517242,4,2,0,15,1,0
173523.666666667,334.793103448276,4,2,0,15,1,0
173528.222222222,331.551724137931,4,2,0,15,1,0
173532.777777778,328.413793103449,4,2,0,15,1,0
173537.333333333,325.310344827587,4,2,0,15,1,0
173541.888888889,322.275862068966,4,2,0,15,1,0
173546.444444444,319.275862068966,4,2,0,15,1,0
173551,316.344827586207,4,2,0,15,1,0
173555.555555556,313.48275862069,4,2,0,15,1,0
173560.111111111,310.655172413794,4,2,0,15,1,0
173564.666666667,307.896551724138,4,2,0,15,1,0
173569.222222222,305.172413793104,4,2,0,15,1,0
173573.777777778,302.48275862069,4,2,0,15,1,0
173578.333333333,299.862068965518,4,2,0,15,1,0
173582.888888889,297.275862068966,4,2,0,15,1,0
173587.444444444,294.724137931035,4,2,0,15,1,0
173592,292.241379310345,4,2,0,15,1,0
173596.555555556,289.758620689656,4,2,0,15,1,0
173601.111111111,287.344827586207,4,2,0,15,1,0
173605.666666667,284.96551724138,4,2,0,15,1,0
173610.222222222,282.655172413793,4,2,0,15,1,0
173614.777777778,280.344827586207,4,2,0,15,1,0
173619.333333333,278.103448275862,4,2,0,15,1,0
173623.888888889,275.862068965518,4,2,0,15,1,0
173628.444444444,273.689655172414,4,2,0,15,1,0
173633,271.517241379311,4,2,0,15,1,0
173637.555555556,269.379310344828,4,2,0,15,1,0
173642.111111111,267.310344827587,4,2,0,15,1,0
173646.666666667,265.241379310345,4,2,0,15,1,0
173651.222222222,263.241379310345,4,2,0,15,1,0
173655.777777778,261.241379310345,4,2,0,15,1,0
173660.333333333,259.275862068966,4,2,0,15,1,0
173664.888888889,257.344827586207,4,2,0,15,1,0
173669.444444444,255.413793103449,4,2,0,15,1,0
173674,253.551724137931,4,2,0,15,1,0
173678.555555556,251.689655172414,4,2,0,15,1,0
173683.111111111,249.862068965518,4,2,0,15,1,0
173687.666666667,248.068965517242,4,2,0,15,1,0
173692.222222222,246.310344827587,4,2,0,15,1,0
173696.777777778,244.551724137931,4,2,0,15,1,0
173701.333333333,242.827586206897,4,2,0,15,1,0
173705.888888889,241.137931034483,4,2,0,15,1,0
173710.444444444,239.448275862069,4,2,0,15,1,0
173715,237.827586206897,4,2,0,15,1,0
173719.555555556,236.172413793104,4,2,0,15,1,0
173724.111111111,234.586206896552,4,2,0,15,1,0
173728.666666667,233,4,2,0,15,1,0
173733.222222222,231.413793103449,4,2,0,15,1,0
173737.777777778,229.896551724138,4,2,0,15,1,0
173742.333333333,228.379310344828,4,2,0,15,1,0
173746.888888889,226.862068965518,4,2,0,15,1,0
173751.444444444,225.379310344828,4,2,0,15,1,0
173756,223.931034482759,4,2,0,15,1,0
173760.555555556,222.48275862069,4,2,0,15,1,0
173765.111111111,221.034482758621,4,2,0,15,1,0
173769.666666667,219.620689655173,4,2,0,15,1,0
173774.222222222,218.241379310345,4,2,0,15,1,0
173778.777777778,216.862068965518,4,2,0,15,1,0
173783.333333333,215.517241379311,4,2,0,15,1,0
173787.888888889,214.172413793104,4,2,0,15,1,0
173792.444444444,212.862068965518,4,2,0,15,1,0
173797,211.551724137931,4,2,0,15,1,0
173801.555555556,210.275862068966,4,2,0,15,1,0
173806.111111111,209,4,2,0,15,1,0
173810.666666667,207.724137931035,4,2,0,15,1,0
173815.222222222,206.48275862069,4,2,0,15,1,0
173819.777777778,205.241379310345,4,2,0,15,1,0
173824.333333333,204.034482758621,4,2,0,15,1,0
173828.888888889,202.827586206897,4,2,0,15,1,0
173833.444444444,201.655172413793,4,2,0,15,1,0
173838,200.48275862069,4,2,0,15,1,0
173842.555555556,199.310344827586,4,2,0,15,1,0
173847.111111111,198.172413793104,4,2,0,15,1,0
173851.666666667,197.034482758621,4,2,0,15,1,0
173856.222222222,195.931034482759,4,2,0,15,1,0
173860.777777778,194.827586206897,4,2,0,15,1,0
173865.333333333,193.724137931035,4,2,0,15,1,0
173869.888888889,192.655172413793,4,2,0,15,1,0
173874.444444444,191.586206896552,4,2,0,15,1,0
173879,190.517241379311,4,2,0,15,1,0
173883.555555556,189.48275862069,4,2,0,15,1,0
173888.111111111,188.413793103449,4,2,0,15,1,0
173892.666666667,187.413793103449,4,2,0,15,1,0
173897.222222222,186.379310344828,4,2,0,15,1,0
173901.777777778,185.379310344828,4,2,0,15,1,0
173906.333333333,184.413793103449,4,2,0,15,1,0
173910.888888889,183.413793103449,4,2,0,15,1,0
173915.444444444,182.448275862069,4,2,0,15,1,0
173919,344.827586206897,4,2,0,15,1,0
173920,-52.6315789473684,4,2,0,15,0,0
173962,-149.253731343284,4,2,0,20,0,0
174006,-52.6315789473684,4,2,0,20,0,0
174049,-149.253731343284,4,2,0,20,0,0
174092,-58.8235294117647,4,2,0,20,0,0
174135,-149.253731343284,4,2,0,20,0,0
174178,-58.8235294117647,4,2,0,20,0,0
174221,-149.253731343284,4,2,0,20,0,0
174264,-66.6666666666667,4,2,0,20,0,0
174307,-149.253731343284,4,2,0,20,0,0
174351,-76.9230769230769,4,2,0,20,0,0
174393,-149.253731343284,4,2,0,20,0,0
174436,-83.3333333333333,4,2,0,15,0,1
174470.6,-86.2068965517241,4,2,0,15,0,1
174505.2,-89.2857142857143,4,2,0,15,0,1
174539.8,-92.5925925925926,4,2,0,15,0,1
174574.4,-96.1538461538461,4,2,0,15,0,1
174609,-100,4,2,0,15,0,1
174781,-83.3333333333333,4,2,0,15,0,1
174815.6,-86.2068965517241,4,2,0,15,0,1
174850.2,-89.2857142857143,4,2,0,15,0,1
174884.8,-92.5925925925926,4,2,0,15,0,1
174919.4,-96.1538461538461,4,2,0,15,0,1
174954,-100,4,2,0,15,0,1
175126,-83.3333333333333,4,2,0,15,0,1
175160.6,-86.2068965517241,4,2,0,15,0,1
175195.2,-89.2857142857143,4,2,0,15,0,1
175229.8,-92.5925925925926,4,2,0,15,0,1
175264.4,-96.1538461538461,4,2,0,15,0,1
175299,-100,4,2,0,15,0,1
175471,-83.3333333333333,4,2,0,15,0,1
175505.6,-86.2068965517241,4,2,0,15,0,1
175540.2,-89.2857142857143,4,2,0,15,0,1
175574.8,-92.5925925925926,4,2,0,15,0,1
175609.4,-96.1538461538461,4,2,0,15,0,1
175644,-100,4,2,0,15,0,1
175816,-83.3333333333333,4,2,0,15,0,1
175850.6,-86.2068965517241,4,2,0,15,0,1
175885.2,-89.2857142857143,4,2,0,15,0,1
175919.8,-92.5925925925926,4,2,0,15,0,1
175954.4,-96.1538461538461,4,2,0,15,0,1
175989,-100,4,2,0,15,0,1
176161,-83.3333333333333,4,2,0,15,0,1
176195.6,-86.2068965517241,4,2,0,15,0,1
176230.2,-89.2857142857143,4,2,0,15,0,1
176264.8,-92.5925925925926,4,2,0,15,0,1
176299.4,-96.1538461538461,4,2,0,15,0,1
176334,-100,4,2,0,15,0,1
176505,-83.3333333333333,4,2,0,15,0,1
176539.6,-86.2068965517241,4,2,0,15,0,1
176574.2,-89.2857142857143,4,2,0,15,0,1
176608.8,-92.5925925925926,4,2,0,15,0,1
176643.4,-96.1538461538461,4,2,0,15,0,1
176678,-100,4,2,0,15,0,1
176850,-83.3333333333333,4,2,0,15,0,1
176884.6,-86.2068965517241,4,2,0,15,0,1
176919.2,-89.2857142857143,4,2,0,15,0,1
176953.8,-92.5925925925926,4,2,0,15,0,1
176988.4,-96.1538461538461,4,2,0,15,0,1
177023,-100,4,2,0,15,0,1
177195,-83.3333333333333,4,2,0,15,0,1
177229.6,-86.2068965517241,4,2,0,15,0,1
177264.2,-89.2857142857143,4,2,0,15,0,1
177298.8,-92.5925925925926,4,2,0,15,0,1
177333.4,-96.1538461538461,4,2,0,15,0,1
177368,-100,4,2,0,15,0,1
177540,-83.3333333333333,4,2,0,15,0,1
177574.6,-86.2068965517241,4,2,0,15,0,1
177609.2,-89.2857142857143,4,2,0,15,0,1
177643.8,-92.5925925925926,4,2,0,15,0,1
177678.4,-96.1538461538461,4,2,0,15,0,1
177713,-100,4,2,0,15,0,1
177885,-83.3333333333333,4,2,0,15,0,1
177919.6,-86.2068965517241,4,2,0,15,0,1
177954.2,-89.2857142857143,4,2,0,15,0,1
177988.8,-92.5925925925926,4,2,0,15,0,1
178023.4,-96.1538461538461,4,2,0,15,0,1
178058,-100,4,2,0,15,0,1
178230,-83.3333333333333,4,2,0,15,0,1
178264.6,-86.2068965517241,4,2,0,15,0,1
178299.2,-89.2857142857143,4,2,0,15,0,1
178333.8,-92.5925925925926,4,2,0,15,0,1
178368.4,-96.1538461538461,4,2,0,15,0,1
178403,-100,4,2,0,15,0,1
178574,-83.3333333333333,4,2,0,15,0,1
178608.6,-86.2068965517241,4,2,0,15,0,1
178643.2,-89.2857142857143,4,2,0,15,0,1
178677.8,-92.5925925925926,4,2,0,15,0,1
178712.4,-96.1538461538461,4,2,0,15,0,1
178747,-100,4,2,0,15,0,1
178919,-83.3333333333333,4,2,0,15,0,1
178953.6,-86.2068965517241,4,2,0,15,0,1
178988.2,-89.2857142857143,4,2,0,15,0,1
179022.8,-92.5925925925926,4,2,0,15,0,1
179057.4,-96.1538461538461,4,2,0,15,0,1
179092,-100,4,2,0,15,0,1
179264,-83.3333333333333,4,2,0,15,0,1
179298.6,-86.2068965517241,4,2,0,15,0,1
179333.2,-89.2857142857143,4,2,0,15,0,1
179367.8,-92.5925925925926,4,2,0,15,0,1
179402.4,-96.1538461538461,4,2,0,15,0,1
179437,-100,4,2,0,15,0,1
179695,-61.3496932515337,4,2,0,20,0,1
179724,-212.765957446809,4,2,0,20,0,1
179753,-61.3496932515337,4,2,0,20,0,1
179782,-212.765957446809,4,2,0,20,0,1
179810,-61.3496932515337,4,2,0,20,0,1
179839,-212.765957446809,4,2,0,20,0,1
179868,-61.3496932515337,4,2,0,20,0,1
179897,-212.765957446809,4,2,0,20,0,1
179925,-61.3496932515337,4,2,0,20,0,1
179954,-83.3333333333333,4,2,0,15,0,1
179988.6,-86.2068965517241,4,2,0,15,0,1
180023.2,-89.2857142857143,4,2,0,15,0,1
180057.8,-92.5925925925926,4,2,0,15,0,1
180092.4,-96.1538461538461,4,2,0,15,0,1
180127,-100,4,2,0,15,0,1
180299,-83.3333333333333,4,2,0,15,0,1
180333.6,-86.2068965517241,4,2,0,15,0,1
180368.2,-89.2857142857143,4,2,0,15,0,1
180402.8,-92.5925925925926,4,2,0,15,0,1
180437.4,-96.1538461538461,4,2,0,15,0,1
180472,-100,4,2,0,15,0,1
180643,-83.3333333333333,4,2,0,15,0,1
180677.6,-86.2068965517241,4,2,0,15,0,1
180712.2,-89.2857142857143,4,2,0,15,0,1
180746.8,-92.5925925925926,4,2,0,15,0,1
180781.4,-96.1538461538461,4,2,0,15,0,1
180816,-100,4,2,0,15,0,1
180988,-83.3333333333333,4,2,0,15,0,1
181022.6,-86.2068965517241,4,2,0,15,0,1
181057.2,-89.2857142857143,4,2,0,15,0,1
181091.8,-92.5925925925926,4,2,0,15,0,1
181126.4,-96.1538461538461,4,2,0,15,0,1
181161,-100,4,2,0,15,0,1
181333,-83.3333333333333,4,2,0,15,0,1
181367.6,-86.2068965517241,4,2,0,15,0,1
181402.2,-89.2857142857143,4,2,0,15,0,1
181436.8,-92.5925925925926,4,2,0,15,0,1
181471.4,-96.1538461538461,4,2,0,15,0,1
181506,-100,4,2,0,15,0,1
181678,-83.3333333333333,4,2,0,15,0,1
181712.6,-86.2068965517241,4,2,0,15,0,1
181747.2,-89.2857142857143,4,2,0,15,0,1
181781.8,-92.5925925925926,4,2,0,15,0,1
181816.4,-96.1538461538461,4,2,0,15,0,1
181851,-100,4,2,0,15,0,1
182023,-83.3333333333333,4,2,0,15,0,1
182057.6,-86.2068965517241,4,2,0,15,0,1
182092.2,-89.2857142857143,4,2,0,15,0,1
182126.8,-92.5925925925926,4,2,0,15,0,1
182161.4,-96.1538461538461,4,2,0,15,0,1
182196,-100,4,2,0,15,0,1
182368,-83.3333333333333,4,2,0,15,0,1
182402.6,-86.2068965517241,4,2,0,15,0,1
182437.2,-89.2857142857143,4,2,0,15,0,1
182471.8,-92.5925925925926,4,2,0,15,0,1
182506.4,-96.1538461538461,4,2,0,15,0,1
182541,-100,4,2,0,15,0,1
182712,-83.3333333333333,4,2,0,15,0,1
182746.6,-86.2068965517241,4,2,0,15,0,1
182781.2,-89.2857142857143,4,2,0,15,0,1
182815.8,-92.5925925925926,4,2,0,15,0,1
182850.4,-96.1538461538461,4,2,0,15,0,1
182885,-100,4,2,0,15,0,1
183057,-54.054054054054,4,2,0,20,0,1
183079,-434.782608695652,4,2,0,20,0,1
183100,-54.054054054054,4,2,0,20,0,1
183122,-434.782608695652,4,2,0,20,0,1
183143,-54.054054054054,4,2,0,20,0,1
183165,-434.782608695652,4,2,0,20,0,1
183186,-54.054054054054,4,2,0,20,0,1
183208,-434.782608695652,4,2,0,20,0,1
183230,-54.054054054054,4,2,0,20,0,1
183252,-434.782608695652,4,2,0,20,0,1
183273,-54.054054054054,4,2,0,20,0,1
183295,-434.782608695652,4,2,0,20,0,1
183316,-54.054054054054,4,2,0,20,0,1
183338,-434.782608695652,4,2,0,20,0,1
183359,-54.054054054054,4,2,0,20,0,1
183381,-434.782608695652,4,2,0,20,0,1
183402,-61.3496932515337,4,2,0,20,0,1
183445,-303.030303030303,4,2,0,20,0,1
183488,-61.3496932515337,4,2,0,20,0,1
183531,-303.030303030303,4,2,0,20,0,1
183575,-61.3496932515337,4,2,0,20,0,1
183618,-303.030303030303,4,2,0,20,0,1
183661,-61.3496932515337,4,2,0,20,0,1
183704,-303.030303030303,4,2,0,20,0,1
183747,-83.3333333333333,4,2,0,15,0,1
183781.6,-86.2068965517241,4,2,0,15,0,1
183816.2,-89.2857142857143,4,2,0,15,0,1
183850.8,-92.5925925925926,4,2,0,15,0,1
183885.4,-96.1538461538461,4,2,0,15,0,1
183920,-100,4,2,0,15,0,1
184092,-83.3333333333333,4,2,0,15,0,1
184126.6,-86.2068965517241,4,2,0,15,0,1
184161.2,-89.2857142857143,4,2,0,15,0,1
184195.8,-92.5925925925926,4,2,0,15,0,1
184230.4,-96.1538461538461,4,2,0,15,0,1
184265,-100,4,2,0,15,0,1
184436,-83.3333333333333,4,2,0,15,0,1
184470.6,-86.2068965517241,4,2,0,15,0,1
184505.2,-89.2857142857143,4,2,0,15,0,1
184539.8,-92.5925925925926,4,2,0,15,0,1
184574.4,-96.1538461538461,4,2,0,15,0,1
184609,-100,4,2,0,15,0,1
184781,-83.3333333333333,4,2,0,15,0,1
184954,-66.6666666666667,4,2,0,15,0,1
185126,-55.5555555555556,4,2,0,15,0,1
185299,-10,4,2,0,20,0,0
185320,-125,4,2,0,20,0,0
185471,-100,4,2,0,20,0,1
185808,-11.1111111111111,4,2,0,20,0,1
185814,-100,4,2,0,20,0,1
186497,-11.1111111111111,4,2,0,20,0,1
186503,-100,4,2,0,20,0,1
187187,-11.1111111111111,4,2,0,20,0,1
187193,-100,4,2,0,20,0,1
187877,-11.1111111111111,4,2,0,20,0,1
187883,-100,4,2,0,20,0,1
188566,-11.1111111111111,4,2,0,20,0,1
188572,-100,4,2,0,20,0,1
189256,-11.1111111111111,4,2,0,20,0,1
189262,-100,4,2,0,20,0,1
189946,-11.1111111111111,4,2,0,20,0,1
189952,-100,4,2,0,20,0,1
190299,-25,4,2,0,20,0,1
190307,-100,4,2,0,20,0,1
190471,-25,4,2,0,20,0,1
190479,-100,4,2,0,20,0,1
190730,-61.3496932515337,4,2,0,20,0,1
190759,-212.765957446809,4,2,0,20,0,1
190788,-61.3496932515337,4,2,0,20,0,1
190817,-212.765957446809,4,2,0,20,0,1
190845,-61.3496932515337,4,2,0,20,0,1
190874,-212.765957446809,4,2,0,20,0,1
190903,-61.3496932515337,4,2,0,20,0,1
190932,-212.765957446809,4,2,0,20,0,1
190960,-61.3496932515337,4,2,0,20,0,1
190988,-46.9483568075117,4,2,0,15,0,1
191009,-111.111111111111,4,2,0,15,0,1
191333,-46.9483568075117,4,2,0,15,0,1
191354,-111.111111111111,4,2,0,15,0,1
191678,-46.9483568075117,4,2,0,15,0,1
191699,-111.111111111111,4,2,0,15,0,1
192023,-46.9483568075117,4,2,0,15,0,1
192044,-111.111111111111,4,2,0,15,0,1
192368,-46.9483568075117,4,2,0,15,0,1
192389,-111.111111111111,4,2,0,15,0,1
192713,-46.9483568075117,4,2,0,15,0,1
192734,-111.111111111111,4,2,0,15,0,1
193057,-46.9483568075117,4,2,0,15,0,1
193078,-111.111111111111,4,2,0,15,0,1
193402,-46.9483568075117,4,2,0,15,0,1
193423,-111.111111111111,4,2,0,15,0,1
193488,-61.3496932515337,4,2,0,20,0,1
193517,-212.765957446809,4,2,0,20,0,1
193546,-61.3496932515337,4,2,0,20,0,1
193575,-212.765957446809,4,2,0,20,0,1
193603,-61.3496932515337,4,2,0,20,0,1
193632,-212.765957446809,4,2,0,20,0,1
193661,-61.3496932515337,4,2,0,20,0,1
193690,-212.765957446809,4,2,0,20,0,1
193718,-61.3496932515337,4,2,0,20,0,1
193747,-35.3356890459363,4,2,0,15,0,1
193758,-133.333333333333,4,2,0,15,0,1
193833,-53.475935828877,4,2,0,15,0,1
193844,-114.942528735632,4,2,0,15,0,1
193919,-35.3356890459363,4,2,0,15,0,1
193930,-133.333333333333,4,2,0,15,0,1
194005,-53.475935828877,4,2,0,15,0,1
194016,-114.942528735632,4,2,0,15,0,1
194092,-35.3356890459363,4,2,0,15,0,1
194103,-133.333333333333,4,2,0,15,0,1
194178,-53.475935828877,4,2,0,15,0,1
194189,-114.942528735632,4,2,0,15,0,1
194264,-35.3356890459363,4,2,0,15,0,1
194275,-133.333333333333,4,2,0,15,0,1
194350,-53.475935828877,4,2,0,15,0,1
194361,-114.942528735632,4,2,0,15,0,1
194436,-35.3356890459363,4,2,0,15,0,1
194447,-133.333333333333,4,2,0,15,0,1
194523,-53.475935828877,4,2,0,15,0,1
194534,-114.942528735632,4,2,0,15,0,1
194609,-35.3356890459363,4,2,0,15,0,1
194620,-133.333333333333,4,2,0,15,0,1
194695,-53.475935828877,4,2,0,15,0,1
194706,-114.942528735632,4,2,0,15,0,1
194781,-35.3356890459363,4,2,0,15,0,1
194792,-133.333333333333,4,2,0,15,0,1
194868,-53.475935828877,4,2,0,15,0,1
194879,-114.942528735632,4,2,0,15,0,1
194954,-35.3356890459363,4,2,0,15,0,1
194965,-133.333333333333,4,2,0,15,0,1
195040,-53.475935828877,4,2,0,15,0,1
195051,-133.333333333333,4,2,0,15,0,1
195126,-54.054054054054,4,2,0,15,0,1
195170,-303.030303030303,4,2,0,15,0,1
195213,-54.054054054054,4,2,0,15,0,1
195257,-303.030303030303,4,2,0,15,0,1
195299,-54.054054054054,4,2,0,15,0,1
195343,-303.030303030303,4,2,0,15,0,1
195385,-54.054054054054,4,2,0,15,0,1
195429,-303.030303030303,4,2,0,15,0,1
195471,-54.054054054054,4,2,0,15,0,1
195515,-303.030303030303,4,2,0,15,0,1
195557,-54.054054054054,4,2,0,15,0,1
195601,-303.030303030303,4,2,0,15,0,1
195644,-54.054054054054,4,2,0,15,0,1
195688,-303.030303030303,4,2,0,15,0,1
195730,-54.054054054054,4,2,0,15,0,1
195774,-303.030303030303,4,2,0,15,0,1
195816,-71.4285714285714,4,2,0,15,0,0
195859,-153.846153846154,4,2,0,15,0,0
195902,-71.4285714285714,4,2,0,15,0,0
195945,-153.846153846154,4,2,0,15,0,0
195988,-71.4285714285714,4,2,0,15,0,0
196031,-153.846153846154,4,2,0,15,0,0
196075,-71.4285714285714,4,2,0,15,0,0
196118,-153.846153846154,4,2,0,15,0,0
196161,-71.4285714285714,4,2,0,15,0,0
196204,-153.846153846154,4,2,0,15,0,0
196247,-71.4285714285714,4,2,0,15,0,0
196290,-153.846153846154,4,2,0,15,0,0
196333,-68.9655172413793,4,2,0,15,0,0
196376,-153.846153846154,4,2,0,15,0,0
196419,-71.4285714285714,4,2,0,15,0,0
196462,-153.846153846154,4,2,0,15,0,0
196506,-55.5555555555556,4,2,0,15,0,0
196592,-111.111111111111,4,2,0,15,0,0
196850,-55.5555555555556,4,2,0,20,0,0
196893,-111.111111111111,4,2,0,20,0,0
197023,-55.5555555555556,4,2,0,20,0,0
197066,-111.111111111111,4,2,0,20,0,0
197368,-55.5555555555556,4,2,0,20,0,0
197411,-111.111111111111,4,2,0,20,0,0
197540,-55.5555555555556,4,2,0,20,0,0
197583,-111.111111111111,4,2,0,20,0,0
197885,-55.5555555555556,4,2,0,20,0,0
197928,-111.111111111111,4,2,0,20,0,0
198057,-55.5555555555556,4,2,0,20,0,0
198100,-111.111111111111,4,2,0,20,0,0
198402,-55.5555555555556,4,2,0,20,0,0
198445,-111.111111111111,4,2,0,20,0,0
198574,-55.5555555555556,4,2,0,20,0,0
198617,-111.111111111111,4,2,0,20,0,0
198919,-55.5555555555556,4,2,0,20,0,0
198962,-111.111111111111,4,2,0,20,0,0
199092,-55.5555555555556,4,2,0,20,0,0
199135,-111.111111111111,4,2,0,20,0,0
199264,344.827586206897,4,2,0,15,1,0
199264,-200,4,2,0,15,0,0
199270.9,344.827586206897,4,2,0,15,1,0
199270.9,-192.307692307692,4,2,0,15,0,0
199277.8,344.827586206897,4,2,0,15,1,0
199277.8,-185.185185185185,4,2,0,15,0,0
199284.7,344.827586206897,4,2,0,15,1,0
199284.7,-178.571428571429,4,2,0,15,0,0
199291.6,344.827586206897,4,2,0,15,1,0
199291.6,-172.413793103448,4,2,0,15,0,0
199298.5,344.827586206897,4,2,0,15,1,0
199298.5,-166.666666666667,4,2,0,15,0,0
199305.4,344.827586206897,4,2,0,15,1,0
199305.4,-161.290322580645,4,2,0,15,0,0
199312.3,344.827586206897,4,2,0,15,1,0
199312.3,-156.25,4,2,0,15,0,0
199319.2,344.827586206897,4,2,0,15,1,0
199319.2,-151.515151515152,4,2,0,15,0,0
199326.1,344.827586206897,4,2,0,15,1,0
199326.1,-147.058823529412,4,2,0,15,0,0
199333,344.827586206897,4,2,0,15,1,0
199333,-142.857142857143,4,2,0,15,0,0
199339.9,344.827586206897,4,2,0,15,1,0
199339.9,-138.888888888889,4,2,0,15,0,0
199346.8,344.827586206897,4,2,0,15,1,0
199346.8,-135.135135135135,4,2,0,15,0,0
199353.7,344.827586206897,4,2,0,15,1,0
199353.7,-131.578947368421,4,2,0,15,0,0
199360.6,344.827586206897,4,2,0,15,1,0
199360.6,-128.205128205128,4,2,0,15,0,0
199367.5,344.827586206897,4,2,0,15,1,0
199367.5,-125,4,2,0,15,0,0
199374.4,344.827586206897,4,2,0,15,1,0
199374.4,-121.951219512195,4,2,0,15,0,0
199381.3,344.827586206897,4,2,0,15,1,0
199381.3,-119.047619047619,4,2,0,15,0,0
199388.2,344.827586206897,4,2,0,15,1,0
199388.2,-116.279069767442,4,2,0,15,0,0
199395.1,344.827586206897,4,2,0,15,1,0
199395.1,-113.636363636364,4,2,0,15,0,0
199402,344.827586206897,4,2,0,15,1,0
199402,-111.111111111111,4,2,0,15,0,0
199408.9,344.827586206897,4,2,0,15,1,0
199408.9,-108.695652173913,4,2,0,15,0,0
199415.8,344.827586206897,4,2,0,15,1,0
199415.8,-106.382978723404,4,2,0,15,0,0
199422.7,344.827586206897,4,2,0,15,1,0
199422.7,-104.166666666667,4,2,0,15,0,0
199429.6,344.827586206897,4,2,0,15,1,0
199429.6,-102.040816326531,4,2,0,15,0,0
199436.5,344.827586206897,4,2,0,15,1,0
199436.5,-100,4,2,0,15,0,0
199443.4,344.827586206897,4,2,0,15,1,0
199443.4,-98.0392156862745,4,2,0,15,0,0
199450.3,344.827586206897,4,2,0,15,1,0
199450.3,-96.1538461538461,4,2,0,15,0,0
199457.2,344.827586206897,4,2,0,15,1,0
199457.2,-94.3396226415094,4,2,0,15,0,0
199464.1,344.827586206897,4,2,0,15,1,0
199464.1,-92.5925925925926,4,2,0,15,0,0
199471,344.827586206897,4,2,0,15,1,0
199471,-90.9090909090909,4,2,0,15,0,0
199477.9,344.827586206897,4,2,0,15,1,0
199477.9,-89.2857142857143,4,2,0,15,0,0
199484.8,344.827586206897,4,2,0,15,1,0
199484.8,-87.719298245614,4,2,0,15,0,0
199491.7,344.827586206897,4,2,0,15,1,0
199491.7,-86.2068965517241,4,2,0,15,0,0
199498.6,344.827586206897,4,2,0,15,1,0
199498.6,-84.7457627118644,4,2,0,15,0,0
199505.5,344.827586206897,4,2,0,15,1,0
199505.5,-83.3333333333333,4,2,0,15,0,0
199512.4,344.827586206897,4,2,0,15,1,0
199519.3,344.827586206897,4,2,0,15,1,0
199526.2,344.827586206897,4,2,0,15,1,0
199533.1,344.827586206897,4,2,0,15,1,0
199540,344.827586206897,4,2,0,15,1,0
199546.9,344.827586206897,4,2,0,15,1,0
199553.8,344.827586206897,4,2,0,15,1,0
199560.7,344.827586206897,4,2,0,15,1,0
199567.6,344.827586206897,4,2,0,15,1,0
199574.5,344.827586206897,4,2,0,15,1,0
199581.4,344.827586206897,4,2,0,15,1,0
199609,344.827586206897,4,2,0,15,1,0
199609,-50,4,2,0,15,0,0
199652,-149.253731343284,4,2,0,15,0,0
199673,-75.187969924812,4,2,0,15,0,0
199695,-270.270270270272,4,2,0,15,0,0
199716,-75.187969924812,4,2,0,15,0,0
199738,-270.270270270272,4,2,0,15,0,0
199759,-75.187969924812,4,2,0,15,0,0
199781,-50,4,2,0,15,0,0
199824,-149.253731343284,4,2,0,15,0,0
199845,-75.187969924812,4,2,0,15,0,0
199867,-270.270270270272,4,2,0,15,0,0
199888,-75.187969924812,4,2,0,15,0,0
199910,-270.270270270272,4,2,0,15,0,0
199931,-75.187969924812,4,2,0,15,0,0
199953,-50,4,2,0,15,0,0
199996,-149.253731343284,4,2,0,15,0,0
200017,-75.187969924812,4,2,0,15,0,0
200039,-270.270270270272,4,2,0,15,0,0
200060,-75.187969924812,4,2,0,15,0,0
200082,-270.270270270272,4,2,0,15,0,0
200103,-75.187969924812,4,2,0,15,0,0
200126,-50,4,2,0,15,0,0
200169,-149.253731343284,4,2,0,15,0,0
200190,-75.187969924812,4,2,0,15,0,0
200212,-270.270270270272,4,2,0,15,0,0
200233,-75.187969924812,4,2,0,15,0,0
200255,-270.270270270272,4,2,0,15,0,0
200276,-75.187969924812,4,2,0,15,0,0
200298,-50,4,2,0,15,0,0
200341,-149.253731343284,4,2,0,15,0,0
200362,-75.187969924812,4,2,0,15,0,0
200384,-270.270270270272,4,2,0,15,0,0
200405,-75.187969924812,4,2,0,15,0,0
200427,-270.270270270272,4,2,0,15,0,0
200448,-61.3496932515337,4,2,0,15,0,0
200471,-50,4,2,0,15,0,0
200514,-149.253731343284,4,2,0,15,0,0
200535,-75.187969924812,4,2,0,15,0,0
200557,-270.270270270272,4,2,0,15,0,0
200578,-75.187969924812,4,2,0,15,0,0
200600,-270.270270270272,4,2,0,15,0,0
200621,-75.187969924812,4,2,0,15,0,0
200643,344.827586206897,4,2,0,15,1,0
200643,-10,4,2,0,15,0,0
200649.9,344.827586206897,4,2,0,15,1,0
200656.8,344.827586206897,4,2,0,15,1,0
200663.7,344.827586206897,4,2,0,15,1,0
200670.6,344.827586206897,4,2,0,15,1,0
200677.5,344.827586206897,4,2,0,15,1,0
200684.4,344.827586206897,4,2,0,15,1,0
200691.3,344.827586206897,4,2,0,15,1,0
200698.2,344.827586206897,4,2,0,15,1,0
200705.1,344.827586206897,4,2,0,15,1,0
200712,344.827586206897,4,2,0,15,1,0
200718.9,344.827586206897,4,2,0,15,1,0
200725.8,344.827586206897,4,2,0,15,1,0
200732.7,344.827586206897,4,2,0,15,1,0
200739.6,344.827586206897,4,2,0,15,1,0
200746.5,344.827586206897,4,2,0,15,1,0
200746.5,-117.647058823529,4,2,0,15,0,0
200753.4,344.827586206897,4,2,0,15,1,0
200753.4,-119.047619047619,4,2,0,15,0,0
200760.3,344.827586206897,4,2,0,15,1,0
200760.3,-120.481927710843,4,2,0,15,0,0
200767.2,344.827586206897,4,2,0,15,1,0
200767.2,-121.951219512195,4,2,0,15,0,0
200774.1,344.827586206897,4,2,0,15,1,0
200774.1,-123.456790123457,4,2,0,15,0,0
200781,344.827586206897,4,2,0,15,1,0
200781,-125,4,2,0,15,0,0
200787.9,344.827586206897,4,2,0,15,1,0
200787.9,-126.582278481013,4,2,0,15,0,0
200794.8,344.827586206897,4,2,0,15,1,0
200794.8,-128.205128205128,4,2,0,15,0,0
200801.7,344.827586206897,4,2,0,15,1,0
200801.7,-129.87012987013,4,2,0,15,0,0
200808.6,344.827586206897,4,2,0,15,1,0
200808.6,-131.578947368421,4,2,0,15,0,0
200815.5,344.827586206897,4,2,0,15,1,0
200815.5,-133.333333333333,4,2,0,15,0,0
200822.4,344.827586206897,4,2,0,15,1,0
200822.4,-135.135135135135,4,2,0,15,0,0
200829.3,344.827586206897,4,2,0,15,1,0
200829.3,-136.986301369863,4,2,0,15,0,0
200836.2,344.827586206897,4,2,0,15,1,0
200836.2,-138.888888888889,4,2,0,15,0,0
200843.1,344.827586206897,4,2,0,15,1,0
200843.1,-140.845070422535,4,2,0,15,0,0
200850,344.827586206897,4,2,0,15,1,0
200850,-142.857142857143,4,2,0,15,0,0
200856.9,344.827586206897,4,2,0,15,1,0
200856.9,-144.927536231884,4,2,0,15,0,0
200863.8,344.827586206897,4,2,0,15,1,0
200863.8,-147.058823529412,4,2,0,15,0,0
200870.7,344.827586206897,4,2,0,15,1,0
200870.7,-149.253731343284,4,2,0,15,0,0
200877.6,344.827586206897,4,2,0,15,1,0
200877.6,-151.515151515152,4,2,0,15,0,0
200884.5,344.827586206897,4,2,0,15,1,0
200884.5,-153.846153846154,4,2,0,15,0,0
200891.4,344.827586206897,4,2,0,15,1,0
200891.4,-156.25,4,2,0,15,0,0
200898.3,344.827586206897,4,2,0,15,1,0
200898.3,-158.730158730159,4,2,0,15,0,0
200905.2,344.827586206897,4,2,0,15,1,0
200905.2,-161.290322580645,4,2,0,15,0,0
200912.1,344.827586206897,4,2,0,15,1,0
200912.1,-163.934426229508,4,2,0,15,0,0
200919,344.827586206897,4,2,0,15,1,0
200919,-166.666666666667,4,2,0,15,0,0
200925.9,344.827586206897,4,2,0,15,1,0
200925.9,-169.491525423729,4,2,0,15,0,0
200932.8,344.827586206897,4,2,0,15,1,0
200932.8,-172.413793103448,4,2,0,15,0,0
200939.7,344.827586206897,4,2,0,15,1,0
200939.7,-175.438596491228,4,2,0,15,0,0
200946.6,344.827586206897,4,2,0,15,1,0
200946.6,-178.571428571429,4,2,0,15,0,0
200953.5,344.827586206897,4,2,0,15,1,0
200953.5,-181.818181818182,4,2,0,15,0,0
200960.4,344.827586206897,4,2,0,15,1,0
200960.4,-185.185185185185,4,2,0,15,0,0
200967.3,344.827586206897,4,2,0,15,1,0
200967.3,-188.679245283019,4,2,0,15,0,0
200974.2,344.827586206897,4,2,0,15,1,0
200974.2,-192.307692307692,4,2,0,15,0,0
200981.1,344.827586206897,4,2,0,15,1,0
200981.1,-196.078431372549,4,2,0,15,0,0
200988,344.827586206897,4,2,0,15,1,0
200988,-62.5,4,2,0,15,0,0
201031,-222.222222222222,4,2,0,15,0,0
201074,-62.5,4,2,0,15,0,0
201117,-222.222222222222,4,2,0,15,0,0
201160,-62.5,4,2,0,15,0,0
201203,-222.222222222222,4,2,0,15,0,0
201247,-62.5,4,2,0,15,0,0
201290,-222.222222222222,4,2,0,15,0,0
201333,-62.5,4,2,0,15,0,0
201376,-222.222222222222,4,2,0,15,0,0
201419,-62.5,4,2,0,15,0,0
201462,-222.222222222222,4,2,0,15,0,0
201505,-62.5,4,2,0,15,0,0
201548,-222.222222222222,4,2,0,15,0,0
201591,-62.5,4,2,0,15,0,0
201634,-222.222222222222,4,2,0,15,0,0
201678,154.620689655173,4,2,0,15,1,0
201699,4310.34482758621,4,2,0,15,1,0
201721,154.620689655173,4,2,0,15,1,0
201742,4310.34482758621,4,2,0,15,1,0
201764,154.620689655173,4,2,0,15,1,0
201785,4310.34482758621,4,2,0,15,1,0
201807,154.620689655173,4,2,0,15,1,0
201828,4310.34482758621,4,2,0,15,1,0
201850,154.620689655173,4,2,0,15,1,0
201871,4310.34482758621,4,2,0,15,1,0
201893,154.620689655173,4,2,0,15,1,0
201914,4310.34482758621,4,2,0,15,1,0
201936,154.620689655173,4,2,0,15,1,0
201957,4310.34482758621,4,2,0,15,1,0
201979,154.620689655173,4,2,0,15,1,0
202000,4310.34482758621,4,2,0,15,1,0
202022,344.827586206897,4,2,0,20,1,0
202022,-62.5,4,2,0,20,0,0
202109,-111.111111111111,4,2,0,20,0,0
202368,-55.5555555555556,4,2,0,20,0,0
202411,-111.111111111111,4,2,0,20,0,0
202540,-55.5555555555556,4,2,0,20,0,0
202583,-111.111111111111,4,2,0,20,0,0
202885,-55.5555555555556,4,2,0,20,0,0
202928,-111.111111111111,4,2,0,20,0,0
203057,-55.5555555555556,4,2,0,20,0,0
203100,-111.111111111111,4,2,0,20,0,0
203402,-55.5555555555556,4,2,0,20,0,0
203445,-111.111111111111,4,2,0,20,0,0
203574,-55.5555555555556,4,2,0,20,0,0
203617,-111.111111111111,4,2,0,20,0,0
203919,-55.5555555555556,4,2,0,20,0,0
203962,-111.111111111111,4,2,0,20,0,0
204092,-55.5555555555556,4,2,0,20,0,0
204135,-111.111111111111,4,2,0,20,0,0
204436,-55.5555555555556,4,2,0,20,0,0
204479,-111.111111111111,4,2,0,20,0,0
204609,-55.5555555555556,4,2,0,20,0,0
204652,-111.111111111111,4,2,0,20,0,0
204782,-50,4,2,0,20,0,0
204868,-188.679245283019,4,2,0,20,0,0
205126,344.827586206897,4,2,0,20,1,0
205126,-44.4444444444445,4,2,0,20,0,0
205148,344.827586206897,4,2,0,20,1,0
205148,-434.782608695652,4,2,0,20,0,0
205169,344.827586206897,4,2,0,20,1,0
205169,-44.4444444444445,4,2,0,20,0,0
205191,344.827586206897,4,2,0,20,1,0
205191,-434.782608695652,4,2,0,20,0,0
205212,344.827586206897,4,2,0,20,1,0
205212,-44.4444444444445,4,2,0,20,0,0
205234,344.827586206897,4,2,0,20,1,0
205234,-434.782608695652,4,2,0,20,0,0
205255,344.827586206897,4,2,0,20,1,0
205255,-44.4444444444445,4,2,0,20,0,0
205277,344.827586206897,4,2,0,20,1,0
205277,-434.782608695652,4,2,0,20,0,0
205299,344.827586206897,4,2,0,20,1,0
205299,-44.4444444444445,4,2,0,20,0,0
205321,344.827586206897,4,2,0,20,1,0
205321,-434.782608695652,4,2,0,20,0,0
205342,344.827586206897,4,2,0,20,1,0
205342,-44.4444444444445,4,2,0,20,0,0
205364,344.827586206897,4,2,0,20,1,0
205364,-434.782608695652,4,2,0,20,0,0
205385,344.827586206897,4,2,0,20,1,0
205385,-44.4444444444445,4,2,0,20,0,0
205407,344.827586206897,4,2,0,20,1,0
205407,-434.782608695652,4,2,0,20,0,0
205428,344.827586206897,4,2,0,20,1,0
205428,-44.4444444444445,4,2,0,20,0,0
205450,344.827586206897,4,2,0,20,1,0
205450,-434.782608695652,4,2,0,20,0,0
205471,344.827586206897,4,2,0,20,1,0
205471,-54.6448087431694,4,2,0,20,0,0
205514,344.827586206897,4,2,0,20,1,0
205514,-303.030303030303,4,2,0,20,0,0
205557,344.827586206897,4,2,0,20,1,0
205557,-54.6448087431694,4,2,0,20,0,0
205600,344.827586206897,4,2,0,20,1,0
205600,-303.030303030303,4,2,0,20,0,0
205644,344.827586206897,4,2,0,20,1,0
205644,-54.6448087431694,4,2,0,20,0,0
205687,344.827586206897,4,2,0,20,1,0
205687,-303.030303030303,4,2,0,20,0,0
205730,344.827586206897,4,2,0,20,1,0
205730,-54.6448087431694,4,2,0,20,0,0
205773,344.827586206897,4,2,0,20,1,0
205773,-303.030303030303,4,2,0,20,0,0
205816,344.827586206897,4,2,0,15,1,0
205816,-80,4,2,0,15,0,0
205839,-81.9672131147541,4,2,0,15,0,0
205862,-83.3333333333333,4,2,0,15,0,0
205885,-85.4700854700855,4,2,0,15,0,0
205908,-86.9565217391304,4,2,0,15,0,0
205931,-89.2857142857143,4,2,0,15,0,0
205954,-90.9090909090909,4,2,0,15,0,0
205977,-93.4579439252336,4,2,0,15,0,0
206000,-95.2380952380952,4,2,0,15,0,0
206023,-98.0392156862745,4,2,0,15,0,0
206046,-100,4,2,0,15,0,0
206069,-103.092783505155,4,2,0,15,0,0
206092,-105.263157894737,4,2,0,15,0,0
206115,-108.695652173913,4,2,0,15,0,0
206138,-111.111111111111,4,2,0,15,0,0
206161,-200,4,2,0,15,0,0
206174.76,-188.679245283019,4,2,0,15,0,0
206188.52,-178.571428571429,4,2,0,15,0,0
206202.28,-169.491525423729,4,2,0,15,0,0
206216.04,-161.290322580645,4,2,0,15,0,0
206229.8,-153.846153846154,4,2,0,15,0,0
206243.56,-147.058823529412,4,2,0,15,0,0
206257.32,-140.845070422535,4,2,0,15,0,0
206271.08,-135.135135135135,4,2,0,15,0,0
206284.84,-129.87012987013,4,2,0,15,0,0
206298.6,-125,4,2,0,15,0,0
206312.36,-120.481927710843,4,2,0,15,0,0
206326.12,-116.279069767442,4,2,0,15,0,0
206339.88,-112.359550561798,4,2,0,15,0,0
206353.64,-108.695652173913,4,2,0,15,0,0
206367.4,-105.263157894737,4,2,0,15,0,0
206381.16,-102.040816326531,4,2,0,15,0,0
206394.92,-99.009900990099,4,2,0,15,0,0
206408.68,-96.1538461538461,4,2,0,15,0,0
206422.44,-93.4579439252336,4,2,0,15,0,0
206436.2,-90.9090909090909,4,2,0,15,0,0
206449.96,-88.495575221239,4,2,0,15,0,0
206463.72,-86.2068965517241,4,2,0,15,0,0
206477.48,-84.0336134453782,4,2,0,15,0,0
206491.24,-81.9672131147541,4,2,0,15,0,0
206505,344.827586206897,4,2,0,20,1,0
206505,-80,4,2,0,15,0,0
206527,344.827586206897,4,2,0,20,1,0
206527,-400,4,2,0,20,0,0
206549,344.827586206897,4,2,0,20,1,0
206549,-80,4,2,0,20,0,0
206571,344.827586206897,4,2,0,20,1,0
206571,-400,4,2,0,20,0,0
206592,344.827586206897,4,2,0,20,1,0
206592,-80,4,2,0,20,0,0
206614,344.827586206897,4,2,0,20,1,0
206614,-400,4,2,0,20,0,0
206635,344.827586206897,4,2,0,20,1,0
206635,-400,4,2,0,20,0,0
206656,344.827586206897,4,2,0,20,1,0
206656,-30.03003003003,4,2,0,20,0,0
206678,-34482.7586206897,4,2,0,15,1,0
206850,344.827586206897,4,2,0,20,1,0
206850,-400,4,2,0,20,0,0
206872,344.827586206897,4,2,0,20,1,0
206872,-80,4,2,0,20,0,0
206894,344.827586206897,4,2,0,20,1,0
206894,-400,4,2,0,20,0,0
206915,344.827586206897,4,2,0,20,1,0
206915,-80,4,2,0,20,0,0
206937,344.827586206897,4,2,0,20,1,0
206937,-400,4,2,0,20,0,0
206958,344.827586206897,4,2,0,20,1,0
206979,344.827586206897,4,2,0,20,1,0
206979,-30.03003003003,4,2,0,20,0,0
207022,344.827586206897,4,2,0,20,1,0
207022,-400,4,2,0,20,0,0
207087,-16.6666666666667,4,2,0,20,0,0
207108,-400,4,2,0,20,0,0
207173,-16.6666666666667,4,2,0,20,0,0
207195,344.827586206897,4,2,0,20,1,0
207195,-34.8432055749129,4,2,0,20,0,0
207206,344.827586206897,4,2,0,20,1,0
207206,-769.230769230769,4,2,0,20,0,0
207217,344.827586206897,4,2,0,20,1,0
207217,-34.8432055749129,4,2,0,20,0,0
207228,344.827586206897,4,2,0,20,1,0
207228,-769.230769230769,4,2,0,20,0,0
207238,344.827586206897,4,2,0,20,1,0
207238,-34.8432055749129,4,2,0,20,0,0
207249,344.827586206897,4,2,0,20,1,0
207249,-769.230769230769,4,2,0,20,0,0
207260,344.827586206897,4,2,0,20,1,0
207260,-34.8432055749129,4,2,0,20,0,0
207271,344.827586206897,4,2,0,20,1,0
207271,-769.230769230769,4,2,0,20,0,0
207281,344.827586206897,4,2,0,20,1,0
207281,-34.8432055749129,4,2,0,20,0,0
207292,344.827586206897,4,2,0,20,1,0
207292,-769.230769230769,4,2,0,20,0,0
207303,344.827586206897,4,2,0,20,1,0
207303,-34.8432055749129,4,2,0,20,0,0
207314,344.827586206897,4,2,0,20,1,0
207314,-769.230769230769,4,2,0,20,0,0
207324,344.827586206897,4,2,0,20,1,0
207324,-34.8432055749129,4,2,0,20,0,0
207335,344.827586206897,4,2,0,20,1,0
207335,-769.230769230769,4,2,0,20,0,0
207346,344.827586206897,4,2,0,20,1,0
207346,-34.8432055749129,4,2,0,20,0,0
207357,344.827586206897,4,2,0,20,1,0
207357,-769.230769230769,4,2,0,20,0,0
207368,344.827586206897,4,2,0,20,1,0
207368,-42.1940928270042,4,2,0,20,0,0
207389,344.827586206897,4,2,0,20,1,0
207389,-588.235294117647,4,2,0,20,0,0
207411,344.827586206897,4,2,0,20,1,0
207411,-42.1940928270042,4,2,0,20,0,0
207432,344.827586206897,4,2,0,20,1,0
207432,-588.235294117647,4,2,0,20,0,0
207454,344.827586206897,4,2,0,20,1,0
207454,-42.1940928270042,4,2,0,20,0,0
207475,344.827586206897,4,2,0,20,1,0
207475,-588.235294117647,4,2,0,20,0,0
207497,344.827586206897,4,2,0,20,1,0
207497,-42.1940928270042,4,2,0,20,0,0
207518,344.827586206897,4,2,0,20,1,0
207518,-588.235294117647,4,2,0,20,0,0
207540,344.827586206897,4,2,0,15,1,0
207540,-10,4,2,0,15,0,0
207547.833333333,-62.5,4,2,0,15,0,0
207555.666666667,-63.2911392405063,4,2,0,15,0,0
207563.5,-64.1025641025641,4,2,0,15,0,0
207571.333333333,-64.9350649350649,4,2,0,15,0,0
207579.166666667,-65.7894736842105,4,2,0,15,0,0
207587,-66.6666666666667,4,2,0,15,0,0
207594.833333333,-67.5675675675676,4,2,0,15,0,0
207602.666666667,-68.4931506849315,4,2,0,15,0,0
207610.5,-69.4444444444444,4,2,0,15,0,0
207618.333333333,-70.4225352112676,4,2,0,15,0,0
207626.166666667,-70.9219858156028,4,2,0,15,0,0
207634,-71.9424460431655,4,2,0,15,0,0
207641.833333333,-72.992700729927,4,2,0,15,0,0
207649.666666667,-74.0740740740741,4,2,0,15,0,0
207657.5,-75.187969924812,4,2,0,15,0,0
207665.333333333,-76.3358778625954,4,2,0,15,0,0
207673.166666667,-77.5193798449612,4,2,0,15,0,0
207681,-78.740157480315,4,2,0,15,0,0
207688.833333333,-80,4,2,0,15,0,0
207696.666666667,-81.3008130081301,4,2,0,15,0,0
207704.5,-82.6446280991736,4,2,0,15,0,0
207712.333333333,-84.0336134453782,4,2,0,15,0,0
207720.166666667,-85.4700854700855,4,2,0,15,0,0
207728,-86.9565217391304,4,2,0,15,0,0
207735.833333333,-88.495575221239,4,2,0,15,0,0
207743.666666667,-90.0900900900901,4,2,0,15,0,0
207751.5,-91.743119266055,4,2,0,15,0,0
207759.333333333,-93.4579439252336,4,2,0,15,0,0
207767.166666667,-95.2380952380952,4,2,0,15,0,0
207775,-97.0873786407767,4,2,0,15,0,0
207782.833333333,-99.009900990099,4,2,0,15,0,0
207790.666666667,-101.010101010101,4,2,0,15,0,0
207798.5,-102.040816326531,4,2,0,15,0,0
207806.333333333,-104.166666666667,4,2,0,15,0,0
207814.166666667,-106.382978723404,4,2,0,15,0,0
207822,-108.695652173913,4,2,0,15,0,0
207829.833333333,-111.111111111111,4,2,0,15,0,0
207837.666666667,-113.636363636364,4,2,0,15,0,0
207845.5,-116.279069767442,4,2,0,15,0,0
207853.333333333,-119.047619047619,4,2,0,15,0,0
207861.166666667,-121.951219512195,4,2,0,15,0,0
207869,-125,4,2,0,15,0,0
207876.833333333,-128.205128205128,4,2,0,15,0,0
207884.666666667,-131.578947368421,4,2,0,15,0,0
207892.5,-135.135135135135,4,2,0,15,0,0
207900.333333333,-138.888888888889,4,2,0,15,0,0
207908.166666667,-142.857142857143,4,2,0,15,0,0
207916,-147.058823529412,4,2,0,15,0,0
207923.833333333,-151.515151515152,4,2,0,15,0,0
207931.666666667,-156.25,4,2,0,15,0,0
207939.5,-161.290322580645,4,2,0,15,0,0
207947.333333333,-166.666666666667,4,2,0,15,0,0
207955.166666667,-172.413793103448,4,2,0,15,0,0
207963,-178.571428571429,4,2,0,15,0,0
207970.833333333,-181.818181818182,4,2,0,15,0,0
207978.666666667,-188.679245283019,4,2,0,15,0,0
207986.5,-196.078431372549,4,2,0,15,0,0
207994.333333333,-204.081632653061,4,2,0,15,0,0
208002.166666667,-212.765957446809,4,2,0,15,0,0
208010,-222.222222222222,4,2,0,15,0,0
208017.833333333,-232.558139534884,4,2,0,15,0,0
208025.666666667,-243.90243902439,4,2,0,15,0,0
208033.5,-256.410256410256,4,2,0,15,0,0
208041.333333333,-270.27027027027,4,2,0,15,0,0
208049.166666667,-285.714285714286,4,2,0,15,0,0
208057,-303.030303030303,4,2,0,15,0,0
208059.621212121,-294.117647058824,4,2,0,15,0,0
208062.242424242,-285.714285714286,4,2,0,15,0,0
208064.863636364,-277.777777777778,4,2,0,15,0,0
208067.484848485,-270.27027027027,4,2,0,15,0,0
208070.106060606,-263.157894736842,4,2,0,15,0,0
208072.727272727,-256.410256410256,4,2,0,15,0,0
208075.348484848,-250,4,2,0,15,0,0
208077.96969697,-243.90243902439,4,2,0,15,0,0
208080.590909091,-238.095238095238,4,2,0,15,0,0
208083.212121212,-232.558139534884,4,2,0,15,0,0
208085.833333333,-227.272727272727,4,2,0,15,0,0
208088.454545455,-222.222222222222,4,2,0,15,0,0
208091.075757576,-217.391304347826,4,2,0,15,0,0
208093.696969697,-212.765957446809,4,2,0,15,0,0
208096.318181818,-208.333333333333,4,2,0,15,0,0
208098.939393939,-204.081632653061,4,2,0,15,0,0
208101.560606061,-200,4,2,0,15,0,0
208104.181818182,-196.078431372549,4,2,0,15,0,0
208106.803030303,-192.307692307692,4,2,0,15,0,0
208109.424242424,-188.679245283019,4,2,0,15,0,0
208112.045454545,-185.185185185185,4,2,0,15,0,0
208114.666666667,-181.818181818182,4,2,0,15,0,0
208117.287878788,-178.571428571429,4,2,0,15,0,0
208119.909090909,-175.438596491228,4,2,0,15,0,0
208122.53030303,-172.413793103448,4,2,0,15,0,0
208125.151515152,-169.491525423729,4,2,0,15,0,0
208127.772727273,-166.666666666667,4,2,0,15,0,0
208130.393939394,-163.934426229508,4,2,0,15,0,0
208133.015151515,-161.290322580645,4,2,0,15,0,0
208135.636363636,-158.730158730159,4,2,0,15,0,0
208138.257575758,-156.25,4,2,0,15,0,0
208140.878787879,-153.846153846154,4,2,0,15,0,0
208143.5,-151.515151515152,4,2,0,15,0,0
208146.121212121,-149.253731343284,4,2,0,15,0,0
208148.742424242,-147.058823529412,4,2,0,15,0,0
208151.363636364,-144.927536231884,4,2,0,15,0,0
208153.984848485,-142.857142857143,4,2,0,15,0,0
208156.606060606,-140.845070422535,4,2,0,15,0,0
208159.227272727,-138.888888888889,4,2,0,15,0,0
208161.848484848,-136.986301369863,4,2,0,15,0,0
208164.46969697,-135.135135135135,4,2,0,15,0,0
208167.090909091,-133.333333333333,4,2,0,15,0,0
208169.712121212,-131.578947368421,4,2,0,15,0,0
208172.333333333,-129.87012987013,4,2,0,15,0,0
208174.954545455,-128.205128205128,4,2,0,15,0,0
208177.575757576,-126.582278481013,4,2,0,15,0,0
208180.196969697,-125,4,2,0,15,0,0
208182.818181818,-123.456790123457,4,2,0,15,0,0
208185.439393939,-121.951219512195,4,2,0,15,0,0
208188.060606061,-120.481927710843,4,2,0,15,0,0
208190.681818182,-119.047619047619,4,2,0,15,0,0
208193.303030303,-117.647058823529,4,2,0,15,0,0
208195.924242424,-116.279069767442,4,2,0,15,0,0
208198.545454545,-114.942528735632,4,2,0,15,0,0
208201.166666667,-113.636363636364,4,2,0,15,0,0
208203.787878788,-112.359550561798,4,2,0,15,0,0
208206.409090909,-16.6666666666667,4,2,0,15,0,0
208230,-55.5555555555556,4,2,0,20,0,0
208273,-111.111111111111,4,2,0,20,0,0
208402,-55.5555555555556,4,2,0,20,0,0
208445,-111.111111111111,4,2,0,20,0,0
208574,-55.5555555555556,4,2,0,20,0,0
208617,-111.111111111111,4,2,0,20,0,0
208919,-55.5555555555556,4,2,0,20,0,0
208962,-111.111111111111,4,2,0,20,0,0
209092,-55.5555555555556,4,2,0,20,0,0
209135,-111.111111111111,4,2,0,20,0,0
209436,-55.5555555555556,4,2,0,20,0,0
209479,-111.111111111111,4,2,0,20,0,0
209609,-55.5555555555556,4,2,0,20,0,0
209652,-111.111111111111,4,2,0,20,0,0
209954,-55.5555555555556,4,2,0,20,0,0
209997,-111.111111111111,4,2,0,20,0,0
210126,-55.5555555555556,4,2,0,20,0,0
210169,-111.111111111111,4,2,0,20,0,0
210299,344.827586206897,4,2,0,15,1,0
210299,-200,4,2,0,15,0,0
210305.9,344.827586206897,4,2,0,15,1,0
210305.9,-192.307692307692,4,2,0,15,0,0
210312.8,344.827586206897,4,2,0,15,1,0
210312.8,-185.185185185185,4,2,0,15,0,0
210319.7,344.827586206897,4,2,0,15,1,0
210319.7,-178.571428571429,4,2,0,15,0,0
210326.6,344.827586206897,4,2,0,15,1,0
210326.6,-172.413793103448,4,2,0,15,0,0
210333.5,344.827586206897,4,2,0,15,1,0
210333.5,-166.666666666667,4,2,0,15,0,0
210340.4,344.827586206897,4,2,0,15,1,0
210340.4,-161.290322580645,4,2,0,15,0,0
210347.3,344.827586206897,4,2,0,15,1,0
210347.3,-156.25,4,2,0,15,0,0
210354.2,344.827586206897,4,2,0,15,1,0
210354.2,-151.515151515152,4,2,0,15,0,0
210361.1,344.827586206897,4,2,0,15,1,0
210361.1,-147.058823529412,4,2,0,15,0,0
210368,344.827586206897,4,2,0,15,1,0
210368,-142.857142857143,4,2,0,15,0,0
210374.9,344.827586206897,4,2,0,15,1,0
210374.9,-138.888888888889,4,2,0,15,0,0
210381.8,344.827586206897,4,2,0,15,1,0
210381.8,-135.135135135135,4,2,0,15,0,0
210388.7,344.827586206897,4,2,0,15,1,0
210388.7,-131.578947368421,4,2,0,15,0,0
210395.6,344.827586206897,4,2,0,15,1,0
210395.6,-128.205128205128,4,2,0,15,0,0
210402.5,344.827586206897,4,2,0,15,1,0
210402.5,-125,4,2,0,15,0,0
210409.4,344.827586206897,4,2,0,15,1,0
210409.4,-121.951219512195,4,2,0,15,0,0
210416.3,344.827586206897,4,2,0,15,1,0
210416.3,-119.047619047619,4,2,0,15,0,0
210423.2,344.827586206897,4,2,0,15,1,0
210423.2,-116.279069767442,4,2,0,15,0,0
210430.1,344.827586206897,4,2,0,15,1,0
210430.1,-113.636363636364,4,2,0,15,0,0
210437,344.827586206897,4,2,0,15,1,0
210437,-111.111111111111,4,2,0,15,0,0
210443.9,344.827586206897,4,2,0,15,1,0
210443.9,-108.695652173913,4,2,0,15,0,0
210450.8,344.827586206897,4,2,0,15,1,0
210450.8,-106.382978723404,4,2,0,15,0,0
210457.7,344.827586206897,4,2,0,15,1,0
210457.7,-104.166666666667,4,2,0,15,0,0
210464.6,344.827586206897,4,2,0,15,1,0
210464.6,-102.040816326531,4,2,0,15,0,0
210471.5,344.827586206897,4,2,0,15,1,0
210471.5,-100,4,2,0,15,0,0
210478.4,344.827586206897,4,2,0,15,1,0
210478.4,-98.0392156862745,4,2,0,15,0,0
210485.3,344.827586206897,4,2,0,15,1,0
210485.3,-96.1538461538461,4,2,0,15,0,0
210492.2,344.827586206897,4,2,0,15,1,0
210492.2,-94.3396226415094,4,2,0,15,0,0
210499.1,344.827586206897,4,2,0,15,1,0
210499.1,-92.5925925925926,4,2,0,15,0,0
210506,344.827586206897,4,2,0,15,1,0
210506,-90.9090909090909,4,2,0,15,0,0
210512.9,344.827586206897,4,2,0,15,1,0
210512.9,-89.2857142857143,4,2,0,15,0,0
210519.8,344.827586206897,4,2,0,15,1,0
210519.8,-87.719298245614,4,2,0,15,0,0
210526.7,344.827586206897,4,2,0,15,1,0
210526.7,-86.2068965517241,4,2,0,15,0,0
210533.6,344.827586206897,4,2,0,15,1,0
210533.6,-84.7457627118644,4,2,0,15,0,0
210540.5,344.827586206897,4,2,0,15,1,0
210540.5,-83.3333333333333,4,2,0,15,0,0
210547.4,344.827586206897,4,2,0,15,1,0
210554.3,344.827586206897,4,2,0,15,1,0
210561.2,344.827586206897,4,2,0,15,1,0
210568.1,344.827586206897,4,2,0,15,1,0
210575,344.827586206897,4,2,0,15,1,0
210581.9,344.827586206897,4,2,0,15,1,0
210588.8,344.827586206897,4,2,0,15,1,0
210595.7,344.827586206897,4,2,0,15,1,0
210602.6,344.827586206897,4,2,0,15,1,0
210609.5,344.827586206897,4,2,0,15,1,0
210616.4,344.827586206897,4,2,0,15,1,0
210644,344.827586206897,4,2,0,15,1,0
210644,-50,4,2,0,15,0,0
210687,-149.253731343284,4,2,0,15,0,0
210708,-75.187969924812,4,2,0,15,0,0
210730,-270.270270270272,4,2,0,15,0,0
210751,-75.187969924812,4,2,0,15,0,0
210773,-270.270270270272,4,2,0,15,0,0
210794,-75.187969924812,4,2,0,15,0,0
210816,-50,4,2,0,15,0,0
210859,-149.253731343284,4,2,0,15,0,0
210880,-75.187969924812,4,2,0,15,0,0
210902,-270.270270270272,4,2,0,15,0,0
210923,-75.187969924812,4,2,0,15,0,0
210945,-270.270270270272,4,2,0,15,0,0
210966,-75.187969924812,4,2,0,15,0,0
210988,-50,4,2,0,15,0,0
211031,-149.253731343284,4,2,0,15,0,0
211052,-75.187969924812,4,2,0,15,0,0
211074,-270.270270270272,4,2,0,15,0,0
211095,-75.187969924812,4,2,0,15,0,0
211117,-270.270270270272,4,2,0,15,0,0
211138,-75.187969924812,4,2,0,15,0,0
211161,-50,4,2,0,15,0,0
211204,-149.253731343284,4,2,0,15,0,0
211225,-75.187969924812,4,2,0,15,0,0
211247,-270.270270270272,4,2,0,15,0,0
211268,-75.187969924812,4,2,0,15,0,0
211290,-270.270270270272,4,2,0,15,0,0
211311,-75.187969924812,4,2,0,15,0,0
211333,-50,4,2,0,15,0,0
211376,-149.253731343284,4,2,0,15,0,0
211397,-75.187969924812,4,2,0,15,0,0
211419,-270.270270270272,4,2,0,15,0,0
211440,-75.187969924812,4,2,0,15,0,0
211462,-270.270270270272,4,2,0,15,0,0
211483,-61.3496932515337,4,2,0,15,0,0
211506,-50,4,2,0,15,0,0
211549,-149.253731343284,4,2,0,15,0,0
211570,-75.187969924812,4,2,0,15,0,0
211592,-270.270270270272,4,2,0,15,0,0
211613,-75.187969924812,4,2,0,15,0,0
211635,-270.270270270272,4,2,0,15,0,0
211656,-75.187969924812,4,2,0,15,0,0
211678,344.827586206897,4,2,0,15,1,0
211678,-10,4,2,0,15,0,0
211684.9,344.827586206897,4,2,0,15,1,0
211691.8,344.827586206897,4,2,0,15,1,0
211698.7,344.827586206897,4,2,0,15,1,0
211705.6,344.827586206897,4,2,0,15,1,0
211712.5,344.827586206897,4,2,0,15,1,0
211719.4,344.827586206897,4,2,0,15,1,0
211726.3,344.827586206897,4,2,0,15,1,0
211733.2,344.827586206897,4,2,0,15,1,0
211740.1,344.827586206897,4,2,0,15,1,0
211747,344.827586206897,4,2,0,15,1,0
211753.9,344.827586206897,4,2,0,15,1,0
211760.8,344.827586206897,4,2,0,15,1,0
211767.7,344.827586206897,4,2,0,15,1,0
211774.6,344.827586206897,4,2,0,15,1,0
211781.5,344.827586206897,4,2,0,15,1,0
211781.5,-117.647058823529,4,2,0,15,0,0
211788.4,344.827586206897,4,2,0,15,1,0
211788.4,-119.047619047619,4,2,0,15,0,0
211795.3,344.827586206897,4,2,0,15,1,0
211795.3,-120.481927710843,4,2,0,15,0,0
211802.2,344.827586206897,4,2,0,15,1,0
211802.2,-121.951219512195,4,2,0,15,0,0
211809.1,344.827586206897,4,2,0,15,1,0
211809.1,-123.456790123457,4,2,0,15,0,0
211816,344.827586206897,4,2,0,15,1,0
211816,-125,4,2,0,15,0,0
211822.9,344.827586206897,4,2,0,15,1,0
211822.9,-126.582278481013,4,2,0,15,0,0
211829.8,344.827586206897,4,2,0,15,1,0
211829.8,-128.205128205128,4,2,0,15,0,0
211836.7,344.827586206897,4,2,0,15,1,0
211836.7,-129.87012987013,4,2,0,15,0,0
211843.6,344.827586206897,4,2,0,15,1,0
211843.6,-131.578947368421,4,2,0,15,0,0
211850.5,344.827586206897,4,2,0,15,1,0
211850.5,-133.333333333333,4,2,0,15,0,0
211857.4,344.827586206897,4,2,0,15,1,0
211857.4,-135.135135135135,4,2,0,15,0,0
211864.3,344.827586206897,4,2,0,15,1,0
211864.3,-136.986301369863,4,2,0,15,0,0
211871.2,344.827586206897,4,2,0,15,1,0
211871.2,-138.888888888889,4,2,0,15,0,0
211878.1,344.827586206897,4,2,0,15,1,0
211878.1,-140.845070422535,4,2,0,15,0,0
211885,344.827586206897,4,2,0,15,1,0
211885,-142.857142857143,4,2,0,15,0,0
211891.9,344.827586206897,4,2,0,15,1,0
211891.9,-144.927536231884,4,2,0,15,0,0
211898.8,344.827586206897,4,2,0,15,1,0
211898.8,-147.058823529412,4,2,0,15,0,0
211905.7,344.827586206897,4,2,0,15,1,0
211905.7,-149.253731343284,4,2,0,15,0,0
211912.6,344.827586206897,4,2,0,15,1,0
211912.6,-151.515151515152,4,2,0,15,0,0
211919.5,344.827586206897,4,2,0,15,1,0
211919.5,-153.846153846154,4,2,0,15,0,0
211926.4,344.827586206897,4,2,0,15,1,0
211926.4,-156.25,4,2,0,15,0,0
211933.3,344.827586206897,4,2,0,15,1,0
211933.3,-158.730158730159,4,2,0,15,0,0
211940.2,344.827586206897,4,2,0,15,1,0
211940.2,-161.290322580645,4,2,0,15,0,0
211947.1,344.827586206897,4,2,0,15,1,0
211947.1,-163.934426229508,4,2,0,15,0,0
211954,344.827586206897,4,2,0,15,1,0
211954,-166.666666666667,4,2,0,15,0,0
211960.9,344.827586206897,4,2,0,15,1,0
211960.9,-169.491525423729,4,2,0,15,0,0
211967.8,344.827586206897,4,2,0,15,1,0
211967.8,-172.413793103448,4,2,0,15,0,0
211974.7,344.827586206897,4,2,0,15,1,0
211974.7,-175.438596491228,4,2,0,15,0,0
211981.6,344.827586206897,4,2,0,15,1,0
211981.6,-178.571428571429,4,2,0,15,0,0
211988.5,344.827586206897,4,2,0,15,1,0
211988.5,-181.818181818182,4,2,0,15,0,0
211995.4,344.827586206897,4,2,0,15,1,0
211995.4,-185.185185185185,4,2,0,15,0,0
212002.3,344.827586206897,4,2,0,15,1,0
212002.3,-188.679245283019,4,2,0,15,0,0
212009.2,344.827586206897,4,2,0,15,1,0
212009.2,-192.307692307692,4,2,0,15,0,0
212016.1,344.827586206897,4,2,0,15,1,0
212016.1,-196.078431372549,4,2,0,15,0,0
212023,344.827586206897,4,2,0,15,1,0
212023,-55.5555555555556,4,2,0,15,0,0
212066,-400,4,2,0,15,0,0
212109,-55.5555555555556,4,2,0,15,0,0
212152,-400,4,2,0,15,0,0
212195,-55.5555555555556,4,2,0,15,0,0
212238,-400,4,2,0,15,0,0
212282,-55.5555555555556,4,2,0,15,0,0
212325,-400,4,2,0,15,0,0
212368,-55.5555555555556,4,2,0,15,0,0
212411,-400,4,2,0,15,0,0
212454,-55.5555555555556,4,2,0,15,0,0
212497,-400,4,2,0,15,0,0
212540,-55.5555555555556,4,2,0,15,0,0
212583,-400,4,2,0,15,0,0
212626,-55.5555555555556,4,2,0,15,0,0
212669,-400,4,2,0,15,0,0
212713,154.620689655173,4,2,0,15,1,0
212734,4310.34482758621,4,2,0,15,1,0
212756,154.620689655173,4,2,0,15,1,0
212777,4310.34482758621,4,2,0,15,1,0
212799,154.620689655173,4,2,0,15,1,0
212820,4310.34482758621,4,2,0,15,1,0
212842,154.620689655173,4,2,0,15,1,0
212863,4310.34482758621,4,2,0,15,1,0
212885,154.620689655173,4,2,0,15,1,0
212906,4310.34482758621,4,2,0,15,1,0
212928,154.620689655173,4,2,0,15,1,0
212949,4310.34482758621,4,2,0,15,1,0
212971,154.620689655173,4,2,0,15,1,0
212992,4310.34482758621,4,2,0,15,1,0
213014,154.620689655173,4,2,0,15,1,0
213035,4310.34482758621,4,2,0,15,1,0
213057,344.827586206897,4,2,0,15,1,0
213057,-21.5982721382289,4,2,0,15,0,0
213078,-125,4,2,0,15,0,0
213230,-59.8802395209581,4,2,0,15,0,0
213273,-111.111111111111,4,2,0,15,0,0
213402,-59.8802395209581,4,2,0,15,0,0
213445,-111.111111111111,4,2,0,15,0,0
213575,-21.5982721382289,4,2,0,15,0,0
213596,-125,4,2,0,15,0,0
213747,-59.8802395209581,4,2,0,15,0,0
213790,-111.111111111111,4,2,0,15,0,0
213920,-59.8802395209581,4,2,0,15,0,0
213963,-111.111111111111,4,2,0,15,0,0
214092,-21.5982721382289,4,2,0,15,0,0
214113,-125,4,2,0,15,0,0
214264,-59.8802395209581,4,2,0,15,0,0
214307,-111.111111111111,4,2,0,15,0,0
214437,-19.1204588910134,4,2,0,15,0,0
214448,-125,4,2,0,15,0,0
214609,-59.8802395209581,4,2,0,15,0,0
214652,-111.111111111111,4,2,0,15,0,0
214782,-59.8802395209581,4,2,0,15,0,0
214825,-111.111111111111,4,2,0,15,0,0
214954,-21.5982721382289,4,2,0,15,0,0
214975,-125,4,2,0,15,0,0
215126,-59.8802395209581,4,2,0,15,0,0
215169,-111.111111111111,4,2,0,15,0,0
215299,-59.8802395209581,4,2,0,15,0,0
215342,-111.111111111111,4,2,0,15,0,0
215471,-52.6315789473684,4,2,0,15,0,0
215493,-500,4,2,0,15,0,0
215514,-52.6315789473684,4,2,0,15,0,0
215536,-500,4,2,0,15,0,0
215557,-50,4,2,0,15,0,0
215601,-1000,4,2,0,15,0,0
215644,-50,4,2,0,15,0,0
215688,-1000,4,2,0,15,0,0
215730,-50,4,2,0,15,0,0
215774,-1000,4,2,0,15,0,0
215816,-12.1506682867558,4,2,0,15,0,0
215827,-125,4,2,0,15,0,0
215988,-50,4,2,0,15,0,0
216032,-1000,4,2,0,15,0,0
216075,-50,4,2,0,15,0,0
216119,-1000,4,2,0,15,0,0
216161,-12.1506682867558,4,2,0,15,0,0
216172,-125,4,2,0,15,0,0
216333,-50,4,2,0,15,0,0
216377,-1000,4,2,0,15,0,0
216420,-50,4,2,0,15,0,0
216464,-1000,4,2,0,15,0,0
216506,-12.1506682867558,4,2,0,15,0,0
216517,-125,4,2,0,15,0,0
216678,-50,4,2,0,15,0,0
216722,-1000,4,2,0,15,0,0
216764,-50,4,2,0,15,0,0
216808,-1000,4,2,0,15,0,0
216851,-12.1506682867558,4,2,0,15,0,0
216862,-125,4,2,0,15,0,0
217023,-50,4,2,0,15,0,0
217067,-1000,4,2,0,15,0,0
217109,-50,4,2,0,15,0,0
217153,-1000,4,2,0,15,0,0
217195,-26.6666666666667,4,2,0,15,0,0
217217,-333.333333333333,4,2,0,15,0,0
217282,-55.5555555555556,4,2,0,15,0,0
217326,-500,4,2,0,15,0,0
217368,-55.5555555555556,4,2,0,15,0,0
217412,-500,4,2,0,15,0,0
217454,-55.5555555555556,4,2,0,15,0,0
217498,-500,4,2,0,15,0,0
217540,-26.6666666666667,4,2,0,15,0,0
217562,-333.333333333333,4,2,0,15,0,0
217626,-55.5555555555556,4,2,0,15,0,0
217670,-500,4,2,0,15,0,0
217713,-55.5555555555556,4,2,0,15,0,0
217757,-500,4,2,0,15,0,0
217799,-55.5555555555556,4,2,0,15,0,0
217843,-500,4,2,0,15,0,0
217885,-26.6666666666667,4,2,0,15,0,0
217907,-333.333333333333,4,2,0,15,0,0
217971,-55.5555555555556,4,2,0,15,0,0
218015,-500,4,2,0,15,0,0
218057,-55.5555555555556,4,2,0,15,0,0
218101,-500,4,2,0,15,0,0
218144,17.2413793103448,4,2,0,15,1,0
218144,-10,4,2,0,15,0,0
218146.873333333,11494.2413793104,4,2,0,15,1,0
218149.746666667,6896.55172413794,4,2,0,15,1,0
218152.62,4926.10344827587,4,2,0,15,1,0
218155.493333333,3831.41379310345,4,2,0,15,1,0
218158.366666667,3134.79310344828,4,2,0,15,1,0
218161.24,2652.51724137931,4,2,0,15,1,0
218164.113333333,2298.86206896552,4,2,0,15,1,0
218166.986666667,2028.41379310345,4,2,0,15,1,0
218169.86,1814.89655172414,4,2,0,15,1,0
218172.733333333,1642.03448275862,4,2,0,15,1,0
218175.606666667,1499.24137931035,4,2,0,15,1,0
218178.48,1379.31034482759,4,2,0,15,1,0
218181.353333333,1277.13793103448,4,2,0,15,1,0
218184.226666667,1189.06896551724,4,2,0,15,1,0
218187.1,1112.34482758621,4,2,0,15,1,0
218189.973333333,1044.93103448276,4,2,0,15,1,0
218192.846666667,985.206896551725,4,2,0,15,1,0
218195.72,931.965517241381,4,2,0,15,1,0
218198.593333333,884.172413793105,4,2,0,15,1,0
218201.466666667,841.034482758622,4,2,0,15,1,0
218204.34,801.93103448276,4,2,0,15,1,0
218207.213333333,766.275862068966,4,2,0,15,1,0
218210.086666667,733.689655172415,4,2,0,15,1,0
218212.96,703.724137931035,4,2,0,15,1,0
218215.833333333,676.137931034484,4,2,0,15,1,0
218218.706666667,650.620689655173,4,2,0,15,1,0
218221.58,626.96551724138,4,2,0,15,1,0
218224.453333333,604.96551724138,4,2,0,15,1,0
218227.326666667,584.44827586207,4,2,0,15,1,0
218230.2,565.275862068966,4,2,0,15,1,0
218233.073333333,547.344827586208,4,2,0,15,1,0
218235.946666667,530.517241379311,4,2,0,15,1,0
218238.82,514.655172413794,4,2,0,15,1,0
218241.693333333,499.758620689656,4,2,0,15,1,0
218244.566666667,485.689655172414,4,2,0,15,1,0
218247.44,472.379310344828,4,2,0,15,1,0
218250.313333333,459.758620689656,4,2,0,15,1,0
218253.186666667,447.827586206897,4,2,0,15,1,0
218256.06,436.48275862069,4,2,0,15,1,0
218258.933333333,425.724137931035,4,2,0,15,1,0
218261.806666667,415.44827586207,4,2,0,15,1,0
218264.68,405.689655172414,4,2,0,15,1,0
218267.553333333,396.344827586207,4,2,0,15,1,0
218270.426666667,387.448275862069,4,2,0,15,1,0
218273.3,378.931034482759,4,2,0,15,1,0
218276.173333333,370.793103448276,4,2,0,15,1,0
218279.046666667,362.96551724138,4,2,0,15,1,0
218281.92,355.48275862069,4,2,0,15,1,0
218284.793333333,348.310344827587,4,2,0,15,1,0
218287.666666667,341.413793103449,4,2,0,15,1,0
218290.54,334.793103448276,4,2,0,15,1,0
218293.413333333,328.413793103449,4,2,0,15,1,0
218296.286666667,322.275862068966,4,2,0,15,1,0
218299.16,316.344827586207,4,2,0,15,1,0
218302.033333333,310.655172413794,4,2,0,15,1,0
218304.906666667,305.172413793104,4,2,0,15,1,0
218307.78,299.862068965518,4,2,0,15,1,0
218310.653333333,294.724137931035,4,2,0,15,1,0
218313.526666667,289.758620689656,4,2,0,15,1,0
218316.4,284.96551724138,4,2,0,15,1,0
218319.273333333,280.344827586207,4,2,0,15,1,0
218322.146666667,275.862068965518,4,2,0,15,1,0
218325.02,271.517241379311,4,2,0,15,1,0
218327.893333333,267.310344827587,4,2,0,15,1,0
218330.766666667,263.241379310345,4,2,0,15,1,0
218333.64,259.275862068966,4,2,0,15,1,0
218336.513333333,255.413793103449,4,2,0,15,1,0
218339.386666667,251.689655172414,4,2,0,15,1,0
218342.26,248.068965517242,4,2,0,15,1,0
218345.133333333,244.551724137931,4,2,0,15,1,0
218348.006666667,241.137931034483,4,2,0,15,1,0
218350.88,237.827586206897,4,2,0,15,1,0
218353.753333333,234.586206896552,4,2,0,15,1,0
218356.626666667,231.413793103449,4,2,0,15,1,0
218359.5,228.379310344828,4,2,0,15,1,0
218362.373333333,225.379310344828,4,2,0,15,1,0
218365.246666667,222.48275862069,4,2,0,15,1,0
218368.12,219.620689655173,4,2,0,15,1,0
218370.993333333,216.862068965518,4,2,0,15,1,0
218373.866666667,214.172413793104,4,2,0,15,1,0
218376.74,211.551724137931,4,2,0,15,1,0
218379.613333333,209,4,2,0,15,1,0
218382.486666667,206.48275862069,4,2,0,15,1,0
218385.36,204.034482758621,4,2,0,15,1,0
218388.233333333,201.655172413793,4,2,0,15,1,0
218391.106666667,199.310344827586,4,2,0,15,1,0
218393.98,197.034482758621,4,2,0,15,1,0
218396.853333333,194.827586206897,4,2,0,15,1,0
218399.726666667,192.655172413793,4,2,0,15,1,0
218402.6,190.517241379311,4,2,0,15,1,0
218405.473333333,188.413793103449,4,2,0,15,1,0
218408.346666667,186.379310344828,4,2,0,15,1,0
218411.22,184.413793103449,4,2,0,15,1,0
218414.093333333,182.448275862069,4,2,0,15,1,0
218416.966666667,180.551724137931,4,2,0,15,1,0
218419.84,178.655172413793,4,2,0,15,1,0
218422.713333333,176.827586206897,4,2,0,15,1,0
218425.586666667,175.034482758621,4,2,0,15,1,0
218428.46,173.275862068966,4,2,0,15,1,0
218431.333333333,171.551724137931,4,2,0,15,1,0
218434.206666667,169.862068965517,4,2,0,15,1,0
218437.08,168.206896551724,4,2,0,15,1,0
218439.953333333,166.586206896552,4,2,0,15,1,0
218442.826666667,165,4,2,0,15,1,0
218445.7,163.413793103449,4,2,0,15,1,0
218448.573333333,161.896551724138,4,2,0,15,1,0
218451.446666667,160.379310344828,4,2,0,15,1,0
218454.32,158.896551724138,4,2,0,15,1,0
218457.193333333,157.448275862069,4,2,0,15,1,0
218460.066666667,156.034482758621,4,2,0,15,1,0
218462.94,154.620689655173,4,2,0,15,1,0
218465.813333333,153.241379310345,4,2,0,15,1,0
218468.686666667,151.896551724138,4,2,0,15,1,0
218471.56,150.586206896552,4,2,0,15,1,0
218474.433333333,149.275862068966,4,2,0,15,1,0
218477.306666667,148,4,2,0,15,1,0
218480.18,146.724137931035,4,2,0,15,1,0
218483.053333333,145.48275862069,4,2,0,15,1,0
218485.926666667,144.275862068966,4,2,0,15,1,0
218488.8,143.068965517242,4,2,0,15,1,0
218491.673333333,141.896551724138,4,2,0,15,1,0
218494.546666667,140.758620689655,4,2,0,15,1,0
218497.42,139.620689655173,4,2,0,15,1,0
218500.293333333,138.48275862069,4,2,0,15,1,0
218503.166666667,137.379310344828,4,2,0,15,1,0
218506.04,136.310344827586,4,2,0,15,1,0
218508.913333333,135.241379310345,4,2,0,15,1,0
218511.786666667,134.172413793104,4,2,0,15,1,0
218514.66,133.137931034483,4,2,0,15,1,0
218517.533333333,132.103448275862,4,2,0,15,1,0
218520.406666667,131.103448275862,4,2,0,15,1,0
218523.28,130.137931034483,4,2,0,15,1,0
218526.153333333,129.137931034483,4,2,0,15,1,0
218529.026666667,128.172413793104,4,2,0,15,1,0
218531.9,127.241379310345,4,2,0,15,1,0
218534.773333333,126.310344827586,4,2,0,15,1,0
218537.646666667,125.379310344828,4,2,0,15,1,0
218540.52,124.48275862069,4,2,0,15,1,0
218543.393333333,123.586206896552,4,2,0,15,1,0
218546.266666667,122.724137931035,4,2,0,15,1,0
218549.14,121.862068965517,4,2,0,15,1,0
218552.013333333,121,4,2,0,15,1,0
218554.886666667,120.137931034483,4,2,0,15,1,0
218557.76,119.310344827586,4,2,0,15,1,0
218560.633333333,118.48275862069,4,2,0,15,1,0
218563.506666667,117.689655172414,4,2,0,15,1,0
218566.38,116.896551724138,4,2,0,15,1,0
218569.253333333,116.103448275862,4,2,0,15,1,0
218572.126666667,115.310344827586,4,2,0,15,1,0
218575,344.827586206897,4,2,0,15,1,0
218575,-100,4,2,0,15,0,0
218747,344.827586206897,4,2,0,15,1,0
218747,-52.6315789473684,4,2,0,15,0,0
218769,344.827586206897,4,2,0,15,1,0
218769,-1000,4,2,0,15,0,0
218790,344.827586206897,4,2,0,15,1,0
218790,-52.6315789473684,4,2,0,15,0,0
218812,344.827586206897,4,2,0,15,1,0
218812,-1000,4,2,0,15,0,0
218833,344.827586206897,4,2,0,15,1,0
218833,-52.6315789473684,4,2,0,15,0,0
218855,344.827586206897,4,2,0,15,1,0
218855,-1000,4,2,0,15,0,0
218876,344.827586206897,4,2,0,15,1,0
218876,-52.6315789473684,4,2,0,15,0,0
218898,344.827586206897,4,2,0,15,1,0
218898,-1000,4,2,0,15,0,0
218919,344.827586206897,4,2,0,20,1,0
218920,344.827586206897,4,2,0,15,1,0
218920,-100,4,2,0,15,0,0
219092,344.827586206897,4,2,0,15,1,0
219092,-52.6315789473684,4,2,0,15,0,0
219114,344.827586206897,4,2,0,15,1,0
219114,-1000,4,2,0,15,0,0
219135,344.827586206897,4,2,0,15,1,0
219135,-52.6315789473684,4,2,0,15,0,0
219157,344.827586206897,4,2,0,15,1,0
219157,-1000,4,2,0,15,0,0
219178,344.827586206897,4,2,0,15,1,0
219178,-52.6315789473684,4,2,0,15,0,0
219200,344.827586206897,4,2,0,15,1,0
219200,-1000,4,2,0,15,0,0
219221,344.827586206897,4,2,0,15,1,0
219221,-52.6315789473684,4,2,0,15,0,0
219243,344.827586206897,4,2,0,15,1,0
219243,-1000,4,2,0,15,0,0
219265,344.827586206897,4,2,0,15,1,0
219265,-100,4,2,0,15,0,0
219437,344.827586206897,4,2,0,15,1,0
219437,-52.6315789473684,4,2,0,15,0,0
219459,344.827586206897,4,2,0,15,1,0
219459,-1000,4,2,0,15,0,0
219480,344.827586206897,4,2,0,15,1,0
219480,-52.6315789473684,4,2,0,15,0,0
219502,344.827586206897,4,2,0,15,1,0
219502,-1000,4,2,0,15,0,0
219523,344.827586206897,4,2,0,15,1,0
219523,-52.6315789473684,4,2,0,15,0,0
219545,344.827586206897,4,2,0,15,1,0
219545,-1000,4,2,0,15,0,0
219566,344.827586206897,4,2,0,15,1,0
219566,-52.6315789473684,4,2,0,15,0,0
219588,344.827586206897,4,2,0,15,1,0
219588,-1000,4,2,0,15,0,0
219610,344.827586206897,4,2,0,15,1,0
219610,-100,4,2,0,15,0,0
219782,344.827586206897,4,2,0,15,1,0
219782,-52.6315789473684,4,2,0,15,0,0
219804,344.827586206897,4,2,0,15,1,0
219804,-1000,4,2,0,15,0,0
219825,344.827586206897,4,2,0,15,1,0
219825,-52.6315789473684,4,2,0,15,0,0
219847,344.827586206897,4,2,0,15,1,0
219847,-1000,4,2,0,15,0,0
219868,344.827586206897,4,2,0,15,1,0
219868,-52.6315789473684,4,2,0,15,0,0
219890,344.827586206897,4,2,0,15,1,0
219890,-1000,4,2,0,15,0,0
219911,344.827586206897,4,2,0,15,1,0
219911,-52.6315789473684,4,2,0,15,0,0
219933,344.827586206897,4,2,0,15,1,0
219933,-1000,4,2,0,15,0,0
219955,344.827586206897,4,2,0,15,1,0
219955,-100,4,2,0,15,0,0
220126,344.827586206897,4,2,0,15,1,0
220126,-52.6315789473684,4,2,0,15,0,0
220148,344.827586206897,4,2,0,15,1,0
220148,-1000,4,2,0,15,0,0
220169,344.827586206897,4,2,0,15,1,0
220169,-52.6315789473684,4,2,0,15,0,0
220191,344.827586206897,4,2,0,15,1,0
220191,-1000,4,2,0,15,0,0
220212,344.827586206897,4,2,0,15,1,0
220212,-52.6315789473684,4,2,0,15,0,0
220234,344.827586206897,4,2,0,15,1,0
220234,-1000,4,2,0,15,0,0
220255,344.827586206897,4,2,0,15,1,0
220255,-52.6315789473684,4,2,0,15,0,0
220277,344.827586206897,4,2,0,15,1,0
220277,-1000,4,2,0,15,0,0
220299,344.827586206897,4,2,0,15,1,0
220299,-100,4,2,0,15,0,0
220471,344.827586206897,4,2,0,15,1,0
220471,-52.6315789473684,4,2,0,15,0,0
220493,344.827586206897,4,2,0,15,1,0
220493,-1000,4,2,0,15,0,0
220514,344.827586206897,4,2,0,15,1,0
220514,-52.6315789473684,4,2,0,15,0,0
220536,344.827586206897,4,2,0,15,1,0
220536,-1000,4,2,0,15,0,0
220557,344.827586206897,4,2,0,15,1,0
220557,-52.6315789473684,4,2,0,15,0,0
220579,344.827586206897,4,2,0,15,1,0
220579,-1000,4,2,0,15,0,0
220600,344.827586206897,4,2,0,15,1,0
220600,-52.6315789473684,4,2,0,15,0,0
220622,344.827586206897,4,2,0,15,1,0
220622,-1000,4,2,0,15,0,0
220644,344.827586206897,4,2,0,15,1,0
220644,-100,4,2,0,15,0,0
220816,344.827586206897,4,2,0,15,1,0
220816,-52.6315789473684,4,2,0,15,0,0
220838,344.827586206897,4,2,0,15,1,0
220838,-1000,4,2,0,15,0,0
220859,344.827586206897,4,2,0,15,1,0
220859,-52.6315789473684,4,2,0,15,0,0
220881,344.827586206897,4,2,0,15,1,0
220881,-1000,4,2,0,15,0,0
220902,344.827586206897,4,2,0,15,1,0
220902,-52.6315789473684,4,2,0,15,0,0
220924,344.827586206897,4,2,0,15,1,0
220924,-1000,4,2,0,15,0,0
220945,344.827586206897,4,2,0,15,1,0
220945,-52.6315789473684,4,2,0,15,0,0
220967,344.827586206897,4,2,0,15,1,0
220967,-1000,4,2,0,15,0,0
220989,344.827586206897,4,2,0,15,1,0
220989,-100,4,2,0,15,0,0
221161,344.827586206897,4,2,0,15,1,0
221161,-52.6315789473684,4,2,0,15,0,0
221183,344.827586206897,4,2,0,15,1,0
221183,-1000,4,2,0,15,0,0
221204,344.827586206897,4,2,0,15,1,0
221204,-52.6315789473684,4,2,0,15,0,0
221226,344.827586206897,4,2,0,15,1,0
221226,-1000,4,2,0,15,0,0
221247,344.827586206897,4,2,0,15,1,0
221247,-52.6315789473684,4,2,0,15,0,0
221269,344.827586206897,4,2,0,15,1,0
221269,-1000,4,2,0,15,0,0
221290,344.827586206897,4,2,0,15,1,0
221290,-52.6315789473684,4,2,0,15,0,0
221312,344.827586206897,4,2,0,15,1,0
221312,-1000,4,2,0,15,0,0
221334,344.827586206897,4,2,0,15,1,0
221334,-100,4,2,0,15,0,0
221506,344.827586206897,4,2,0,15,1,0
221506,-55.5555555555556,4,2,0,15,0,0
221528,344.827586206897,4,2,0,15,1,0
221528,-500,4,2,0,15,0,0
221549,344.827586206897,4,2,0,15,1,0
221549,-55.5555555555556,4,2,0,15,0,0
221571,344.827586206897,4,2,0,15,1,0
221571,-500,4,2,0,15,0,0
221592,344.827586206897,4,2,0,15,1,0
221592,-55.5555555555556,4,2,0,15,0,0
221614,344.827586206897,4,2,0,15,1,0
221614,-500,4,2,0,15,0,0
221635,344.827586206897,4,2,0,15,1,0
221635,-55.5555555555556,4,2,0,15,0,0
221657,344.827586206897,4,2,0,15,1,0
221657,-500,4,2,0,15,0,0
221679,344.827586206897,4,2,0,15,1,0
221679,-100,4,2,0,15,0,0
221851,344.827586206897,4,2,0,15,1,0
221851,-55.5555555555556,4,2,0,15,0,0
221873,344.827586206897,4,2,0,15,1,0
221873,-500,4,2,0,15,0,0
221894,344.827586206897,4,2,0,15,1,0
221894,-55.5555555555556,4,2,0,15,0,0
221916,344.827586206897,4,2,0,15,1,0
221916,-500,4,2,0,15,0,0
221937,344.827586206897,4,2,0,15,1,0
221937,-55.5555555555556,4,2,0,15,0,0
221959,344.827586206897,4,2,0,15,1,0
221959,-500,4,2,0,15,0,0
221980,344.827586206897,4,2,0,15,1,0
221980,-55.5555555555556,4,2,0,15,0,0
222002,344.827586206897,4,2,0,15,1,0
222002,-500,4,2,0,15,0,0
222024,344.827586206897,4,2,0,15,1,0
222024,-100,4,2,0,15,0,0
222195,344.827586206897,4,2,0,15,1,0
222195,-55.5555555555556,4,2,0,15,0,0
222217,344.827586206897,4,2,0,15,1,0
222217,-500,4,2,0,15,0,0
222238,344.827586206897,4,2,0,15,1,0
222238,-55.5555555555556,4,2,0,15,0,0
222260,344.827586206897,4,2,0,15,1,0
222260,-500,4,2,0,15,0,0
222281,344.827586206897,4,2,0,15,1,0
222281,-55.5555555555556,4,2,0,15,0,0
222303,344.827586206897,4,2,0,15,1,0
222303,-500,4,2,0,15,0,0
222324,344.827586206897,4,2,0,15,1,0
222324,-55.5555555555556,4,2,0,15,0,0
222346,344.827586206897,4,2,0,15,1,0
222346,-500,4,2,0,15,0,0
222368,344.827586206897,4,2,0,15,1,0
222368,-100,4,2,0,15,0,0
222540,344.827586206897,4,2,0,15,1,0
222540,-55.5555555555556,4,2,0,15,0,0
222562,344.827586206897,4,2,0,15,1,0
222562,-500,4,2,0,15,0,0
222583,344.827586206897,4,2,0,15,1,0
222583,-55.5555555555556,4,2,0,15,0,0
222605,344.827586206897,4,2,0,15,1,0
222605,-500,4,2,0,15,0,0
222626,344.827586206897,4,2,0,15,1,0
222626,-55.5555555555556,4,2,0,15,0,0
222648,344.827586206897,4,2,0,15,1,0
222648,-500,4,2,0,15,0,0
222669,344.827586206897,4,2,0,15,1,0
222669,-55.5555555555556,4,2,0,15,0,0
222691,344.827586206897,4,2,0,15,1,0
222691,-500,4,2,0,15,0,0
222713,344.827586206897,4,2,0,15,1,0
222713,-100,4,2,0,15,0,0
222885,344.827586206897,4,2,0,15,1,0
222885,-55.5555555555556,4,2,0,15,0,0
222907,344.827586206897,4,2,0,15,1,0
222907,-500,4,2,0,15,0,0
222928,344.827586206897,4,2,0,15,1,0
222928,-55.5555555555556,4,2,0,15,0,0
222950,344.827586206897,4,2,0,15,1,0
222950,-500,4,2,0,15,0,0
222971,344.827586206897,4,2,0,15,1,0
222971,-55.5555555555556,4,2,0,15,0,0
222993,344.827586206897,4,2,0,15,1,0
222993,-500,4,2,0,15,0,0
223014,344.827586206897,4,2,0,15,1,0
223014,-55.5555555555556,4,2,0,15,0,0
223036,344.827586206897,4,2,0,15,1,0
223036,-500,4,2,0,15,0,0
223058,344.827586206897,4,2,0,15,1,0
223058,-100,4,2,0,15,0,0
223230,344.827586206897,4,2,0,15,1,0
223230,-55.5555555555556,4,2,0,15,0,0
223252,344.827586206897,4,2,0,15,1,0
223252,-500,4,2,0,15,0,0
223273,344.827586206897,4,2,0,15,1,0
223273,-55.5555555555556,4,2,0,15,0,0
223295,344.827586206897,4,2,0,15,1,0
223295,-500,4,2,0,15,0,0
223316,344.827586206897,4,2,0,15,1,0
223316,-55.5555555555556,4,2,0,15,0,0
223338,344.827586206897,4,2,0,15,1,0
223338,-500,4,2,0,15,0,0
223359,344.827586206897,4,2,0,15,1,0
223359,-55.5555555555556,4,2,0,15,0,0
223381,344.827586206897,4,2,0,15,1,0
223381,-500,4,2,0,15,0,0
223403,344.827586206897,4,2,0,15,1,0
223403,-100,4,2,0,15,0,0
223575,344.827586206897,4,2,0,15,1,0
223575,-55.5555555555556,4,2,0,15,0,0
223597,344.827586206897,4,2,0,15,1,0
223597,-500,4,2,0,15,0,0
223618,344.827586206897,4,2,0,15,1,0
223618,-55.5555555555556,4,2,0,15,0,0
223640,344.827586206897,4,2,0,15,1,0
223640,-500,4,2,0,15,0,0
223661,344.827586206897,4,2,0,15,1,0
223661,-55.5555555555556,4,2,0,15,0,0
223683,344.827586206897,4,2,0,15,1,0
223683,-500,4,2,0,15,0,0
223704,344.827586206897,4,2,0,15,1,0
223704,-55.5555555555556,4,2,0,15,0,0
223726,344.827586206897,4,2,0,15,1,0
223726,-500,4,2,0,15,0,0
223748,344.827586206897,4,2,0,15,1,0
223748,-100,4,2,0,15,0,0
223920,344.827586206897,4,2,0,15,1,0
223920,-55.5555555555556,4,2,0,15,0,0
223942,344.827586206897,4,2,0,15,1,0
223942,-500,4,2,0,15,0,0
223963,344.827586206897,4,2,0,15,1,0
223963,-55.5555555555556,4,2,0,15,0,0
223985,344.827586206897,4,2,0,15,1,0
223985,-500,4,2,0,15,0,0
224006,344.827586206897,4,2,0,15,1,0
224006,-55.5555555555556,4,2,0,15,0,0
224028,344.827586206897,4,2,0,15,1,0
224028,-500,4,2,0,15,0,0
224049,344.827586206897,4,2,0,15,1,0
224049,-55.5555555555556,4,2,0,15,0,0
224071,344.827586206897,4,2,0,15,1,0
224071,-500,4,2,0,15,0,0
224093,344.827586206897,4,2,0,15,1,0
224093,-100,4,2,0,15,0,0
224264,344.827586206897,4,2,0,15,1,0
224264,-58.8235294117647,4,2,0,15,0,0
224286,344.827586206897,4,2,0,15,1,0
224286,-333.333333333333,4,2,0,15,0,0
224307,344.827586206897,4,2,0,15,1,0
224307,-58.8235294117647,4,2,0,15,0,0
224329,344.827586206897,4,2,0,15,1,0
224329,-333.333333333333,4,2,0,15,0,0
224350,344.827586206897,4,2,0,15,1,0
224350,-58.8235294117647,4,2,0,15,0,0
224372,344.827586206897,4,2,0,15,1,0
224372,-333.333333333333,4,2,0,15,0,0
224393,344.827586206897,4,2,0,15,1,0
224393,-58.8235294117647,4,2,0,15,0,0
224415,344.827586206897,4,2,0,15,1,0
224415,-333.333333333333,4,2,0,15,0,0
224437,344.827586206897,4,2,0,15,1,0
224437,-100,4,2,0,15,0,0
224609,344.827586206897,4,2,0,15,1,0
224609,-58.8235294117647,4,2,0,15,0,0
224631,344.827586206897,4,2,0,15,1,0
224631,-333.333333333333,4,2,0,15,0,0
224652,344.827586206897,4,2,0,15,1,0
224652,-58.8235294117647,4,2,0,15,0,0
224674,344.827586206897,4,2,0,15,1,0
224674,-333.333333333333,4,2,0,15,0,0
224695,344.827586206897,4,2,0,15,1,0
224695,-58.8235294117647,4,2,0,15,0,0
224717,344.827586206897,4,2,0,15,1,0
224717,-333.333333333333,4,2,0,15,0,0
224738,344.827586206897,4,2,0,15,1,0
224738,-58.8235294117647,4,2,0,15,0,0
224760,344.827586206897,4,2,0,15,1,0
224760,-333.333333333333,4,2,0,15,0,0
224782,344.827586206897,4,2,0,15,1,0
224782,-100,4,2,0,15,0,0
224954,344.827586206897,4,2,0,15,1,0
224954,-58.8235294117647,4,2,0,15,0,0
224976,344.827586206897,4,2,0,15,1,0
224976,-333.333333333333,4,2,0,15,0,0
224997,344.827586206897,4,2,0,15,1,0
224997,-58.8235294117647,4,2,0,15,0,0
225019,344.827586206897,4,2,0,15,1,0
225019,-333.333333333333,4,2,0,15,0,0
225040,344.827586206897,4,2,0,15,1,0
225040,-58.8235294117647,4,2,0,15,0,0
225062,344.827586206897,4,2,0,15,1,0
225062,-333.333333333333,4,2,0,15,0,0
225083,344.827586206897,4,2,0,15,1,0
225083,-58.8235294117647,4,2,0,15,0,0
225105,344.827586206897,4,2,0,15,1,0
225105,-333.333333333333,4,2,0,15,0,0
225127,344.827586206897,4,2,0,15,1,0
225127,-100,4,2,0,15,0,0
225299,344.827586206897,4,2,0,15,1,0
225299,-58.8235294117647,4,2,0,15,0,0
225321,344.827586206897,4,2,0,15,1,0
225321,-333.333333333333,4,2,0,15,0,0
225342,344.827586206897,4,2,0,15,1,0
225342,-58.8235294117647,4,2,0,15,0,0
225364,344.827586206897,4,2,0,15,1,0
225364,-333.333333333333,4,2,0,15,0,0
225385,344.827586206897,4,2,0,15,1,0
225385,-58.8235294117647,4,2,0,15,0,0
225407,344.827586206897,4,2,0,15,1,0
225407,-333.333333333333,4,2,0,15,0,0
225428,344.827586206897,4,2,0,15,1,0
225428,-58.8235294117647,4,2,0,15,0,0
225450,344.827586206897,4,2,0,15,1,0
225450,-333.333333333333,4,2,0,15,0,0
225472,344.827586206897,4,2,0,15,1,0
225472,-100,4,2,0,15,0,0
225644,344.827586206897,4,2,0,15,1,0
225644,-58.8235294117647,4,2,0,15,0,0
225666,344.827586206897,4,2,0,15,1,0
225666,-333.333333333333,4,2,0,15,0,0
225687,344.827586206897,4,2,0,15,1,0
225687,-58.8235294117647,4,2,0,15,0,0
225709,344.827586206897,4,2,0,15,1,0
225709,-333.333333333333,4,2,0,15,0,0
225730,344.827586206897,4,2,0,15,1,0
225730,-58.8235294117647,4,2,0,15,0,0
225752,344.827586206897,4,2,0,15,1,0
225752,-333.333333333333,4,2,0,15,0,0
225773,344.827586206897,4,2,0,15,1,0
225773,-58.8235294117647,4,2,0,15,0,0
225795,344.827586206897,4,2,0,15,1,0
225795,-333.333333333333,4,2,0,15,0,0
225817,344.827586206897,4,2,0,15,1,0
225817,-100,4,2,0,15,0,0
225988,344.827586206897,4,2,0,15,1,0
225988,-58.8235294117647,4,2,0,15,0,0
226010,344.827586206897,4,2,0,15,1,0
226010,-333.333333333333,4,2,0,15,0,0
226031,344.827586206897,4,2,0,15,1,0
226031,-58.8235294117647,4,2,0,15,0,0
226053,344.827586206897,4,2,0,15,1,0
226053,-333.333333333333,4,2,0,15,0,0
226074,344.827586206897,4,2,0,15,1,0
226074,-58.8235294117647,4,2,0,15,0,0
226096,344.827586206897,4,2,0,15,1,0
226096,-333.333333333333,4,2,0,15,0,0
226117,344.827586206897,4,2,0,15,1,0
226117,-58.8235294117647,4,2,0,15,0,0
226139,344.827586206897,4,2,0,15,1,0
226139,-333.333333333333,4,2,0,15,0,0
226161,344.827586206897,4,2,0,15,1,0
226161,-100,4,2,0,15,0,0
226333,344.827586206897,4,2,0,15,1,0
226333,-58.8235294117647,4,2,0,15,0,0
226355,344.827586206897,4,2,0,15,1,0
226355,-333.333333333333,4,2,0,15,0,0
226376,344.827586206897,4,2,0,15,1,0
226376,-58.8235294117647,4,2,0,15,0,0
226398,344.827586206897,4,2,0,15,1,0
226398,-333.333333333333,4,2,0,15,0,0
226419,344.827586206897,4,2,0,15,1,0
226419,-58.8235294117647,4,2,0,15,0,0
226441,344.827586206897,4,2,0,15,1,0
226441,-333.333333333333,4,2,0,15,0,0
226462,344.827586206897,4,2,0,15,1,0
226462,-58.8235294117647,4,2,0,15,0,0
226484,344.827586206897,4,2,0,15,1,0
226484,-333.333333333333,4,2,0,15,0,0
226506,344.827586206897,4,2,0,15,1,0
226506,-100,4,2,0,15,0,0
226678,344.827586206897,4,2,0,15,1,0
226678,-58.8235294117647,4,2,0,15,0,0
226700,344.827586206897,4,2,0,15,1,0
226700,-333.333333333333,4,2,0,15,0,0
226721,344.827586206897,4,2,0,15,1,0
226721,-58.8235294117647,4,2,0,15,0,0
226743,344.827586206897,4,2,0,15,1,0
226743,-333.333333333333,4,2,0,15,0,0
226764,344.827586206897,4,2,0,15,1,0
226764,-58.8235294117647,4,2,0,15,0,0
226786,344.827586206897,4,2,0,15,1,0
226786,-333.333333333333,4,2,0,15,0,0
226807,344.827586206897,4,2,0,15,1,0
226807,-58.8235294117647,4,2,0,15,0,0
226829,344.827586206897,4,2,0,15,1,0
226829,-333.333333333333,4,2,0,15,0,0
226851,344.827586206897,4,2,0,15,1,0
226851,-100,4,2,0,15,0,0
227023,344.827586206897,4,2,0,15,1,0
227023,-62.5,4,2,0,15,0,0
227045,344.827586206897,4,2,0,15,1,0
227045,-250,4,2,0,15,0,0
227066,344.827586206897,4,2,0,15,1,0
227066,-62.5,4,2,0,15,0,0
227088,344.827586206897,4,2,0,15,1,0
227088,-250,4,2,0,15,0,0
227109,344.827586206897,4,2,0,15,1,0
227109,-62.5,4,2,0,15,0,0
227131,344.827586206897,4,2,0,15,1,0
227131,-250,4,2,0,15,0,0
227152,344.827586206897,4,2,0,15,1,0
227152,-62.5,4,2,0,15,0,0
227174,344.827586206897,4,2,0,15,1,0
227174,-250,4,2,0,15,0,0
227196,344.827586206897,4,2,0,15,1,0
227196,-100,4,2,0,15,0,0
227368,344.827586206897,4,2,0,15,1,0
227368,-62.5,4,2,0,15,0,0
227390,344.827586206897,4,2,0,15,1,0
227390,-250,4,2,0,15,0,0
227411,344.827586206897,4,2,0,15,1,0
227411,-62.5,4,2,0,15,0,0
227433,344.827586206897,4,2,0,15,1,0
227433,-250,4,2,0,15,0,0
227454,344.827586206897,4,2,0,15,1,0
227454,-62.5,4,2,0,15,0,0
227476,344.827586206897,4,2,0,15,1,0
227476,-250,4,2,0,15,0,0
227497,344.827586206897,4,2,0,15,1,0
227497,-62.5,4,2,0,15,0,0
227519,344.827586206897,4,2,0,15,1,0
227519,-250,4,2,0,15,0,0
227541,344.827586206897,4,2,0,15,1,0
227541,-100,4,2,0,15,0,0
227713,344.827586206897,4,2,0,15,1,0
227713,-62.5,4,2,0,15,0,0
227735,344.827586206897,4,2,0,15,1,0
227735,-250,4,2,0,15,0,0
227756,344.827586206897,4,2,0,15,1,0
227756,-62.5,4,2,0,15,0,0
227778,344.827586206897,4,2,0,15,1,0
227778,-250,4,2,0,15,0,0
227799,344.827586206897,4,2,0,15,1,0
227799,-62.5,4,2,0,15,0,0
227821,344.827586206897,4,2,0,15,1,0
227821,-250,4,2,0,15,0,0
227842,344.827586206897,4,2,0,15,1,0
227842,-62.5,4,2,0,15,0,0
227864,344.827586206897,4,2,0,15,1,0
227864,-250,4,2,0,15,0,0
227886,344.827586206897,4,2,0,15,1,0
227886,-100,4,2,0,15,0,0
228057,344.827586206897,4,2,0,15,1,0
228057,-62.5,4,2,0,15,0,0
228079,344.827586206897,4,2,0,15,1,0
228079,-250,4,2,0,15,0,0
228100,344.827586206897,4,2,0,15,1,0
228100,-62.5,4,2,0,15,0,0
228122,344.827586206897,4,2,0,15,1,0
228122,-250,4,2,0,15,0,0
228143,344.827586206897,4,2,0,15,1,0
228143,-62.5,4,2,0,15,0,0
228165,344.827586206897,4,2,0,15,1,0
228165,-250,4,2,0,15,0,0
228186,344.827586206897,4,2,0,15,1,0
228186,-62.5,4,2,0,15,0,0
228208,344.827586206897,4,2,0,15,1,0
228208,-250,4,2,0,15,0,0
228230,344.827586206897,4,2,0,15,1,0
228230,-100,4,2,0,15,0,0
228402,344.827586206897,4,2,0,15,1,0
228402,-62.5,4,2,0,15,0,0
228424,344.827586206897,4,2,0,15,1,0
228424,-250,4,2,0,15,0,0
228445,344.827586206897,4,2,0,15,1,0
228445,-62.5,4,2,0,15,0,0
228467,344.827586206897,4,2,0,15,1,0
228467,-250,4,2,0,15,0,0
228488,344.827586206897,4,2,0,15,1,0
228488,-62.5,4,2,0,15,0,0
228510,344.827586206897,4,2,0,15,1,0
228510,-250,4,2,0,15,0,0
228531,344.827586206897,4,2,0,15,1,0
228531,-62.5,4,2,0,15,0,0
228553,344.827586206897,4,2,0,15,1,0
228553,-250,4,2,0,15,0,0
228575,344.827586206897,4,2,0,15,1,0
228575,-100,4,2,0,15,0,0
228747,344.827586206897,4,2,0,15,1,0
228747,-62.5,4,2,0,15,0,0
228769,344.827586206897,4,2,0,15,1,0
228769,-250,4,2,0,15,0,0
228790,344.827586206897,4,2,0,15,1,0
228790,-62.5,4,2,0,15,0,0
228812,344.827586206897,4,2,0,15,1,0
228812,-250,4,2,0,15,0,0
228833,344.827586206897,4,2,0,15,1,0
228833,-62.5,4,2,0,15,0,0
228855,344.827586206897,4,2,0,15,1,0
228855,-250,4,2,0,15,0,0
228876,344.827586206897,4,2,0,15,1,0
228876,-62.5,4,2,0,15,0,0
228898,344.827586206897,4,2,0,15,1,0
228898,-250,4,2,0,15,0,0
228920,344.827586206897,4,2,0,15,1,0
228920,-100,4,2,0,15,0,0
229090,344.827586206897,4,2,0,15,1,0
229092,-53.475935828877,4,2,0,15,0,0
229135,-769.230769230769,4,2,0,15,0,0
229177,344.827586206897,4,2,0,15,1,0
229178,-53.475935828877,4,2,0,15,0,0
229221,-769.230769230769,4,2,0,15,0,0
229264,344.827586206897,4,2,0,15,1,0
229264,-109.89010989011,4,2,0,15,0,0
229437,344.827586206897,4,2,0,15,1,0
229609,344.827586206897,4,2,0,15,1,0
229609,-111.111111111111,4,2,0,15,0,0
229884.875,-112.359550561798,4,2,0,15,0,0
230160.75,-113.636363636364,4,2,0,15,0,0
230436.625,-114.942528735632,4,2,0,15,0,0
230712.5,-116.279069767442,4,2,0,15,0,0
230988.375,-117.647058823529,4,2,0,15,0,0
231264.25,-119.047619047619,4,2,0,15,0,0
231540.125,-120.481927710843,4,2,0,15,0,0
231816,-121.951219512195,4,2,0,15,0,0
232091.875,-123.456790123457,4,2,0,15,0,0
232367.75,-125,4,2,0,15,0,0
232643.625,-126.582278481013,4,2,0,15,0,0
232919.5,-128.205128205128,4,2,0,15,0,0
233195.375,-129.87012987013,4,2,0,15,0,0
233471.25,-131.578947368421,4,2,0,15,0,0
233747.125,-133.333333333333,4,2,0,15,0,0
234023,-135.135135135135,4,2,0,15,0,0
234298.875,-136.986301369863,4,2,0,15,0,0
234574.75,-138.888888888889,4,2,0,15,0,0
234850.625,-140.845070422535,4,2,0,15,0,0
235126.5,-142.857142857143,4,2,0,15,0,0
235402.375,-144.927536231884,4,2,0,15,0,0
235678.25,-147.058823529412,4,2,0,15,0,0
235954.125,-149.253731343284,4,2,0,15,0,0
236230,-151.515151515152,4,2,0,15,0,0
236505.875,-153.846153846154,4,2,0,15,0,0
236781.75,-156.25,4,2,0,15,0,0
237057.625,-158.730158730159,4,2,0,15,0,0
237333.5,-161.290322580645,4,2,0,15,0,0
237609.375,-163.934426229508,4,2,0,15,0,0
237885.25,-166.666666666667,4,2,0,15,0,0
238161.125,-169.491525423729,4,2,0,15,0,0
238437,-172.413793103448,4,2,0,15,0,0
238712.875,-175.438596491228,4,2,0,15,0,0
238988.75,-178.571428571429,4,2,0,15,0,0
239264.625,-181.818181818182,4,2,0,15,0,0
239540.5,-185.185185185185,4,2,0,15,0,0
239816.375,-188.679245283019,4,2,0,15,0,0
240092.25,-192.307692307692,4,2,0,15,0,0
240126,-12.5,4,2,0,15,0,0
240147,-192.307692307692,4,2,0,15,0,0
240212,-16.6666666666667,4,2,0,15,0,0
240234,-192.307692307692,4,2,0,15,0,0
240298,-25,4,2,0,15,0,0
240320,-192.307692307692,4,2,0,15,0,0
240471,-50,4,2,0,15,0,0
240514,-196.078431372549,4,2,0,15,0,0
240643,-200,4,2,0,15,0,0
241333,344.827586206897,4,2,0,15,1,0
241333,-200,4,2,0,15,0,0
242022.333333333,-204.081632653061,4,2,0,15,0,0
242195,344.827586206897,4,2,0,15,1,0
242195,-204.081632653061,4,2,0,15,0,0
243057,344.827586206897,4,2,0,15,1,0
243057,-204.081632653061,4,2,0,15,0,0
243401.666666667,-208.333333333333,4,2,0,15,0,0
244092,344.827586206897,4,2,0,15,1,0
244092,-208.333333333333,4,2,0,15,0,0
244781,-212.765957446809,4,2,0,15,0,0
244954,344.827586206897,4,2,0,15,1,0
244954,-212.765957446809,4,2,0,15,0,0
245816,344.827586206897,4,2,0,15,1,0
245816,-212.765957446809,4,2,0,15,0,0
246160.333333333,-217.391304347826,4,2,0,15,0,0
246850,344.827586206897,4,2,0,15,1,0
246850,-217.391304347826,4,2,0,15,0,0
247539.666666667,-222.222222222222,4,2,0,15,0,0
247712,344.827586206897,4,2,0,15,1,0
247712,-222.222222222222,4,2,0,15,0,0
248575,344.827586206897,4,2,0,15,1,0
248575,-222.222222222222,4,2,0,15,0,0
248919,-227.272727272727,4,2,0,15,0,0
249609,344.827586206897,4,2,0,15,1,0
249609,-227.272727272727,4,2,0,15,0,0
250298.333333333,-232.558139534884,4,2,0,15,0,0
250471,344.827586206897,4,2,0,15,1,0
250471,-232.558139534884,4,2,0,15,0,0
251333,344.827586206897,4,2,0,15,1,0
251333,-232.558139534884,4,2,0,15,0,0
251677.666666667,-238.095238095238,4,2,0,15,0,0
252368,344.827586206897,4,2,0,15,1,0
252368,-238.095238095238,4,2,0,15,0,0
253057,-243.90243902439,4,2,0,15,0,0
253230,344.827586206897,4,2,0,15,1,0
253230,-243.90243902439,4,2,0,15,0,0
254092,344.827586206897,4,2,0,15,1,0
254092,-243.90243902439,4,2,0,15,0,0
254436.333333333,-250,4,2,0,15,0,0
255126,344.827586206897,4,2,0,15,1,0
255126,-250,4,2,0,15,0,0
255815.666666667,-256.410256410256,4,2,0,15,0,0
255988,344.827586206897,4,2,0,15,1,0
255988,-256.410256410256,4,2,0,15,0,0
256850,344.827586206897,4,2,0,15,1,0
256850,-256.410256410256,4,2,0,15,0,0
257195,-263.157894736842,4,2,0,15,0,0
257885,344.827586206897,4,2,0,15,1,0
257885,-263.157894736842,4,2,0,15,0,0
258574.333333333,-270.27027027027,4,2,0,15,0,0
258747,344.827586206897,4,2,0,15,1,0
258747,-270.27027027027,4,2,0,15,0,0
259609,344.827586206897,4,2,0,15,1,0
259609,-270.27027027027,4,2,0,15,0,0
259953.666666667,-277.777777777778,4,2,0,15,0,0
260643,344.827586206897,4,2,0,15,1,0
260643,-277.777777777778,4,2,0,15,0,0
261505,344.827586206897,4,2,0,15,1,0
261505,-270.27027027027,4,2,0,15,0,0
261521.412698413,-250,4,2,0,15,0,0
261537.825396825,-238.095238095238,4,2,0,15,0,0
261554.238095238,-222.222222222222,4,2,0,15,0,0
261570.650793651,-212.765957446809,4,2,0,15,0,0
261587.063492063,-200,4,2,0,15,0,0
261603.476190476,-188.679245283019,4,2,0,15,0,0
261619.888888889,-181.818181818182,4,2,0,15,0,0
261636.301587302,-172.413793103448,4,2,0,15,0,0
261652.714285714,-166.666666666667,4,2,0,15,0,0
261669.126984127,-158.730158730159,4,2,0,15,0,0
261685.53968254,-153.846153846154,4,2,0,15,0,0
261701.952380952,-147.058823529412,4,2,0,15,0,0
261718.365079365,-140.845070422535,4,2,0,15,0,0
261734.777777778,-136.986301369863,4,2,0,15,0,0
261751.19047619,-131.578947368421,4,2,0,15,0,0
261767.603174603,-128.205128205128,4,2,0,15,0,0
261784.015873016,-123.456790123457,4,2,0,15,0,0
261800.428571429,-119.047619047619,4,2,0,15,0,0
261816.841269841,-116.279069767442,4,2,0,15,0,0
261833.253968254,-112.359550561798,4,2,0,15,0,0
261849.666666667,-109.89010989011,4,2,0,15,0,0
261866.079365079,-106.382978723404,4,2,0,15,0,0
261882.492063492,-103.092783505155,4,2,0,15,0,0
261898.904761905,-101.010101010101,4,2,0,15,0,0
261915.317460317,-98.0392156862745,4,2,0,15,0,0
261931.73015873,-96.1538461538461,4,2,0,15,0,0
261948.142857143,-93.4579439252336,4,2,0,15,0,0
261964.555555556,-91.743119266055,4,2,0,15,0,0
261980.968253968,-89.2857142857143,4,2,0,15,0,0
261997.380952381,-86.9565217391304,4,2,0,15,0,0
262013.793650794,-85.4700854700855,4,2,0,15,0,0
262030.206349206,-83.3333333333333,4,2,0,15,0,0
262046.619047619,-81.9672131147541,4,2,0,15,0,0
262063.031746032,-80,4,2,0,15,0,0
262079.444444444,-78.125,4,2,0,15,0,0
262095.857142857,-76.9230769230769,4,2,0,15,0,0
262112.26984127,-75.187969924812,4,2,0,15,0,0
262128.682539683,-74.0740740740741,4,2,0,15,0,0
262145.095238095,-72.463768115942,4,2,0,15,0,0
262161.507936508,-71.4285714285714,4,2,0,15,0,0
262177.920634921,-69.9300699300699,4,2,0,15,0,0
262194.333333333,-68.4931506849315,4,2,0,15,0,0
262210.746031746,-67.5675675675676,4,2,0,15,0,0
262227.158730159,-66.2251655629139,4,2,0,15,0,0
262243.571428571,-65.359477124183,4,2,0,15,0,0
262259.984126984,-64.1025641025641,4,2,0,15,0,0
262276.396825397,-62.8930817610063,4,2,0,15,0,0
262292.80952381,-62.111801242236,4,2,0,15,0,0
262309.222222222,-60.9756097560976,4,2,0,15,0,0
262325.634920635,-60.2409638554217,4,2,0,15,0,0
262342.047619048,-59.1715976331361,4,2,0,15,0,0
262358.46031746,-58.1395348837209,4,2,0,15,0,0
262374.873015873,-57.4712643678161,4,2,0,15,0,0
262391.285714286,-56.4971751412429,4,2,0,15,0,0
262407.698412698,-55.8659217877095,4,2,0,15,0,0
262424.111111111,-54.9450549450549,4,2,0,15,0,0
262440.523809524,-54.3478260869565,4,2,0,15,0,0
262456.936507937,-53.475935828877,4,2,0,15,0,0
262473.349206349,-52.6315789473684,4,2,0,15,0,0
262489.761904762,-52.0833333333333,4,2,0,15,0,0
262506.174603175,-51.2820512820513,4,2,0,15,0,0
262522.587301587,-50.761421319797,4,2,0,15,0,0
262539,-50,4,2,0,15,0,0
428746,-52.6315789473684,4,2,0,15,0,0
428768,-1000,4,2,0,15,0,0
428789,-52.6315789473684,4,2,0,15,0,0
428811,-1000,4,2,0,15,0,0
428832,-52.6315789473684,4,2,0,15,0,0
428854,-1000,4,2,0,15,0,0
428875,-52.6315789473684,4,2,0,15,0,0
428897,-1000,4,2,0,15,0,0
428919,-100,4,2,0,15,0,0
429091,-52.6315789473684,4,2,0,15,0,0
429113,-1000,4,2,0,15,0,0
429134,-52.6315789473684,4,2,0,15,0,0
429156,-1000,4,2,0,15,0,0
429177,-52.6315789473684,4,2,0,15,0,0
429199,-1000,4,2,0,15,0,0
429220,-52.6315789473684,4,2,0,15,0,0
429242,-1000,4,2,0,15,0,0
429264,-100,4,2,0,15,0,0
429436,-52.6315789473684,4,2,0,15,0,0
429458,-1000,4,2,0,15,0,0
429479,-52.6315789473684,4,2,0,15,0,0
429501,-1000,4,2,0,15,0,0
429522,-52.6315789473684,4,2,0,15,0,0
429544,-1000,4,2,0,15,0,0
429565,-52.6315789473684,4,2,0,15,0,0
429587,-1000,4,2,0,15,0,0
429609,-100,4,2,0,15,0,0
429781,-52.6315789473684,4,2,0,15,0,0
429803,-1000,4,2,0,15,0,0
429824,-52.6315789473684,4,2,0,15,0,0
429846,-1000,4,2,0,15,0,0
429867,-52.6315789473684,4,2,0,15,0,0
429889,-1000,4,2,0,15,0,0
429910,-52.6315789473684,4,2,0,15,0,0
429932,-1000,4,2,0,15,0,0
429954,-100,4,2,0,15,0,0
430125,-52.6315789473684,4,2,0,15,0,0
430147,-1000,4,2,0,15,0,0
430168,-52.6315789473684,4,2,0,15,0,0
430190,-1000,4,2,0,15,0,0
430211,-52.6315789473684,4,2,0,15,0,0
430233,-1000,4,2,0,15,0,0
430254,-52.6315789473684,4,2,0,15,0,0
430276,-1000,4,2,0,15,0,0
430298,-100,4,2,0,15,0,0
430470,-52.6315789473684,4,2,0,15,0,0
430492,-1000,4,2,0,15,0,0
430513,-52.6315789473684,4,2,0,15,0,0
430535,-1000,4,2,0,15,0,0
430556,-52.6315789473684,4,2,0,15,0,0
430578,-1000,4,2,0,15,0,0
430599,-52.6315789473684,4,2,0,15,0,0
430621,-1000,4,2,0,15,0,0
430643,-100,4,2,0,15,0,0
430815,-52.6315789473684,4,2,0,15,0,0
430837,-1000,4,2,0,15,0,0
430858,-52.6315789473684,4,2,0,15,0,0
430880,-1000,4,2,0,15,0,0
430901,-52.6315789473684,4,2,0,15,0,0
430923,-1000,4,2,0,15,0,0
430944,-52.6315789473684,4,2,0,15,0,0
430966,-1000,4,2,0,15,0,0
430988,-100,4,2,0,15,0,0
431160,-52.6315789473684,4,2,0,15,0,0
431182,-1000,4,2,0,15,0,0
431203,-52.6315789473684,4,2,0,15,0,0
431225,-1000,4,2,0,15,0,0
431246,-52.6315789473684,4,2,0,15,0,0
431268,-1000,4,2,0,15,0,0
431289,-52.6315789473684,4,2,0,15,0,0
431311,-1000,4,2,0,15,0,0
431333,-100,4,2,0,15,0,0
431505,-55.5555555555556,4,2,0,15,0,0
431527,-500,4,2,0,15,0,0
431548,-55.5555555555556,4,2,0,15,0,0
431570,-500,4,2,0,15,0,0
431591,-55.5555555555556,4,2,0,15,0,0
431613,-500,4,2,0,15,0,0
431634,-55.5555555555556,4,2,0,15,0,0
431656,-500,4,2,0,15,0,0
431678,-100,4,2,0,15,0,0
431850,-55.5555555555556,4,2,0,15,0,0
431872,-500,4,2,0,15,0,0
431893,-55.5555555555556,4,2,0,15,0,0
431915,-500,4,2,0,15,0,0
431936,-55.5555555555556,4,2,0,15,0,0
431958,-500,4,2,0,15,0,0
431979,-55.5555555555556,4,2,0,15,0,0
432001,-500,4,2,0,15,0,0
432023,-100,4,2,0,15,0,0
432194,-55.5555555555556,4,2,0,15,0,0
432216,-500,4,2,0,15,0,0
432237,-55.5555555555556,4,2,0,15,0,0
432259,-500,4,2,0,15,0,0
432280,-55.5555555555556,4,2,0,15,0,0
432302,-500,4,2,0,15,0,0
432323,-55.5555555555556,4,2,0,15,0,0
432345,-500,4,2,0,15,0,0
432367,-100,4,2,0,15,0,0
432539,-55.5555555555556,4,2,0,15,0,0
432561,-500,4,2,0,15,0,0
432582,-55.5555555555556,4,2,0,15,0,0
432604,-500,4,2,0,15,0,0
432625,-55.5555555555556,4,2,0,15,0,0
432647,-500,4,2,0,15,0,0
432668,-55.5555555555556,4,2,0,15,0,0
432690,-500,4,2,0,15,0,0
432712,-100,4,2,0,15,0,0
432884,-55.5555555555556,4,2,0,15,0,0
432906,-500,4,2,0,15,0,0
432927,-55.5555555555556,4,2,0,15,0,0
432949,-500,4,2,0,15,0,0
432970,-55.5555555555556,4,2,0,15,0,0
432992,-500,4,2,0,15,0,0
433013,-55.5555555555556,4,2,0,15,0,0
433035,-500,4,2,0,15,0,0
433057,-100,4,2,0,15,0,0
433229,-55.5555555555556,4,2,0,15,0,0
433251,-500,4,2,0,15,0,0
433272,-55.5555555555556,4,2,0,15,0,0
433294,-500,4,2,0,15,0,0
433315,-55.5555555555556,4,2,0,15,0,0
433337,-500,4,2,0,15,0,0
433358,-55.5555555555556,4,2,0,15,0,0
433380,-500,4,2,0,15,0,0
433402,-100,4,2,0,15,0,0
433574,-55.5555555555556,4,2,0,15,0,0
433596,-500,4,2,0,15,0,0
433617,-55.5555555555556,4,2,0,15,0,0
433639,-500,4,2,0,15,0,0
433660,-55.5555555555556,4,2,0,15,0,0
433682,-500,4,2,0,15,0,0
433703,-55.5555555555556,4,2,0,15,0,0
433725,-500,4,2,0,15,0,0
433747,-100,4,2,0,15,0,0
433919,-55.5555555555556,4,2,0,15,0,0
433941,-500,4,2,0,15,0,0
433962,-55.5555555555556,4,2,0,15,0,0
433984,-500,4,2,0,15,0,0
434005,-55.5555555555556,4,2,0,15,0,0
434027,-500,4,2,0,15,0,0
434048,-55.5555555555556,4,2,0,15,0,0
434070,-500,4,2,0,15,0,0
434092,-100,4,2,0,15,0,0
434263,-58.8235294117647,4,2,0,15,0,0
434285,-333.333333333333,4,2,0,15,0,0
434306,-58.8235294117647,4,2,0,15,0,0
434328,-333.333333333333,4,2,0,15,0,0
434349,-58.8235294117647,4,2,0,15,0,0
434371,-333.333333333333,4,2,0,15,0,0
434392,-58.8235294117647,4,2,0,15,0,0
434414,-333.333333333333,4,2,0,15,0,0
434436,-100,4,2,0,15,0,0
434608,-58.8235294117647,4,2,0,15,0,0
434630,-333.333333333333,4,2,0,15,0,0
434651,-58.8235294117647,4,2,0,15,0,0
434673,-333.333333333333,4,2,0,15,0,0
434694,-58.8235294117647,4,2,0,15,0,0
434716,-333.333333333333,4,2,0,15,0,0
434737,-58.8235294117647,4,2,0,15,0,0
434759,-333.333333333333,4,2,0,15,0,0
434781,-100,4,2,0,15,0,0
434953,-58.8235294117647,4,2,0,15,0,0
434975,-333.333333333333,4,2,0,15,0,0
434996,-58.8235294117647,4,2,0,15,0,0
435018,-333.333333333333,4,2,0,15,0,0
435039,-58.8235294117647,4,2,0,15,0,0
435061,-333.333333333333,4,2,0,15,0,0
435082,-58.8235294117647,4,2,0,15,0,0
435104,-333.333333333333,4,2,0,15,0,0
435126,-100,4,2,0,15,0,0
435298,-58.8235294117647,4,2,0,15,0,0
435320,-333.333333333333,4,2,0,15,0,0
435341,-58.8235294117647,4,2,0,15,0,0
435363,-333.333333333333,4,2,0,15,0,0
435384,-58.8235294117647,4,2,0,15,0,0
435406,-333.333333333333,4,2,0,15,0,0
435427,-58.8235294117647,4,2,0,15,0,0
435449,-333.333333333333,4,2,0,15,0,0
435471,-100,4,2,0,15,0,0
435643,-58.8235294117647,4,2,0,15,0,0
435665,-333.333333333333,4,2,0,15,0,0
435686,-58.8235294117647,4,2,0,15,0,0
435708,-333.333333333333,4,2,0,15,0,0
435729,-58.8235294117647,4,2,0,15,0,0
435751,-333.333333333333,4,2,0,15,0,0
435772,-58.8235294117647,4,2,0,15,0,0
435794,-333.333333333333,4,2,0,15,0,0
435816,-100,4,2,0,15,0,0
435987,-58.8235294117647,4,2,0,15,0,0
436009,-333.333333333333,4,2,0,15,0,0
436030,-58.8235294117647,4,2,0,15,0,0
436052,-333.333333333333,4,2,0,15,0,0
436073,-58.8235294117647,4,2,0,15,0,0
436095,-333.333333333333,4,2,0,15,0,0
436116,-58.8235294117647,4,2,0,15,0,0
436138,-333.333333333333,4,2,0,15,0,0
436160,-100,4,2,0,15,0,0
436332,-58.8235294117647,4,2,0,15,0,0
436354,-333.333333333333,4,2,0,15,0,0
436375,-58.8235294117647,4,2,0,15,0,0
436397,-333.333333333333,4,2,0,15,0,0
436418,-58.8235294117647,4,2,0,15,0,0
436440,-333.333333333333,4,2,0,15,0,0
436461,-58.8235294117647,4,2,0,15,0,0
436483,-333.333333333333,4,2,0,15,0,0
436505,-100,4,2,0,15,0,0
436677,-58.8235294117647,4,2,0,15,0,0
436699,-333.333333333333,4,2,0,15,0,0
436720,-58.8235294117647,4,2,0,15,0,0
436742,-333.333333333333,4,2,0,15,0,0
436763,-58.8235294117647,4,2,0,15,0,0
436785,-333.333333333333,4,2,0,15,0,0
436806,-58.8235294117647,4,2,0,15,0,0
436828,-333.333333333333,4,2,0,15,0,0
436850,-100,4,2,0,15,0,0
437022,-62.5,4,2,0,15,0,0
437044,-250,4,2,0,15,0,0
437065,-62.5,4,2,0,15,0,0
437087,-250,4,2,0,15,0,0
437108,-62.5,4,2,0,15,0,0
437130,-250,4,2,0,15,0,0
437151,-62.5,4,2,0,15,0,0
437173,-250,4,2,0,15,0,0
437195,-100,4,2,0,15,0,0
437367,-62.5,4,2,0,15,0,0
437389,-250,4,2,0,15,0,0
437410,-62.5,4,2,0,15,0,0
437432,-250,4,2,0,15,0,0
437453,-62.5,4,2,0,15,0,0
437475,-250,4,2,0,15,0,0
437496,-62.5,4,2,0,15,0,0
437518,-250,4,2,0,15,0,0
437540,-100,4,2,0,15,0,0
437712,-62.5,4,2,0,15,0,0
437734,-250,4,2,0,15,0,0
437755,-62.5,4,2,0,15,0,0
437777,-250,4,2,0,15,0,0
437798,-62.5,4,2,0,15,0,0
437820,-250,4,2,0,15,0,0
437841,-62.5,4,2,0,15,0,0
437863,-250,4,2,0,15,0,0
437885,-100,4,2,0,15,0,0
438056,-62.5,4,2,0,15,0,0
438078,-250,4,2,0,15,0,0
438099,-62.5,4,2,0,15,0,0
438121,-250,4,2,0,15,0,0
438142,-62.5,4,2,0,15,0,0
438164,-250,4,2,0,15,0,0
438185,-62.5,4,2,0,15,0,0
438207,-250,4,2,0,15,0,0
438229,-100,4,2,0,15,0,0
438401,-62.5,4,2,0,15,0,0
438423,-250,4,2,0,15,0,0
438444,-62.5,4,2,0,15,0,0
438466,-250,4,2,0,15,0,0
438487,-62.5,4,2,0,15,0,0
438509,-250,4,2,0,15,0,0
438530,-62.5,4,2,0,15,0,0
438552,-250,4,2,0,15,0,0
438574,-100,4,2,0,15,0,0
438746,-62.5,4,2,0,15,0,0
438768,-250,4,2,0,15,0,0
438789,-62.5,4,2,0,15,0,0
438811,-250,4,2,0,15,0,0
438832,-62.5,4,2,0,15,0,0
438854,-250,4,2,0,15,0,0
438875,-62.5,4,2,0,15,0,0
438897,-250,4,2,0,15,0,0
438919,-100,4,2,0,15,0,0

[HitObjects]
64,192,8920,5,0,0:0:0:0:
448,192,8920,1,0,0:0:0:0:
320,192,9092,1,0,0:0:0:0:
192,192,9264,1,0,0:0:0:0:
448,192,9437,1,0,0:0:0:0:
64,192,9609,1,0,0:0:0:0:
448,192,9782,1,0,0:0:0:0:
320,192,9954,1,0,0:0:0:0:
192,192,10126,1,0,0:0:0:0:
320,192,10299,1,0,0:0:0:0:
64,192,10471,1,0,0:0:0:0:
448,192,10644,1,0,0:0:0:0:
192,192,10816,1,0,0:0:0:0:
320,192,10988,1,0,0:0:0:0:
192,192,11161,1,0,0:0:0:0:
64,192,11333,1,0,0:0:0:0:
448,192,11506,1,0,0:0:0:0:
320,192,11678,1,0,0:0:0:0:
192,192,11678,1,0,0:0:0:0:
448,192,11851,1,0,0:0:0:0:
192,192,12023,1,0,0:0:0:0:
320,192,12195,1,0,0:0:0:0:
64,192,12368,1,0,0:0:0:0:
320,192,12540,1,0,0:0:0:0:
448,192,12713,1,0,0:0:0:0:
192,192,12885,1,0,0:0:0:0:
448,192,13057,1,0,0:0:0:0:
320,192,13057,1,0,0:0:0:0:
64,192,13230,1,0,0:0:0:0:
320,192,13402,1,0,0:0:0:0:
448,192,13575,1,0,0:0:0:0:
64,192,13747,1,0,0:0:0:0:
192,192,13747,1,0,0:0:0:0:
320,192,13920,1,0,0:0:0:0:
192,192,14092,1,0,0:0:0:0:
448,192,14264,1,0,0:0:0:0:
64,192,14437,1,0,0:0:0:0:
320,192,14437,1,0,0:0:0:0:
448,192,14609,1,0,0:0:0:0:
192,192,14782,1,0,0:0:0:0:
320,192,14954,1,0,0:0:0:0:
64,192,15126,1,0,0:0:0:0:
448,192,15299,1,0,0:0:0:0:
192,192,15471,1,0,0:0:0:0:
320,192,15644,1,0,0:0:0:0:
448,192,15816,1,0,0:0:0:0:
64,192,15988,1,0,0:0:0:0:
192,192,16161,1,0,0:0:0:0:
320,192,16333,1,0,0:0:0:0:
192,192,16506,1,0,0:0:0:0:
448,192,16678,1,0,0:0:0:0:
64,192,16851,1,0,0:0:0:0:
192,192,17023,1,0,0:0:0:0:
448,192,17195,1,0,0:0:0:0:
320,192,17195,1,0,0:0:0:0:
192,192,17368,1,0,0:0:0:0:
448,192,17540,1,0,0:0:0:0:
320,192,17713,1,0,0:0:0:0:
64,192,17885,1,0,0:0:0:0:
320,192,18057,1,0,0:0:0:0:
192,192,18230,1,0,0:0:0:0:
320,192,18402,1,0,0:0:0:0:
192,192,18575,1,0,0:0:0:0:
448,192,18575,1,0,0:0:0:0:
64,192,18747,1,0,0:0:0:0:
320,192,18920,1,0,0:0:0:0:
192,192,19092,1,0,0:0:0:0:
448,192,19264,1,0,0:0:0:0:
320,192,19437,1,0,0:0:0:0:
64,192,19609,1,0,0:0:0:0:
448,192,19782,1,0,0:0:0:0:
64,192,19954,1,0,0:0:0:0:
192,192,19954,1,0,0:0:0:0:
448,192,20126,1,0,0:0:0:0:
448,192,20213,1,0,0:0:0:0:
320,192,20299,1,0,0:0:0:0:
320,192,20471,1,0,0:0:0:0:
192,192,20557,1,0,0:0:0:0:
448,192,20644,1,0,0:0:0:0:
320,192,20816,1,0,0:0:0:0:
320,192,20902,1,0,0:0:0:0:
64,192,20988,1,0,0:0:0:0:
448,192,21161,1,0,0:0:0:0:
192,192,21247,1,0,0:0:0:0:
320,192,21333,1,0,0:0:0:0:
192,192,21506,1,0,0:0:0:0:
192,192,21592,1,0,0:0:0:0:
448,192,21678,1,0,0:0:0:0:
320,192,21851,1,0,0:0:0:0:
192,192,21937,1,0,0:0:0:0:
448,192,22023,1,0,0:0:0:0:
64,192,22195,1,0,0:0:0:0:
64,192,22282,1,0,0:0:0:0:
192,192,22368,1,0,0:0:0:0:
320,192,22540,1,0,0:0:0:0:
192,192,22626,1,0,0:0:0:0:
320,192,22713,1,0,0:0:0:0:
448,192,22713,1,0,0:0:0:0:
192,192,22885,1,0,0:0:0:0:
448,192,22971,1,0,0:0:0:0:
448,192,23057,1,0,0:0:0:0:
320,192,23230,1,0,0:0:0:0:
192,192,23316,1,0,0:0:0:0:
448,192,23402,1,0,0:0:0:0:
64,192,23575,1,0,0:0:0:0:
320,192,23661,1,0,0:0:0:0:
320,192,23747,1,0,0:0:0:0:
192,192,23920,1,0,0:0:0:0:
192,192,24006,1,0,0:0:0:0:
320,192,24092,1,0,0:0:0:0:
448,192,24092,1,0,0:0:0:0:
64,192,24351,1,0,0:0:0:0:
192,192,24351,1,0,0:0:0:0:
320,192,24437,1,0,0:0:0:0:
448,192,24437,1,0,0:0:0:0:
192,192,24609,1,0,0:0:0:0:
64,192,24609,1,0,0:0:0:0:
64,192,24695,1,0,0:0:0:0:
192,192,24782,1,0,0:0:0:0:
448,192,24782,1,0,0:0:0:0:
320,192,24954,1,0,0:0:0:0:
448,192,24954,1,0,0:0:0:0:
64,192,25126,1,0,0:0:0:0:
320,192,25126,1,0,0:0:0:0:
192,192,25299,1,0,0:0:0:0:
320,192,25385,1,0,0:0:0:0:
192,192,25471,1,0,0:0:0:0:
64,192,25471,1,0,0:0:0:0:
64,192,25644,1,0,0:0:0:0:
192,192,25816,1,0,0:0:0:0:
320,192,25816,1,0,0:0:0:0:
320,192,25988,1,0,0:0:0:0:
448,192,25988,1,0,0:0:0:0:
192,192,26075,1,0,0:0:0:0:
448,192,26161,1,0,0:0:0:0:
64,192,26247,1,0,0:0:0:0:
320,192,26333,1,0,0:0:0:0:
64,192,26420,1,0,0:0:0:0:
192,192,26506,1,0,0:0:0:0:
448,192,26506,1,0,0:0:0:0:
320,192,26678,1,0,0:0:0:0:
64,192,26764,1,0,0:0:0:0:
448,192,26851,1,0,0:0:0:0:
64,192,26937,1,0,0:0:0:0:
320,192,27023,1,0,0:0:0:0:
448,192,27023,1,0,0:0:0:0:
192,192,27282,1,0,0:0:0:0:
320,192,27368,1,0,0:0:0:0:
64,192,27368,1,0,0:0:0:0:
448,192,27540,1,0,0:0:0:0:
192,192,27540,1,0,0:0:0:0:
64,192,27626,1,0,0:0:0:0:
320,192,27713,1,0,0:0:0:0:
448,192,27713,1,0,0:0:0:0:
64,192,27799,1,0,0:0:0:0:
320,192,27885,1,0,0:0:0:0:
192,192,27885,1,0,0:0:0:0:
448,192,28057,1,0,0:0:0:0:
448,192,28144,1,0,0:0:0:0:
64,192,28230,1,0,0:0:0:0:
192,192,28230,1,0,0:0:0:0:
320,192,28402,1,0,0:0:0:0:
64,192,28402,1,0,0:0:0:0:
192,192,28488,1,0,0:0:0:0:
64,192,28575,1,0,0:0:0:0:
448,192,28575,1,0,0:0:0:0:
320,192,28747,1,0,0:0:0:0:
192,192,28833,1,0,0:0:0:0:
448,192,28920,1,0,0:0:0:0:
64,192,28920,1,0,0:0:0:0:
320,192,29006,1,0,0:0:0:0:
192,192,29092,1,0,0:0:0:0:
320,192,29092,1,0,0:0:0:0:
64,192,29264,1,0,0:0:0:0:
192,192,29264,1,0,0:0:0:0:
448,192,29437,1,0,0:0:0:0:
64,192,29609,1,0,0:0:0:0:
320,192,29609,1,0,0:0:0:0:
448,192,29609,1,0,0:0:0:0:
320,192,29782,1,0,0:0:0:0:
192,192,29782,1,0,0:0:0:0:
320,192,29954,1,0,0:0:0:0:
192,192,29954,1,0,0:0:0:0:
64,192,30126,1,0,0:0:0:0:
448,192,30126,1,0,0:0:0:0:
192,192,30213,1,0,0:0:0:0:
320,192,30299,1,0,0:0:0:0:
448,192,30299,1,0,0:0:0:0:
448,192,30385,1,0,0:0:0:0:
64,192,30471,1,0,0:0:0:0:
192,192,30471,1,0,0:0:0:0:
448,192,30644,1,0,0:0:0:0:
64,192,30644,1,0,0:0:0:0:
320,192,30816,1,0,0:0:0:0:
320,192,30902,1,0,0:0:0:0:
448,192,30988,1,0,0:0:0:0:
64,192,30988,1,0,0:0:0:0:
192,192,30988,1,0,0:0:0:0:
320,192,31333,1,0,0:0:0:0:
448,192,31333,1,0,0:0:0:0:
64,192,31333,1,0,0:0:0:0:
192,192,31506,1,0,0:0:0:0:
448,192,31592,1,0,0:0:0:0:
192,192,31678,1,0,0:0:0:0:
320,192,31764,1,0,0:0:0:0:
448,192,31851,1,0,0:0:0:0:
64,192,31851,1,0,0:0:0:0:
192,192,31851,1,0,0:0:0:0:
64,192,32023,1,0,0:0:0:0:
448,192,32023,1,0,0:0:0:0:
64,192,32368,1,0,0:0:0:0:
320,192,32368,1,0,0:0:0:0:
448,192,32368,1,0,0:0:0:0:
192,192,32368,1,0,0:0:0:0:
192,192,32540,1,0,0:0:0:0:
64,192,32540,1,0,0:0:0:0:
320,192,32540,1,0,0:0:0:0:
448,192,32540,1,0,0:0:0:0:
192,192,32885,1,0,0:0:0:0:
64,192,32885,1,0,0:0:0:0:
448,192,32971,1,0,0:0:0:0:
192,192,33057,1,0,0:0:0:0:
448,192,33144,1,0,0:0:0:0:
320,192,33230,1,0,0:0:0:0:
64,192,33230,1,0,0:0:0:0:
64,192,33402,1,0,0:0:0:0:
192,192,33402,1,0,0:0:0:0:
448,192,33402,1,0,0:0:0:0:
448,192,33747,1,0,0:0:0:0:
64,192,33747,1,0,0:0:0:0:
320,192,33747,1,0,0:0:0:0:
64,192,34092,1,0,0:0:0:0:
192,192,34092,1,0,0:0:0:0:
448,192,34092,1,0,0:0:0:0:
320,192,34264,1,0,0:0:0:0:
64,192,34351,1,0,0:0:0:0:
320,192,34437,1,0,0:0:0:0:
64,192,34523,1,0,0:0:0:0:
448,192,34609,1,0,0:0:0:0:
192,192,34609,1,0,0:0:0:0:
320,192,34782,1,0,0:0:0:0:
64,192,34782,1,0,0:0:0:0:
448,192,34782,1,0,0:0:0:0:
192,192,35126,1,0,0:0:0:0:
320,192,35126,1,0,0:0:0:0:
64,192,35126,1,0,0:0:0:0:
192,192,35299,1,0,0:0:0:0:
320,192,35299,1,0,0:0:0:0:
448,192,35299,1,0,0:0:0:0:
64,192,35644,1,0,0:0:0:0:
320,192,35730,1,0,0:0:0:0:
448,192,35730,1,0,0:0:0:0:
64,192,35816,1,0,0:0:0:0:
192,192,35816,1,0,0:0:0:0:
448,192,35902,1,0,0:0:0:0:
320,192,35988,1,0,0:0:0:0:
64,192,35988,1,0,0:0:0:0:
320,192,36161,1,0,0:0:0:0:
448,192,36161,1,0,0:0:0:0:
64,192,36161,1,0,0:0:0:0:
192,192,36333,1,0,0:0:0:0:
448,192,36333,1,0,0:0:0:0:
192,192,36506,1,0,0:0:0:0:
320,192,36506,1,0,0:0:0:0:
448,192,36506,1,0,0:0:0:0:
320,192,36851,1,0,0:0:0:0:
448,192,36851,1,0,0:0:0:0:
64,192,36851,1,0,0:0:0:0:
320,192,37023,1,0,0:0:0:0:
192,192,37109,1,0,0:0:0:0:
448,192,37195,1,0,0:0:0:0:
64,192,37282,1,0,0:0:0:0:
448,192,37368,1,0,0:0:0:0:
320,192,37368,1,0,0:0:0:0:
192,192,37454,1,0,0:0:0:0:
448,192,37540,1,0,0:0:0:0:
320,192,37540,1,0,0:0:0:0:
64,192,37540,1,0,0:0:0:0:
448,192,37885,1,0,0:0:0:0:
64,192,37885,1,0,0:0:0:0:
320,192,37885,1,0,0:0:0:0:
64,192,38057,1,0,0:0:0:0:
192,192,38057,1,0,0:0:0:0:
448,192,38057,1,0,0:0:0:0:
320,192,38402,1,0,0:0:0:0:
192,192,38402,1,0,0:0:0:0:
448,192,38488,1,0,0:0:0:0:
64,192,38575,1,0,0:0:0:0:
448,192,38661,1,0,0:0:0:0:
192,192,38747,1,0,0:0:0:0:
64,192,38747,1,0,0:0:0:0:
320,192,38833,1,0,0:0:0:0:
64,192,38920,1,0,0:0:0:0:
192,192,38920,1,0,0:0:0:0:
448,192,38920,1,0,0:0:0:0:
64,192,39264,1,0,0:0:0:0:
192,192,39264,1,0,0:0:0:0:
320,192,39264,1,0,0:0:0:0:
448,192,39609,1,0,0:0:0:0:
192,192,39609,1,0,0:0:0:0:
320,192,39609,1,0,0:0:0:0:
64,192,39782,1,0,0:0:0:0:
448,192,39868,1,0,0:0:0:0:
64,192,39954,1,0,0:0:0:0:
320,192,40040,1,0,0:0:0:0:
448,192,40126,1,0,0:0:0:0:
192,192,40126,1,0,0:0:0:0:
64,192,40213,1,0,0:0:0:0:
448,192,40299,1,0,0:0:0:0:
320,192,40299,1,0,0:0:0:0:
192,192,40299,1,0,0:0:0:0:
64,192,40644,1,0,0:0:0:0:
320,192,40644,1,0,0:0:0:0:
192,192,40644,1,0,0:0:0:0:
448,192,40816,1,0,0:0:0:0:
320,192,40816,1,0,0:0:0:0:
448,192,40988,1,0,0:0:0:0:
320,192,40988,1,0,0:0:0:0:
64,192,40988,1,0,0:0:0:0:
192,192,41161,1,0,0:0:0:0:
448,192,41247,1,0,0:0:0:0:
192,192,41333,1,0,0:0:0:0:
320,192,41420,1,0,0:0:0:0:
448,192,41420,1,0,0:0:0:0:
64,192,41506,1,0,0:0:0:0:
192,192,41506,1,0,0:0:0:0:
64,192,41678,1,0,0:0:0:0:
448,192,41678,1,0,0:0:0:0:
320,192,41851,1,0,0:0:0:0:
192,192,41851,1,0,0:0:0:0:
320,192,41937,1,0,0:0:0:0:
448,192,42023,1,0,0:0:0:0:
192,192,42023,1,0,0:0:0:0:
64,192,42023,1,0,0:0:0:0:
320,192,42195,1,0,0:0:0:0:
192,192,42195,1,0,0:0:0:0:
64,192,42368,1,0,0:0:0:0:
320,192,42368,1,0,0:0:0:0:
448,192,42368,1,0,0:0:0:0:
192,192,42540,1,0,0:0:0:0:
320,192,42626,1,0,0:0:0:0:
192,192,42713,1,0,0:0:0:0:
448,192,42799,1,0,0:0:0:0:
320,192,42885,1,0,0:0:0:0:
192,192,42885,1,0,0:0:0:0:
64,192,42971,1,0,0:0:0:0:
448,192,43057,1,0,0:0:0:0:
192,192,43057,1,0,0:0:0:0:
320,192,43057,1,0,0:0:0:0:
64,192,43230,1,0,0:0:0:0:
64,192,43402,1,0,0:0:0:0:
192,192,43402,1,0,0:0:0:0:
448,192,43402,1,0,0:0:0:0:
320,192,43402,1,0,0:0:0:0:
320,192,43575,1,0,0:0:0:0:
448,192,43575,1,0,0:0:0:0:
64,192,43575,1,0,0:0:0:0:
192,192,43575,1,0,0:0:0:0:
448,192,43747,1,0,0:0:0:0:
320,192,43920,1,0,0:0:0:0:
192,192,44006,1,0,0:0:0:0:
320,192,44092,1,0,0:0:0:0:
64,192,44178,1,0,0:0:0:0:
192,192,44264,1,0,0:0:0:0:
64,192,44264,1,0,0:0:0:0:
448,192,44351,1,0,0:0:0:0:
64,192,44437,1,0,0:0:0:0:
192,192,44437,1,0,0:0:0:0:
320,192,44437,1,0,0:0:0:0:
64,192,44609,1,0,0:0:0:0:
448,192,44782,1,0,0:0:0:0:
320,192,44782,1,0,0:0:0:0:
192,192,44782,1,0,0:0:0:0:
320,192,44954,1,0,0:0:0:0:
448,192,45126,1,0,0:0:0:0:
192,192,45126,1,0,0:0:0:0:
64,192,45126,1,0,0:0:0:0:
448,192,45299,1,0,0:0:0:0:
64,192,45385,1,0,0:0:0:0:
448,192,45471,1,0,0:0:0:0:
192,192,45557,1,0,0:0:0:0:
448,192,45644,1,0,0:0:0:0:
64,192,45644,1,0,0:0:0:0:
320,192,45730,1,0,0:0:0:0:
448,192,45816,1,0,0:0:0:0:
192,192,45816,1,0,0:0:0:0:
64,192,45816,1,0,0:0:0:0:
320,192,45988,1,0,0:0:0:0:
192,192,46161,1,0,0:0:0:0:
448,192,46161,1,0,0:0:0:0:
64,192,46161,1,0,0:0:0:0:
320,192,46161,1,0,0:0:0:0:
448,192,46333,1,0,0:0:0:0:
64,192,46333,1,0,0:0:0:0:
192,192,46333,1,0,0:0:0:0:
320,192,46333,1,0,0:0:0:0:
192,192,46506,1,0,0:0:0:0:
448,192,46678,1,0,0:0:0:0:
320,192,46678,1,0,0:0:0:0:
64,192,46764,1,0,0:0:0:0:
192,192,46764,1,0,0:0:0:0:
320,192,46851,1,0,0:0:0:0:
64,192,46937,1,0,0:0:0:0:
320,192,47023,1,0,0:0:0:0:
448,192,47023,1,0,0:0:0:0:
192,192,47109,1,0,0:0:0:0:
64,192,47195,1,0,0:0:0:0:
448,192,47195,1,0,0:0:0:0:
320,192,47195,1,0,0:0:0:0:
192,192,47368,1,0,0:0:0:0:
448,192,47368,1,0,0:0:0:0:
64,192,47540,1,0,0:0:0:0:
192,192,47540,1,0,0:0:0:0:
448,192,47540,1,0,0:0:0:0:
320,192,47713,1,0,0:0:0:0:
448,192,47885,1,0,0:0:0:0:
320,192,47885,1,0,0:0:0:0:
64,192,47885,1,0,0:0:0:0:
192,192,48057,1,0,0:0:0:0:
448,192,48144,1,0,0:0:0:0:
192,192,48230,1,0,0:0:0:0:
320,192,48316,1,0,0:0:0:0:
192,192,48402,1,0,0:0:0:0:
64,192,48402,1,0,0:0:0:0:
320,192,48488,1,0,0:0:0:0:
192,192,48575,1,0,0:0:0:0:
448,192,48575,1,0,0:0:0:0:
64,192,48575,1,0,0:0:0:0:
64,192,48747,1,0,0:0:0:0:
192,192,48920,1,0,0:0:0:0:
320,192,48920,1,0,0:0:0:0:
448,192,48920,1,0,0:0:0:0:
64,192,48920,1,0,0:0:0:0:
320,192,49092,1,0,0:0:0:0:
192,192,49092,1,0,0:0:0:0:
64,192,49092,1,0,0:0:0:0:
448,192,49092,1,0,0:0:0:0:
448,192,49264,1,0,0:0:0:0:
64,192,49437,1,0,0:0:0:0:
320,192,49437,1,0,0:0:0:0:
320,192,49523,1,0,0:0:0:0:
64,192,49609,1,0,0:0:0:0:
320,192,49695,1,0,0:0:0:0:
192,192,49782,1,0,0:0:0:0:
448,192,49868,1,0,0:0:0:0:
192,192,49954,1,0,0:0:0:0:
64,192,49954,1,0,0:0:0:0:
192,192,50126,1,0,0:0:0:0:
320,192,50126,1,0,0:0:0:0:
320,192,50299,1,0,0:0:0:0:
448,192,50299,1,0,0:0:0:0:
320,192,50385,1,0,0:0:0:0:
448,192,50385,1,0,0:0:0:0:
64,192,50471,1,0,0:0:0:0:
192,192,50471,1,0,0:0:0:0:
448,192,50557,1,0,0:0:0:0:
320,192,50644,1,0,0:0:0:0:
64,192,50644,1,0,0:0:0:0:
192,192,50644,1,0,0:0:0:0:
64,192,50730,1,0,0:0:0:0:
192,192,50730,1,0,0:0:0:0:
320,192,50816,1,0,0:0:0:0:
448,192,50816,1,0,0:0:0:0:
64,192,50902,1,0,0:0:0:0:
320,192,50988,1,0,0:0:0:0:
192,192,50988,1,0,0:0:0:0:
448,192,50988,1,0,0:0:0:0:
320,192,51075,1,0,0:0:0:0:
448,192,51075,1,0,0:0:0:0:
192,192,51161,1,0,0:0:0:0:
448,192,51247,1,0,0:0:0:0:
64,192,51247,1,0,0:0:0:0:
64,192,51333,1,0,0:0:0:0:
192,192,51333,1,0,0:0:0:0:
320,192,51333,1,0,0:0:0:0:
448,192,51420,1,0,0:0:0:0:
320,192,51420,1,0,0:0:0:0:
192,192,51506,1,0,0:0:0:0:
448,192,51592,1,0,0:0:0:0:
64,192,51592,1,0,0:0:0:0:
320,192,51678,1,0,0:0:0:0:
64,192,51721,1,0,0:0:0:0:
192,192,51764,1,0,0:0:0:0:
448,192,51807,1,0,0:0:0:0:
320,192,51851,1,0,0:0:0:0:
192,192,51894,1,0,0:0:0:0:
448,192,51937,1,0,0:0:0:0:
64,192,51980,1,0,0:0:0:0:
192,192,52023,1,0,0:0:0:0:
320,192,52066,1,0,0:0:0:0:
448,192,52109,1,0,0:0:0:0:
64,192,52152,1,0,0:0:0:0:
192,192,52195,1,0,0:0:0:0:
320,192,52238,1,0,0:0:0:0:
64,192,52282,1,0,0:0:0:0:
448,192,52325,1,0,0:0:0:0:
192,192,52368,128,0,53057:0:0:0:0:
320,192,53057,128,0,53920:0:0:0:0:
448,192,53057,1,0,0:0:0:0:
64,192,53057,1,0,0:0:0:0:
448,192,53747,128,0,54437:0:3:0:0:
192,192,53833,128,0,54954:0:3:0:0:
64,192,53920,128,0,54782:0:3:0:0:
320,192,54437,128,0,54782:0:0:0:0:
448,192,54954,128,0,55299:0:0:0:0:
64,192,54954,128,0,55299:0:0:0:0:
320,192,54954,128,0,55471:0:0:0:0:
192,192,55471,128,0,56161:0:0:0:0:
64,192,55471,128,0,56161:0:0:0:0:
448,192,55471,128,0,56161:0:0:0:0:
320,192,56161,128,0,56247:0:0:0:0:
320,192,56333,128,0,56420:0:0:0:0:
320,192,56506,128,0,56592:0:0:0:0:
320,192,56678,128,0,56937:0:0:0:0:
448,192,57195,128,0,57713:0:0:0:0:
320,192,57195,128,0,57540:0:0:0:0:
192,192,57195,128,0,57540:0:0:0:0:
64,192,57713,128,0,58057:0:0:0:0:
192,192,57713,128,0,58057:0:0:0:0:
320,192,57713,128,0,58230:0:0:0:0:
448,192,58230,128,0,58920:0:0:0:0:
64,192,58230,128,0,58920:0:0:0:0:
192,192,58230,128,0,58920:0:0:0:0:
320,192,58920,128,0,59695:0:0:0:0:
192,192,59092,128,0,59264:0:0:0:0:
64,192,59264,128,0,59695:0:0:0:0:
448,192,59437,128,0,59695:0:0:0:0:
192,192,59695,128,0,59954:0:0:0:0:
448,192,59954,128,0,60299:0:0:0:0:
320,192,59954,128,0,60471:0:0:0:0:
64,192,59954,128,0,60299:0:0:0:0:
448,192,60471,128,0,60816:0:0:0:0:
64,192,60471,128,0,60816:0:0:0:0:
192,192,60471,128,0,60988:0:0:0:0:
64,192,60988,128,0,61678:0:0:0:0:
448,192,60988,128,0,61506:0:0:0:0:
320,192,60988,128,0,61506:0:0:0:0:
192,192,61678,128,0,62023:0:0:0:0:
320,192,61721,128,0,62023:0:0:0:0:
448,192,61764,128,0,62023:0:0:0:0:
64,192,62195,128,0,62713:0:0:0:0:
192,192,62195,1,0,0:0:0:0:
448,192,62368,128,0,62713:0:0:0:0:
320,192,62368,1,0,0:0:0:0:
192,192,62713,128,0,63057:0:0:0:0:
320,192,62713,128,0,63402:0:0:0:0:
64,192,63057,1,0,0:0:0:0:
448,192,63057,1,0,0:0:0:0:
192,192,63402,1,0,0:0:0:0:
64,192,63402,128,0,64092:0:0:0:0:
192,192,63575,1,0,0:0:0:0:
448,192,63575,1,0,0:0:0:0:
320,192,63747,1,0,0:0:0:0:
448,192,63747,1,0,0:0:0:0:
320,192,64092,128,0,64782:0:0:0:0:
192,192,64092,128,0,65040:0:0:0:0:
448,192,64092,128,0,64782:0:0:0:0:
64,192,64868,128,0,65816:0:0:0:0:
320,192,65040,128,0,65213:0:0:0:0:
448,192,65213,128,0,65299:0:0:0:0:
320,192,65299,128,0,65385:0:0:0:0:
448,192,65385,128,0,65471:0:0:0:0:
192,192,65471,128,0,65988:0:0:0:0:
320,192,65471,128,0,65816:0:0:0:0:
64,192,65988,128,0,66333:0:0:0:0:
448,192,65988,128,0,66333:0:0:0:0:
320,192,65988,128,0,66506:0:0:0:0:
64,192,66506,128,0,67885:0:0:0:0:
192,192,66506,128,0,67195:0:0:0:0:
448,192,66506,128,0,67195:0:0:0:0:
192,192,67885,128,0,67971:0:0:0:0:
64,192,67971,128,0,68057:0:0:0:0:
192,192,68057,128,0,68144:0:0:0:0:
64,192,68144,128,0,68230:0:0:0:0:
192,192,68230,128,0,68747:0:0:0:0:
320,192,68230,128,0,68575:0:0:0:0:
448,192,68230,128,0,68575:0:0:0:0:
320,192,68747,128,0,69264:0:0:0:0:
448,192,68747,128,0,69092:0:0:0:0:
64,192,68747,128,0,69092:0:0:0:0:
448,192,69264,128,0,70040:0:0:0:0:
64,192,69264,128,0,70040:0:0:0:0:
192,192,69264,128,0,70040:0:0:0:0:
448,192,70299,128,0,70988:0:0:0:0:
320,192,70988,128,0,71506:0:0:0:0:
192,192,70988,128,0,71333:0:0:0:0:
64,192,70988,128,0,71333:0:0:0:0:
192,192,71506,128,0,72023:0:0:0:0:
64,192,71506,128,0,71851:0:0:0:0:
448,192,71506,128,0,71851:0:0:0:0:
448,192,72023,128,0,72368:0:0:0:0:
320,192,72023,128,0,72368:0:0:0:0:
64,192,72023,128,0,72540:0:0:0:0:
192,192,72540,1,0,0:0:0:0:
320,192,72540,1,0,0:0:0:0:
448,192,72540,1,0,0:0:0:0:
192,192,72713,1,0,0:0:0:0:
320,192,72713,1,0,0:0:0:0:
448,192,72713,1,0,0:0:0:0:
64,192,72713,1,0,0:0:0:0:
64,192,73230,1,0,0:0:0:0:
320,192,73230,1,0,0:0:0:0:
448,192,73230,1,0,0:0:0:0:
320,192,73402,1,0,0:0:0:0:
448,192,73402,1,0,0:0:0:0:
64,192,73402,1,0,0:0:0:0:
192,192,73402,1,0,0:0:0:0:
448,192,73920,1,0,0:0:0:0:
64,192,73920,1,0,0:0:0:0:
192,192,73920,1,0,0:0:0:0:
192,192,74092,1,0,0:0:0:0:
64,192,74092,1,0,0:0:0:0:
448,192,74092,1,0,0:0:0:0:
320,192,74092,1,0,0:0:0:0:
320,192,74609,1,0,0:0:0:0:
64,192,74609,1,0,0:0:0:0:
192,192,74609,1,0,0:0:0:0:
192,192,74782,1,0,0:0:0:0:
64,192,74782,1,0,0:0:0:0:
448,192,74782,1,0,0:0:0:0:
320,192,74782,1,0,0:0:0:0:
192,192,75126,1,0,0:0:0:0:
320,192,75126,1,0,0:0:0:0:
64,192,75126,1,0,0:0:0:0:
448,192,75126,1,0,0:0:0:0:
448,192,75299,1,0,0:0:0:0:
320,192,75471,1,0,0:0:0:0:
64,192,75471,1,0,0:0:0:0:
448,192,75644,1,0,0:0:0:0:
320,192,75644,1,0,0:0:0:0:
64,192,75730,1,0,0:0:0:0:
320,192,75816,1,0,0:0:0:0:
448,192,75816,1,0,0:0:0:0:
192,192,75902,1,0,0:0:0:0:
448,192,75988,1,0,0:0:0:0:
64,192,75988,1,0,0:0:0:0:
320,192,76075,1,0,0:0:0:0:
448,192,76161,1,0,0:0:0:0:
192,192,76161,1,0,0:0:0:0:
64,192,76161,1,0,0:0:0:0:
320,192,76333,1,0,0:0:0:0:
320,192,76420,1,0,0:0:0:0:
192,192,76506,1,0,0:0:0:0:
64,192,76506,1,0,0:0:0:0:
320,192,76678,1,0,0:0:0:0:
192,192,76764,1,0,0:0:0:0:
320,192,76851,1,0,0:0:0:0:
64,192,76851,1,0,0:0:0:0:
448,192,77023,1,0,0:0:0:0:
448,192,77109,1,0,0:0:0:0:
64,192,77195,1,0,0:0:0:0:
192,192,77195,1,0,0:0:0:0:
320,192,77282,1,0,0:0:0:0:
192,192,77368,1,0,0:0:0:0:
448,192,77368,1,0,0:0:0:0:
320,192,77454,1,0,0:0:0:0:
192,192,77540,1,0,0:0:0:0:
448,192,77540,1,0,0:0:0:0:
64,192,77540,1,0,0:0:0:0:
320,192,77713,1,0,0:0:0:0:
192,192,77713,1,0,0:0:0:0:
64,192,77885,1,0,0:0:0:0:
448,192,77885,1,0,0:0:0:0:
64,192,78057,1,0,0:0:0:0:
192,192,78230,1,0,0:0:0:0:
448,192,78230,1,0,0:0:0:0:
64,192,78402,1,0,0:0:0:0:
192,192,78402,1,0,0:0:0:0:
448,192,78488,1,0,0:0:0:0:
64,192,78575,1,0,0:0:0:0:
192,192,78575,1,0,0:0:0:0:
320,192,78661,1,0,0:0:0:0:
64,192,78747,1,0,0:0:0:0:
448,192,78747,1,0,0:0:0:0:
192,192,78833,1,0,0:0:0:0:
64,192,78920,1,0,0:0:0:0:
320,192,78920,1,0,0:0:0:0:
448,192,78920,1,0,0:0:0:0:
192,192,79092,1,0,0:0:0:0:
192,192,79178,1,0,0:0:0:0:
320,192,79264,1,0,0:0:0:0:
448,192,79264,1,0,0:0:0:0:
192,192,79437,1,0,0:0:0:0:
320,192,79523,1,0,0:0:0:0:
192,192,79609,1,0,0:0:0:0:
448,192,79609,1,0,0:0:0:0:
64,192,79782,1,0,0:0:0:0:
64,192,79868,1,0,0:0:0:0:
448,192,79954,1,0,0:0:0:0:
320,192,79954,1,0,0:0:0:0:
192,192,80040,1,0,0:0:0:0:
320,192,80126,1,0,0:0:0:0:
64,192,80126,1,0,0:0:0:0:
192,192,80213,1,0,0:0:0:0:
448,192,80299,1,0,0:0:0:0:
320,192,80299,1,0,0:0:0:0:
64,192,80299,1,0,0:0:0:0:
320,192,80471,1,0,0:0:0:0:
192,192,80471,1,0,0:0:0:0:
64,192,80644,1,0,0:0:0:0:
448,192,80644,1,0,0:0:0:0:
192,192,80644,1,0,0:0:0:0:
64,192,80816,1,0,0:0:0:0:
320,192,80816,1,0,0:0:0:0:
192,192,80988,1,0,0:0:0:0:
64,192,80988,1,0,0:0:0:0:
448,192,80988,1,0,0:0:0:0:
64,192,81161,1,0,0:0:0:0:
320,192,81161,1,0,0:0:0:0:
192,192,81333,1,0,0:0:0:0:
64,192,81333,1,0,0:0:0:0:
320,192,81333,1,0,0:0:0:0:
448,192,81506,1,0,0:0:0:0:
192,192,81506,1,0,0:0:0:0:
64,192,81678,1,0,0:0:0:0:
320,192,81678,1,0,0:0:0:0:
192,192,81678,1,0,0:0:0:0:
448,192,81851,1,0,0:0:0:0:
192,192,81851,1,0,0:0:0:0:
64,192,82023,1,0,0:0:0:0:
448,192,82023,1,0,0:0:0:0:
320,192,82023,1,0,0:0:0:0:
64,192,82195,1,0,0:0:0:0:
192,192,82195,1,0,0:0:0:0:
448,192,82368,1,0,0:0:0:0:
64,192,82368,1,0,0:0:0:0:
320,192,82368,1,0,0:0:0:0:
192,192,82540,1,0,0:0:0:0:
320,192,82540,1,0,0:0:0:0:
64,192,82713,1,0,0:0:0:0:
448,192,82713,1,0,0:0:0:0:
320,192,82713,1,0,0:0:0:0:
320,192,82885,1,0,0:0:0:0:
448,192,82885,1,0,0:0:0:0:
64,192,83057,1,0,0:0:0:0:
192,192,83057,1,0,0:0:0:0:
448,192,83057,1,0,0:0:0:0:
192,192,83230,1,0,0:0:0:0:
320,192,83230,1,0,0:0:0:0:
448,192,83402,1,0,0:0:0:0:
64,192,83402,1,0,0:0:0:0:
320,192,83488,1,0,0:0:0:0:
64,192,83575,1,0,0:0:0:0:
192,192,83575,1,0,0:0:0:0:
448,192,83661,1,0,0:0:0:0:
320,192,83661,1,0,0:0:0:0:
448,192,83747,1,0,0:0:0:0:
64,192,83747,1,0,0:0:0:0:
192,192,83833,1,0,0:0:0:0:
320,192,83920,1,0,0:0:0:0:
448,192,83920,1,0,0:0:0:0:
64,192,84006,1,0,0:0:0:0:
192,192,84006,1,0,0:0:0:0:
448,192,84092,1,0,0:0:0:0:
320,192,84135,1,0,0:0:0:0:
64,192,84178,1,0,0:0:0:0:
192,192,84221,1,0,0:0:0:0:
448,192,84264,1,0,0:0:0:0:
320,192,84307,1,0,0:0:0:0:
64,192,84351,1,0,0:0:0:0:
192,192,84394,1,0,0:0:0:0:
320,192,84437,1,0,0:0:0:0:
448,192,84480,1,0,0:0:0:0:
192,192,84523,1,0,0:0:0:0:
64,192,84566,1,0,0:0:0:0:
320,192,84609,1,0,0:0:0:0:
448,192,84652,1,0,0:0:0:0:
192,192,84695,1,0,0:0:0:0:
64,192,84738,1,0,0:0:0:0:
320,192,84782,1,0,0:0:0:0:
448,192,84782,1,0,0:0:0:0:
320,192,85644,1,0,0:0:0:0:
448,192,85644,1,0,0:0:0:0:
64,192,85730,1,0,0:0:0:0:
448,192,85816,1,0,0:0:0:0:
192,192,85902,1,0,0:0:0:0:
64,192,85902,1,0,0:0:0:0:
320,192,85988,1,0,0:0:0:0:
448,192,85988,1,0,0:0:0:0:
64,192,86075,1,0,0:0:0:0:
192,192,86075,1,0,0:0:0:0:
64,192,86161,1,0,0:0:0:0:
192,192,86161,1,0,0:0:0:0:
448,192,86161,128,0,86420:0:0:0:0:
192,192,86333,1,0,0:0:0:0:
320,192,86506,1,0,0:0:0:0:
64,192,86506,128,0,86592:0:0:0:0:
448,192,86506,1,0,0:0:0:0:
192,192,86678,128,0,86851:0:0:0:0:
448,192,86678,1,0,0:0:0:0:
64,192,86851,1,0,0:0:0:0:
448,192,87023,1,0,0:0:0:0:
64,192,87023,128,0,87109:0:0:0:0:
320,192,87023,1,0,0:0:0:0:
448,192,87195,1,0,0:0:0:0:
192,192,87195,1,0,0:0:0:0:
320,192,87195,128,0,87368:0:0:0:0:
64,192,87368,1,0,0:0:0:0:
192,192,87540,128,0,87626:0:0:0:0:
64,192,87713,1,0,0:0:0:0:
320,192,87713,128,0,87885:0:0:0:0:
448,192,87713,1,0,0:0:0:0:
448,192,87885,1,0,0:0:0:0:
64,192,87885,1,0,0:0:0:0:
192,192,87885,1,0,0:0:0:0:
192,192,88057,128,0,88144:0:0:0:0:
448,192,88230,128,0,88402:0:0:0:0:
64,192,88230,1,0,0:0:0:0:
64,192,88402,1,0,0:0:0:0:
320,192,88402,1,0,0:0:0:0:
192,192,88575,1,0,0:0:0:0:
320,192,88575,128,0,88661:0:0:0:0:
448,192,88747,128,0,88919:0:0:0:0:
192,192,88747,1,0,0:0:0:0:
64,192,88747,1,0,0:0:0:0:
192,192,88920,128,0,89264:0:0:0:0:
64,192,88920,128,0,89437:0:0:0:0:
320,192,88920,1,0,0:0:0:0:
448,192,89092,1,0,0:0:0:0:
320,192,89092,1,0,0:0:0:0:
448,192,89264,1,0,0:0:0:0:
320,192,89264,128,0,89609:0:0:0:0:
192,192,89437,128,0,89782:0:0:0:0:
448,192,89609,128,0,90126:0:0:0:0:
64,192,89782,1,0,0:0:0:0:
320,192,89782,1,0,0:0:0:0:
320,192,89954,1,0,0:0:0:0:
192,192,89954,1,0,0:0:0:0:
64,192,89954,128,0,90299:0:0:0:0:
320,192,90126,128,0,90471:0:0:0:0:
192,192,90299,128,0,90644:0:0:0:0:
448,192,90471,1,0,0:0:0:0:
64,192,90471,1,0,0:0:0:0:
320,192,90644,1,0,0:0:0:0:
448,192,90644,1,0,0:0:0:0:
64,192,90644,1,0,0:0:0:0:
320,192,90730,1,0,0:0:0:0:
192,192,90816,1,0,0:0:0:0:
192,192,90902,1,0,0:0:0:0:
448,192,90988,1,0,0:0:0:0:
64,192,90988,1,0,0:0:0:0:
320,192,91075,1,0,0:0:0:0:
192,192,91161,1,0,0:0:0:0:
64,192,91161,1,0,0:0:0:0:
192,192,91247,1,0,0:0:0:0:
64,192,91333,1,0,0:0:0:0:
448,192,91333,1,0,0:0:0:0:
320,192,91333,1,0,0:0:0:0:
64,192,91506,1,0,0:0:0:0:
320,192,91506,1,0,0:0:0:0:
448,192,91506,1,0,0:0:0:0:
64,192,91678,128,0,91937:0:3:0:0:
192,192,91678,1,0,0:0:0:0:
448,192,91678,1,0,0:3:0:0:
320,192,91678,1,0,0:3:0:0:
320,192,91851,1,0,0:3:0:0:
64,192,92023,1,0,0:3:0:0:
448,192,92023,128,0,92109:0:3:0:0:
192,192,92023,1,0,0:3:0:0:
64,192,92195,1,0,0:3:0:0:
320,192,92195,128,0,92368:0:3:0:0:
448,192,92368,1,0,0:3:0:0:
192,192,92540,1,0,0:3:0:0:
448,192,92540,128,0,92626:0:3:0:0:
64,192,92540,1,0,0:3:0:0:
192,192,92713,128,0,92885:0:3:0:0:
320,192,92713,1,0,0:3:0:0:
64,192,92713,1,0,0:3:0:0:
448,192,92885,1,0,0:3:0:0:
320,192,93057,128,0,93144:0:3:0:0:
64,192,93230,1,0,0:3:0:0:
192,192,93230,128,0,93402:0:3:0:0:
448,192,93230,1,0,0:3:0:0:
320,192,93402,1,0,0:3:0:0:
448,192,93402,1,0,0:3:0:0:
64,192,93402,1,0,0:3:0:0:
320,192,93575,128,0,93661:0:3:0:0:
448,192,93747,1,0,0:3:0:0:
64,192,93747,128,0,93920:0:3:0:0:
320,192,93920,1,0,0:3:0:0:
192,192,93920,128,0,94006:0:3:0:0:
448,192,93920,1,0,0:3:0:0:
320,192,94092,1,0,0:3:0:0:
64,192,94092,128,0,94178:0:3:0:0:
192,192,94264,128,0,94351:0:0:0:0:
320,192,94264,1,0,0:3:0:0:
64,192,94437,1,0,0:3:0:0:
192,192,94437,1,0,0:3:0:0:
320,192,94437,128,0,94954:0:3:0:0:
448,192,94437,128,0,95126:0:3:0:0:
192,192,94609,1,0,0:3:0:0:
64,192,94609,1,0,0:3:0:0:
192,192,94782,128,0,95126:0:0:0:0:
64,192,94782,128,0,95126:0:0:0:0:
320,192,95126,128,0,95213:0:0:0:0:
192,192,95213,128,0,95299:0:0:0:0:
448,192,95299,1,0,0:0:0:0:
320,192,95299,128,0,95471:0:0:0:0:
64,192,95299,1,0,0:0:0:0:
64,192,95471,128,0,95816:0:0:0:0:
448,192,95471,128,0,95644:0:0:0:0:
192,192,95471,1,0,0:0:0:0:
192,192,95644,128,0,95816:0:0:0:0:
320,192,95816,128,0,96161:0:0:0:0:
64,192,95988,1,0,0:0:0:0:
448,192,95988,1,0,0:0:0:0:
192,192,96161,128,0,96333:0:0:0:0:
448,192,96333,1,0,0:0:0:0:
320,192,96333,1,0,0:0:0:0:
192,192,96506,128,0,96678:0:0:0:0:
64,192,96506,128,0,96678:0:0:0:0:
448,192,96678,1,0,0:0:0:0:
320,192,96678,1,0,0:0:0:0:
448,192,96764,1,0,0:0:0:0:
320,192,96764,1,0,0:0:0:0:
64,192,96851,1,0,0:0:0:0:
192,192,96908,1,0,0:0:0:0:
320,192,96965,1,0,0:0:0:0:
192,192,97023,1,0,0:0:0:0:
320,192,97080,1,0,0:0:0:0:
448,192,97138,1,0,0:0:0:0:
192,192,97195,1,0,0:0:0:0:
64,192,97195,128,0,97368:0:0:0:0:
320,192,97368,128,0,97454:0:0:0:0:
448,192,97368,1,0,0:0:0:0:
448,192,97540,1,0,0:0:0:0:
192,192,97540,128,0,97713:0:0:0:0:
64,192,97540,1,0,0:0:0:0:
448,192,97713,128,0,97799:0:0:0:0:
320,192,97799,1,0,0:0:0:0:
192,192,97885,1,0,0:0:0:0:
64,192,97885,1,0,0:0:0:0:
320,192,98057,1,0,0:0:0:0:
64,192,98057,1,0,0:0:0:0:
448,192,98057,128,0,98144:0:0:0:0:
64,192,98230,1,0,0:0:0:0:
320,192,98230,1,0,0:0:0:0:
192,192,98230,128,0,98402:0:0:0:0:
448,192,98402,1,0,0:0:0:0:
64,192,98575,1,0,0:0:0:0:
320,192,98575,128,0,98661:0:0:0:0:
448,192,98747,1,0,0:0:0:0:
64,192,98747,128,0,98920:0:0:0:0:
192,192,98920,1,0,0:0:0:0:
448,192,98920,1,0,0:0:0:0:
320,192,98920,1,0,0:0:0:0:
192,192,99092,128,0,99264:0:0:0:0:
64,192,99264,128,0,99437:0:0:0:0:
448,192,99351,1,0,0:0:0:0:
320,192,99437,128,0,99523:0:0:0:0:
192,192,99437,1,0,0:0:0:0:
448,192,99609,1,0,0:0:0:0:
192,192,99609,128,0,99695:0:0:0:0:
64,192,99609,1,0,0:0:0:0:
192,192,99782,1,0,0:0:0:0:
320,192,99782,128,0,99868:0:0:0:0:
448,192,99954,1,0,0:0:0:0:
320,192,99954,1,0,0:0:0:0:
192,192,99954,128,0,100299:0:0:0:0:
64,192,99954,1,0,0:0:0:0:
320,192,100126,1,0,0:0:0:0:
448,192,100126,1,0,0:0:0:0:
64,192,100126,1,0,0:0:0:0:
448,192,100299,128,0,100644:0:0:0:0:
64,192,100299,128,0,100471:0:0:0:0:
320,192,100299,1,0,0:0:0:0:
192,192,100471,128,0,100816:0:0:0:0:
320,192,100644,128,0,100988:0:0:0:0:
64,192,100816,1,0,0:0:0:0:
448,192,100816,1,0,0:0:0:0:
64,192,100988,1,0,0:0:0:0:
448,192,100988,128,0,101333:0:0:0:0:
192,192,100988,128,0,101161:0:0:0:0:
64,192,101161,128,0,101678:0:0:0:0:
320,192,101333,128,0,101678:0:0:0:0:
448,192,101506,1,0,0:0:0:0:
192,192,101506,1,0,0:0:0:0:
448,192,101678,1,0,0:0:0:0:
192,192,101678,1,0,0:0:0:0:
64,192,101764,1,0,0:0:0:0:
320,192,101851,1,0,0:0:0:0:
192,192,101937,1,0,0:0:0:0:
448,192,102023,1,0,0:0:0:0:
192,192,102109,1,0,0:0:0:0:
448,192,102195,1,0,0:0:0:0:
64,192,102195,1,0,0:0:0:0:
320,192,102282,1,0,0:0:0:0:
64,192,102368,1,0,0:0:0:0:
192,192,102368,1,0,0:0:0:0:
448,192,102425,1,0,0:0:0:0:
320,192,102483,1,0,0:0:0:0:
192,192,102540,1,0,0:0:0:0:
64,192,102540,1,0,0:0:0:0:
320,192,102598,1,0,0:0:0:0:
192,192,102655,1,0,0:0:0:0:
320,192,102713,1,0,0:0:0:0:
448,192,102713,1,0,0:0:0:0:
64,192,102713,1,0,0:0:0:0:
320,192,103057,1,0,0:0:0:0:
448,192,103057,1,0,0:0:0:0:
64,192,103057,128,0,103144:0:0:0:0:
320,192,103230,1,0,0:0:0:0:
192,192,103230,128,0,103402:0:0:0:0:
448,192,103316,1,0,0:0:0:0:
64,192,103402,1,0,0:0:0:0:
64,192,103575,1,0,0:0:0:0:
448,192,103575,128,0,103661:0:0:0:0:
192,192,103575,1,0,0:0:0:0:
64,192,103747,1,0,0:0:0:0:
192,192,103747,1,0,0:0:0:0:
320,192,103747,128,0,103920:0:0:0:0:
448,192,103920,1,0,0:0:0:0:
320,192,104092,128,0,104178:0:0:0:0:
448,192,104264,1,0,0:0:0:0:
320,192,104264,1,0,0:0:0:0:
64,192,104264,1,0,0:0:0:0:
192,192,104264,128,0,104437:0:0:0:0:
64,192,104437,1,0,0:0:0:0:
448,192,104437,1,0,0:0:0:0:
320,192,104609,1,0,0:0:0:0:
192,192,104609,128,0,104695:0:0:0:0:
64,192,104782,1,0,0:0:0:0:
320,192,104782,128,0,104954:0:0:0:0:
192,192,104954,1,0,0:0:0:0:
448,192,104954,1,0,0:0:0:0:
320,192,105126,1,0,0:0:0:0:
64,192,105126,128,0,105471:0:0:0:0:
192,192,105126,1,0,0:0:0:0:
320,192,105299,1,0,0:0:0:0:
448,192,105385,1,0,0:0:0:0:
448,192,105471,128,0,105988:0:0:0:0:
192,192,105471,1,0,0:0:0:0:
320,192,105471,128,0,105644:0:0:0:0:
192,192,105644,1,0,0:0:0:0:
64,192,105644,1,0,0:0:0:0:
320,192,105816,128,0,105988:0:0:0:0:
64,192,105816,128,0,106161:0:0:0:0:
192,192,105816,128,0,106075:0:0:0:0:
448,192,106161,128,0,106247:0:0:0:0:
192,192,106247,1,0,0:0:0:0:
64,192,106247,128,0,106333:0:0:0:0:
448,192,106333,128,0,106420:0:0:0:0:
320,192,106333,1,0,0:0:0:0:
64,192,106420,128,0,106506:0:0:0:0:
320,192,106506,128,0,106678:0:0:0:0:
192,192,106506,128,0,106678:0:0:0:0:
448,192,106678,128,0,106851:0:0:0:0:
320,192,106851,1,0,0:0:0:0:
64,192,106851,1,0,0:0:0:0:
192,192,106851,1,0,0:0:0:0:
192,192,107023,1,0,0:0:0:0:
320,192,107023,1,0,0:0:0:0:
64,192,107023,1,0,0:0:0:0:
320,192,107195,1,0,0:0:0:0:
64,192,107195,1,0,0:0:0:0:
448,192,107195,1,0,0:0:0:0:
192,192,107368,1,0,0:0:0:0:
448,192,107368,1,0,0:0:0:0:
64,192,107368,1,0,0:0:0:0:
320,192,107540,1,0,0:0:0:0:
448,192,107540,1,0,0:0:0:0:
64,192,107540,1,0,0:0:0:0:
192,192,107540,1,0,0:0:0:0:
448,192,108230,1,0,0:0:0:0:
64,192,108230,128,0,108920:0:0:0:0:
320,192,108230,1,0,0:0:0:0:
192,192,108230,1,0,0:0:0:0:
320,192,108920,1,0,0:0:0:0:
448,192,108920,1,0,0:0:0:0:
192,192,109006,1,0,0:0:0:0:
448,192,109092,1,0,0:0:0:0:
64,192,109178,1,0,0:0:0:0:
320,192,109264,1,0,0:0:0:0:
192,192,109351,1,0,0:0:0:0:
320,192,109437,1,0,0:0:0:0:
448,192,109437,1,0,0:0:0:0:
192,192,109523,1,0,0:0:0:0:
448,192,109609,1,0,0:0:0:0:
64,192,109695,1,0,0:0:0:0:
320,192,109782,1,0,0:0:0:0:
192,192,109868,1,0,0:0:0:0:
448,192,109954,1,0,0:0:0:0:
320,192,109954,1,0,0:0:0:0:
192,192,110040,1,0,0:0:0:0:
320,192,110126,1,0,0:0:0:0:
64,192,110213,1,0,0:0:0:0:
448,192,110299,1,0,0:0:0:0:
320,192,110368,1,0,0:0:0:0:
192,192,110437,1,0,0:0:0:0:
448,192,110506,1,0,0:0:0:0:
320,192,110575,1,0,0:0:0:0:
64,192,110644,1,0,0:0:0:0:
192,192,110713,1,0,0:0:0:0:
320,192,110782,1,0,0:0:0:0:
64,192,110851,1,0,0:0:0:0:
192,192,110920,1,0,0:0:0:0:
320,192,110988,128,0,111333:0:0:0:0:
448,192,110988,128,0,111333:0:0:0:0:
64,192,111678,1,0,0:0:0:0:
192,192,111678,1,0,0:0:0:0:
448,192,111678,128,0,112195:0:0:0:0:
320,192,111764,128,0,112109:0:0:0:0:
192,192,111851,128,0,112023:0:0:0:0:
64,192,111937,1,0,0:0:0:0:
64,192,112109,128,0,112368:0:0:0:0:
192,192,112195,128,0,112368:0:0:0:0:
320,192,112282,128,0,112368:0:0:0:0:
448,192,112368,128,0,112713:0:0:0:0:
64,192,112713,1,0,0:0:0:0:
320,192,112713,1,0,0:0:0:0:
192,192,112799,1,0,0:0:0:0:
320,192,112885,1,0,0:0:0:0:
448,192,112885,1,0,0:0:0:0:
448,192,112971,1,0,0:0:0:0:
320,192,112971,1,0,0:0:0:0:
192,192,113057,128,0,113230:0:0:0:0:
64,192,113057,128,0,113230:0:0:0:0:
448,192,113230,1,0,0:0:0:0:
320,192,113230,1,0,0:0:0:0:
64,192,113402,1,0,0:0:0:0:
192,192,113402,128,0,113575:0:0:0:0:
448,192,113402,1,0,0:0:0:0:
448,192,113575,1,0,0:0:0:0:
64,192,113575,1,0,0:0:0:0:
320,192,113575,1,0,0:0:0:0:
192,192,113747,1,0,0:0:0:0:
448,192,113747,128,0,114437:0:0:0:0:
320,192,113747,1,0,0:0:0:0:
64,192,113747,1,0,0:0:0:0:
64,192,114437,1,0,0:0:0:0:
192,192,114437,1,0,0:0:0:0:
320,192,114523,1,0,0:0:0:0:
64,192,114609,1,0,0:0:0:0:
448,192,114695,1,0,0:0:0:0:
192,192,114782,1,0,0:0:0:0:
320,192,114868,1,0,0:0:0:0:
64,192,114954,1,0,0:0:0:0:
192,192,114954,1,0,0:0:0:0:
320,192,115040,1,0,0:0:0:0:
64,192,115126,1,0,0:0:0:0:
448,192,115213,1,0,0:0:0:0:
192,192,115299,1,0,0:0:0:0:
320,192,115385,1,0,0:0:0:0:
192,192,115471,1,0,0:0:0:0:
64,192,115471,1,0,0:0:0:0:
320,192,115557,1,0,0:0:0:0:
64,192,115644,1,0,0:0:0:0:
320,192,115730,1,0,0:0:0:0:
448,192,115816,1,0,0:0:0:0:
192,192,115816,128,0,115988:0:0:0:0:
64,192,115902,128,0,116075:0:0:0:0:
320,192,115988,128,0,116161:0:0:0:0:
448,192,116075,128,0,116247:0:0:0:0:
64,192,116161,128,0,116333:0:0:0:0:
192,192,116247,128,0,116420:0:0:0:0:
320,192,116333,128,0,116506:0:0:0:0:
448,192,116420,128,0,116851:0:0:0:0:
64,192,116506,1,0,0:0:0:0:
320,192,116851,128,0,117023:0:0:0:0:
192,192,116851,128,0,117109:0:0:0:0:
64,192,116851,128,0,117195:0:0:0:0:
320,192,117195,1,0,0:0:0:0:
448,192,117195,1,0,0:0:0:0:
448,192,117368,1,0,0:0:0:0:
320,192,117540,1,0,0:0:0:0:
192,192,117713,1,0,0:0:0:0:
320,192,117885,1,0,0:0:0:0:
192,192,117885,1,0,0:0:0:0:
64,192,117885,1,0,0:0:0:0:
448,192,117885,1,0,0:0:0:0:
64,192,118057,1,0,0:0:0:0:
320,192,118057,1,0,0:0:0:0:
320,192,118230,1,0,0:0:0:0:
64,192,118230,1,0,0:0:0:0:
64,192,118402,1,0,0:0:0:0:
192,192,118402,1,0,0:0:0:0:
448,192,118402,1,0,0:0:0:0:
320,192,118402,1,0,0:0:0:0:
448,192,118575,1,0,0:0:0:0:
192,192,118575,1,0,0:0:0:0:
448,192,118747,1,0,0:0:0:0:
192,192,118747,1,0,0:0:0:0:
320,192,118920,1,0,0:0:0:0:
448,192,118920,1,0,0:0:0:0:
192,192,118920,1,0,0:0:0:0:
64,192,118920,1,0,0:0:0:0:
64,192,119092,1,0,0:0:0:0:
192,192,119092,1,0,0:0:0:0:
448,192,119178,1,0,0:0:0:0:
320,192,119178,1,0,0:0:0:0:
192,192,119264,128,0,119954:0:0:0:0:
64,192,119264,1,0,0:0:0:0:
64,192,119954,1,0,0:0:0:0:
448,192,119954,1,0,0:0:0:0:
320,192,119954,1,0,0:0:0:0:
192,192,120040,1,0,0:0:0:0:
320,192,120126,1,0,0:0:0:0:
320,192,120213,1,0,0:0:0:0:
192,192,120299,1,0,0:0:0:0:
320,192,120385,1,0,0:0:0:0:
64,192,120471,1,0,0:0:0:0:
192,192,120471,1,0,0:0:0:0:
448,192,120471,1,0,0:0:0:0:
64,192,120557,1,0,0:0:0:0:
192,192,120644,1,0,0:0:0:0:
320,192,120730,1,0,0:0:0:0:
448,192,120816,1,0,0:0:0:0:
64,192,120816,1,0,0:0:0:0:
192,192,120902,1,0,0:0:0:0:
320,192,120988,1,0,0:0:0:0:
448,192,120988,1,0,0:0:0:0:
64,192,120988,1,0,0:0:0:0:
320,192,121075,1,0,0:0:0:0:
192,192,121161,1,0,0:0:0:0:
448,192,121247,1,0,0:0:0:0:
320,192,121333,1,0,0:0:0:0:
64,192,121333,1,0,0:0:0:0:
192,192,121333,1,0,0:0:0:0:
64,192,121420,1,0,0:0:0:0:
192,192,121506,1,0,0:0:0:0:
448,192,121506,128,0,121592:0:0:0:0:
320,192,121678,128,0,121764:0:0:0:0:
64,192,121764,1,0,0:0:0:0:
192,192,121764,1,0,0:0:0:0:
192,192,121851,128,0,122023:0:0:0:0:
320,192,122023,1,0,0:0:0:0:
448,192,122023,1,0,0:0:0:0:
192,192,122368,1,0,0:0:0:0:
64,192,122368,128,0,122713:0:0:0:0:
448,192,122713,128,0,122799:0:0:0:0:
320,192,122799,1,0,0:0:0:0:
448,192,122885,128,0,122971:0:0:0:0:
192,192,122971,1,0,0:0:0:0:
448,192,123057,128,0,123144:0:0:0:0:
64,192,123144,1,0,0:0:0:0:
448,192,123230,128,0,123316:0:0:0:0:
192,192,123316,1,0,0:0:0:0:
64,192,123402,1,0,0:0:0:0:
320,192,123402,128,0,123575:0:0:0:0:
448,192,123402,1,0,0:0:0:0:
192,192,123575,128,0,123747:0:0:0:0:
448,192,123661,128,0,123920:0:0:0:0:
320,192,123747,128,0,123920:0:0:0:0:
192,192,123920,1,0,0:0:0:0:
64,192,123920,1,0,0:0:0:0:
320,192,124006,1,0,0:0:0:0:
448,192,124006,1,0,0:0:0:0:
64,192,124092,128,0,124264:0:0:0:0:
192,192,124092,128,0,124264:0:0:0:0:
448,192,124264,1,0,0:0:0:0:
320,192,124264,1,0,0:0:0:0:
448,192,124437,1,0,0:0:0:0:
64,192,124437,1,0,0:0:0:0:
448,192,124609,1,0,0:0:0:0:
192,192,124609,1,0,0:0:0:0:
320,192,124609,1,0,0:0:0:0:
320,192,124782,128,0,125471:0:0:0:0:
64,192,124782,128,0,125385:0:0:0:0:
192,192,124782,128,0,125385:0:0:0:0:
64,192,125471,1,0,0:0:0:0:
192,192,125471,1,0,0:0:0:0:
448,192,125471,1,0,0:0:0:0:
320,192,125557,1,0,0:0:0:0:
192,192,125644,1,0,0:0:0:0:
320,192,125730,1,0,0:0:0:0:
64,192,125816,1,0,0:0:0:0:
448,192,125902,1,0,0:0:0:0:
192,192,125988,1,0,0:0:0:0:
64,192,125988,1,0,0:0:0:0:
192,192,126075,1,0,0:0:0:0:
448,192,126161,1,0,0:0:0:0:
320,192,126161,1,0,0:0:0:0:
192,192,126247,1,0,0:0:0:0:
320,192,126333,1,0,0:0:0:0:
192,192,126420,1,0,0:0:0:0:
320,192,126506,1,0,0:0:0:0:
64,192,126506,1,0,0:0:0:0:
448,192,126506,1,0,0:0:0:0:
192,192,126592,1,0,0:0:0:0:
64,192,126678,1,0,0:0:0:0:
448,192,126678,1,0,0:0:0:0:
320,192,126764,1,0,0:0:0:0:
64,192,126851,128,0,127540:0:0:0:0:
448,192,126851,1,0,0:0:0:0:
192,192,126851,128,0,127540:0:0:0:0:
320,192,127540,1,0,0:0:0:0:
448,192,127540,1,0,0:0:0:0:
320,192,127713,1,0,0:0:0:0:
448,192,127713,1,0,0:0:0:0:
192,192,127885,1,0,0:0:0:0:
64,192,127885,1,0,0:0:0:0:
192,192,128057,1,0,0:0:0:0:
64,192,128057,1,0,0:0:0:0:
320,192,128230,1,0,0:0:0:0:
64,192,128230,1,0,0:0:0:0:
64,192,128402,1,0,0:0:0:0:
320,192,128402,1,0,0:0:0:0:
448,192,128575,1,0,0:0:0:0:
192,192,128575,1,0,0:0:0:0:
448,192,128747,1,0,0:0:0:0:
192,192,128747,1,0,0:0:0:0:
448,192,128920,1,0,0:0:0:0:
320,192,128920,1,0,0:0:0:0:
448,192,129006,1,0,0:0:0:0:
64,192,129092,1,0,0:0:0:0:
192,192,129092,1,0,0:0:0:0:
192,192,129178,1,0,0:0:0:0:
448,192,129264,1,0,0:0:0:0:
320,192,129264,1,0,0:0:0:0:
320,192,129351,1,0,0:0:0:0:
192,192,129437,1,0,0:0:0:0:
64,192,129437,1,0,0:0:0:0:
64,192,129523,1,0,0:0:0:0:
448,192,129609,1,0,0:0:0:0:
192,192,129609,1,0,0:0:0:0:
320,192,129695,1,0,0:0:0:0:
64,192,129695,1,0,0:0:0:0:
448,192,129782,1,0,0:0:0:0:
448,192,129868,1,0,0:0:0:0:
320,192,129868,1,0,0:0:0:0:
192,192,129954,1,0,0:0:0:0:
64,192,129954,1,0,0:0:0:0:
320,192,130040,1,0,0:0:0:0:
448,192,130040,1,0,0:0:0:0:
192,192,130126,1,0,0:0:0:0:
64,192,130126,1,0,0:0:0:0:
64,192,130213,1,0,0:0:0:0:
192,192,130213,1,0,0:0:0:0:
320,192,130299,1,0,0:0:0:0:
192,192,130299,1,0,0:0:0:0:
64,192,130299,1,0,0:0:0:0:
448,192,130299,1,0,0:0:0:0:
192,192,132713,1,0,0:0:0:0:
64,192,132713,1,0,0:0:0:0:
448,192,133057,1,0,0:0:0:0:
64,192,133057,1,0,0:0:0:0:
320,192,134954,1,0,0:0:0:0:
64,192,134954,1,0,0:0:0:0:
320,192,135471,1,0,0:0:0:0:
192,192,135471,1,0,0:0:0:0:
448,192,135816,1,0,0:0:0:0:
64,192,135816,1,0,0:0:0:0:
192,192,138230,1,0,0:0:0:0:
64,192,138230,1,0,0:0:0:0:
320,192,138575,1,0,0:0:0:0:
64,192,138575,1,0,0:0:0:0:
192,192,139609,1,0,0:0:0:0:
64,192,139609,1,0,0:0:0:0:
448,192,139954,1,0,0:0:0:0:
192,192,139954,1,0,0:0:0:0:
448,192,140644,1,0,0:0:0:0:
320,192,140644,1,0,0:0:0:0:
64,192,141333,1,0,0:0:0:0:
448,192,141333,128,0,143575:0:0:0:0:
64,192,141506,1,0,0:0:0:0:
192,192,141678,1,0,0:0:0:0:
64,192,141851,1,0,0:0:0:0:
192,192,142023,1,0,0:0:0:0:
64,192,142195,1,0,0:0:0:0:
64,192,142368,1,0,0:0:0:0:
64,192,142540,1,0,0:0:0:0:
192,192,142713,1,0,0:0:0:0:
64,192,142885,1,0,0:0:0:0:
192,192,143057,1,0,0:0:0:0:
64,192,143230,1,0,0:0:0:0:
192,192,143402,1,0,0:0:0:0:
192,192,143575,1,0,0:0:0:0:
448,192,143747,1,0,0:0:0:0:
320,192,143747,1,0,0:0:0:0:
192,192,143747,1,0,0:0:0:0:
64,192,143920,1,0,0:0:0:0:
192,192,144092,1,0,0:0:0:0:
320,192,144092,128,0,145644:0:0:0:0:
192,192,144264,1,0,0:0:0:0:
192,192,144437,1,0,0:0:0:0:
192,192,144609,1,0,0:0:0:0:
448,192,144782,1,0,0:0:0:0:
192,192,144954,1,0,0:0:0:0:
448,192,145126,1,0,0:0:0:0:
192,192,145299,1,0,0:0:0:0:
192,192,145471,1,0,0:0:0:0:
64,192,145644,1,0,0:0:0:0:
192,192,145816,1,0,0:0:0:0:
448,192,145988,1,0,0:0:0:0:
192,192,145988,1,0,0:0:0:0:
192,192,146161,1,0,0:0:0:0:
192,192,146333,1,0,0:0:0:0:
448,192,146506,1,0,0:0:0:0:
320,192,146506,1,0,0:0:0:0:
192,192,146678,1,0,0:0:0:0:
64,192,146851,1,0,0:0:0:0:
448,192,146851,128,0,147540:0:0:0:0:
64,192,147023,1,0,0:0:0:0:
192,192,147195,1,0,0:0:0:0:
192,192,147368,1,0,0:0:0:0:
320,192,147540,1,0,0:0:0:0:
64,192,147540,1,0,0:0:0:0:
320,192,147713,1,0,0:0:0:0:
64,192,147713,1,0,0:0:0:0:
448,192,147885,1,0,0:0:0:0:
192,192,147885,1,0,0:0:0:0:
448,192,148057,1,0,0:0:0:0:
192,192,148057,1,0,0:0:0:0:
320,192,148230,1,0,0:0:0:0:
448,192,148230,1,0,0:0:0:0:
448,192,148402,1,0,0:0:0:0:
320,192,148402,1,0,0:0:0:0:
192,192,148575,1,0,0:0:0:0:
64,192,148575,1,0,0:0:0:0:
64,192,148747,1,0,0:0:0:0:
192,192,148747,1,0,0:0:0:0:
320,192,148920,1,0,0:0:0:0:
192,192,148920,1,0,0:0:0:0:
192,192,149092,1,0,0:0:0:0:
320,192,149092,1,0,0:0:0:0:
320,192,149264,1,0,0:0:0:0:
64,192,149264,1,0,0:0:0:0:
448,192,149264,1,0,0:0:0:0:
320,192,149437,1,0,0:0:0:0:
64,192,149437,1,0,0:0:0:0:
448,192,149437,1,0,0:0:0:0:
192,192,149609,1,0,0:0:0:0:
64,192,149609,1,0,0:0:0:0:
448,192,149695,1,0,0:0:0:0:
320,192,149695,1,0,0:0:0:0:
64,192,149782,1,0,0:0:0:0:
192,192,149782,1,0,0:0:0:0:
192,192,149868,1,0,0:0:0:0:
64,192,149868,1,0,0:0:0:0:
448,192,149954,1,0,0:0:0:0:
320,192,149954,1,0,0:0:0:0:
64,192,150040,1,0,0:0:0:0:
192,192,150040,1,0,0:0:0:0:
448,192,150126,1,0,0:0:0:0:
320,192,150126,1,0,0:0:0:0:
448,192,150213,1,0,0:0:0:0:
320,192,150213,1,0,0:0:0:0:
64,192,150299,1,0,0:0:0:0:
192,192,150299,1,0,0:0:0:0:
64,192,150385,1,0,0:0:0:0:
320,192,150471,1,0,0:0:0:0:
448,192,150471,1,0,0:0:0:0:
192,192,150471,1,0,0:0:0:0:
320,192,150557,1,0,0:0:0:0:
448,192,150557,1,0,0:0:0:0:
64,192,150644,1,0,0:0:0:0:
192,192,150644,1,0,0:0:0:0:
448,192,150730,1,0,0:0:0:0:
64,192,150816,1,0,0:0:0:0:
192,192,150816,1,0,0:0:0:0:
320,192,150816,1,0,0:0:0:0:
320,192,150902,1,0,0:0:0:0:
448,192,150902,1,0,0:0:0:0:
192,192,150988,1,0,0:0:0:0:
64,192,150988,1,0,0:0:0:0:
320,192,151046,1,0,0:0:0:0:
448,192,151103,1,0,0:0:0:0:
64,192,151161,1,0,0:0:0:0:
320,192,151218,1,0,0:0:0:0:
192,192,151276,1,0,0:0:0:0:
448,192,151333,1,0,0:0:0:0:
64,192,151391,1,0,0:0:0:0:
192,192,151448,1,0,0:0:0:0:
448,192,151506,1,0,0:0:0:0:
64,192,151563,1,0,0:0:0:0:
320,192,151621,1,0,0:0:0:0:
192,192,151678,1,0,0:0:0:0:
192,192,151764,1,0,0:0:0:0:
192,192,151851,1,0,0:0:0:0:
192,192,151937,1,0,0:0:0:0:
192,192,152023,1,0,0:0:0:0:
192,192,152195,1,0,0:0:0:0:
320,192,152368,1,0,0:0:0:0:
448,192,152368,1,0,0:0:0:0:
192,192,152368,128,0,153230:0:0:0:0:
64,192,152368,1,0,0:0:0:0:
64,192,153057,128,0,154092:0:3:0:0:
320,192,153144,128,0,154609:0:3:0:0:
448,192,153230,128,0,154092:0:3:0:0:
192,192,153747,128,0,154782:0:0:0:0:
64,192,154264,128,0,155471:0:0:0:0:
448,192,154264,128,0,154609:0:0:0:0:
320,192,154782,128,0,155471:0:0:0:0:
448,192,154782,128,0,155471:0:0:0:0:
192,192,155471,128,0,155557:0:0:0:0:
192,192,155644,128,0,155730:0:0:0:0:
192,192,155816,128,0,155902:0:0:0:0:
192,192,155988,128,0,156247:0:0:0:0:
64,192,156506,128,0,157368:0:0:0:0:
192,192,156506,128,0,156851:0:0:0:0:
320,192,156506,128,0,156851:0:0:0:0:
448,192,157023,128,0,157368:0:0:0:0:
320,192,157023,128,0,158230:0:0:0:0:
192,192,157023,128,0,157540:0:0:0:0:
64,192,157540,128,0,158230:0:0:0:0:
448,192,157540,128,0,158230:0:0:0:0:
192,192,158230,128,0,159006:0:0:0:0:
320,192,158402,128,0,158747:0:0:0:0:
448,192,158575,128,0,159006:0:0:0:0:
64,192,158747,128,0,159006:0:0:0:0:
320,192,159006,128,0,159264:0:0:0:0:
64,192,159264,128,0,159609:0:0:0:0:
192,192,159264,128,0,160126:0:0:0:0:
448,192,159264,128,0,159609:0:0:0:0:
64,192,159782,128,0,160126:0:0:0:0:
448,192,159782,128,0,160126:0:0:0:0:
320,192,159782,128,0,160988:0:0:0:0:
448,192,160299,128,0,160988:0:0:0:0:
64,192,160299,128,0,160988:0:0:0:0:
192,192,160299,128,0,160988:0:0:0:0:
448,192,161161,1,0,0:0:0:0:
320,192,161247,1,0,0:0:0:0:
192,192,161333,1,0,0:0:0:0:
64,192,161333,128,0,161678:0:0:0:0:
448,192,161420,1,0,0:0:0:0:
320,192,161506,1,0,0:0:0:0:
192,192,161592,1,0,0:0:0:0:
320,192,161678,1,0,0:0:0:0:
448,192,161678,128,0,162023:0:0:0:0:
192,192,161764,1,0,0:0:0:0:
64,192,161851,1,0,0:0:0:0:
192,192,161937,1,0,0:0:0:0:
320,192,162023,128,0,162368:0:0:0:0:
64,192,162023,128,0,162713:0:0:0:0:
448,192,162368,128,0,162713:0:0:0:0:
192,192,162713,1,0,0:0:0:0:
320,192,162713,128,0,162885:0:0:0:0:
448,192,162885,1,0,0:0:0:0:
64,192,162885,1,0,0:0:0:0:
192,192,162885,1,0,0:0:0:0:
320,192,163057,1,0,0:0:0:0:
64,192,163057,1,0,0:0:0:0:
192,192,163057,128,0,163402:0:0:0:0:
448,192,163057,1,0,0:0:0:0:
320,192,163402,1,0,0:0:0:0:
448,192,163402,1,0,0:0:0:0:
448,192,163575,1,0,0:0:0:0:
64,192,163747,1,0,0:0:0:0:
192,192,163747,1,0,0:0:0:0:
448,192,163920,1,0,0:0:0:0:
64,192,163920,1,0,0:0:0:0:
192,192,164006,1,0,0:0:0:0:
320,192,164092,1,0,0:0:0:0:
448,192,164092,1,0,0:0:0:0:
448,192,164264,1,0,0:0:0:0:
192,192,164264,1,0,0:0:0:0:
64,192,164437,1,0,0:0:0:0:
192,192,164437,1,0,0:0:0:0:
320,192,164437,1,0,0:0:0:0:
448,192,164609,1,0,0:0:0:0:
64,192,164782,1,0,0:0:0:0:
320,192,164782,1,0,0:0:0:0:
192,192,164954,1,0,0:0:0:0:
448,192,164954,1,0,0:0:0:0:
448,192,165126,1,0,0:0:0:0:
192,192,165126,1,0,0:0:0:0:
64,192,165126,1,0,0:0:0:0:
320,192,165299,1,0,0:0:0:0:
320,192,165471,1,0,0:0:0:0:
448,192,165471,1,0,0:0:0:0:
192,192,165557,1,0,0:0:0:0:
320,192,165644,1,0,0:0:0:0:
64,192,165644,1,0,0:0:0:0:
64,192,165816,1,0,0:0:0:0:
192,192,165816,1,0,0:0:0:0:
448,192,165816,1,0,0:0:0:0:
448,192,165988,1,0,0:0:0:0:
64,192,166161,1,0,0:0:0:0:
192,192,166161,1,0,0:0:0:0:
320,192,166161,1,0,0:0:0:0:
64,192,166333,1,0,0:0:0:0:
448,192,166506,1,0,0:0:0:0:
192,192,166506,1,0,0:0:0:0:
320,192,166678,1,0,0:0:0:0:
64,192,166678,1,0,0:0:0:0:
64,192,166851,1,0,0:0:0:0:
448,192,166851,1,0,0:0:0:0:
192,192,166937,1,0,0:0:0:0:
64,192,167023,1,0,0:0:0:0:
320,192,167023,1,0,0:0:0:0:
320,192,167195,1,0,0:0:0:0:
448,192,167195,1,0,0:0:0:0:
192,192,167195,1,0,0:0:0:0:
192,192,167368,1,0,0:0:0:0:
448,192,167540,1,0,0:0:0:0:
320,192,167540,1,0,0:0:0:0:
64,192,167540,1,0,0:0:0:0:
64,192,167713,1,0,0:0:0:0:
320,192,167885,1,0,0:0:0:0:
192,192,167885,1,0,0:0:0:0:
64,192,167885,1,0,0:0:0:0:
192,192,168057,1,0,0:0:0:0:
448,192,168057,1,0,0:0:0:0:
64,192,168144,1,0,0:0:0:0:
448,192,168230,1,0,0:0:0:0:
320,192,168230,1,0,0:0:0:0:
192,192,168402,1,0,0:0:0:0:
64,192,168575,1,0,0:0:0:0:
320,192,168575,1,0,0:0:0:0:
448,192,168575,1,0,0:0:0:0:
448,192,168747,1,0,0:0:0:0:
192,192,168747,1,0,0:0:0:0:
448,192,168920,1,0,0:0:0:0:
64,192,168920,1,0,0:0:0:0:
192,192,168920,1,0,0:0:0:0:
320,192,169092,1,0,0:0:0:0:
192,192,169092,1,0,0:0:0:0:
64,192,169264,1,0,0:0:0:0:
448,192,169264,1,0,0:0:0:0:
320,192,169264,1,0,0:0:0:0:
64,192,169437,1,0,0:0:0:0:
448,192,169437,1,0,0:0:0:0:
64,192,169609,1,0,0:0:0:0:
192,192,169609,1,0,0:0:0:0:
448,192,169609,1,0,0:0:0:0:
192,192,169782,1,0,0:0:0:0:
320,192,169782,1,0,0:0:0:0:
64,192,169954,1,0,0:0:0:0:
448,192,169954,1,0,0:0:0:0:
320,192,169954,1,0,0:0:0:0:
64,192,170126,1,0,0:0:0:0:
448,192,170126,1,0,0:0:0:0:
448,192,170299,1,0,0:0:0:0:
192,192,170299,1,0,0:0:0:0:
320,192,170299,1,0,0:0:0:0:
192,192,170471,1,0,0:0:0:0:
64,192,170471,1,0,0:0:0:0:
64,192,170644,1,0,0:0:0:0:
320,192,170644,1,0,0:0:0:0:
448,192,170644,1,0,0:0:0:0:
448,192,170816,1,0,0:0:0:0:
320,192,170816,1,0,0:0:0:0:
192,192,170988,1,0,0:0:0:0:
448,192,170988,1,0,0:0:0:0:
64,192,170988,1,0,0:0:0:0:
64,192,171161,1,0,0:0:0:0:
320,192,171161,1,0,0:0:0:0:
192,192,171333,1,0,0:0:0:0:
448,192,171333,1,0,0:0:0:0:
64,192,171333,1,0,0:0:0:0:
448,192,171506,1,0,0:0:0:0:
192,192,171506,1,0,0:0:0:0:
448,192,171678,1,0,0:0:0:0:
320,192,171678,1,0,0:0:0:0:
320,192,171764,1,0,0:0:0:0:
64,192,171764,1,0,0:0:0:0:
192,192,171764,1,0,0:0:0:0:
64,192,171851,1,0,0:0:0:0:
192,192,171937,1,0,0:0:0:0:
320,192,172023,1,0,0:0:0:0:
448,192,172023,1,0,0:0:0:0:
64,192,172109,1,0,0:0:0:0:
192,192,172109,1,0,0:0:0:0:
320,192,172109,1,0,0:0:0:0:
64,192,172195,1,0,0:0:0:0:
192,192,172282,1,0,0:0:0:0:
320,192,172368,1,0,0:0:0:0:
448,192,172368,1,0,0:0:0:0:
64,192,172411,1,0,0:0:0:0:
192,192,172454,1,0,0:0:0:0:
448,192,172497,1,0,0:0:0:0:
320,192,172540,1,0,0:0:0:0:
192,192,172583,1,0,0:0:0:0:
64,192,172626,1,0,0:0:0:0:
320,192,172670,1,0,0:0:0:0:
448,192,172713,1,0,0:0:0:0:
192,192,172756,1,0,0:0:0:0:
320,192,172799,1,0,0:0:0:0:
64,192,172842,1,0,0:0:0:0:
448,192,172885,1,0,0:0:0:0:
64,192,172928,1,0,0:0:0:0:
320,192,172971,1,0,0:0:0:0:
448,192,172971,1,0,0:0:0:0:
192,192,173014,1,0,0:0:0:0:
64,192,173014,1,0,0:0:0:0:
448,192,173057,1,0,0:0:0:0:
320,192,173057,1,0,0:0:0:0:
448,192,173920,1,0,0:0:0:0:
64,192,174006,1,0,0:0:0:0:
320,192,174092,1,0,0:0:0:0:
192,192,174178,1,0,0:0:0:0:
320,192,174264,1,0,0:0:0:0:
448,192,174264,1,0,0:0:0:0:
64,192,174351,1,0,0:0:0:0:
192,192,174351,1,0,0:0:0:0:
448,192,174437,1,0,0:0:0:0:
320,192,174437,1,0,0:0:0:0:
192,192,174523,1,0,0:0:0:0:
448,192,174609,1,0,0:0:0:0:
192,192,174695,1,0,0:0:0:0:
64,192,174782,1,0,0:0:0:0:
320,192,174782,1,0,0:0:0:0:
448,192,174868,1,0,0:0:0:0:
320,192,174868,1,0,0:0:0:0:
192,192,174954,1,0,0:0:0:0:
64,192,175040,1,0,0:0:0:0:
448,192,175126,1,0,0:0:0:0:
320,192,175126,1,0,0:0:0:0:
64,192,175213,1,0,0:0:0:0:
192,192,175213,1,0,0:0:0:0:
320,192,175299,1,0,0:0:0:0:
192,192,175385,1,0,0:0:0:0:
448,192,175471,1,0,0:0:0:0:
64,192,175471,1,0,0:0:0:0:
320,192,175557,1,0,0:0:0:0:
64,192,175644,1,0,0:0:0:0:
448,192,175730,1,0,0:0:0:0:
192,192,175730,1,0,0:0:0:0:
320,192,175816,1,0,0:0:0:0:
64,192,175816,1,0,0:0:0:0:
448,192,175902,1,0,0:0:0:0:
192,192,175988,1,0,0:0:0:0:
64,192,175988,1,0,0:0:0:0:
320,192,176075,1,0,0:0:0:0:
448,192,176161,1,0,0:0:0:0:
64,192,176161,1,0,0:0:0:0:
192,192,176247,1,0,0:0:0:0:
448,192,176333,1,0,0:0:0:0:
320,192,176420,1,0,0:0:0:0:
192,192,176506,1,0,0:0:0:0:
64,192,176506,1,0,0:0:0:0:
448,192,176592,1,0,0:0:0:0:
320,192,176592,1,0,0:0:0:0:
192,192,176678,1,0,0:0:0:0:
320,192,176678,1,0,0:0:0:0:
64,192,176764,1,0,0:0:0:0:
448,192,176851,1,0,0:0:0:0:
320,192,176851,1,0,0:0:0:0:
192,192,176937,1,0,0:0:0:0:
64,192,176937,1,0,0:0:0:0:
448,192,177023,1,0,0:0:0:0:
192,192,177023,1,0,0:0:0:0:
320,192,177109,1,0,0:0:0:0:
64,192,177195,1,0,0:0:0:0:
192,192,177195,1,0,0:0:0:0:
448,192,177282,1,0,0:0:0:0:
320,192,177282,1,0,0:0:0:0:
192,192,177368,1,0,0:0:0:0:
448,192,177454,1,0,0:0:0:0:
192,192,177540,1,0,0:0:0:0:
64,192,177540,1,0,0:0:0:0:
448,192,177626,1,0,0:0:0:0:
320,192,177626,1,0,0:0:0:0:
192,192,177713,1,0,0:0:0:0:
64,192,177713,1,0,0:0:0:0:
448,192,177799,1,0,0:0:0:0:
320,192,177885,1,0,0:0:0:0:
64,192,177885,1,0,0:0:0:0:
192,192,177971,1,0,0:0:0:0:
448,192,177971,1,0,0:0:0:0:
64,192,178057,1,0,0:0:0:0:
320,192,178144,1,0,0:0:0:0:
64,192,178230,1,0,0:0:0:0:
448,192,178230,1,0,0:0:0:0:
64,192,178316,1,0,0:0:0:0:
192,192,178316,1,0,0:0:0:0:
448,192,178402,1,0,0:0:0:0:
320,192,178402,1,0,0:0:0:0:
192,192,178488,1,0,0:0:0:0:
320,192,178575,1,0,0:0:0:0:
64,192,178575,1,0,0:0:0:0:
448,192,178661,1,0,0:0:0:0:
192,192,178661,1,0,0:0:0:0:
64,192,178747,1,0,0:0:0:0:
320,192,178833,1,0,0:0:0:0:
192,192,178920,1,0,0:0:0:0:
64,192,178920,1,0,0:0:0:0:
448,192,179006,1,0,0:0:0:0:
320,192,179006,1,0,0:0:0:0:
192,192,179092,1,0,0:0:0:0:
320,192,179178,1,0,0:0:0:0:
192,192,179264,1,0,0:0:0:0:
64,192,179264,1,0,0:0:0:0:
320,192,179351,1,0,0:0:0:0:
448,192,179351,1,0,0:0:0:0:
448,192,179437,1,0,0:0:0:0:
64,192,179437,1,0,0:0:0:0:
320,192,179523,1,0,0:0:0:0:
192,192,179609,1,0,0:0:0:0:
320,192,179695,1,0,0:0:0:0:
64,192,179695,128,0,179954:0:0:0:0:
448,192,179782,1,0,0:0:0:0:
320,192,179868,1,0,0:0:0:0:
192,192,179954,1,0,0:0:0:0:
448,192,179954,1,0,0:0:0:0:
320,192,180040,1,0,0:0:0:0:
64,192,180126,1,0,0:0:0:0:
192,192,180126,1,0,0:0:0:0:
448,192,180213,1,0,0:0:0:0:
64,192,180299,1,0,0:0:0:0:
320,192,180299,1,0,0:0:0:0:
448,192,180385,1,0,0:0:0:0:
192,192,180385,1,0,0:0:0:0:
64,192,180471,1,0,0:0:0:0:
448,192,180557,1,0,0:0:0:0:
320,192,180557,1,0,0:0:0:0:
448,192,180644,1,0,0:0:0:0:
192,192,180644,1,0,0:0:0:0:
64,192,180730,1,0,0:0:0:0:
320,192,180816,1,0,0:0:0:0:
448,192,180902,1,0,0:0:0:0:
192,192,180988,1,0,0:0:0:0:
64,192,180988,1,0,0:0:0:0:
448,192,181075,1,0,0:0:0:0:
320,192,181161,1,0,0:0:0:0:
64,192,181161,1,0,0:0:0:0:
192,192,181247,1,0,0:0:0:0:
64,192,181247,1,0,0:0:0:0:
448,192,181333,1,0,0:0:0:0:
320,192,181420,1,0,0:0:0:0:
192,192,181420,1,0,0:0:0:0:
192,192,181506,1,0,0:0:0:0:
64,192,181506,1,0,0:0:0:0:
448,192,181592,1,0,0:0:0:0:
64,192,181678,1,0,0:0:0:0:
320,192,181678,1,0,0:0:0:0:
448,192,181764,1,0,0:0:0:0:
192,192,181764,1,0,0:0:0:0:
64,192,181851,1,0,0:0:0:0:
320,192,181851,1,0,0:0:0:0:
192,192,181937,1,0,0:0:0:0:
320,192,182023,1,0,0:0:0:0:
448,192,182023,1,0,0:0:0:0:
192,192,182109,1,0,0:0:0:0:
64,192,182195,1,0,0:0:0:0:
448,192,182195,1,0,0:0:0:0:
320,192,182282,1,0,0:0:0:0:
64,192,182368,1,0,0:0:0:0:
192,192,182368,1,0,0:0:0:0:
320,192,182454,1,0,0:0:0:0:
448,192,182454,1,0,0:0:0:0:
192,192,182540,1,0,0:0:0:0:
64,192,182540,1,0,0:0:0:0:
320,192,182626,1,0,0:0:0:0:
64,192,182713,1,0,0:0:0:0:
448,192,182713,1,0,0:0:0:0:
192,192,182799,1,0,0:0:0:0:
320,192,182885,1,0,0:0:0:0:
64,192,182885,1,0,0:0:0:0:
192,192,182971,1,0,0:0:0:0:
320,192,183057,1,0,0:0:0:0:
448,192,183057,1,0,0:0:0:0:
64,192,183144,1,0,0:0:0:0:
192,192,183144,1,0,0:0:0:0:
64,192,183230,1,0,0:0:0:0:
192,192,183316,1,0,0:0:0:0:
320,192,183402,1,0,0:0:0:0:
448,192,183402,1,0,0:0:0:0:
64,192,183488,1,0,0:0:0:0:
192,192,183488,1,0,0:0:0:0:
64,192,183575,1,0,0:0:0:0:
448,192,183575,1,0,0:0:0:0:
320,192,183661,1,0,0:0:0:0:
192,192,183747,1,0,0:0:0:0:
64,192,183747,1,0,0:0:0:0:
448,192,183833,1,0,0:0:0:0:
320,192,183833,1,0,0:0:0:0:
192,192,183920,1,0,0:0:0:0:
320,192,184006,1,0,0:0:0:0:
64,192,184006,1,0,0:0:0:0:
448,192,184092,1,0,0:0:0:0:
192,192,184178,1,0,0:0:0:0:
64,192,184178,1,0,0:0:0:0:
320,192,184264,1,0,0:0:0:0:
448,192,184264,1,0,0:0:0:0:
192,192,184351,1,0,0:0:0:0:
64,192,184437,1,0,0:0:0:0:
448,192,184437,1,0,0:0:0:0:
320,192,184523,1,0,0:0:0:0:
192,192,184609,1,0,0:0:0:0:
192,192,184695,1,0,0:0:0:0:
320,192,184782,1,0,0:0:0:0:
448,192,184782,128,0,185299:0:0:0:0:
64,192,184954,128,0,185299:0:0:0:0:
320,192,185126,128,0,185299:0:0:0:0:
192,192,185299,1,0,0:0:0:0:
448,192,185471,1,0,0:0:0:0:
320,192,185471,1,0,0:0:0:0:
192,192,185471,1,0,0:0:0:0:
64,192,185471,1,0,0:0:0:0:
64,192,185557,1,0,0:0:0:0:
448,192,185644,1,0,0:0:0:0:
192,192,185730,1,0,0:0:0:0:
320,192,185816,1,0,0:0:0:0:
448,192,185816,1,0,0:0:0:0:
64,192,185902,1,0,0:0:0:0:
192,192,185902,1,0,0:0:0:0:
448,192,185988,1,0,0:0:0:0:
320,192,185988,1,0,0:0:0:0:
64,192,186075,1,0,0:0:0:0:
192,192,186075,1,0,0:0:0:0:
448,192,186161,1,0,0:0:0:0:
192,192,186161,1,0,0:0:0:0:
64,192,186247,1,0,0:0:0:0:
320,192,186333,1,0,0:0:0:0:
192,192,186420,1,0,0:0:0:0:
320,192,186506,1,0,0:0:0:0:
448,192,186506,1,0,0:0:0:0:
64,192,186592,1,0,0:0:0:0:
192,192,186592,1,0,0:0:0:0:
448,192,186678,1,0,0:0:0:0:
320,192,186678,1,0,0:0:0:0:
64,192,186764,1,0,0:0:0:0:
192,192,186764,1,0,0:0:0:0:
320,192,186851,1,0,0:0:0:0:
64,192,186851,1,0,0:0:0:0:
192,192,186937,1,0,0:0:0:0:
448,192,187023,1,0,0:0:0:0:
192,192,187109,1,0,0:0:0:0:
448,192,187195,1,0,0:0:0:0:
320,192,187195,1,0,0:0:0:0:
64,192,187282,1,0,0:0:0:0:
192,192,187282,1,0,0:0:0:0:
448,192,187368,1,0,0:0:0:0:
320,192,187368,1,0,0:0:0:0:
64,192,187454,1,0,0:0:0:0:
192,192,187454,1,0,0:0:0:0:
448,192,187540,1,0,0:0:0:0:
64,192,187540,1,0,0:0:0:0:
320,192,187626,1,0,0:0:0:0:
64,192,187713,1,0,0:0:0:0:
192,192,187799,1,0,0:0:0:0:
320,192,187885,1,0,0:0:0:0:
448,192,187885,1,0,0:0:0:0:
64,192,187971,1,0,0:0:0:0:
192,192,187971,1,0,0:0:0:0:
448,192,188057,1,0,0:0:0:0:
320,192,188057,1,0,0:0:0:0:
192,192,188144,1,0,0:0:0:0:
64,192,188144,1,0,0:0:0:0:
320,192,188230,1,0,0:0:0:0:
448,192,188230,1,0,0:0:0:0:
192,192,188316,1,0,0:0:0:0:
64,192,188402,1,0,0:0:0:0:
320,192,188488,1,0,0:0:0:0:
64,192,188575,1,0,0:0:0:0:
192,192,188575,1,0,0:0:0:0:
320,192,188661,1,0,0:0:0:0:
448,192,188661,1,0,0:0:0:0:
192,192,188747,1,0,0:0:0:0:
64,192,188747,1,0,0:0:0:0:
320,192,188833,1,0,0:0:0:0:
448,192,188833,1,0,0:0:0:0:
192,192,188920,1,0,0:0:0:0:
448,192,188920,1,0,0:0:0:0:
320,192,189006,1,0,0:0:0:0:
64,192,189092,1,0,0:0:0:0:
320,192,189178,1,0,0:0:0:0:
64,192,189264,1,0,0:0:0:0:
192,192,189264,1,0,0:0:0:0:
320,192,189351,1,0,0:0:0:0:
448,192,189351,1,0,0:0:0:0:
192,192,189437,1,0,0:0:0:0:
64,192,189437,1,0,0:0:0:0:
320,192,189523,1,0,0:0:0:0:
448,192,189523,1,0,0:0:0:0:
64,192,189609,1,0,0:0:0:0:
320,192,189609,1,0,0:0:0:0:
192,192,189695,1,0,0:0:0:0:
448,192,189782,1,0,0:0:0:0:
320,192,189868,1,0,0:0:0:0:
192,192,189954,1,0,0:0:0:0:
64,192,189954,1,0,0:0:0:0:
320,192,190040,1,0,0:0:0:0:
448,192,190040,1,0,0:0:0:0:
192,192,190126,1,0,0:0:0:0:
64,192,190126,1,0,0:0:0:0:
320,192,190213,1,0,0:0:0:0:
448,192,190213,1,0,0:0:0:0:
320,192,190299,1,0,0:0:0:0:
192,192,190299,1,0,0:0:0:0:
448,192,190385,1,0,0:0:0:0:
64,192,190471,1,0,0:0:0:0:
320,192,190557,1,0,0:0:0:0:
64,192,190644,1,0,0:0:0:0:
192,192,190644,1,0,0:0:0:0:
320,192,190730,1,0,0:0:0:0:
448,192,190730,1,0,0:0:0:0:
192,192,190816,1,0,0:0:0:0:
64,192,190816,1,0,0:0:0:0:
448,192,190902,1,0,0:0:0:0:
320,192,190902,1,0,0:0:0:0:
448,192,190988,1,0,0:0:0:0:
64,192,190988,1,0,0:0:0:0:
64,192,191075,1,0,0:0:0:0:
192,192,191075,1,0,0:0:0:0:
448,192,191161,1,0,0:0:0:0:
320,192,191161,1,0,0:0:0:0:
192,192,191333,1,0,0:0:0:0:
64,192,191333,1,0,0:0:0:0:
320,192,191420,1,0,0:0:0:0:
448,192,191420,1,0,0:0:0:0:
448,192,191506,1,0,0:0:0:0:
64,192,191506,1,0,0:0:0:0:
320,192,191592,1,0,0:0:0:0:
192,192,191678,1,0,0:0:0:0:
64,192,191678,1,0,0:0:0:0:
448,192,191764,1,0,0:0:0:0:
320,192,191764,1,0,0:0:0:0:
64,192,191851,1,0,0:0:0:0:
192,192,191851,1,0,0:0:0:0:
192,192,192023,1,0,0:0:0:0:
64,192,192023,1,0,0:0:0:0:
64,192,192109,1,0,0:0:0:0:
192,192,192195,1,0,0:0:0:0:
320,192,192195,1,0,0:0:0:0:
64,192,192282,1,0,0:0:0:0:
448,192,192282,1,0,0:0:0:0:
64,192,192454,1,0,0:0:0:0:
448,192,192454,1,0,0:0:0:0:
320,192,192540,1,0,0:0:0:0:
192,192,192540,1,0,0:0:0:0:
448,192,192713,1,0,0:0:0:0:
320,192,192713,1,0,0:0:0:0:
64,192,192799,1,0,0:0:0:0:
448,192,192799,1,0,0:0:0:0:
320,192,192885,1,0,0:0:0:0:
64,192,192971,1,0,0:0:0:0:
192,192,192971,1,0,0:0:0:0:
320,192,193057,1,0,0:0:0:0:
448,192,193057,128,0,193230:0:0:0:0:
64,192,193144,1,0,0:0:0:0:
320,192,193230,1,0,0:0:0:0:
192,192,193316,1,0,0:0:0:0:
320,192,193402,1,0,0:0:0:0:
64,192,193402,128,0,193747:0:0:0:0:
448,192,193488,1,0,0:0:0:0:
320,192,193575,1,0,0:0:0:0:
192,192,193661,1,0,0:0:0:0:
448,192,193747,1,0,0:0:0:0:
320,192,193747,1,0,0:0:0:0:
64,192,193833,1,0,0:0:0:0:
192,192,193833,1,0,0:0:0:0:
320,192,193920,1,0,0:0:0:0:
448,192,193920,1,0,0:0:0:0:
64,192,194006,1,0,0:0:0:0:
448,192,194092,128,0,194351:0:0:0:0:
320,192,194092,1,0,0:0:0:0:
64,192,194178,1,0,0:0:0:0:
320,192,194264,1,0,0:0:0:0:
192,192,194351,1,0,0:0:0:0:
64,192,194437,128,0,194523:0:0:0:0:
320,192,194523,1,0,0:0:0:0:
448,192,194523,128,0,194609:0:0:0:0:
64,192,194609,1,0,0:0:0:0:
192,192,194609,128,0,194695:0:0:0:0:
320,192,194695,128,0,194782:0:0:0:0:
64,192,194782,1,0,0:0:0:0:
192,192,194782,1,0,0:0:0:0:
448,192,194868,1,0,0:0:0:0:
192,192,194954,1,0,0:0:0:0:
320,192,194954,1,0,0:0:0:0:
64,192,195040,1,0,0:0:0:0:
448,192,195126,1,0,0:0:0:0:
320,192,195126,1,0,0:0:0:0:
192,192,195213,1,0,0:0:0:0:
448,192,195213,1,0,0:0:0:0:
64,192,195213,1,0,0:0:0:0:
64,192,195299,1,0,0:0:0:0:
320,192,195299,1,0,0:0:0:0:
192,192,195385,1,0,0:0:0:0:
448,192,195471,1,0,0:0:0:0:
320,192,195471,1,0,0:0:0:0:
448,192,195557,1,0,0:0:0:0:
64,192,195557,1,0,0:0:0:0:
192,192,195557,1,0,0:0:0:0:
64,192,195644,1,0,0:0:0:0:
320,192,195644,1,0,0:0:0:0:
192,192,195730,1,0,0:0:0:0:
320,192,195816,1,0,0:0:0:0:
448,192,195816,1,0,0:0:0:0:
64,192,195902,1,0,0:0:0:0:
448,192,195988,1,0,0:0:0:0:
192,192,196075,1,0,0:0:0:0:
320,192,196161,1,0,0:0:0:0:
448,192,196161,1,0,0:0:0:0:
192,192,196247,1,0,0:0:0:0:
64,192,196333,1,0,0:0:0:0:
448,192,196333,1,0,0:0:0:0:
320,192,196420,1,0,0:0:0:0:
448,192,196506,128,0,196678:0:0:0:0:
64,192,196506,128,0,196678:0:0:0:0:
192,192,196506,128,0,196678:0:0:0:0:
320,192,196678,1,0,0:0:0:0:
64,192,196851,1,0,0:0:0:0:
448,192,196851,128,0,196937:0:0:0:0:
320,192,196851,128,0,196937:0:0:0:0:
192,192,197023,128,0,197109:0:0:0:0:
320,192,197023,128,0,197109:0:0:0:0:
448,192,197195,1,0,0:0:0:0:
64,192,197195,1,0,0:0:0:0:
320,192,197368,128,0,197454:0:0:0:0:
192,192,197368,128,0,197454:0:0:0:0:
320,192,197540,128,0,197626:0:0:0:0:
448,192,197540,128,0,197626:0:0:0:0:
64,192,197540,1,0,0:0:0:0:
320,192,197713,1,0,0:0:0:0:
192,192,197713,1,0,0:0:0:0:
64,192,197885,128,0,197971:0:0:0:0:
192,192,197885,128,0,197971:0:0:0:0:
448,192,197885,1,0,0:0:0:0:
320,192,198057,128,0,198144:0:0:0:0:
192,192,198057,128,0,198144:0:0:0:0:
64,192,198230,1,0,0:0:0:0:
448,192,198230,1,0,0:0:0:0:
192,192,198402,128,0,198488:0:0:0:0:
320,192,198402,128,0,198488:0:0:0:0:
192,192,198575,128,0,198661:0:0:0:0:
64,192,198575,128,0,198661:0:0:0:0:
448,192,198575,1,0,0:0:0:0:
448,192,198747,1,0,0:0:0:0:
320,192,198747,1,0,0:0:0:0:
192,192,198920,128,0,199006:0:0:0:0:
64,192,198920,128,0,199006:0:0:0:0:
320,192,199092,128,0,199178:0:0:0:0:
192,192,199092,128,0,199178:0:0:0:0:
448,192,199264,128,0,199782:0:0:0:0:
320,192,199264,1,0,0:0:0:0:
64,192,199264,1,0,0:0:0:0:
192,192,199609,1,0,0:0:0:0:
320,192,199609,128,0,199954:0:0:0:0:
64,192,199609,128,0,199782:0:0:0:0:
192,192,199782,128,0,200126:0:0:0:0:
64,192,199954,128,0,200471:0:0:0:0:
448,192,199954,128,0,200126:0:0:0:0:
320,192,200126,128,0,200299:0:0:0:0:
448,192,200299,128,0,200644:0:0:0:0:
192,192,200299,128,0,200471:0:0:0:0:
320,192,200471,128,0,200644:0:0:0:0:
192,192,200644,1,0,0:0:0:0:
64,192,200644,128,0,200988:0:0:0:0:
448,192,200988,1,0,0:0:0:0:
192,192,200988,1,0,0:0:0:0:
320,192,201075,1,0,0:0:0:0:
320,192,201161,1,0,0:0:0:0:
192,192,201247,1,0,0:0:0:0:
64,192,201333,1,0,0:0:0:0:
448,192,201333,1,0,0:0:0:0:
320,192,201420,1,0,0:0:0:0:
192,192,201506,1,0,0:0:0:0:
192,192,201592,1,0,0:0:0:0:
64,192,201678,128,0,202023:0:0:0:0:
320,192,201678,1,0,0:0:0:0:
448,192,201678,1,0,0:0:0:0:
192,192,202023,1,0,0:0:0:0:
320,192,202023,128,0,202195:0:0:0:0:
448,192,202023,128,0,202195:0:0:0:0:
64,192,202195,1,0,0:0:0:0:
64,192,202368,128,0,202454:0:0:0:0:
192,192,202368,128,0,202454:0:0:0:0:
448,192,202368,1,0,0:0:0:0:
320,192,202540,128,0,202626:0:0:0:0:
64,192,202540,128,0,202626:0:0:0:0:
192,192,202713,1,0,0:0:0:0:
448,192,202713,1,0,0:0:0:0:
64,192,202885,128,0,202971:0:0:0:0:
320,192,202885,128,0,202971:0:0:0:0:
192,192,203057,128,0,203144:0:0:0:0:
448,192,203057,1,0,0:0:0:0:
320,192,203057,128,0,203144:0:0:0:0:
64,192,203230,1,0,0:0:0:0:
320,192,203402,128,0,203488:0:0:0:0:
192,192,203402,128,0,203488:0:0:0:0:
64,192,203402,1,0,0:0:0:0:
192,192,203575,128,0,203661:0:0:0:0:
448,192,203575,128,0,203661:0:0:0:0:
320,192,203747,1,0,0:0:0:0:
64,192,203747,1,0,0:0:0:0:
448,192,203920,128,0,204006:0:0:0:0:
192,192,203920,128,0,204006:0:0:0:0:
64,192,204092,1,0,0:0:0:0:
448,192,204092,128,0,204178:0:0:0:0:
320,192,204092,128,0,204178:0:0:0:0:
192,192,204264,1,0,0:0:0:0:
192,192,204437,128,0,204523:0:0:0:0:
448,192,204437,128,0,204523:0:0:0:0:
64,192,204609,128,0,204695:0:0:0:0:
320,192,204609,128,0,204695:0:0:0:0:
64,192,204782,128,0,205126:0:0:0:0:
192,192,204782,128,0,205471:0:0:0:0:
448,192,205126,128,0,205471:0:0:0:0:
320,192,205126,128,0,205471:0:0:0:0:
64,192,205471,128,0,205557:0:0:0:0:
448,192,205557,128,0,205644:0:0:0:0:
192,192,205644,1,0,0:0:0:0:
64,192,205644,128,0,205730:0:0:0:0:
320,192,205730,1,0,0:0:0:0:
448,192,205730,128,0,205816:0:0:0:0:
192,192,205816,128,0,206506:0:0:0:0:
64,192,205816,1,0,0:0:0:0:
320,192,205988,128,0,206161:0:0:0:0:
64,192,206161,128,0,206506:0:0:0:0:
448,192,206161,128,0,206506:0:0:0:0:
320,192,206506,128,0,206678:0:0:0:0:
192,192,206678,1,0,0:0:0:0:
320,192,206851,128,0,207023:0:0:0:0:
192,192,207023,1,0,0:0:0:0:
64,192,207023,1,0,0:0:0:0:
192,192,207109,1,0,0:0:0:0:
64,192,207109,1,0,0:0:0:0:
448,192,207195,128,0,207540:0:0:0:0:
320,192,207368,128,0,207540:0:0:0:0:
192,192,207540,128,0,208144:0:0:0:0:
64,192,207540,1,0,0:0:0:0:
320,192,207713,128,0,208230:0:0:0:0:
64,192,207885,128,0,208144:0:0:0:0:
448,192,208057,128,0,208230:0:0:0:0:
64,192,208230,128,0,208316:0:0:0:0:
192,192,208230,128,0,208316:0:0:0:0:
320,192,208402,128,0,208488:0:0:0:0:
192,192,208402,128,0,208488:0:0:0:0:
64,192,208575,1,0,0:0:0:0:
448,192,208575,128,0,208661:0:0:0:0:
320,192,208575,128,0,208661:0:0:0:0:
192,192,208747,1,0,0:0:0:0:
448,192,208920,128,0,209006:0:0:0:0:
64,192,208920,128,0,209006:0:0:0:0:
192,192,208920,1,0,0:0:0:0:
192,192,209092,128,0,209178:0:0:0:0:
320,192,209092,128,0,209178:0:0:0:0:
448,192,209264,1,0,0:0:0:0:
64,192,209264,1,0,0:0:0:0:
192,192,209264,1,0,0:0:0:0:
192,192,209437,128,0,209523:0:0:0:0:
320,192,209437,128,0,209523:0:0:0:0:
320,192,209609,1,0,0:0:0:0:
64,192,209609,128,0,209695:0:0:0:0:
448,192,209609,128,0,209695:0:0:0:0:
192,192,209782,1,0,0:0:0:0:
320,192,209954,128,0,210040:0:0:0:0:
448,192,209954,128,0,210040:0:0:0:0:
192,192,209954,1,0,0:0:0:0:
64,192,209954,1,0,0:0:0:0:
320,192,210126,128,0,210213:0:0:0:0:
192,192,210126,128,0,210213:0:0:0:0:
448,192,210299,1,0,0:0:0:0:
192,192,210299,128,0,210644:0:0:0:0:
64,192,210299,128,0,210816:0:0:0:0:
320,192,210644,128,0,210816:0:0:0:0:
448,192,210644,128,0,211161:0:0:0:0:
192,192,210816,128,0,210988:0:0:0:0:
64,192,210988,128,0,211506:0:0:0:0:
320,192,210988,128,0,211333:0:0:0:0:
192,192,211161,128,0,212023:0:0:0:0:
448,192,211333,128,0,211506:0:0:0:0:
320,192,211506,128,0,211678:0:0:0:0:
448,192,211678,128,0,212023:0:0:0:0:
64,192,211678,128,0,212023:0:0:0:0:
320,192,212023,1,0,0:0:0:0:
320,192,212109,1,0,0:0:0:0:
64,192,212195,1,0,0:0:0:0:
448,192,212281,1,0,0:0:0:0:
64,192,212367,1,0,0:0:0:0:
192,192,212367,1,0,0:0:0:0:
320,192,212454,1,0,0:0:0:0:
192,192,212540,1,0,0:0:0:0:
448,192,212626,1,0,0:0:0:0:
320,192,212712,128,0,213057:0:0:0:0:
64,192,212712,1,0,0:0:0:0:
448,192,213057,1,0,0:0:0:0:
192,192,213057,1,0,0:0:0:0:
64,192,213057,1,0,0:0:0:0:
192,192,213229,1,0,0:0:0:0:
320,192,213229,1,0,0:0:0:0:
320,192,213402,1,0,0:0:0:0:
192,192,213402,1,0,0:0:0:0:
192,192,213574,1,0,0:0:0:0:
64,192,213574,1,0,0:0:0:0:
448,192,213574,1,0,0:0:0:0:
64,192,213747,1,0,0:0:0:0:
320,192,213747,1,0,0:0:0:0:
64,192,213919,1,0,0:0:0:0:
320,192,213919,1,0,0:0:0:0:
320,192,214091,1,0,0:0:0:0:
64,192,214091,1,0,0:0:0:0:
192,192,214091,1,0,0:0:0:0:
192,192,214264,1,0,0:0:0:0:
64,192,214264,1,0,0:0:0:0:
448,192,214264,1,0,0:0:0:0:
320,192,214264,1,0,0:0:0:0:
192,192,214436,1,0,0:0:0:0:
320,192,214436,1,0,0:0:0:0:
448,192,214436,1,0,0:0:0:0:
192,192,214609,1,0,0:0:0:0:
448,192,214609,1,0,0:0:0:0:
192,192,214781,1,0,0:0:0:0:
448,192,214781,1,0,0:0:0:0:
64,192,214954,1,0,0:0:0:0:
320,192,214954,1,0,0:0:0:0:
448,192,214954,1,0,0:0:0:0:
320,192,215126,1,0,0:0:0:0:
192,192,215126,1,0,0:0:0:0:
320,192,215298,1,0,0:0:0:0:
192,192,215298,1,0,0:0:0:0:
64,192,215471,1,0,0:0:0:0:
448,192,215471,1,0,0:0:0:0:
320,192,215514,1,0,0:0:0:0:
192,192,215557,1,0,0:0:0:0:
320,192,215643,1,0,0:0:0:0:
448,192,215643,1,0,0:0:0:0:
64,192,215729,1,0,0:0:0:0:
192,192,215729,1,0,0:0:0:0:
192,192,215816,1,0,0:0:0:0:
64,192,215816,1,0,0:0:0:0:
448,192,215816,1,0,0:0:0:0:
320,192,215816,1,0,0:0:0:0:
320,192,215988,1,0,0:0:0:0:
448,192,215988,1,0,0:0:0:0:
448,192,216074,1,0,0:0:0:0:
64,192,216160,1,0,0:0:0:0:
320,192,216160,1,0,0:0:0:0:
448,192,216333,1,0,0:0:0:0:
320,192,216333,1,0,0:0:0:0:
320,192,216419,1,0,0:0:0:0:
448,192,216505,1,0,0:0:0:0:
192,192,216505,1,0,0:0:0:0:
64,192,216678,1,0,0:0:0:0:
192,192,216678,1,0,0:0:0:0:
192,192,216764,1,0,0:0:0:0:
448,192,216850,1,0,0:0:0:0:
320,192,216850,1,0,0:0:0:0:
64,192,217023,1,0,0:0:0:0:
64,192,217109,1,0,0:0:0:0:
448,192,217195,1,0,0:0:0:0:
64,192,217195,1,0,0:0:0:0:
192,192,217195,1,0,0:0:0:0:
320,192,217281,1,0,0:0:0:0:
64,192,217367,1,0,0:0:0:0:
320,192,217367,1,0,0:0:0:0:
448,192,217367,1,0,0:0:0:0:
192,192,217454,1,0,0:0:0:0:
448,192,217540,1,0,0:0:0:0:
64,192,217540,1,0,0:0:0:0:
192,192,217540,1,0,0:0:0:0:
320,192,217626,1,0,0:0:0:0:
64,192,217712,1,0,0:0:0:0:
320,192,217712,1,0,0:0:0:0:
448,192,217712,1,0,0:0:0:0:
192,192,217798,1,0,0:0:0:0:
64,192,217885,1,0,0:0:0:0:
192,192,217885,1,0,0:0:0:0:
320,192,217971,1,0,0:0:0:0:
448,192,217971,1,0,0:0:0:0:
64,192,218057,1,0,0:0:0:0:
192,192,218057,1,0,0:0:0:0:
192,192,218144,1,0,0:0:0:0:
64,192,218144,1,0,0:0:0:0:
320,192,218575,1,0,0:0:0:0:
192,192,218575,1,0,0:0:0:0:
448,192,218575,1,0,0:0:0:0:
64,192,218575,1,0,0:0:0:0:
192,192,218661,1,0,0:0:0:0:
448,192,218747,1,0,0:0:0:0:
192,192,218833,1,0,0:0:0:0:
448,192,218919,1,0,0:0:0:0:
320,192,218919,1,0,0:0:0:0:
192,192,219006,1,0,0:0:0:0:
448,192,219092,1,0,0:0:0:0:
64,192,219178,1,0,0:0:0:0:
448,192,219264,1,0,0:0:0:0:
192,192,219350,1,0,0:0:0:0:
320,192,219437,1,0,0:0:0:0:
448,192,219437,1,0,0:0:0:0:
192,192,219523,1,0,0:0:0:0:
448,192,219609,1,0,0:0:0:0:
64,192,219609,1,0,0:0:0:0:
320,192,219695,1,0,0:0:0:0:
192,192,219781,1,0,0:0:0:0:
448,192,219868,1,0,0:0:0:0:
192,192,219954,1,0,0:0:0:0:
448,192,220040,1,0,0:0:0:0:
192,192,220126,1,0,0:0:0:0:
64,192,220126,1,0,0:0:0:0:
320,192,220212,1,0,0:0:0:0:
64,192,220299,1,0,0:0:0:0:
448,192,220299,1,0,0:0:0:0:
192,192,220385,1,0,0:0:0:0:
448,192,220471,1,0,0:0:0:0:
192,192,220557,1,0,0:0:0:0:
448,192,220643,1,0,0:0:0:0:
192,192,220730,1,0,0:0:0:0:
448,192,220816,1,0,0:0:0:0:
64,192,220816,1,0,0:0:0:0:
320,192,220902,1,0,0:0:0:0:
64,192,220988,1,0,0:0:0:0:
192,192,220988,1,0,0:0:0:0:
448,192,221075,1,0,0:0:0:0:
64,192,221161,1,0,0:0:0:0:
448,192,221247,1,0,0:0:0:0:
192,192,221333,1,0,0:0:0:0:
64,192,221333,1,0,0:0:0:0:
320,192,221419,1,0,0:0:0:0:
64,192,221506,1,0,0:0:0:0:
192,192,221506,1,0,0:0:0:0:
448,192,221592,1,0,0:0:0:0:
192,192,221678,1,0,0:0:0:0:
320,192,221678,1,0,0:0:0:0:
64,192,221764,1,0,0:0:0:0:
320,192,221850,1,0,0:0:0:0:
64,192,221937,1,0,0:0:0:0:
320,192,222023,1,0,0:0:0:0:
64,192,222109,1,0,0:0:0:0:
448,192,222195,1,0,0:0:0:0:
320,192,222195,1,0,0:0:0:0:
64,192,222281,1,0,0:0:0:0:
320,192,222368,1,0,0:0:0:0:
192,192,222368,1,0,0:0:0:0:
448,192,222454,1,0,0:0:0:0:
64,192,222540,1,0,0:0:0:0:
320,192,222626,1,0,0:0:0:0:
64,192,222712,1,0,0:0:0:0:
448,192,222799,1,0,0:0:0:0:
192,192,222885,1,0,0:0:0:0:
64,192,222885,1,0,0:0:0:0:
448,192,222971,1,0,0:0:0:0:
192,192,223057,1,0,0:0:0:0:
320,192,223057,1,0,0:0:0:0:
64,192,223143,1,0,0:0:0:0:
320,192,223230,1,0,0:0:0:0:
192,192,223316,1,0,0:0:0:0:
320,192,223402,1,0,0:0:0:0:
64,192,223488,1,0,0:0:0:0:
320,192,223575,1,0,0:0:0:0:
448,192,223575,1,0,0:0:0:0:
64,192,223661,1,0,0:0:0:0:
320,192,223747,1,0,0:0:0:0:
192,192,223747,1,0,0:0:0:0:
448,192,223833,1,0,0:0:0:0:
64,192,223919,1,0,0:0:0:0:
192,192,223919,1,0,0:0:0:0:
320,192,224006,1,0,0:0:0:0:
64,192,224092,1,0,0:0:0:0:
448,192,224092,1,0,0:0:0:0:
192,192,224178,1,0,0:0:0:0:
320,192,224264,1,0,0:0:0:0:
192,192,224350,1,0,0:0:0:0:
64,192,224437,1,0,0:0:0:0:
320,192,224437,1,0,0:0:0:0:
192,192,224523,1,0,0:0:0:0:
320,192,224609,1,0,0:0:0:0:
192,192,224695,1,0,0:0:0:0:
448,192,224781,1,0,0:0:0:0:
192,192,224868,1,0,0:0:0:0:
64,192,224954,1,0,0:0:0:0:
320,192,224954,1,0,0:0:0:0:
192,192,225040,1,0,0:0:0:0:
320,192,225126,1,0,0:0:0:0:
448,192,225126,1,0,0:0:0:0:
192,192,225212,1,0,0:0:0:0:
448,192,225299,1,0,0:0:0:0:
192,192,225385,1,0,0:0:0:0:
320,192,225471,1,0,0:0:0:0:
192,192,225557,1,0,0:0:0:0:
64,192,225643,1,0,0:0:0:0:
320,192,225643,1,0,0:0:0:0:
192,192,225730,1,0,0:0:0:0:
448,192,225816,1,0,0:0:0:0:
320,192,225816,1,0,0:0:0:0:
192,192,225902,1,0,0:0:0:0:
320,192,225988,1,0,0:0:0:0:
192,192,226075,1,0,0:0:0:0:
320,192,226161,1,0,0:0:0:0:
64,192,226247,1,0,0:0:0:0:
448,192,226333,1,0,0:0:0:0:
320,192,226333,1,0,0:0:0:0:
192,192,226419,1,0,0:0:0:0:
320,192,226506,1,0,0:0:0:0:
64,192,226506,1,0,0:0:0:0:
192,192,226592,1,0,0:0:0:0:
448,192,226678,1,0,0:0:0:0:
192,192,226764,1,0,0:0:0:0:
64,192,226850,1,0,0:0:0:0:
320,192,226850,1,0,0:0:0:0:
448,192,226937,1,0,0:0:0:0:
64,192,227023,1,0,0:0:0:0:
192,192,227023,1,0,0:0:0:0:
320,192,227109,1,0,0:0:0:0:
192,192,227195,1,0,0:0:0:0:
448,192,227195,1,0,0:0:0:0:
64,192,227281,1,0,0:0:0:0:
448,192,227368,1,0,0:0:0:0:
64,192,227454,1,0,0:0:0:0:
448,192,227540,1,0,0:0:0:0:
64,192,227626,1,0,0:0:0:0:
448,192,227712,1,0,0:0:0:0:
192,192,227712,1,0,0:0:0:0:
320,192,227799,1,0,0:0:0:0:
64,192,227885,1,0,0:0:0:0:
192,192,227885,1,0,0:0:0:0:
320,192,227971,1,0,0:0:0:0:
64,192,228057,1,0,0:0:0:0:
448,192,228143,1,0,0:0:0:0:
64,192,228230,1,0,0:0:0:0:
448,192,228316,1,0,0:0:0:0:
64,192,228402,1,0,0:0:0:0:
320,192,228402,1,0,0:0:0:0:
192,192,228488,1,0,0:0:0:0:
448,192,228575,1,0,0:0:0:0:
320,192,228575,1,0,0:0:0:0:
64,192,228661,1,0,0:0:0:0:
448,192,228747,1,0,0:0:0:0:
192,192,228747,1,0,0:0:0:0:
320,192,228833,1,0,0:0:0:0:
64,192,228919,1,0,0:0:0:0:
448,192,229006,1,0,0:0:0:0:
64,192,229092,1,0,0:0:0:0:
192,192,229092,1,0,0:0:0:0:
320,192,229092,1,0,0:0:0:0:
192,192,229178,1,0,0:0:0:0:
64,192,229178,1,0,0:0:0:0:
320,192,229264,1,0,0:0:0:0:
448,192,229264,1,0,0:0:0:0:
192,192,229437,1,0,0:0:0:0:
320,192,229437,1,0,0:0:0:0:
448,192,229437,1,0,0:0:0:0:
192,192,229609,1,0,0:0:0:0:
64,192,229609,1,0,0:0:0:0:
320,192,229695,1,0,0:0:0:0:
448,192,229781,1,0,0:0:0:0:
64,192,229868,1,0,0:0:0:0:
448,192,229954,1,0,0:0:0:0:
320,192,229954,1,0,0:0:0:0:
192,192,230040,1,0,0:0:0:0:
448,192,230126,1,0,0:0:0:0:
320,192,230212,1,0,0:0:0:0:
192,192,230299,1,0,0:0:0:0:
192,192,230385,1,0,0:0:0:0:
320,192,230471,1,0,0:0:0:0:
448,192,230471,1,0,0:0:0:0:
64,192,230557,1,0,0:0:0:0:
192,192,230643,1,0,0:0:0:0:
448,192,230643,1,0,0:0:0:0:
320,192,230730,1,0,0:0:0:0:
64,192,230816,1,0,0:0:0:0:
448,192,230902,1,0,0:0:0:0:
192,192,230988,1,0,0:0:0:0:
448,192,231161,1,0,0:0:0:0:
320,192,231161,1,0,0:0:0:0:
64,192,231247,1,0,0:0:0:0:
448,192,231333,1,0,0:0:0:0:
320,192,231333,1,0,0:0:0:0:
192,192,231419,1,0,0:0:0:0:
320,192,231506,1,0,0:0:0:0:
64,192,231592,1,0,0:0:0:0:
448,192,231678,1,0,0:0:0:0:
192,192,231764,1,0,0:0:0:0:
448,192,231850,1,0,0:0:0:0:
320,192,231850,1,0,0:0:0:0:
320,192,232023,1,0,0:0:0:0:
64,192,232023,1,0,0:0:0:0:
192,192,232109,1,0,0:0:0:0:
448,192,232195,1,0,0:0:0:0:
192,192,232281,1,0,0:0:0:0:
448,192,232368,1,0,0:0:0:0:
320,192,232368,1,0,0:0:0:0:
64,192,232454,1,0,0:0:0:0:
320,192,232540,1,0,0:0:0:0:
448,192,232540,1,0,0:0:0:0:
192,192,232626,1,0,0:0:0:0:
64,192,232712,1,0,0:0:0:0:
448,192,232712,1,0,0:0:0:0:
320,192,232799,1,0,0:0:0:0:
64,192,232885,1,0,0:0:0:0:
448,192,232971,1,0,0:0:0:0:
192,192,233057,1,0,0:0:0:0:
448,192,233143,1,0,0:0:0:0:
320,192,233230,1,0,0:0:0:0:
64,192,233230,1,0,0:0:0:0:
192,192,233316,1,0,0:0:0:0:
320,192,233402,1,0,0:0:0:0:
448,192,233402,1,0,0:0:0:0:
64,192,233488,1,0,0:0:0:0:
320,192,233575,1,0,0:0:0:0:
192,192,233661,1,0,0:0:0:0:
448,192,233747,1,0,0:0:0:0:
64,192,233833,1,0,0:0:0:0:
448,192,233919,1,0,0:0:0:0:
320,192,233919,1,0,0:0:0:0:
192,192,234006,1,0,0:0:0:0:
64,192,234092,1,0,0:0:0:0:
320,192,234092,1,0,0:0:0:0:
320,192,234264,1,0,0:0:0:0:
448,192,234264,1,0,0:0:0:0:
192,192,234350,1,0,0:0:0:0:
64,192,234350,1,0,0:0:0:0:
448,192,234437,1,0,0:0:0:0:
448,192,234609,1,0,0:0:0:0:
192,192,234609,1,0,0:0:0:0:
192,192,234781,1,0,0:0:0:0:
64,192,234781,1,0,0:0:0:0:
64,192,234954,1,0,0:0:0:0:
320,192,234954,1,0,0:0:0:0:
448,192,235126,1,0,0:0:0:0:
320,192,235126,1,0,0:0:0:0:
64,192,235212,1,0,0:0:0:0:
448,192,235299,1,0,0:0:0:0:
192,192,235385,1,0,0:0:0:0:
64,192,235471,1,0,0:0:0:0:
448,192,235471,1,0,0:0:0:0:
320,192,235557,1,0,0:0:0:0:
64,192,235643,1,0,0:0:0:0:
448,192,235730,1,0,0:0:0:0:
192,192,235816,1,0,0:0:0:0:
192,192,235902,1,0,0:0:0:0:
448,192,235988,1,0,0:0:0:0:
320,192,235988,1,0,0:0:0:0:
64,192,236075,1,0,0:0:0:0:
192,192,236161,1,0,0:0:0:0:
448,192,236161,1,0,0:0:0:0:
320,192,236247,1,0,0:0:0:0:
64,192,236333,1,0,0:0:0:0:
320,192,236419,1,0,0:0:0:0:
448,192,236506,1,0,0:0:0:0:
192,192,236506,1,0,0:0:0:0:
64,192,236592,1,0,0:0:0:0:
320,192,236678,1,0,0:0:0:0:
448,192,236678,1,0,0:0:0:0:
64,192,236764,1,0,0:0:0:0:
320,192,236850,1,0,0:0:0:0:
192,192,236850,1,0,0:0:0:0:
448,192,236937,1,0,0:0:0:0:
64,192,237023,1,0,0:0:0:0:
320,192,237109,1,0,0:0:0:0:
64,192,237195,1,0,0:0:0:0:
448,192,237281,1,0,0:0:0:0:
64,192,237368,1,0,0:0:0:0:
192,192,237368,1,0,0:0:0:0:
64,192,237540,1,0,0:0:0:0:
448,192,237540,1,0,0:0:0:0:
320,192,237712,1,0,0:0:0:0:
320,192,237799,1,0,0:0:0:0:
64,192,237885,1,0,0:0:0:0:
192,192,237885,1,0,0:0:0:0:
448,192,237971,1,0,0:0:0:0:
64,192,238057,1,0,0:0:0:0:
192,192,238057,1,0,0:0:0:0:
192,192,238230,1,0,0:0:0:0:
448,192,238230,1,0,0:0:0:0:
64,192,238402,1,0,0:0:0:0:
320,192,238488,1,0,0:0:0:0:
64,192,238575,1,0,0:0:0:0:
448,192,238661,1,0,0:0:0:0:
64,192,238747,1,0,0:0:0:0:
192,192,238747,1,0,0:0:0:0:
192,192,238919,1,0,0:0:0:0:
448,192,238919,1,0,0:0:0:0:
320,192,239264,1,0,0:0:0:0:
64,192,239437,1,0,0:0:0:0:
320,192,239609,1,0,0:0:0:0:
192,192,239781,1,0,0:0:0:0:
192,192,239954,1,0,0:0:0:0:
448,192,240126,1,0,0:0:0:0:
448,192,240212,1,0,0:0:0:0:
448,192,240299,1,0,0:0:0:0:
448,192,240471,1,0,0:0:0:0:
64,192,240644,1,0,0:0:0:0:
192,192,240816,1,0,0:0:0:0:
320,192,240988,1,0,0:0:0:0:
64,192,241161,1,0,0:0:0:0:
448,192,241333,1,0,0:0:0:0:
192,192,241505,1,0,0:0:0:0:
320,192,241677,1,0,0:0:0:0:
64,192,241850,1,0,0:0:0:0:
192,192,242022,1,0,0:0:0:0:
448,192,242195,1,0,0:0:0:0:
64,192,242367,1,0,0:0:0:0:
320,192,242539,1,0,0:0:0:0:
64,192,242712,1,0,0:0:0:0:
192,192,242884,1,0,0:0:0:0:
320,192,243057,128,0,243143:0:0:0:0:
448,192,243057,1,0,0:0:0:0:
192,192,243229,1,0,0:0:0:0:
64,192,243401,128,0,243488:0:0:0:0:
320,192,243574,1,0,0:0:0:0:
64,192,243746,1,0,0:0:0:0:
192,192,243919,1,0,0:0:0:0:
448,192,244092,1,0,0:0:0:0:
64,192,244264,1,0,0:0:0:0:
320,192,244436,1,0,0:0:0:0:
192,192,244609,1,0,0:0:0:0:
64,192,244781,1,0,0:0:0:0:
448,192,244954,1,0,0:0:0:0:
192,192,245126,1,0,0:0:0:0:
64,192,245298,128,0,245385:0:0:0:0:
320,192,245298,1,0,0:0:0:0:
448,192,245471,1,0,0:0:0:0:
192,192,245643,1,0,0:0:0:0:
448,192,245816,1,0,0:0:0:0:
320,192,245816,128,0,245902:0:0:0:0:
64,192,245988,1,0,0:0:0:0:
192,192,246160,128,0,246247:0:0:0:0:
320,192,246333,1,0,0:0:0:0:
192,192,246505,1,0,0:0:0:0:
64,192,246678,1,0,0:0:0:0:
448,192,246851,1,0,0:0:0:0:
192,192,247023,1,0,0:0:0:0:
320,192,247195,1,0,0:0:0:0:
64,192,247368,1,0,0:0:0:0:
192,192,247540,1,0,0:0:0:0:
448,192,247713,1,0,0:0:0:0:
64,192,247885,1,0,0:0:0:0:
320,192,248057,1,0,0:0:0:0:
64,192,248230,1,0,0:0:0:0:
320,192,248402,1,0,0:0:0:0:
448,192,248575,1,0,0:0:0:0:
192,192,248575,128,0,248661:0:0:0:0:
320,192,248747,1,0,0:0:0:0:
64,192,248919,128,0,249006:0:0:0:0:
320,192,249092,1,0,0:0:0:0:
192,192,249264,1,0,0:0:0:0:
192,192,249437,1,0,0:0:0:0:
448,192,249609,1,0,0:0:0:0:
64,192,249781,1,0,0:0:0:0:
320,192,249953,128,0,250040:0:0:0:0:
64,192,250126,1,0,0:0:0:0:
320,192,250298,1,0,0:0:0:0:
192,192,250298,128,0,250384:0:0:0:0:
448,192,250471,1,0,0:0:0:0:
64,192,250643,1,0,0:0:0:0:
192,192,250815,1,0,0:0:0:0:
320,192,250988,128,0,251074:0:0:0:0:
64,192,251160,1,0,0:0:0:0:
448,192,251333,1,0,0:0:0:0:
320,192,251505,1,0,0:0:0:0:
64,192,251677,1,0,0:0:0:0:
192,192,251677,128,0,251764:0:0:0:0:
64,192,251850,1,0,0:0:0:0:
320,192,252022,1,0,0:0:0:0:
192,192,252195,1,0,0:0:0:0:
448,192,252368,1,0,0:0:0:0:
64,192,252540,1,0,0:0:0:0:
192,192,252712,1,0,0:0:0:0:
320,192,252885,1,0,0:0:0:0:
64,192,253057,1,0,0:0:0:0:
448,192,253230,1,0,0:0:0:0:
192,192,253402,1,0,0:0:0:0:
320,192,253574,1,0,0:0:0:0:
64,192,253747,1,0,0:0:0:0:
320,192,253919,1,0,0:0:0:0:
448,192,254092,1,0,0:0:0:0:
192,192,254264,1,0,0:0:0:0:
64,192,254436,128,0,254523:0:0:0:0:
320,192,254436,128,0,254523:0:0:0:0:
192,192,254609,1,0,0:0:0:0:
320,192,254781,1,0,0:0:0:0:
192,192,254954,1,0,0:0:0:0:
448,192,255126,1,0,0:0:0:0:
64,192,255298,1,0,0:0:0:0:
192,192,255470,1,0,0:0:0:0:
320,192,255643,1,0,0:0:0:0:
192,192,255815,128,0,255901:0:0:0:0:
64,192,255815,128,0,255901:0:0:0:0:
448,192,255988,1,0,0:0:0:0:
320,192,256160,1,0,0:0:0:0:
192,192,256332,1,0,0:0:0:0:
320,192,256505,128,0,256591:0:0:0:0:
64,192,256505,128,0,256591:0:0:0:0:
192,192,256677,1,0,0:0:0:0:
448,192,256851,1,0,0:0:0:0:
64,192,257023,1,0,0:0:0:0:
320,192,257195,128,0,257282:0:0:0:0:
192,192,257195,128,0,257282:0:0:0:0:
64,192,257368,1,0,0:0:0:0:
320,192,257540,1,0,0:0:0:0:
192,192,257713,1,0,0:0:0:0:
448,192,257885,1,0,0:0:0:0:
64,192,258057,1,0,0:0:0:0:
320,192,258229,1,0,0:0:0:0:
64,192,258402,1,0,0:0:0:0:
192,192,258574,1,0,0:0:0:0:
448,192,258747,1,0,0:0:0:0:
64,192,258919,1,0,0:0:0:0:
320,192,259091,1,0,0:0:0:0:
192,192,259264,1,0,0:0:0:0:
192,192,259436,1,0,0:0:0:0:
448,192,259609,1,0,0:0:0:0:
192,192,259781,1,0,0:0:0:0:
64,192,259953,128,0,260040:0:0:0:0:
320,192,259953,128,0,260040:0:0:0:0:
192,192,260126,1,0,0:0:0:0:
320,192,260298,1,0,0:0:0:0:
64,192,260471,1,0,0:0:0:0:
448,192,260644,1,0,0:0:0:0:
192,192,260816,1,0,0:0:0:0:
320,192,260988,1,0,0:0:0:0:
64,192,261161,1,0,0:0:0:0:
64,192,261333,128,0,261419:0:0:0:0:
192,192,261333,128,0,261419:0:0:0:0:
448,192,261506,1,0,0:0:0:0:
64,192,261678,1,0,0:0:0:0:
320,192,261850,1,0,0:0:0:0:
192,192,262023,1,0,0:0:0:0:
64,192,262195,1,0,0:0:0:0:
448,192,262368,1,0,0:0:0:0:
192,192,262540,1,0,0:0:0:0:
