osu file format v14

[General]
AudioFilename: audio.mp3
AudioLeadIn: 0
PreviewTime: 107557
Countdown: 0
SampleSet: Normal
StackLeniency: 0.7
Mode: 3
LetterboxInBreaks: 0
SpecialStyle: 0
WidescreenStoryboard: 1

[Editor]
DistanceSpacing: 0.8
BeatDivisor: 4
GridSize: 16
TimelineZoom: 0.9999999

[Metadata]
Title:crystallized
TitleUnicode:crystallized
Artist:Camellia
ArtistUnicode:かめりあ
Creator:-mint-
Version:myself, my voice
Source:osu!
Tags:C89 Comiket 89 CTCD-012 KamelCamellia cametek masaya oya 2015 electronic dnb 東A-85a かめるかめりあ かめてく 大箭将也 大箭マサヤ qqqant featured artist fa
BeatmapID:1860459
BeatmapSetID:890013

[Difficulty]
HPDrainRate:8.3
CircleSize:4
OverallDifficulty:7.5
ApproachRate:9
SliderMultiplier:1
SliderTickRate:1

[Events]
//Background and Video events
0,0,"crystals.jpg",0,0
//Break Periods
//Storyboard Layer 0 (Background)
//Storyboard Layer 1 (Fail)
//Storyboard Layer 2 (Pass)
//Storyboard Layer 3 (Foreground)
//Storyboard Layer 4 (Overlay)
//Storyboard Sound Samples

[TimingPoints]
8937,344.827586206897,4,3,1,5,1,0
19971,-100,4,3,1,15,0,0
31005,-100,4,3,1,30,0,0
51695,-100,4,1,1,30,0,0
75143,-100,4,2,1,30,0,0
80661,-100,4,1,1,30,0,0
130661,-133.333333333333,4,1,1,30,0,0
144109,-125,4,1,1,30,0,0
145488,-117.647058823529,4,1,1,30,0,0
146868,-111.111111111111,4,1,1,30,0,0
148247,-105.263157894737,4,1,1,30,0,0
149626,-100,4,1,1,30,0,0
163419,-100,4,2,1,30,0,0
168592,-100,4,1,1,30,0,0
174454,-100,4,1,1,30,0,1
195833,-100,4,1,1,30,0,0
196523,-100,4,1,1,30,0,1
218592,-100,4,1,1,30,0,0
224109,-100,4,1,1,25,0,0
229626,-105.263157894737,4,1,1,20,0,0
232385,-111.111111111111,4,1,1,20,0,0
235143,-117.647058823529,4,2,1,20,0,0
237902,-125,4,2,1,20,0,0
240661,-133.333333333333,4,2,1,20,0,0

[HitObjects]
448,192,4799,128,0,8937:0:0:0:0:
64,192,8937,128,0,8994:0:0:0:0:
192,192,9109,1,0,0:0:0:0:
320,192,9281,1,0,0:0:0:0:
64,192,9454,1,0,0:0:0:0:
448,192,9626,1,0,0:0:0:0:
64,192,9799,1,0,0:0:0:0:
192,192,9971,1,0,0:0:0:0:
320,192,10143,1,0,0:0:0:0:
64,192,10316,1,0,0:0:0:0:
448,192,10488,1,0,0:0:0:0:
64,192,10661,1,0,0:0:0:0:
192,192,10833,1,0,0:0:0:0:
320,192,11005,1,0,0:0:0:0:
64,192,11178,1,0,0:0:0:0:
448,192,11350,1,0,0:0:0:0:
64,192,11523,1,0,0:0:0:0:
192,192,11695,128,0,11753:0:0:0:0:
64,192,11868,1,0,0:0:0:0:
320,192,12040,1,0,0:0:0:0:
192,192,12212,1,0,0:0:0:0:
448,192,12385,1,0,0:0:0:0:
192,192,12557,1,0,0:0:0:0:
64,192,12730,1,0,0:0:0:0:
320,192,12902,1,0,0:0:0:0:
192,192,13074,128,0,13132:0:0:0:0:
448,192,13247,1,0,0:0:0:0:
192,192,13419,1,0,0:0:0:0:
64,192,13592,1,0,0:0:0:0:
320,192,13764,128,0,13822:0:0:0:0:
192,192,13937,1,0,0:0:0:0:
448,192,14109,1,0,0:0:0:0:
192,192,14281,1,0,0:0:0:0:
64,192,14454,128,0,14511:0:0:0:0:
320,192,14626,1,0,0:0:0:0:
64,192,14799,1,0,0:0:0:0:
192,192,14971,1,0,0:0:0:0:
448,192,15143,1,0,0:0:0:0:
192,192,15316,1,0,0:0:0:0:
320,192,15488,1,0,0:0:0:0:
64,192,15661,1,0,0:0:0:0:
192,192,15833,1,0,0:0:0:0:
448,192,16005,1,0,0:0:0:0:
192,192,16178,1,0,0:0:0:0:
320,192,16350,1,0,0:0:0:0:
64,192,16523,1,0,0:0:0:0:
192,192,16695,1,0,0:0:0:0:
448,192,16868,1,0,0:0:0:0:
192,192,17040,1,0,0:0:0:0:
320,192,17212,128,0,17270:0:0:0:0:
64,192,17385,1,0,0:0:0:0:
320,192,17557,1,0,0:0:0:0:
192,192,17730,1,0,0:0:0:0:
448,192,17902,1,0,0:0:0:0:
320,192,18074,1,0,0:0:0:0:
64,192,18247,1,0,0:0:0:0:
320,192,18419,1,0,0:0:0:0:
192,192,18592,128,0,18649:0:0:0:0:
448,192,18764,1,0,0:0:0:0:
320,192,18937,1,0,0:0:0:0:
64,192,19109,1,0,0:0:0:0:
320,192,19281,1,0,0:0:0:0:
192,192,19454,1,0,0:0:0:0:
448,192,19626,1,0,0:0:0:0:
320,192,19799,1,0,0:0:0:0:
64,192,19971,128,0,20028:0:0:0:0:
192,192,20143,1,0,0:0:0:0:
320,192,20316,1,0,0:0:0:0:
64,192,20488,1,0,0:0:0:0:
448,192,20661,1,0,0:0:0:0:
64,192,20833,1,0,0:0:0:0:
192,192,21005,1,0,0:0:0:0:
320,192,21178,1,0,0:0:0:0:
64,192,21350,1,0,0:0:0:0:
448,192,21523,1,0,0:0:0:0:
64,192,21695,1,0,0:0:0:0:
192,192,21868,1,0,0:0:0:0:
320,192,22040,1,0,0:0:0:0:
64,192,22212,1,0,0:0:0:0:
448,192,22385,1,0,0:0:0:0:
64,192,22557,1,0,0:0:0:0:
192,192,22730,128,0,22787:0:0:0:0:
64,192,22902,1,0,0:0:0:0:
320,192,23074,1,0,0:0:0:0:
192,192,23247,1,0,0:0:0:0:
448,192,23419,1,0,0:0:0:0:
192,192,23592,1,0,0:0:0:0:
64,192,23764,1,0,0:0:0:0:
320,192,23937,1,0,0:0:0:0:
192,192,24109,128,0,24166:0:0:0:0:
448,192,24281,1,0,0:0:0:0:
192,192,24454,1,0,0:0:0:0:
64,192,24626,1,0,0:0:0:0:
320,192,24799,128,0,24856:0:0:0:0:
192,192,24971,1,0,0:0:0:0:
448,192,25143,1,0,0:0:0:0:
192,192,25316,1,0,0:0:0:0:
64,192,25488,128,2,25546:0:0:0:0:
320,192,25661,1,0,0:0:0:0:
64,192,25833,1,8,0:0:0:0:
448,192,25833,1,0,0:0:0:0:
192,192,26005,1,0,0:0:0:0:
320,192,26178,1,0,0:0:0:0:
64,192,26350,1,2,0:0:0:0:
64,192,26523,1,8,0:0:0:0:
320,192,26523,1,0,0:0:0:0:
448,192,26695,1,0,0:0:0:0:
192,192,26868,1,2,0:0:0:0:
320,192,27040,1,2,0:0:0:0:
64,192,27212,1,0,0:0:0:0:
192,192,27385,1,8,0:0:0:0:
448,192,27385,1,0,0:0:0:0:
64,192,27471,1,0,0:0:0:0:
320,192,27557,1,0,0:0:0:0:
448,192,27643,1,0,0:0:0:0:
192,192,27730,1,2,0:0:0:0:
192,192,27902,1,8,0:0:0:0:
448,192,27902,1,0,0:0:0:0:
64,192,28074,1,0,0:0:0:0:
320,192,28247,128,2,28304:0:0:0:0:
320,192,28419,1,0,0:0:0:0:
64,192,28592,1,8,0:0:0:0:
448,192,28592,1,0,0:0:0:0:
192,192,28764,1,0,0:0:0:0:
448,192,28850,1,0,0:0:0:0:
64,192,28937,1,0,0:0:0:0:
320,192,29023,1,0,0:0:0:0:
192,192,29109,1,2,0:0:0:0:
192,192,29281,1,8,0:0:0:0:
448,192,29281,1,0,0:0:0:0:
64,192,29454,1,0,0:0:0:0:
192,192,29626,128,8,29684:0:0:0:0:
448,192,29626,1,0,0:0:0:0:
320,192,29799,1,2,0:0:0:0:
320,192,29971,1,2,0:0:0:0:
64,192,30143,1,8,0:0:0:0:
448,192,30143,1,0,0:0:0:0:
192,192,30230,1,0,0:0:0:0:
320,192,30316,1,0,0:0:0:0:
64,192,30402,1,8,0:0:0:0:
448,192,30402,1,0,0:0:0:0:
192,192,30488,1,2,0:0:0:0:
64,192,30661,1,8,0:0:0:0:
448,192,30661,1,0,0:0:0:0:
320,192,30833,1,2,0:0:0:0:
64,192,30919,1,8,0:0:0:0:
192,192,31005,128,2,31092:0:0:0:0:
448,192,31005,128,4,31092:0:0:0:0:
192,192,31178,1,0,0:0:0:0:
64,192,31350,1,8,0:0:0:0:
320,192,31350,1,0,0:0:0:0:
192,192,31523,1,0,0:0:0:0:
448,192,31609,1,0,0:0:0:0:
192,192,31695,1,0,0:0:0:0:
448,192,31781,1,0,0:0:0:0:
64,192,31868,1,2,0:0:0:0:
192,192,31868,1,0,0:0:0:0:
64,192,32040,1,8,0:0:0:0:
320,192,32040,1,0,0:0:0:0:
320,192,32212,128,0,32557:0:0:0:0:
64,192,32385,1,2,0:0:0:0:
192,192,32385,1,0,0:0:0:0:
64,192,32557,1,2,0:0:0:0:
192,192,32557,1,0,0:0:0:0:
448,192,32730,1,0,0:0:0:0:
64,192,32902,1,8,0:0:0:0:
320,192,32902,1,0,0:0:0:0:
192,192,32988,1,0,0:0:0:0:
320,192,33074,1,0,0:0:0:0:
192,192,33161,1,0,0:0:0:0:
320,192,33247,1,2,0:0:0:0:
448,192,33247,1,0,0:0:0:0:
64,192,33419,1,8,0:0:0:0:
448,192,33419,1,0,0:0:0:0:
192,192,33592,1,0,0:0:0:0:
320,192,33764,1,2,0:0:0:0:
448,192,33764,1,0,0:0:0:0:
320,192,33937,1,0,0:0:0:0:
64,192,34109,1,8,0:0:0:0:
448,192,34109,1,0,0:0:0:0:
192,192,34281,1,0,0:0:0:0:
320,192,34368,1,0,0:0:0:0:
192,192,34454,1,0,0:0:0:0:
320,192,34540,1,0,0:0:0:0:
64,192,34626,1,2,0:0:0:0:
192,192,34626,1,0,0:0:0:0:
64,192,34799,1,8,0:0:0:0:
448,192,34799,1,0,0:0:0:0:
448,192,34971,128,0,35316:0:0:0:0:
64,192,35143,1,2,0:0:0:0:
192,192,35143,1,0,0:0:0:0:
192,192,35316,1,0,0:0:0:0:
64,192,35488,1,8,0:0:0:0:
448,192,35488,1,0,0:0:0:0:
320,192,35661,1,0,0:0:0:0:
64,192,35747,1,2,0:0:0:0:
192,192,35747,1,0,0:0:0:0:
320,192,35833,1,0,0:0:0:0:
448,192,35919,1,0,0:0:0:0:
64,192,36005,1,2,0:0:0:0:
192,192,36005,1,0,0:0:0:0:
64,192,36178,1,8,0:0:0:0:
448,192,36178,1,0,0:0:0:0:
192,192,36350,1,0,0:0:0:0:
320,192,36523,1,2,0:0:0:0:
448,192,36523,1,0,0:0:0:0:
64,192,36695,1,0,0:0:0:0:
192,192,36868,1,8,0:0:0:0:
448,192,36868,1,0,0:0:0:0:
320,192,37040,1,0,0:0:0:0:
64,192,37126,1,0,0:0:0:0:
320,192,37212,1,0,0:0:0:0:
64,192,37299,1,0,0:0:0:0:
320,192,37385,1,2,0:0:0:0:
448,192,37385,1,0,0:0:0:0:
192,192,37557,1,8,0:0:0:0:
448,192,37557,1,0,0:0:0:0:
64,192,37730,128,0,38074:0:0:0:0:
320,192,37902,1,2,0:0:0:0:
448,192,37902,1,0,0:0:0:0:
320,192,38074,1,2,0:0:0:0:
448,192,38074,1,0,0:0:0:0:
64,192,38247,1,0,0:0:0:0:
192,192,38419,1,8,0:0:0:0:
448,192,38419,1,0,0:0:0:0:
320,192,38505,1,0,0:0:0:0:
192,192,38592,1,0,0:0:0:0:
320,192,38678,1,0,0:0:0:0:
64,192,38764,1,2,0:0:0:0:
192,192,38764,1,0,0:0:0:0:
64,192,38937,1,8,0:0:0:0:
448,192,38937,1,0,0:0:0:0:
448,192,39109,1,0,0:0:0:0:
64,192,39281,1,2,0:0:0:0:
192,192,39281,1,0,0:0:0:0:
192,192,39454,1,0,0:0:0:0:
64,192,39626,1,8,0:0:0:0:
448,192,39626,1,0,0:0:0:0:
192,192,39799,1,0,0:0:0:0:
320,192,39885,1,0,0:0:0:0:
192,192,39971,1,0,0:0:0:0:
320,192,40057,1,0,0:0:0:0:
64,192,40143,1,2,0:0:0:0:
192,192,40143,128,0,40488:0:0:0:0:
64,192,40316,1,8,0:0:0:0:
448,192,40316,1,0,0:0:0:0:
320,192,40488,1,0,0:0:0:0:
64,192,40661,1,8,0:0:0:0:
448,192,40661,1,0,0:0:0:0:
64,192,40833,1,2,0:0:0:0:
192,192,40833,1,0,0:0:0:0:
64,192,41005,1,2,0:0:0:0:
192,192,41005,1,0,0:0:0:0:
64,192,41178,1,8,0:0:0:0:
448,192,41178,1,0,0:0:0:0:
192,192,41264,1,0,0:0:0:0:
320,192,41350,1,0,0:0:0:0:
448,192,41437,1,8,0:0:0:0:
64,192,41523,128,2,41868:0:0:0:0:
192,192,41523,1,0,0:0:0:0:
192,192,41695,1,8,0:0:0:0:
448,192,41695,1,0,0:0:0:0:
320,192,41868,1,2,0:0:0:0:
448,192,41868,1,0,0:0:0:0:
64,192,41954,1,8,0:0:0:0:
320,192,42040,1,2,0:0:0:0:
448,192,42040,1,0,0:0:0:0:
320,192,42212,1,0,0:0:0:0:
64,192,42385,1,8,0:0:0:0:
448,192,42385,1,0,0:0:0:0:
192,192,42557,1,0,0:0:0:0:
448,192,42643,1,0,0:0:0:0:
192,192,42730,1,0,0:0:0:0:
448,192,42816,1,0,0:0:0:0:
64,192,42902,1,2,0:0:0:0:
192,192,42902,1,0,0:0:0:0:
64,192,43074,1,8,0:0:0:0:
320,192,43074,1,0,0:0:0:0:
320,192,43247,128,0,43592:0:0:0:0:
64,192,43419,1,2,0:0:0:0:
192,192,43419,1,0,0:0:0:0:
64,192,43592,1,2,0:0:0:0:
192,192,43592,1,0,0:0:0:0:
448,192,43764,1,0,0:0:0:0:
64,192,43937,1,8,0:0:0:0:
320,192,43937,1,0,0:0:0:0:
192,192,44023,1,0,0:0:0:0:
320,192,44109,1,0,0:0:0:0:
192,192,44195,1,0,0:0:0:0:
320,192,44281,1,2,0:0:0:0:
448,192,44281,1,0,0:0:0:0:
64,192,44454,1,8,0:0:0:0:
448,192,44454,1,0,0:0:0:0:
192,192,44626,1,0,0:0:0:0:
320,192,44799,1,2,0:0:0:0:
448,192,44799,1,0,0:0:0:0:
320,192,44971,1,0,0:0:0:0:
64,192,45143,1,8,0:0:0:0:
448,192,45143,1,0,0:0:0:0:
192,192,45316,1,0,0:0:0:0:
320,192,45402,1,0,0:0:0:0:
192,192,45488,1,0,0:0:0:0:
320,192,45574,1,0,0:0:0:0:
64,192,45661,1,2,0:0:0:0:
192,192,45661,1,0,0:0:0:0:
64,192,45833,1,8,0:0:0:0:
448,192,45833,1,0,0:0:0:0:
448,192,46005,128,0,46350:0:0:0:0:
64,192,46178,1,2,0:0:0:0:
192,192,46178,1,0,0:0:0:0:
192,192,46350,1,0,0:0:0:0:
64,192,46523,1,8,0:0:0:0:
448,192,46523,1,0,0:0:0:0:
320,192,46695,1,0,0:0:0:0:
64,192,46781,1,2,0:0:0:0:
192,192,46781,1,0,0:0:0:0:
320,192,46868,1,0,0:0:0:0:
448,192,46954,1,0,0:0:0:0:
64,192,47040,1,2,0:0:0:0:
192,192,47040,1,0,0:0:0:0:
64,192,47212,1,8,0:0:0:0:
448,192,47212,1,0,0:0:0:0:
192,192,47385,1,0,0:0:0:0:
320,192,47557,1,2,0:0:0:0:
448,192,47557,1,0,0:0:0:0:
448,192,47730,128,0,47902:0:0:0:0:
64,192,47902,1,8,0:0:0:0:
320,192,47902,1,0,0:0:0:0:
448,192,48074,1,0,0:0:0:0:
192,192,48161,1,0,0:0:0:0:
448,192,48247,128,0,48419:0:0:0:0:
320,192,48333,1,0,0:0:0:0:
64,192,48419,1,2,0:0:0:0:
192,192,48419,1,0,0:0:0:0:
64,192,48592,1,8,0:0:0:0:
320,192,48592,1,0,0:0:0:0:
448,192,48764,128,0,48937:0:0:0:0:
192,192,48937,1,2,0:0:0:0:
192,192,49109,1,0,0:0:0:0:
448,192,49281,128,0,49454:0:0:0:0:
64,192,49454,1,8,0:0:0:0:
320,192,49454,1,0,0:0:0:0:
192,192,49540,1,0,0:0:0:0:
320,192,49626,1,0,0:0:0:0:
192,192,49712,1,0,0:0:0:0:
448,192,49799,128,2,49971:0:0:0:0:
64,192,49971,1,8,0:0:0:0:
320,192,49971,1,0,0:0:0:0:
320,192,50143,1,0,0:0:0:0:
64,192,50316,1,2,0:0:0:0:
192,192,50316,1,0,0:0:0:0:
320,192,50402,1,0,0:0:0:0:
64,192,50488,1,0,0:0:0:0:
320,192,50574,1,0,0:0:0:0:
192,192,50661,1,8,0:0:0:0:
448,192,50661,1,0,0:0:0:0:
64,192,50747,1,0,0:0:0:0:
448,192,50833,1,0,0:0:0:0:
64,192,50919,1,0,0:0:0:0:
192,192,51005,1,2,0:0:0:0:
448,192,51092,1,2,0:0:0:0:
192,192,51178,1,2,0:0:0:0:
448,192,51264,1,2,0:0:0:0:
64,192,51350,1,8,0:0:0:0:
320,192,51350,1,0,0:0:0:0:
192,192,51437,1,2,0:0:0:0:
320,192,51523,1,2,0:0:0:0:
192,192,51609,1,2,0:0:0:0:
448,192,51695,1,2,0:0:0:0:
320,192,51738,1,2,0:0:0:0:
192,192,51781,1,2,0:0:0:0:
64,192,51824,1,2,0:0:0:0:
448,192,51868,1,2,0:0:0:0:
320,192,51911,1,2,0:0:0:0:
192,192,51954,1,2,0:0:0:0:
64,192,51997,1,2,0:0:0:0:
448,192,52040,1,2,0:0:0:0:
320,192,52083,1,2,0:0:0:0:
192,192,52126,1,2,0:0:0:0:
448,192,52169,1,2,0:0:0:0:
64,192,52212,1,2,0:0:0:0:
320,192,52255,1,2,0:0:0:0:
192,192,52299,1,2,0:0:0:0:
64,192,52342,1,2,0:0:0:0:
448,192,52385,128,0,53074:0:0:0:0:
64,192,53074,128,2,53678:0:0:0:0:
192,192,53074,128,0,53678:0:0:0:0:
320,192,53074,128,0,53678:0:0:0:0:
320,192,53764,128,0,54109:0:0:0:0:
192,192,53937,128,0,54368:0:0:0:0:
64,192,54454,128,2,54799:0:0:0:0:
192,192,54454,128,0,54971:0:0:0:0:
320,192,54454,128,0,54799:0:0:0:0:
64,192,54971,128,2,55316:0:0:0:0:
320,192,54971,128,0,55488:0:0:0:0:
448,192,54971,128,0,55316:0:0:0:0:
64,192,55488,128,2,56178:0:0:0:0:
192,192,55488,128,0,56178:0:0:0:0:
448,192,55488,128,0,56178:0:0:0:0:
320,192,56178,128,0,56264:0:0:0:0:
320,192,56350,128,0,56408:0:0:0:0:
192,192,56523,128,0,56609:0:0:0:0:
192,192,56695,128,0,56753:0:0:0:0:
64,192,56868,128,0,56954:0:0:0:0:
64,192,57212,128,2,57730:0:0:0:0:
192,192,57212,128,0,57557:0:0:0:0:
448,192,57212,128,0,57557:0:0:0:0:
192,192,57730,128,2,58074:0:0:0:0:
320,192,57730,128,0,58247:0:0:0:0:
448,192,57730,128,0,58074:0:0:0:0:
64,192,58247,128,2,58937:0:0:0:0:
192,192,58247,128,0,58937:0:0:0:0:
448,192,58247,128,0,58937:0:0:0:0:
320,192,58937,128,0,59109:0:0:0:0:
64,192,59109,1,0,0:0:0:0:
448,192,59281,128,0,59885:0:0:0:0:
192,192,59454,128,0,59885:0:0:0:0:
64,192,59626,128,0,59885:0:0:0:0:
320,192,59626,128,0,59885:0:0:0:0:
64,192,59971,128,2,60488:0:0:0:0:
192,192,59971,128,0,60316:0:0:0:0:
448,192,59971,128,0,60316:0:0:0:0:
192,192,60488,128,2,61005:0:0:0:0:
320,192,60488,128,0,60833:0:0:0:0:
448,192,60488,128,0,60833:0:0:0:0:
64,192,61005,128,2,61695:0:0:0:0:
320,192,61005,128,0,61695:0:0:0:0:
448,192,61005,128,0,61695:0:0:0:0:
192,192,61695,128,0,61954:0:0:0:0:
448,192,62040,128,0,62643:0:0:0:0:
64,192,62212,1,2,0:0:0:0:
192,192,62212,128,0,62643:0:0:0:0:
64,192,62385,1,8,0:0:0:0:
320,192,62385,128,0,62643:0:0:0:0:
64,192,62730,128,2,62988:0:0:0:0:
192,192,62730,128,0,63419:0:0:0:0:
448,192,62730,1,0,0:0:0:0:
64,192,63074,128,8,63419:0:0:0:0:
320,192,63074,128,0,63592:0:0:0:0:
448,192,63419,128,0,64023:0:0:0:0:
64,192,63592,1,2,0:0:0:0:
192,192,63592,128,0,64023:0:0:0:0:
64,192,63764,128,8,64023:0:0:0:0:
320,192,63764,128,0,64023:0:0:0:0:
64,192,64109,128,2,64712:0:0:0:0:
192,192,64109,128,0,64712:0:0:0:0:
320,192,64109,128,0,64712:0:0:0:0:
64,192,64799,128,0,65057:0:0:0:0:
192,192,64799,128,0,65057:0:0:0:0:
448,192,65057,1,0,0:0:0:0:
64,192,65143,128,0,65230:0:0:0:0:
192,192,65143,128,0,65230:0:0:0:0:
448,192,65230,1,0,0:0:0:0:
64,192,65316,128,0,65402:0:0:0:0:
192,192,65316,128,0,65402:0:0:0:0:
448,192,65402,1,0,0:0:0:0:
64,192,65488,128,2,65833:0:0:0:0:
192,192,65488,128,0,66350:0:0:0:0:
320,192,65488,128,0,65833:0:0:0:0:
64,192,66005,128,2,66350:0:0:0:0:
320,192,66005,128,0,67040:0:0:0:0:
448,192,66005,128,0,66350:0:0:0:0:
64,192,66523,128,2,67212:0:0:0:0:
192,192,66523,128,0,67212:0:0:0:0:
448,192,66523,128,0,67212:0:0:0:0:
320,192,67212,128,0,67299:0:0:0:0:
192,192,67299,128,0,67385:0:0:0:0:
448,192,67385,128,0,67557:0:0:0:0:
320,192,67471,128,0,67600:0:0:0:0:
192,192,67557,128,0,67643:0:0:0:0:
64,192,67643,128,0,67730:0:0:0:0:
320,192,67730,128,0,67816:0:0:0:0:
192,192,67816,128,0,67902:0:0:0:0:
448,192,67902,128,0,68161:0:0:0:0:
64,192,68074,128,0,68161:0:0:0:0:
64,192,68247,128,2,69109:0:0:0:0:
192,192,68247,128,0,68592:0:0:0:0:
448,192,68247,128,0,68592:0:0:0:0:
192,192,68764,128,2,69109:0:0:0:0:
320,192,68764,128,0,69799:0:0:0:0:
448,192,68764,128,0,69109:0:0:0:0:
64,192,69281,128,2,69971:0:0:0:0:
192,192,69281,128,0,69971:0:0:0:0:
448,192,69281,128,0,69971:0:0:0:0:
320,192,69971,128,0,70230:0:0:0:0:
64,192,70316,128,0,70919:0:0:0:0:
320,192,70316,128,0,70661:0:0:0:0:
448,192,70488,128,0,70919:0:0:0:0:
192,192,70661,128,0,70919:0:0:0:0:
320,192,70833,128,0,70919:0:0:0:0:
64,192,71005,128,2,71868:0:0:0:0:
192,192,71005,128,0,71350:0:0:0:0:
448,192,71005,128,0,71350:0:0:0:0:
192,192,71523,128,2,72471:0:0:0:0:
320,192,71523,128,0,71868:0:0:0:0:
448,192,71523,128,0,71868:0:0:0:0:
64,192,72040,128,2,72471:0:0:0:0:
320,192,72040,128,0,73161:0:0:0:0:
448,192,72040,128,0,72557:0:0:0:0:
64,192,72557,1,2,0:0:0:0:
192,192,72557,1,0,0:0:0:0:
192,192,72730,128,8,73850:0:0:0:0:
448,192,72730,1,0,0:0:0:0:
320,192,73247,1,2,0:0:0:0:
448,192,73247,1,0,0:0:0:0:
64,192,73419,1,8,0:0:0:0:
320,192,73419,128,0,74540:0:0:0:0:
64,192,73937,1,2,0:0:0:0:
192,192,73937,1,0,0:0:0:0:
192,192,74109,128,8,74799:0:0:0:0:
448,192,74109,1,0,0:0:0:0:
320,192,74626,1,2,0:0:0:0:
448,192,74626,1,0,0:0:0:0:
64,192,74799,128,8,74971:0:0:0:0:
448,192,74799,1,0,0:0:0:0:
320,192,74971,1,0,0:0:0:0:
64,192,75143,128,2,75316:0:0:0:0:
192,192,75143,128,4,75230:0:0:0:0:
448,192,75143,1,0,0:0:0:0:
320,192,75316,1,0,0:0:0:0:
192,192,75488,128,8,75574:0:0:0:0:
448,192,75488,1,0,0:0:0:0:
320,192,75661,128,0,75747:0:0:0:0:
64,192,75833,1,2,0:0:0:0:
192,192,75833,1,0,0:0:0:0:
192,192,76005,128,0,76092:0:0:0:0:
64,192,76178,128,8,76350:0:0:0:0:
320,192,76178,128,0,76264:0:0:0:0:
448,192,76350,1,0,0:0:0:0:
64,192,76523,128,2,76695:0:0:0:0:
192,192,76523,128,0,76609:0:0:0:0:
320,192,76695,128,0,76781:0:0:0:0:
64,192,76868,1,8,0:0:0:0:
448,192,76868,1,0,0:0:0:0:
192,192,77040,128,0,77126:0:0:0:0:
320,192,77212,128,2,77299:0:0:0:0:
448,192,77212,1,0,0:0:0:0:
192,192,77385,1,0,0:0:0:0:
64,192,77557,128,8,77730:0:0:0:0:
320,192,77557,128,0,77643:0:0:0:0:
448,192,77730,128,0,77816:0:0:0:0:
64,192,77902,128,2,78074:0:0:0:0:
192,192,77902,128,0,77988:0:0:0:0:
320,192,78074,1,0,0:0:0:0:
192,192,78247,128,8,78333:0:0:0:0:
448,192,78247,1,0,0:0:0:0:
320,192,78419,128,0,78505:0:0:0:0:
64,192,78592,1,2,0:0:0:0:
192,192,78592,1,0,0:0:0:0:
192,192,78764,128,0,78850:0:0:0:0:
64,192,78937,128,8,79109:0:0:0:0:
320,192,78937,128,0,79023:0:0:0:0:
448,192,79109,1,0,0:0:0:0:
64,192,79281,128,2,79454:0:0:0:0:
192,192,79281,128,0,79368:0:0:0:0:
320,192,79454,128,0,79540:0:0:0:0:
192,192,79626,1,8,0:0:0:0:
448,192,79626,1,0,0:0:0:0:
192,192,79799,128,0,79885:0:0:0:0:
320,192,79971,128,2,80057:0:0:0:0:
448,192,79971,1,0,0:0:0:0:
448,192,80143,1,0,0:0:0:0:
64,192,80316,128,8,80488:0:0:0:0:
320,192,80316,128,0,80402:0:0:0:0:
448,192,80488,128,0,80574:0:0:0:0:
64,192,80661,1,8,0:0:0:0:
192,192,80661,1,0,0:0:0:0:
448,192,80661,1,0,0:0:0:0:
64,192,80833,1,2,0:0:0:0:
192,192,80833,1,0,0:0:0:0:
64,192,81005,1,8,0:0:0:0:
320,192,81005,1,0,0:0:0:0:
448,192,81005,1,0,0:0:0:0:
320,192,81178,1,2,0:0:0:0:
448,192,81178,1,0,0:0:0:0:
64,192,81350,1,8,0:0:0:0:
192,192,81350,1,0,0:0:0:0:
448,192,81350,1,0,0:0:0:0:
64,192,81523,1,2,0:0:0:0:
64,192,81695,1,8,0:0:0:0:
320,192,81695,1,0,0:0:0:0:
448,192,81695,1,0,0:0:0:0:
448,192,81868,1,2,0:0:0:0:
192,192,82040,1,8,0:0:0:0:
448,192,82040,1,0,0:0:0:0:
192,192,82212,1,2,0:0:0:0:
64,192,82385,1,8,0:0:0:0:
320,192,82385,1,0,0:0:0:0:
320,192,82557,1,2,0:0:0:0:
64,192,82730,1,2,0:0:0:0:
192,192,82730,1,0,0:0:0:0:
192,192,82902,1,2,0:0:0:0:
320,192,83074,1,2,0:0:0:0:
448,192,83074,1,0,0:0:0:0:
320,192,83247,1,2,0:0:0:0:
64,192,83419,1,2,0:0:0:0:
192,192,83419,1,0,0:0:0:0:
448,192,83505,1,2,0:0:0:0:
64,192,83592,1,2,0:0:0:0:
448,192,83678,1,2,0:0:0:0:
64,192,83764,1,2,0:0:0:0:
192,192,83764,1,0,0:0:0:0:
320,192,83850,1,2,0:0:0:0:
192,192,83937,1,2,0:0:0:0:
320,192,84023,1,2,0:0:0:0:
64,192,84109,1,2,0:0:0:0:
192,192,84109,1,0,0:0:0:0:
448,192,84152,1,2,0:0:0:0:
320,192,84195,1,2,0:0:0:0:
192,192,84238,1,2,0:0:0:0:
64,192,84281,1,2,0:0:0:0:
448,192,84324,1,2,0:0:0:0:
320,192,84368,1,2,0:0:0:0:
192,192,84411,1,2,0:0:0:0:
64,192,84454,1,2,0:0:0:0:
448,192,84497,1,2,0:0:0:0:
320,192,84540,1,2,0:0:0:0:
192,192,84583,1,2,0:0:0:0:
448,192,84626,1,2,0:0:0:0:
64,192,84669,1,2,0:0:0:0:
320,192,84712,1,2,0:0:0:0:
192,192,84755,1,2,0:0:0:0:
64,192,84799,1,8,0:0:0:0:
448,192,84799,128,0,85574:0:0:0:0:
448,192,85661,1,0,0:0:0:0:
64,192,85747,1,0,0:0:0:0:
320,192,85833,1,0,0:0:0:0:
64,192,85919,1,0,0:0:0:0:
192,192,86005,1,0,0:0:0:0:
64,192,86092,1,0,0:0:0:0:
320,192,86178,128,2,86609:0:0:0:0:
448,192,86178,1,4,0:0:0:0:
64,192,86350,1,0,0:0:0:0:
192,192,86523,128,8,86954:0:0:0:0:
448,192,86523,1,0,0:0:0:0:
320,192,86695,128,0,87126:0:0:0:0:
448,192,86868,1,0,0:0:0:0:
64,192,87040,1,2,0:0:0:0:
192,192,87040,128,0,87471:0:0:0:0:
64,192,87212,1,8,0:0:0:0:
320,192,87212,128,0,87643:0:0:0:0:
448,192,87385,1,0,0:0:0:0:
192,192,87557,128,0,87988:0:0:0:0:
320,192,87730,128,2,88161:0:0:0:0:
448,192,87730,1,0,0:0:0:0:
64,192,87902,1,8,0:0:0:0:
448,192,87902,1,0,0:0:0:0:
192,192,88074,128,0,88333:0:0:0:0:
320,192,88247,128,0,88505:0:0:0:0:
64,192,88419,1,2,0:0:0:0:
192,192,88419,1,0,0:0:0:0:
64,192,88592,1,8,0:0:0:0:
320,192,88592,128,0,88937:0:0:0:0:
448,192,88764,128,0,88937:0:0:0:0:
64,192,88937,128,2,89712:0:0:0:0:
192,192,88937,128,0,89109:0:0:0:0:
320,192,89109,128,2,89368:0:0:0:0:
448,192,89109,1,0,0:0:0:0:
192,192,89281,128,8,89540:0:0:0:0:
448,192,89281,128,0,89971:0:0:0:0:
320,192,89454,128,0,89885:0:0:0:0:
192,192,89626,128,0,89712:0:0:0:0:
64,192,89799,1,2,0:0:0:0:
192,192,89799,128,0,90316:0:0:0:0:
64,192,89971,1,8,0:0:0:0:
320,192,89971,128,0,90316:0:0:0:0:
448,192,90143,128,0,90316:0:0:0:0:
64,192,90316,128,0,90661:0:0:0:0:
320,192,90488,128,2,90661:0:0:0:0:
448,192,90488,1,0,0:0:0:0:
192,192,90661,128,8,90833:0:0:0:0:
448,192,90661,1,0,0:0:0:0:
64,192,90747,128,0,90919:0:0:0:0:
320,192,90833,128,0,91005:0:0:0:0:
192,192,90919,128,0,91092:0:0:0:0:
448,192,91005,128,0,91178:0:0:0:0:
320,192,91092,128,0,91264:0:0:0:0:
64,192,91178,1,2,0:0:0:0:
192,192,91178,128,0,91437:0:0:0:0:
448,192,91264,128,0,91609:0:0:0:0:
64,192,91350,128,8,91695:0:0:0:0:
320,192,91350,128,0,91609:0:0:0:0:
192,192,91523,128,0,91695:0:0:0:0:
320,192,91695,128,2,92126:0:0:0:0:
448,192,91695,1,0,0:0:0:0:
192,192,91868,1,0,0:0:0:0:
64,192,92040,128,8,92471:0:0:0:0:
448,192,92040,1,0,0:0:0:0:
320,192,92212,128,0,92643:0:0:0:0:
448,192,92385,1,0,0:0:0:0:
64,192,92557,128,2,92988:0:0:0:0:
192,192,92557,1,0,0:0:0:0:
192,192,92730,1,8,0:0:0:0:
320,192,92730,128,0,93161:0:0:0:0:
448,192,92902,1,0,0:0:0:0:
64,192,93074,128,0,93505:0:0:0:0:
320,192,93247,128,2,93678:0:0:0:0:
448,192,93247,1,0,0:0:0:0:
192,192,93419,1,8,0:0:0:0:
448,192,93419,1,0,0:0:0:0:
64,192,93592,128,0,93850:0:0:0:0:
320,192,93764,128,0,94195:0:0:0:0:
64,192,93937,1,2,0:0:0:0:
192,192,93937,1,0,0:0:0:0:
192,192,94109,1,8,0:0:0:0:
448,192,94109,128,0,94454:0:0:0:0:
320,192,94281,128,0,94454:0:0:0:0:
64,192,94454,128,2,94712:0:0:0:0:
192,192,94454,128,0,94712:0:0:0:0:
320,192,94626,128,2,94712:0:0:0:0:
448,192,94626,128,0,94712:0:0:0:0:
64,192,94799,128,8,95143:0:0:0:0:
192,192,94799,128,0,95057:0:0:0:0:
320,192,94799,128,0,94971:0:0:0:0:
320,192,95143,128,0,95230:0:0:0:0:
448,192,95143,128,0,95230:0:0:0:0:
64,192,95230,128,0,95316:0:0:0:0:
320,192,95316,128,2,95402:0:0:0:0:
448,192,95316,128,0,95402:0:0:0:0:
64,192,95402,128,0,95488:0:0:0:0:
192,192,95488,128,8,96092:0:0:0:0:
320,192,95488,128,0,95833:0:0:0:0:
448,192,95661,128,0,95833:0:0:0:0:
64,192,95833,128,0,96092:0:0:0:0:
320,192,96005,128,2,96178:0:0:0:0:
448,192,96005,1,0,0:0:0:0:
64,192,96178,128,8,96350:0:0:0:0:
192,192,96178,128,0,96350:0:0:0:0:
448,192,96178,128,0,96350:0:0:0:0:
320,192,96350,1,2,0:0:0:0:
64,192,96523,128,0,96695:0:0:0:0:
448,192,96523,128,0,96695:0:0:0:0:
192,192,96695,128,2,96954:0:0:0:0:
320,192,96781,128,2,97126:0:0:0:0:
64,192,96868,128,8,96954:0:0:0:0:
448,192,96868,128,0,97126:0:0:0:0:
64,192,97040,128,2,97212:0:0:0:0:
192,192,97040,128,0,97212:0:0:0:0:
320,192,97212,128,2,97643:0:0:0:0:
448,192,97212,1,4,0:0:0:0:
64,192,97385,1,0,0:0:0:0:
192,192,97557,128,8,97988:0:0:0:0:
448,192,97557,1,0,0:0:0:0:
320,192,97730,128,0,98161:0:0:0:0:
448,192,97902,1,0,0:0:0:0:
64,192,98074,1,2,0:0:0:0:
192,192,98074,128,0,98505:0:0:0:0:
64,192,98247,1,8,0:0:0:0:
320,192,98247,128,0,98678:0:0:0:0:
448,192,98419,1,0,0:0:0:0:
192,192,98592,128,0,99023:0:0:0:0:
320,192,98764,128,2,99195:0:0:0:0:
448,192,98764,1,0,0:0:0:0:
64,192,98937,1,8,0:0:0:0:
448,192,98937,1,0,0:0:0:0:
192,192,99109,128,0,99368:0:0:0:0:
320,192,99281,128,0,99540:0:0:0:0:
64,192,99454,1,2,0:0:0:0:
192,192,99454,1,0,0:0:0:0:
64,192,99626,1,8,0:0:0:0:
320,192,99626,128,0,99971:0:0:0:0:
448,192,99799,128,0,99971:0:0:0:0:
64,192,99971,128,2,100316:0:0:0:0:
192,192,99971,128,0,100143:0:0:0:0:
320,192,100143,128,2,100747:0:0:0:0:
448,192,100143,1,0,0:0:0:0:
192,192,100316,128,8,100574:0:0:0:0:
448,192,100316,128,0,100747:0:0:0:0:
64,192,100488,128,0,100919:0:0:0:0:
192,192,100661,128,0,101005:0:0:0:0:
320,192,100833,1,2,0:0:0:0:
448,192,100833,128,0,101350:0:0:0:0:
64,192,101005,1,8,0:0:0:0:
320,192,101005,128,0,101350:0:0:0:0:
192,192,101178,128,0,101350:0:0:0:0:
64,192,101350,128,0,101695:0:0:0:0:
320,192,101523,128,2,101695:0:0:0:0:
448,192,101523,1,0,0:0:0:0:
192,192,101695,1,8,0:0:0:0:
448,192,101695,128,0,101868:0:0:0:0:
320,192,101781,128,0,101954:0:0:0:0:
192,192,101868,128,0,102040:0:0:0:0:
448,192,101954,128,0,102126:0:0:0:0:
64,192,102040,128,0,102212:0:0:0:0:
192,192,102126,128,0,102299:0:0:0:0:
320,192,102212,128,2,102643:0:0:0:0:
448,192,102212,1,0,0:0:0:0:
64,192,102299,128,0,102471:0:0:0:0:
192,192,102385,128,8,102730:0:0:0:0:
448,192,102385,128,0,102643:0:0:0:0:
64,192,102557,128,0,102730:0:0:0:0:
320,192,102730,128,2,102902:0:0:0:0:
448,192,102730,1,0,0:0:0:0:
64,192,103074,128,4,103505:0:0:0:0:
192,192,103074,1,8,0:0:0:0:
448,192,103074,1,0,0:0:0:0:
320,192,103247,128,0,103678:0:0:0:0:
448,192,103419,1,0,0:0:0:0:
64,192,103592,128,2,104023:0:0:0:0:
192,192,103592,1,0,0:0:0:0:
192,192,103764,1,8,0:0:0:0:
320,192,103764,128,0,104195:0:0:0:0:
448,192,103937,1,0,0:0:0:0:
64,192,104109,128,0,104540:0:0:0:0:
320,192,104281,128,2,104712:0:0:0:0:
448,192,104281,1,0,0:0:0:0:
192,192,104454,1,8,0:0:0:0:
448,192,104454,1,0,0:0:0:0:
64,192,104626,128,0,104885:0:0:0:0:
320,192,104799,128,0,105143:0:0:0:0:
448,192,104928,128,0,105057:0:0:0:0:
64,192,104971,1,2,0:0:0:0:
192,192,104971,1,0,0:0:0:0:
192,192,105143,128,8,105316:0:0:0:0:
448,192,105143,128,0,105488:0:0:0:0:
320,192,105316,128,0,105488:0:0:0:0:
64,192,105488,128,4,105747:0:0:0:0:
192,192,105488,1,2,0:0:0:0:
320,192,105661,1,2,0:0:0:0:
448,192,105661,1,0,0:0:0:0:
64,192,105833,128,8,106092:0:0:0:0:
320,192,105833,128,0,106264:0:0:0:0:
192,192,106005,128,0,106178:0:0:0:0:
448,192,106092,128,0,106264:0:0:0:0:
64,192,106178,128,0,106437:0:0:0:0:
192,192,106264,128,0,106781:0:0:0:0:
320,192,106350,128,2,106523:0:0:0:0:
448,192,106350,1,0,0:0:0:0:
64,192,106523,128,8,106781:0:0:0:0:
448,192,106523,128,0,106868:0:0:0:0:
320,192,106695,128,0,106868:0:0:0:0:
64,192,106868,1,2,0:0:0:0:
192,192,106868,1,0,0:0:0:0:
64,192,107040,1,2,0:0:0:0:
192,192,107040,1,0,0:0:0:0:
64,192,107212,1,8,0:0:0:0:
448,192,107212,1,0,0:0:0:0:
320,192,107385,1,2,0:0:0:0:
448,192,107385,1,0,0:0:0:0:
64,192,107557,128,8,108161:0:0:0:0:
448,192,107557,128,0,108161:0:0:0:0:
192,192,107730,128,0,108161:0:0:0:0:
320,192,107816,128,0,108161:0:0:0:0:
64,192,108247,128,2,108764:0:0:0:0:
320,192,108247,128,0,108937:0:0:0:0:
448,192,108247,128,0,108764:0:0:0:0:
192,192,108592,128,0,108937:0:0:0:0:
64,192,108937,128,8,109281:0:0:0:0:
448,192,108937,128,0,109023:0:0:0:0:
320,192,109023,128,0,109109:0:0:0:0:
192,192,109109,128,0,109195:0:0:0:0:
320,192,109195,128,0,109368:0:0:0:0:
192,192,109281,128,0,109454:0:0:0:0:
64,192,109368,128,0,109540:0:0:0:0:
320,192,109454,128,2,109712:0:0:0:0:
448,192,109454,128,0,109583:0:0:0:0:
192,192,109540,128,0,109799:0:0:0:0:
64,192,109626,128,0,109971:0:0:0:0:
448,192,109712,128,0,109885:0:0:0:0:
320,192,109799,128,0,109885:0:0:0:0:
192,192,109885,128,0,110143:0:0:0:0:
320,192,109971,128,2,110057:0:0:0:0:
448,192,109971,128,0,110143:0:0:0:0:
64,192,110057,128,0,110230:0:0:0:0:
320,192,110143,128,0,110747:0:0:0:0:
192,192,110230,128,0,110316:0:0:0:0:
64,192,110316,128,8,110919:0:0:0:0:
448,192,110316,128,0,111264:0:0:0:0:
192,192,110488,128,0,110919:0:0:0:0:
320,192,110833,128,0,111293:0:0:0:0:
64,192,111005,128,2,111350:0:0:0:0:
192,192,111005,128,0,111322:0:0:0:0:
448,192,111350,128,0,111523:0:0:0:0:
64,192,111695,128,8,112126:0:0:0:0:
192,192,111695,128,0,112212:0:0:0:0:
320,192,111695,128,0,112299:0:0:0:0:
448,192,112040,128,0,112385:0:0:0:0:
64,192,112385,128,2,112816:0:0:0:0:
192,192,112385,128,0,112816:0:0:0:0:
448,192,112730,128,0,112988:0:0:0:0:
64,192,112902,1,2,0:0:0:0:
192,192,112902,128,0,113074:0:0:0:0:
320,192,112988,128,2,113247:0:0:0:0:
64,192,113074,128,8,113247:0:0:0:0:
448,192,113074,128,0,113419:0:0:0:0:
192,192,113247,128,0,113592:0:0:0:0:
64,192,113419,128,8,113592:0:0:0:0:
320,192,113419,1,0,0:0:0:0:
320,192,113592,128,2,113764:0:0:0:0:
448,192,113592,1,0,0:0:0:0:
64,192,113764,128,2,114281:0:0:0:0:
192,192,113764,128,0,114454:0:0:0:0:
448,192,113764,128,0,114281:0:0:0:0:
320,192,114109,128,0,114454:0:0:0:0:
64,192,114454,128,8,114799:0:0:0:0:
448,192,114454,128,0,114540:0:0:0:0:
320,192,114540,128,0,114626:0:0:0:0:
192,192,114626,128,0,114712:0:0:0:0:
320,192,114712,128,0,114885:0:0:0:0:
192,192,114799,128,0,114971:0:0:0:0:
64,192,114885,128,0,115057:0:0:0:0:
320,192,114971,128,2,115230:0:0:0:0:
448,192,114971,128,0,115100:0:0:0:0:
192,192,115057,128,0,115316:0:0:0:0:
64,192,115143,128,0,115488:0:0:0:0:
448,192,115230,128,0,115402:0:0:0:0:
320,192,115316,128,0,115402:0:0:0:0:
192,192,115402,128,0,115661:0:0:0:0:
320,192,115488,128,2,115574:0:0:0:0:
448,192,115488,128,0,115661:0:0:0:0:
64,192,115574,128,0,115747:0:0:0:0:
320,192,115661,128,0,116092:0:0:0:0:
192,192,115747,128,0,115833:0:0:0:0:
64,192,115833,128,8,116437:0:0:0:0:
448,192,115833,128,0,116264:0:0:0:0:
192,192,116005,128,0,116437:0:0:0:0:
320,192,116178,128,0,116523:0:0:0:0:
448,192,116350,128,0,116523:0:0:0:0:
64,192,116523,128,2,116954:0:0:0:0:
192,192,116523,1,0,0:0:0:0:
192,192,116695,128,0,117126:0:0:0:0:
320,192,116868,128,2,117212:0:0:0:0:
448,192,116868,128,0,117126:0:0:0:0:
64,192,117040,128,0,117212:0:0:0:0:
192,192,117212,128,8,117902:0:0:0:0:
448,192,117212,1,0,0:0:0:0:
448,192,117385,128,0,117730:0:0:0:0:
64,192,117557,128,0,117730:0:0:0:0:
320,192,117730,128,0,118247:0:0:0:0:
64,192,117902,1,8,0:0:0:0:
448,192,117902,128,0,118419:0:0:0:0:
64,192,118074,1,2,0:0:0:0:
192,192,118074,1,0,0:0:0:0:
64,192,118247,1,2,0:0:0:0:
192,192,118247,1,0,0:0:0:0:
64,192,118419,128,8,118937:0:0:0:0:
320,192,118419,1,0,0:0:0:0:
320,192,118592,1,2,0:0:0:0:
448,192,118592,1,0,0:0:0:0:
320,192,118764,1,2,0:0:0:0:
448,192,118764,1,0,0:0:0:0:
192,192,118937,1,8,0:0:0:0:
448,192,118937,128,0,119109:0:0:0:0:
320,192,119023,128,0,119109:0:0:0:0:
192,192,119109,1,0,0:0:0:0:
320,192,119195,128,0,119885:0:0:0:0:
448,192,119195,128,0,119885:0:0:0:0:
64,192,119281,128,2,119885:0:0:0:0:
192,192,119281,128,0,119885:0:0:0:0:
64,192,119971,128,8,120057:0:0:0:0:
448,192,119971,128,0,120402:0:0:0:0:
320,192,120057,128,0,120230:0:0:0:0:
192,192,120143,128,0,120316:0:0:0:0:
64,192,120230,128,0,120402:0:0:0:0:
320,192,120316,128,0,120488:0:0:0:0:
192,192,120402,128,0,120574:0:0:0:0:
64,192,120488,128,8,120618:0:0:0:0:
448,192,120488,128,0,120747:0:0:0:0:
320,192,120574,128,0,120747:0:0:0:0:
192,192,120661,128,0,120833:0:0:0:0:
64,192,120747,128,0,120919:0:0:0:0:
320,192,120833,128,2,121005:0:0:0:0:
448,192,120833,1,0,0:0:0:0:
192,192,120919,128,0,121092:0:0:0:0:
64,192,121005,128,8,121178:0:0:0:0:
448,192,121005,128,0,121178:0:0:0:0:
320,192,121092,128,0,121264:0:0:0:0:
192,192,121178,128,0,121437:0:0:0:0:
448,192,121264,128,0,121523:0:0:0:0:
64,192,121350,128,8,121437:0:0:0:0:
320,192,121350,128,0,121523:0:0:0:0:
64,192,121523,128,2,121781:0:0:0:0:
192,192,121523,128,0,121781:0:0:0:0:
320,192,121781,128,2,121954:0:0:0:0:
448,192,121781,128,0,121954:0:0:0:0:
320,192,122040,1,2,0:0:0:0:
448,192,122040,1,0,0:0:0:0:
64,192,122126,1,0,0:0:0:0:
192,192,122169,1,0,0:0:0:0:
448,192,122212,1,0,0:0:0:0:
320,192,122255,1,0,0:0:0:0:
192,192,122299,1,0,0:0:0:0:
64,192,122342,1,0,0:0:0:0:
320,192,122385,128,2,123419:0:0:0:0:
448,192,122385,128,0,122557:0:0:0:0:
64,192,122730,128,8,123247:0:0:0:0:
448,192,122730,128,0,122816:0:0:0:0:
448,192,122902,128,0,122988:0:0:0:0:
448,192,123074,128,0,123161:0:0:0:0:
448,192,123247,128,0,123333:0:0:0:0:
64,192,123419,128,2,123850:0:0:0:0:
192,192,123419,128,0,123850:0:0:0:0:
448,192,123764,128,0,124023:0:0:0:0:
64,192,123937,1,2,0:0:0:0:
192,192,123937,128,0,124109:0:0:0:0:
320,192,124023,128,2,124281:0:0:0:0:
64,192,124109,128,8,124281:0:0:0:0:
448,192,124109,128,0,124454:0:0:0:0:
192,192,124281,128,0,124626:0:0:0:0:
64,192,124454,128,8,124626:0:0:0:0:
320,192,124454,1,0,0:0:0:0:
320,192,124626,128,2,124799:0:0:0:0:
448,192,124626,1,0,0:0:0:0:
64,192,124799,128,2,125316:0:0:0:0:
192,192,124799,128,0,125488:0:0:0:0:
448,192,124799,128,0,125316:0:0:0:0:
320,192,125143,128,0,125488:0:0:0:0:
64,192,125488,128,8,125833:0:0:0:0:
448,192,125488,128,0,125574:0:0:0:0:
320,192,125574,128,0,125661:0:0:0:0:
192,192,125661,128,0,125747:0:0:0:0:
320,192,125747,128,0,125919:0:0:0:0:
192,192,125833,128,0,126005:0:0:0:0:
64,192,125919,128,0,126092:0:0:0:0:
320,192,126005,128,2,126264:0:0:0:0:
448,192,126005,128,0,126135:0:0:0:0:
192,192,126092,128,0,126350:0:0:0:0:
64,192,126178,128,0,126523:0:0:0:0:
448,192,126264,128,0,126437:0:0:0:0:
320,192,126350,128,0,126437:0:0:0:0:
192,192,126437,128,0,126695:0:0:0:0:
320,192,126523,128,2,126609:0:0:0:0:
448,192,126523,128,0,126695:0:0:0:0:
64,192,126609,128,0,126781:0:0:0:0:
320,192,126695,128,0,127212:0:0:0:0:
192,192,126781,128,0,126868:0:0:0:0:
64,192,126868,128,8,127514:0:0:0:0:
448,192,126868,128,0,127169:0:0:0:0:
192,192,127212,128,0,127557:0:0:0:0:
320,192,127557,128,2,128074:0:0:0:0:
448,192,127557,1,0,0:0:0:0:
448,192,127730,128,2,128850:0:0:0:0:
192,192,127902,1,2,0:0:0:0:
192,192,128074,128,2,128937:0:0:0:0:
320,192,128247,1,2,0:0:0:0:
320,192,128419,128,2,129023:0:0:0:0:
64,192,128592,1,2,0:0:0:0:
64,192,128764,128,2,129195:0:0:0:0:
448,192,128937,128,2,129109:0:0:0:0:
192,192,129023,128,0,129368:0:0:0:0:
320,192,129109,128,0,129281:0:0:0:0:
448,192,129195,128,0,129454:0:0:0:0:
64,192,129281,128,0,129626:0:0:0:0:
320,192,129368,128,0,129540:0:0:0:0:
192,192,129454,128,0,129971:0:0:0:0:
448,192,129540,128,0,129712:0:0:0:0:
320,192,129626,128,0,129799:0:0:0:0:
64,192,129712,128,0,130143:0:0:0:0:
448,192,129799,128,0,129885:0:0:0:0:
320,192,129885,128,0,129971:0:0:0:0:
448,192,129971,128,0,130057:0:0:0:0:
192,192,130057,128,0,130143:0:0:0:0:
448,192,130143,128,0,130230:0:0:0:0:
64,192,130230,128,0,130316:0:0:0:0:
320,192,130316,128,2,130445:0:0:0:0:
448,192,130316,128,4,130445:0:0:0:0:
64,192,132730,128,0,132787:0:0:0:0:
448,192,133074,128,0,133161:0:0:0:0:
192,192,134971,128,0,135028:0:0:0:0:
64,192,135488,128,0,135546:0:0:0:0:
448,192,135833,128,0,135919:0:0:0:0:
64,192,138247,128,0,138304:0:0:0:0:
192,192,138592,128,0,138678:0:0:0:0:
448,192,139626,128,0,139684:0:0:0:0:
320,192,139971,128,0,140057:0:0:0:0:
192,192,140661,128,0,140718:0:0:0:0:
448,192,141350,128,0,145488:0:0:0:0:
64,192,143764,128,0,145488:0:0:0:0:
320,192,144109,128,0,146868:0:0:0:0:
192,192,145488,128,0,146178:0:0:0:0:
448,192,146005,128,0,146523:0:0:0:0:
64,192,146178,128,0,146868:0:0:0:0:
192,192,146523,128,0,146868:0:0:0:0:
448,192,146868,128,0,147212:0:0:0:0:
320,192,147040,128,0,147385:0:0:0:0:
192,192,147212,128,0,147557:0:0:0:0:
64,192,147385,128,0,147730:0:0:0:0:
448,192,147557,128,0,147902:0:0:0:0:
192,192,147730,128,0,148419:0:0:0:0:
320,192,147902,128,0,148764:0:0:0:0:
448,192,148074,128,0,149109:0:0:0:0:
64,192,148247,128,0,148333:0:0:0:0:
64,192,148419,128,0,149195:0:0:0:0:
192,192,148592,128,0,148678:0:0:0:0:
192,192,148764,128,0,149540:0:0:0:0:
320,192,148937,128,0,149023:0:0:0:0:
320,192,149109,128,0,149626:0:0:0:0:
64,192,149281,128,0,149540:0:0:0:0:
448,192,149281,128,0,149368:0:0:0:0:
448,192,149454,128,0,149712:0:0:0:0:
64,192,149626,128,2,149928:0:0:0:0:
192,192,149626,128,0,149799:0:0:0:0:
320,192,149712,128,2,149885:0:0:0:0:
448,192,149799,128,2,150100:0:0:0:0:
192,192,149885,128,2,150014:0:0:0:0:
320,192,149971,128,2,150187:0:0:0:0:
64,192,150057,128,2,150230:0:0:0:0:
192,192,150143,128,2,150402:0:0:0:0:
448,192,150230,128,2,150316:0:0:0:0:
320,192,150316,128,2,150574:0:0:0:0:
64,192,150402,128,2,150488:0:0:0:0:
448,192,150488,128,2,150876:0:0:0:0:
192,192,150574,128,2,150661:0:0:0:0:
64,192,150661,128,2,150747:0:0:0:0:
320,192,150747,128,2,150919:0:0:0:0:
192,192,150833,128,2,150962:0:0:0:0:
64,192,150919,128,2,151005:0:0:0:0:
448,192,151005,1,2,0:0:0:0:
320,192,151049,1,2,0:0:0:0:
192,192,151092,1,2,0:0:0:0:
64,192,151135,1,2,0:0:0:0:
448,192,151178,1,2,0:0:0:0:
320,192,151221,1,2,0:0:0:0:
192,192,151264,1,2,0:0:0:0:
64,192,151307,1,2,0:0:0:0:
448,192,151350,1,2,0:0:0:0:
320,192,151393,1,2,0:0:0:0:
192,192,151437,1,2,0:0:0:0:
448,192,151480,1,2,0:0:0:0:
64,192,151523,1,2,0:0:0:0:
320,192,151566,1,2,0:0:0:0:
192,192,151609,1,2,0:0:0:0:
64,192,151652,1,2,0:0:0:0:
448,192,151695,128,0,151753:0:0:0:0:
192,192,151753,128,0,151810:0:0:0:0:
320,192,151810,128,0,151868:0:0:0:0:
64,192,151925,128,0,151982:0:0:0:0:
320,192,152040,128,0,152097:0:0:0:0:
320,192,152212,128,0,152270:0:0:0:0:
64,192,152385,128,2,152988:0:0:0:0:
192,192,152385,128,0,152988:0:0:0:0:
320,192,152385,128,0,152988:0:0:0:0:
320,192,153074,128,0,153419:0:0:0:0:
192,192,153247,128,0,153678:0:0:0:0:
64,192,153764,128,2,154109:0:0:0:0:
192,192,153764,128,0,154626:0:0:0:0:
320,192,153764,128,0,154109:0:0:0:0:
64,192,154281,128,2,154626:0:0:0:0:
320,192,154281,128,0,155316:0:0:0:0:
448,192,154281,128,0,154626:0:0:0:0:
64,192,154799,128,2,155488:0:0:0:0:
192,192,154799,128,0,155488:0:0:0:0:
448,192,154799,128,0,155488:0:0:0:0:
320,192,155488,128,0,155574:0:0:0:0:
320,192,155661,128,0,155718:0:0:0:0:
192,192,155833,128,0,155919:0:0:0:0:
192,192,156005,128,0,156063:0:0:0:0:
64,192,156178,128,0,156264:0:0:0:0:
64,192,156523,128,2,157385:0:0:0:0:
192,192,156523,128,0,156868:0:0:0:0:
448,192,156523,128,0,156868:0:0:0:0:
192,192,157040,128,2,157385:0:0:0:0:
320,192,157040,128,0,158074:0:0:0:0:
448,192,157040,128,0,157385:0:0:0:0:
64,192,157557,128,2,158247:0:0:0:0:
192,192,157557,128,0,158247:0:0:0:0:
448,192,157557,128,0,158247:0:0:0:0:
320,192,158247,128,0,158419:0:0:0:0:
64,192,158419,1,0,0:0:0:0:
448,192,158592,128,0,159195:0:0:0:0:
192,192,158764,128,0,159195:0:0:0:0:
64,192,158937,128,0,159195:0:0:0:0:
320,192,158937,128,0,159195:0:0:0:0:
64,192,159281,128,2,160143:0:0:0:0:
192,192,159281,128,0,159626:0:0:0:0:
448,192,159281,128,0,159626:0:0:0:0:
192,192,159799,128,2,160833:0:0:0:0:
320,192,159799,128,0,160143:0:0:0:0:
448,192,159799,128,0,160143:0:0:0:0:
64,192,160316,128,2,161005:0:0:0:0:
320,192,160316,128,0,161005:0:0:0:0:
448,192,160316,128,0,161005:0:0:0:0:
192,192,161005,128,0,161264:0:0:0:0:
64,192,161178,128,0,161437:0:0:0:0:
320,192,161264,128,0,161350:0:0:0:0:
448,192,161350,128,0,161437:0:0:0:0:
192,192,161437,128,0,161523:0:0:0:0:
320,192,161523,128,2,161695:0:0:0:0:
448,192,161523,128,0,161609:0:0:0:0:
64,192,161609,128,0,161781:0:0:0:0:
192,192,161695,128,8,161781:0:0:0:0:
448,192,161695,128,0,161954:0:0:0:0:
320,192,161781,128,0,161954:0:0:0:0:
192,192,161868,128,0,162730:0:0:0:0:
64,192,161954,128,0,162299:0:0:0:0:
320,192,162040,128,2,162299:0:0:0:0:
448,192,162040,128,0,162643:0:0:0:0:
64,192,162385,128,8,162730:0:0:0:0:
320,192,162385,128,0,162902:0:0:0:0:
448,192,162730,128,0,163333:0:0:0:0:
64,192,162902,1,2,0:0:0:0:
192,192,162902,128,0,163333:0:0:0:0:
64,192,163074,128,8,163333:0:0:0:0:
320,192,163074,128,0,163333:0:0:0:0:
64,192,163419,1,2,0:0:0:0:
192,192,163419,128,4,164109:0:0:0:0:
320,192,163419,128,0,164109:0:0:0:0:
64,192,163764,1,8,0:0:0:0:
448,192,163764,1,0,0:0:0:0:
64,192,164109,1,0,0:0:0:0:
64,192,164454,128,8,164626:0:0:0:0:
448,192,164454,1,0,0:0:0:0:
192,192,164799,128,0,165143:0:0:0:0:
64,192,165143,1,8,0:0:0:0:
320,192,165143,1,0,0:0:0:0:
448,192,165316,128,0,165661:0:0:0:0:
192,192,165488,1,0,0:0:0:0:
64,192,165833,1,8,0:0:0:0:
320,192,165833,128,0,166523:0:0:0:0:
192,192,166178,1,0,0:0:0:0:
64,192,166523,1,8,0:0:0:0:
448,192,166523,1,0,0:0:0:0:
320,192,166868,1,0,0:0:0:0:
192,192,167212,1,8,0:0:0:0:
448,192,167212,1,0,0:0:0:0:
192,192,167557,128,0,167902:0:0:0:0:
64,192,167902,1,8,0:0:0:0:
320,192,167902,1,0,0:0:0:0:
448,192,168074,128,0,168419:0:0:0:0:
192,192,168247,1,0,0:0:0:0:
64,192,168592,128,8,169281:0:0:0:0:
320,192,168592,1,0,0:0:0:0:
448,192,168592,1,0,0:0:0:0:
192,192,168937,1,8,0:0:0:0:
320,192,168937,1,0,0:0:0:0:
448,192,168937,1,0,0:0:0:0:
320,192,169109,1,0,0:0:0:0:
192,192,169281,1,8,0:0:0:0:
320,192,169281,1,0,0:0:0:0:
448,192,169281,1,0,0:0:0:0:
192,192,169454,1,0,0:0:0:0:
64,192,169626,1,8,0:0:0:0:
192,192,169626,1,0,0:0:0:0:
448,192,169626,1,0,0:0:0:0:
448,192,169799,1,0,0:0:0:0:
64,192,169971,1,8,0:0:0:0:
320,192,169971,1,0,0:0:0:0:
448,192,169971,1,0,0:0:0:0:
64,192,170143,1,0,0:0:0:0:
64,192,170316,128,8,170661:0:0:0:0:
192,192,170316,1,0,0:0:0:0:
320,192,170316,1,0,0:0:0:0:
320,192,170488,1,0,0:0:0:0:
192,192,170661,1,8,0:0:0:0:
320,192,170661,1,0,0:0:0:0:
192,192,170833,128,0,171178:0:0:0:0:
64,192,171005,1,8,0:0:0:0:
448,192,171005,1,0,0:0:0:0:
448,192,171178,1,0,0:0:0:0:
192,192,171350,1,8,0:0:0:0:
448,192,171350,128,0,171954:0:0:0:0:
192,192,171523,1,0,0:0:0:0:
64,192,171695,1,8,0:0:0:0:
192,192,171695,128,0,171868:0:0:0:0:
320,192,171781,128,2,171954:0:0:0:0:
64,192,171868,128,2,172126:0:0:0:0:
192,192,171954,128,2,172040:0:0:0:0:
320,192,172040,128,8,172212:0:0:0:0:
448,192,172040,1,0,0:0:0:0:
192,192,172126,128,2,172299:0:0:0:0:
448,192,172212,128,2,172299:0:0:0:0:
320,192,172299,128,2,172385:0:0:0:0:
64,192,172385,1,2,0:0:0:0:
192,192,172385,1,0,0:0:0:0:
448,192,172428,1,2,0:0:0:0:
320,192,172471,1,2,0:0:0:0:
192,192,172514,1,2,0:0:0:0:
64,192,172557,1,2,0:0:0:0:
448,192,172600,1,2,0:0:0:0:
320,192,172643,1,2,0:0:0:0:
192,192,172687,1,2,0:0:0:0:
64,192,172730,1,2,0:0:0:0:
448,192,172773,1,2,0:0:0:0:
320,192,172816,1,2,0:0:0:0:
192,192,172859,1,2,0:0:0:0:
448,192,172902,1,2,0:0:0:0:
64,192,172945,1,2,0:0:0:0:
320,192,172988,1,2,0:0:0:0:
192,192,173031,1,2,0:0:0:0:
448,192,173074,1,0,0:0:0:0:
64,192,173074,128,8,173850:0:0:0:0:
64,192,173937,1,0,0:0:0:0:
448,192,174023,1,0,0:0:0:0:
192,192,174109,1,0,0:0:0:0:
448,192,174195,1,0,0:0:0:0:
320,192,174281,1,0,0:0:0:0:
448,192,174368,1,0,0:0:0:0:
64,192,174454,1,2,0:0:0:0:
192,192,174454,1,4,0:0:0:0:
320,192,174540,128,0,174799:0:0:0:0:
448,192,174626,128,0,174712:0:0:0:0:
192,192,174712,1,0,0:0:0:0:
448,192,174799,128,0,174971:0:0:0:0:
64,192,174799,1,2,0:0:0:0:
320,192,174885,128,0,175057:0:0:0:0:
192,192,174971,1,0,0:0:0:0:
448,192,175057,128,0,175230:0:0:0:0:
64,192,175143,1,2,0:0:0:0:
192,192,175143,1,0,0:0:0:0:
320,192,175230,128,0,175402:0:0:0:0:
448,192,175316,128,0,175488:0:0:0:0:
192,192,175402,1,0,0:0:0:0:
64,192,175488,128,2,175661:0:0:0:0:
320,192,175488,1,0,0:0:0:0:
448,192,175574,128,0,175833:0:0:0:0:
192,192,175661,128,0,175747:0:0:0:0:
320,192,175747,128,0,175833:0:0:0:0:
64,192,175833,1,2,0:0:0:0:
192,192,175833,1,0,0:0:0:0:
320,192,175919,128,0,176092:0:0:0:0:
64,192,176005,128,0,176092:0:0:0:0:
448,192,176092,1,0,0:0:0:0:
320,192,176178,1,0,0:0:0:0:
64,192,176178,128,2,176350:0:0:0:0:
448,192,176264,128,0,176437:0:0:0:0:
192,192,176350,128,0,176609:0:0:0:0:
64,192,176437,128,0,176523:0:0:0:0:
320,192,176523,1,2,0:0:0:0:
448,192,176523,1,0,0:0:0:0:
64,192,176609,128,0,176868:0:0:0:0:
192,192,176695,128,0,176781:0:0:0:0:
320,192,176781,1,0,0:0:0:0:
192,192,176868,128,2,177040:0:0:0:0:
448,192,176868,1,0,0:0:0:0:
64,192,176954,128,0,177126:0:0:0:0:
320,192,177040,128,0,177126:0:0:0:0:
192,192,177126,128,0,177299:0:0:0:0:
320,192,177212,1,2,0:0:0:0:
448,192,177212,1,0,0:0:0:0:
64,192,177299,128,0,177471:0:0:0:0:
320,192,177385,128,0,177471:0:0:0:0:
192,192,177471,1,0,0:0:0:0:
64,192,177557,1,2,0:0:0:0:
320,192,177557,128,0,177730:0:0:0:0:
448,192,177643,128,0,177816:0:0:0:0:
192,192,177730,1,0,0:0:0:0:
64,192,177816,128,0,177902:0:0:0:0:
320,192,177902,1,2,0:0:0:0:
448,192,177902,1,0,0:0:0:0:
64,192,177988,128,0,178161:0:0:0:0:
192,192,178074,128,0,178247:0:0:0:0:
448,192,178161,1,0,0:0:0:0:
320,192,178247,1,0,0:0:0:0:
64,192,178247,128,2,178419:0:0:0:0:
448,192,178333,128,0,178505:0:0:0:0:
192,192,178419,128,0,178505:0:0:0:0:
320,192,178505,128,0,178678:0:0:0:0:
64,192,178592,1,2,0:0:0:0:
192,192,178592,1,0,0:0:0:0:
448,192,178678,128,0,178850:0:0:0:0:
192,192,178764,128,0,178850:0:0:0:0:
320,192,178850,1,0,0:0:0:0:
192,192,178937,128,2,179109:0:0:0:0:
448,192,178937,1,0,0:0:0:0:
64,192,179023,128,0,179195:0:0:0:0:
320,192,179109,1,0,0:0:0:0:
448,192,179195,128,0,179368:0:0:0:0:
64,192,179281,1,2,0:0:0:0:
192,192,179281,128,0,179454:0:0:0:0:
320,192,179368,128,0,179626:0:0:0:0:
448,192,179454,128,0,179540:0:0:0:0:
192,192,179540,1,0,0:0:0:0:
64,192,179626,128,2,179971:0:0:0:0:
448,192,179626,128,0,179885:0:0:0:0:
192,192,179712,128,0,179799:0:0:0:0:
320,192,179799,128,0,179885:0:0:0:0:
192,192,179885,128,0,179971:0:0:0:0:
320,192,179971,1,2,0:0:0:0:
448,192,179971,1,0,0:0:0:0:
64,192,180057,128,0,180316:0:0:0:0:
320,192,180143,128,0,180230:0:0:0:0:
192,192,180230,1,0,0:0:0:0:
320,192,180316,128,2,180488:0:0:0:0:
448,192,180316,1,0,0:0:0:0:
192,192,180402,128,0,180574:0:0:0:0:
64,192,180488,1,0,0:0:0:0:
320,192,180574,128,0,180747:0:0:0:0:
64,192,180661,1,2,0:0:0:0:
192,192,180661,1,0,0:0:0:0:
448,192,180747,128,0,180919:0:0:0:0:
320,192,180833,128,0,181005:0:0:0:0:
64,192,180919,1,0,0:0:0:0:
448,192,181005,1,0,0:0:0:0:
192,192,181005,128,2,181178:0:0:0:0:
320,192,181092,128,0,181264:0:0:0:0:
64,192,181178,128,0,181437:0:0:0:0:
192,192,181264,128,0,181350:0:0:0:0:
320,192,181350,1,2,0:0:0:0:
448,192,181350,1,0,0:0:0:0:
192,192,181437,128,0,181609:0:0:0:0:
448,192,181523,128,0,181609:0:0:0:0:
64,192,181609,1,0,0:0:0:0:
192,192,181695,1,2,0:0:0:0:
448,192,181695,128,0,181868:0:0:0:0:
320,192,181781,128,0,181954:0:0:0:0:
192,192,181868,128,0,182126:0:0:0:0:
64,192,181954,128,0,182040:0:0:0:0:
320,192,182040,1,2,0:0:0:0:
448,192,182040,1,0,0:0:0:0:
64,192,182126,128,0,182385:0:0:0:0:
192,192,182212,128,0,182299:0:0:0:0:
320,192,182299,1,0,0:0:0:0:
192,192,182385,128,2,182557:0:0:0:0:
448,192,182385,1,0,0:0:0:0:
64,192,182471,128,0,182643:0:0:0:0:
320,192,182557,128,0,182643:0:0:0:0:
192,192,182643,128,0,182816:0:0:0:0:
320,192,182730,1,2,0:0:0:0:
448,192,182730,1,0,0:0:0:0:
64,192,182816,128,0,182988:0:0:0:0:
448,192,182902,128,0,182988:0:0:0:0:
320,192,182988,1,0,0:0:0:0:
64,192,183074,128,2,183333:0:0:0:0:
448,192,183074,128,0,183247:0:0:0:0:
192,192,183161,128,0,183333:0:0:0:0:
320,192,183247,128,0,183419:0:0:0:0:
448,192,183333,128,0,183419:0:0:0:0:
64,192,183419,128,2,183505:0:0:0:0:
192,192,183419,128,0,183505:0:0:0:0:
448,192,183505,1,0,0:0:0:0:
64,192,183592,128,0,183678:0:0:0:0:
192,192,183592,128,0,183678:0:0:0:0:
448,192,183678,1,0,0:0:0:0:
64,192,183764,128,2,183937:0:0:0:0:
320,192,183764,1,0,0:0:0:0:
192,192,183850,128,0,184023:0:0:0:0:
320,192,183937,128,0,184195:0:0:0:0:
448,192,184023,128,0,184109:0:0:0:0:
64,192,184109,1,2,0:0:0:0:
192,192,184109,1,0,0:0:0:0:
448,192,184195,128,0,184368:0:0:0:0:
320,192,184281,128,0,184454:0:0:0:0:
64,192,184368,1,0,0:0:0:0:
192,192,184454,128,2,184626:0:0:0:0:
448,192,184454,128,0,184626:0:0:0:0:
64,192,184540,128,0,184712:0:0:0:0:
320,192,184626,128,0,184712:0:0:0:0:
192,192,184712,128,0,184799:0:0:0:0:
64,192,184799,128,2,185230:0:0:0:0:
448,192,184799,128,0,184971:0:0:0:0:
320,192,184885,128,0,185057:0:0:0:0:
192,192,184971,128,0,185230:0:0:0:0:
448,192,185057,128,0,185402:0:0:0:0:
320,192,185143,128,0,185402:0:0:0:0:
64,192,185316,1,2,0:0:0:0:
192,192,185316,1,0,0:0:0:0:
320,192,185488,1,2,0:0:0:0:
448,192,185488,1,4,0:0:0:0:
192,192,185574,128,0,185747:0:0:0:0:
64,192,185661,128,0,185747:0:0:0:0:
320,192,185747,1,0,0:0:0:0:
64,192,185833,1,8,0:0:0:0:
192,192,185833,1,0,0:0:0:0:
448,192,185833,128,0,186005:0:0:0:0:
320,192,185919,128,0,186092:0:0:0:0:
192,192,186005,1,0,0:0:0:0:
448,192,186092,128,0,186264:0:0:0:0:
64,192,186178,1,2,0:0:0:0:
192,192,186178,1,0,0:0:0:0:
320,192,186264,128,0,186437:0:0:0:0:
448,192,186350,128,0,186437:0:0:0:0:
64,192,186437,1,0,0:0:0:0:
192,192,186523,1,8,0:0:0:0:
448,192,186523,128,0,186695:0:0:0:0:
320,192,186523,1,0,0:0:0:0:
64,192,186609,128,0,186868:0:0:0:0:
320,192,186695,128,0,186781:0:0:0:0:
192,192,186781,128,0,186868:0:0:0:0:
320,192,186868,1,2,0:0:0:0:
448,192,186868,1,0,0:0:0:0:
192,192,186954,128,0,187126:0:0:0:0:
448,192,187040,128,0,187126:0:0:0:0:
64,192,187126,1,0,0:0:0:0:
192,192,187212,1,8,0:0:0:0:
448,192,187212,128,0,187385:0:0:0:0:
320,192,187212,1,0,0:0:0:0:
64,192,187299,128,0,187471:0:0:0:0:
320,192,187385,128,0,187643:0:0:0:0:
448,192,187471,128,0,187557:0:0:0:0:
64,192,187557,1,2,0:0:0:0:
192,192,187557,1,0,0:0:0:0:
448,192,187643,128,0,187816:0:0:0:0:
320,192,187730,128,0,187816:0:0:0:0:
64,192,187816,1,0,0:0:0:0:
192,192,187902,128,8,188074:0:0:0:0:
320,192,187902,1,0,0:0:0:0:
448,192,187902,1,0,0:0:0:0:
64,192,187988,128,0,188161:0:0:0:0:
320,192,188074,128,0,188161:0:0:0:0:
192,192,188161,128,0,188333:0:0:0:0:
320,192,188247,1,2,0:0:0:0:
448,192,188247,1,0,0:0:0:0:
64,192,188333,128,0,188505:0:0:0:0:
320,192,188419,128,0,188505:0:0:0:0:
448,192,188505,1,0,0:0:0:0:
64,192,188592,1,8,0:0:0:0:
320,192,188592,128,0,188764:0:0:0:0:
192,192,188592,1,0,0:0:0:0:
448,192,188678,128,0,188850:0:0:0:0:
192,192,188764,1,0,0:0:0:0:
64,192,188850,128,0,188937:0:0:0:0:
320,192,188937,1,2,0:0:0:0:
448,192,188937,1,0,0:0:0:0:
64,192,189023,128,0,189195:0:0:0:0:
192,192,189109,128,0,189195:0:0:0:0:
448,192,189195,1,0,0:0:0:0:
64,192,189281,128,8,189454:0:0:0:0:
192,192,189281,1,0,0:0:0:0:
320,192,189281,1,0,0:0:0:0:
448,192,189368,128,0,189540:0:0:0:0:
192,192,189454,128,0,189540:0:0:0:0:
320,192,189540,128,0,189712:0:0:0:0:
64,192,189626,1,2,0:0:0:0:
192,192,189626,1,0,0:0:0:0:
448,192,189712,128,0,189885:0:0:0:0:
192,192,189799,128,0,189885:0:0:0:0:
64,192,189885,1,0,0:0:0:0:
320,192,189971,1,0,0:0:0:0:
192,192,189971,128,8,190143:0:0:0:0:
448,192,189971,1,0,0:0:0:0:
64,192,190057,128,0,190230:0:0:0:0:
320,192,190143,1,0,0:0:0:0:
448,192,190230,128,0,190402:0:0:0:0:
192,192,190316,128,0,190402:0:0:0:0:
64,192,190316,1,2,0:0:0:0:
320,192,190402,128,0,190488:0:0:0:0:
64,192,190488,1,2,0:0:0:0:
192,192,190488,128,0,190661:0:0:0:0:
320,192,190574,1,0,0:0:0:0:
64,192,190661,128,0,190919:0:0:0:0:
448,192,190661,128,0,190919:0:0:0:0:
192,192,190747,128,0,190833:0:0:0:0:
320,192,190833,128,0,190919:0:0:0:0:
192,192,190919,128,0,191005:0:0:0:0:
64,192,191005,1,8,0:0:0:0:
320,192,191005,1,4,0:0:0:0:
448,192,191005,1,0,0:0:0:0:
320,192,191178,128,0,191264:0:0:0:0:
64,192,191350,1,8,0:0:0:0:
320,192,191350,128,0,191437:0:0:0:0:
448,192,191350,1,0,0:0:0:0:
192,192,191437,128,0,191523:0:0:0:0:
448,192,191609,128,0,191695:0:0:0:0:
64,192,191695,1,8,0:0:0:0:
192,192,191695,1,0,0:0:0:0:
320,192,191695,1,0,0:0:0:0:
448,192,191781,128,0,191868:0:0:0:0:
192,192,191868,128,0,191954:0:0:0:0:
64,192,192040,128,8,192126:0:0:0:0:
320,192,192040,1,0,0:0:0:0:
448,192,192040,1,0,0:0:0:0:
192,192,192126,128,0,192212:0:0:0:0:
320,192,192212,128,0,192299:0:0:0:0:
448,192,192299,128,0,192385:0:0:0:0:
64,192,192385,1,8,0:0:0:0:
192,192,192385,1,0,0:0:0:0:
320,192,192385,1,0,0:0:0:0:
448,192,192471,128,0,192557:0:0:0:0:
192,192,192557,128,0,192643:0:0:0:0:
64,192,192730,1,8,0:0:0:0:
320,192,192730,128,0,192816:0:0:0:0:
448,192,192730,1,0,0:0:0:0:
192,192,192816,128,0,192902:0:0:0:0:
64,192,192902,128,0,192988:0:0:0:0:
320,192,192988,128,0,193074:0:0:0:0:
64,192,193074,1,8,0:0:0:0:
192,192,193074,128,0,193419:0:0:0:0:
448,192,193074,128,0,193247:0:0:0:0:
64,192,193247,128,0,193419:0:0:0:0:
320,192,193419,128,8,193764:0:0:0:0:
448,192,193419,128,0,193592:0:0:0:0:
192,192,193592,128,0,193764:0:0:0:0:
64,192,193764,1,8,0:0:0:0:
448,192,193764,1,4,0:0:0:0:
192,192,193937,1,8,0:0:0:0:
320,192,193937,1,0,0:0:0:0:
192,192,194109,128,8,194281:0:0:0:0:
448,192,194109,128,0,194454:0:0:0:0:
64,192,194281,1,8,0:0:0:0:
320,192,194281,1,0,0:0:0:0:
64,192,194454,128,8,194540:0:0:0:0:
192,192,194454,128,0,194540:0:0:0:0:
320,192,194540,1,0,0:0:0:0:
64,192,194626,128,8,194712:0:0:0:0:
192,192,194626,128,0,194712:0:0:0:0:
320,192,194799,128,8,194885:0:0:0:0:
448,192,194799,1,0,0:0:0:0:
192,192,194885,128,0,194971:0:0:0:0:
64,192,194971,1,8,0:0:0:0:
320,192,194971,128,0,195057:0:0:0:0:
448,192,195057,128,0,195143:0:0:0:0:
64,192,195143,1,0,0:0:0:0:
192,192,195143,1,0,0:0:0:0:
448,192,195230,128,0,195316:0:0:0:0:
64,192,195316,1,0,0:0:0:0:
320,192,195316,128,0,195402:0:0:0:0:
192,192,195402,1,0,0:0:0:0:
320,192,195488,128,0,195574:0:0:0:0:
448,192,195488,1,0,0:0:0:0:
192,192,195574,128,0,195661:0:0:0:0:
64,192,195661,1,0,0:0:0:0:
448,192,195661,1,0,0:0:0:0:
320,192,195747,128,0,195833:0:0:0:0:
64,192,195833,128,2,196092:0:0:0:0:
192,192,195833,128,0,196178:0:0:0:0:
448,192,195919,128,0,196092:0:0:0:0:
320,192,196005,128,0,196264:0:0:0:0:
64,192,196178,128,8,196350:0:0:0:0:
448,192,196178,128,0,196264:0:0:0:0:
192,192,196264,128,0,196350:0:0:0:0:
320,192,196350,1,2,0:0:0:0:
448,192,196350,1,0,0:0:0:0:
320,192,196523,128,2,196695:0:0:0:0:
448,192,196523,128,0,196695:0:0:0:0:
64,192,196695,128,0,197040:0:0:0:0:
192,192,196868,128,8,197040:0:0:0:0:
448,192,196868,128,0,197385:0:0:0:0:
320,192,197040,128,0,197385:0:0:0:0:
64,192,197212,128,2,197385:0:0:0:0:
192,192,197212,1,0,0:0:0:0:
192,192,197385,128,0,197730:0:0:0:0:
64,192,197557,128,8,197730:0:0:0:0:
320,192,197557,128,0,197902:0:0:0:0:
448,192,197730,128,0,197902:0:0:0:0:
64,192,197902,128,2,198074:0:0:0:0:
192,192,197902,128,0,198247:0:0:0:0:
320,192,198074,128,0,198419:0:0:0:0:
64,192,198247,128,8,198592:0:0:0:0:
448,192,198247,128,0,198419:0:0:0:0:
192,192,198419,128,0,198764:0:0:0:0:
320,192,198592,128,2,198764:0:0:0:0:
448,192,198592,128,0,198937:0:0:0:0:
64,192,198764,128,0,199109:0:0:0:0:
192,192,198937,128,8,199109:0:0:0:0:
320,192,198937,128,0,199281:0:0:0:0:
448,192,199109,128,0,199281:0:0:0:0:
64,192,199281,128,2,199885:0:0:0:0:
192,192,199281,128,0,199454:0:0:0:0:
320,192,199454,128,0,199712:0:0:0:0:
192,192,199626,128,8,199885:0:0:0:0:
448,192,199626,128,0,200316:0:0:0:0:
320,192,199799,128,0,200230:0:0:0:0:
64,192,199971,1,2,0:0:0:0:
192,192,199971,128,0,200230:0:0:0:0:
64,192,200143,128,0,200488:0:0:0:0:
192,192,200316,128,8,200488:0:0:0:0:
320,192,200316,128,0,200661:0:0:0:0:
448,192,200488,128,0,200661:0:0:0:0:
64,192,200661,128,2,201005:0:0:0:0:
192,192,200661,1,0,0:0:0:0:
320,192,200833,128,0,201005:0:0:0:0:
192,192,201005,128,8,201178:0:0:0:0:
448,192,201005,1,0,0:0:0:0:
64,192,201092,128,0,201264:0:0:0:0:
320,192,201178,128,0,201350:0:0:0:0:
448,192,201264,128,0,201437:0:0:0:0:
64,192,201350,128,2,201523:0:0:0:0:
192,192,201350,1,0,0:0:0:0:
320,192,201437,128,0,201609:0:0:0:0:
192,192,201523,128,0,202040:0:0:0:0:
448,192,201609,128,0,201954:0:0:0:0:
64,192,201695,128,8,202040:0:0:0:0:
320,192,201695,128,0,201954:0:0:0:0:
320,192,202040,128,2,202385:0:0:0:0:
448,192,202040,128,0,202212:0:0:0:0:
192,192,202212,128,0,202557:0:0:0:0:
64,192,202385,128,8,202557:0:0:0:0:
448,192,202385,128,0,202902:0:0:0:0:
320,192,202557,128,0,202902:0:0:0:0:
64,192,202730,1,2,0:0:0:0:
192,192,202730,128,0,202902:0:0:0:0:
64,192,202902,128,0,203247:0:0:0:0:
192,192,203074,128,8,203247:0:0:0:0:
320,192,203074,128,0,203419:0:0:0:0:
448,192,203247,128,0,203419:0:0:0:0:
64,192,203419,128,2,203764:0:0:0:0:
192,192,203419,128,0,203592:0:0:0:0:
320,192,203592,128,0,203937:0:0:0:0:
192,192,203764,128,8,204109:0:0:0:0:
448,192,203764,128,0,203937:0:0:0:0:
64,192,203937,128,0,204281:0:0:0:0:
320,192,204109,128,2,204454:0:0:0:0:
448,192,204109,128,0,204281:0:0:0:0:
192,192,204281,128,0,204626:0:0:0:0:
64,192,204454,128,8,204626:0:0:0:0:
448,192,204454,128,0,204799:0:0:0:0:
320,192,204626,128,0,204799:0:0:0:0:
64,192,204799,128,2,205057:0:0:0:0:
192,192,204799,128,0,205057:0:0:0:0:
320,192,204971,128,0,205057:0:0:0:0:
64,192,205143,128,8,205488:0:0:0:0:
192,192,205143,128,0,205402:0:0:0:0:
320,192,205143,128,0,205316:0:0:0:0:
320,192,205488,128,2,205574:0:0:0:0:
448,192,205488,128,0,205574:0:0:0:0:
64,192,205574,128,0,205661:0:0:0:0:
320,192,205661,128,0,205747:0:0:0:0:
448,192,205661,128,0,205747:0:0:0:0:
64,192,205747,128,0,205833:0:0:0:0:
192,192,205833,128,8,206005:0:0:0:0:
320,192,205833,128,0,206178:0:0:0:0:
448,192,206005,128,0,206178:0:0:0:0:
64,192,206178,128,2,206437:0:0:0:0:
192,192,206178,128,0,206437:0:0:0:0:
320,192,206350,128,0,206523:0:0:0:0:
64,192,206523,128,8,206695:0:0:0:0:
192,192,206523,128,0,206695:0:0:0:0:
448,192,206523,128,0,206695:0:0:0:0:
320,192,206695,1,0,0:0:0:0:
64,192,206868,128,8,207040:0:0:0:0:
320,192,206868,128,0,207040:0:0:0:0:
448,192,206868,128,0,207040:0:0:0:0:
192,192,207040,128,2,207299:0:0:0:0:
64,192,207126,128,8,207557:0:0:0:0:
448,192,207126,128,0,207299:0:0:0:0:
320,192,207212,128,0,207471:0:0:0:0:
192,192,207385,128,8,207557:0:0:0:0:
448,192,207385,128,0,207471:0:0:0:0:
320,192,207557,128,2,207730:0:0:0:0:
448,192,207557,1,0,0:0:0:0:
192,192,207730,128,0,207902:0:0:0:0:
320,192,207816,128,0,207902:0:0:0:0:
448,192,207902,128,0,208074:0:0:0:0:
192,192,207988,128,0,208074:0:0:0:0:
64,192,208074,128,0,208247:0:0:0:0:
448,192,208161,128,0,208247:0:0:0:0:
192,192,208247,1,2,0:0:0:0:
320,192,208247,1,0,0:0:0:0:
192,192,208419,128,0,208764:0:0:0:0:
64,192,208592,128,8,208764:0:0:0:0:
320,192,208592,128,0,208937:0:0:0:0:
448,192,208764,128,0,208937:0:0:0:0:
64,192,208937,128,2,209109:0:0:0:0:
192,192,208937,128,0,209281:0:0:0:0:
320,192,209109,128,0,209454:0:0:0:0:
64,192,209281,128,8,209626:0:0:0:0:
448,192,209281,128,0,209454:0:0:0:0:
192,192,209454,128,0,209799:0:0:0:0:
320,192,209626,128,2,209799:0:0:0:0:
448,192,209626,128,0,209971:0:0:0:0:
64,192,209799,128,0,210143:0:0:0:0:
192,192,209971,128,8,210143:0:0:0:0:
320,192,209971,128,0,210316:0:0:0:0:
448,192,210143,128,0,210316:0:0:0:0:
64,192,210316,128,2,210919:0:0:0:0:
192,192,210316,128,0,210488:0:0:0:0:
320,192,210488,128,0,210747:0:0:0:0:
192,192,210661,128,8,210919:0:0:0:0:
448,192,210661,128,0,211092:0:0:0:0:
320,192,210833,128,0,211264:0:0:0:0:
64,192,211005,128,2,211264:0:0:0:0:
192,192,211005,128,0,211350:0:0:0:0:
448,192,211178,128,0,211523:0:0:0:0:
64,192,211350,128,8,211695:0:0:0:0:
320,192,211350,128,0,211523:0:0:0:0:
192,192,211523,128,0,211695:0:0:0:0:
320,192,211695,128,2,212040:0:0:0:0:
448,192,211695,128,0,211868:0:0:0:0:
64,192,211868,128,0,212040:0:0:0:0:
192,192,212040,1,8,0:0:0:0:
448,192,212040,128,0,212212:0:0:0:0:
320,192,212126,128,0,212299:0:0:0:0:
192,192,212212,128,0,212385:0:0:0:0:
64,192,212299,128,0,212471:0:0:0:0:
320,192,212385,1,2,0:0:0:0:
448,192,212385,128,0,212557:0:0:0:0:
192,192,212471,128,0,212643:0:0:0:0:
320,192,212557,128,0,212988:0:0:0:0:
64,192,212643,128,0,212988:0:0:0:0:
192,192,212730,128,8,212988:0:0:0:0:
448,192,212730,128,0,212988:0:0:0:0:
64,192,213074,128,8,213419:0:0:0:0:
320,192,213074,1,4,0:0:0:0:
448,192,213074,128,0,213419:0:0:0:0:
192,192,213247,1,2,0:0:0:0:
192,192,213419,128,2,213592:0:0:0:0:
64,192,213592,128,8,213937:0:0:0:0:
320,192,213592,128,0,213764:0:0:0:0:
448,192,213592,128,0,213937:0:0:0:0:
192,192,213764,1,2,0:0:0:0:
192,192,213937,128,2,214109:0:0:0:0:
64,192,214109,128,8,214281:0:0:0:0:
320,192,214109,128,0,214281:0:0:0:0:
448,192,214109,128,0,214281:0:0:0:0:
192,192,214281,1,2,0:0:0:0:
64,192,214454,128,8,214799:0:0:0:0:
192,192,214454,128,4,214626:0:0:0:0:
448,192,214454,128,0,214799:0:0:0:0:
320,192,214626,128,2,214799:0:0:0:0:
192,192,214799,1,2,0:0:0:0:
64,192,214971,128,8,215316:0:0:0:0:
192,192,214971,128,0,215143:0:0:0:0:
448,192,214971,128,0,215316:0:0:0:0:
320,192,215143,128,2,215316:0:0:0:0:
192,192,215316,1,2,0:0:0:0:
192,192,215488,128,8,215661:0:0:0:0:
448,192,215488,128,0,215661:0:0:0:0:
64,192,215574,128,8,215747:0:0:0:0:
320,192,215661,128,2,215833:0:0:0:0:
192,192,215747,128,2,215919:0:0:0:0:
64,192,215833,128,8,216005:0:0:0:0:
448,192,215833,128,4,216092:0:0:0:0:
320,192,216005,128,2,216178:0:0:0:0:
192,192,216092,128,2,216264:0:0:0:0:
64,192,216178,128,8,216350:0:0:0:0:
448,192,216178,128,0,216437:0:0:0:0:
192,192,216350,128,2,216523:0:0:0:0:
320,192,216437,128,2,216609:0:0:0:0:
64,192,216523,128,8,216695:0:0:0:0:
448,192,216523,128,0,216781:0:0:0:0:
192,192,216609,128,0,216695:0:0:0:0:
320,192,216695,128,2,216868:0:0:0:0:
192,192,216781,128,2,216954:0:0:0:0:
64,192,216868,128,8,217040:0:0:0:0:
448,192,216868,128,0,217126:0:0:0:0:
192,192,217040,128,2,217212:0:0:0:0:
320,192,217126,128,2,217299:0:0:0:0:
64,192,217212,128,8,217385:0:0:0:0:
448,192,217212,128,0,217471:0:0:0:0:
192,192,217299,128,2,217471:0:0:0:0:
320,192,217385,128,2,217643:0:0:0:0:
64,192,217471,128,2,217557:0:0:0:0:
192,192,217557,128,8,217730:0:0:0:0:
448,192,217557,128,0,217816:0:0:0:0:
64,192,217643,128,2,217816:0:0:0:0:
320,192,217730,128,2,217902:0:0:0:0:
192,192,217816,128,2,217988:0:0:0:0:
64,192,217902,128,8,218247:0:0:0:0:
448,192,217902,128,0,218505:0:0:0:0:
320,192,217988,128,2,218074:0:0:0:0:
192,192,218074,128,2,218247:0:0:0:0:
320,192,218161,128,2,218505:0:0:0:0:
64,192,218592,1,2,0:0:0:0:
192,192,218592,1,4,0:0:0:0:
448,192,218592,1,0,0:0:0:0:
320,192,218764,128,0,218937:0:0:0:0:
64,192,218937,1,8,0:0:0:0:
448,192,218937,1,0,0:0:0:0:
320,192,219109,128,0,219281:0:0:0:0:
192,192,219281,1,0,0:0:0:0:
64,192,219454,1,2,0:0:0:0:
192,192,219454,1,0,0:0:0:0:
320,192,219540,128,0,219626:0:0:0:0:
64,192,219626,1,8,0:0:0:0:
448,192,219626,1,0,0:0:0:0:
320,192,219799,128,0,219971:0:0:0:0:
64,192,219971,1,0,0:0:0:0:
64,192,220143,1,2,0:0:0:0:
192,192,220143,1,0,0:0:0:0:
320,192,220230,128,0,220316:0:0:0:0:
192,192,220316,1,8,0:0:0:0:
448,192,220316,1,0,0:0:0:0:
320,192,220488,128,0,220661:0:0:0:0:
64,192,220574,1,0,0:0:0:0:
192,192,220661,1,0,0:0:0:0:
448,192,220747,1,0,0:0:0:0:
64,192,220833,1,2,0:0:0:0:
192,192,220833,1,0,0:0:0:0:
320,192,220919,128,0,221005:0:0:0:0:
64,192,221005,1,8,0:0:0:0:
448,192,221005,1,0,0:0:0:0:
320,192,221178,128,0,221350:0:0:0:0:
448,192,221264,1,0,0:0:0:0:
64,192,221350,1,2,0:0:0:0:
192,192,221350,1,0,0:0:0:0:
320,192,221523,1,2,0:0:0:0:
448,192,221523,1,0,0:0:0:0:
192,192,221609,128,0,221695:0:0:0:0:
64,192,221695,1,8,0:0:0:0:
448,192,221695,1,0,0:0:0:0:
192,192,221868,128,0,222040:0:0:0:0:
448,192,221954,1,0,0:0:0:0:
320,192,222040,1,0,0:0:0:0:
64,192,222126,1,0,0:0:0:0:
320,192,222212,1,2,0:0:0:0:
448,192,222212,1,0,0:0:0:0:
192,192,222299,128,0,222385:0:0:0:0:
64,192,222385,1,8,0:0:0:0:
448,192,222385,1,0,0:0:0:0:
192,192,222557,128,0,222730:0:0:0:0:
448,192,222643,1,0,0:0:0:0:
64,192,222730,1,0,0:0:0:0:
320,192,222816,1,0,0:0:0:0:
64,192,222902,1,2,0:0:0:0:
192,192,222902,1,0,0:0:0:0:
448,192,222988,128,0,223074:0:0:0:0:
64,192,223074,1,8,0:0:0:0:
320,192,223074,1,0,0:0:0:0:
448,192,223247,128,0,223419:0:0:0:0:
192,192,223333,1,0,0:0:0:0:
320,192,223419,1,0,0:0:0:0:
64,192,223505,1,0,0:0:0:0:
320,192,223592,1,2,0:0:0:0:
448,192,223592,1,0,0:0:0:0:
192,192,223678,128,0,223764:0:0:0:0:
64,192,223764,1,8,0:0:0:0:
448,192,223764,1,0,0:0:0:0:
64,192,223937,128,2,224109:0:0:0:0:
192,192,223937,1,0,0:0:0:0:
320,192,224109,1,2,0:0:0:0:
448,192,224109,1,0,0:0:0:0:
64,192,224281,1,0,0:0:0:0:
320,192,224368,1,0,0:0:0:0:
192,192,224454,1,8,0:0:0:0:
448,192,224454,1,0,0:0:0:0:
64,192,224626,1,0,0:0:0:0:
320,192,224712,1,0,0:0:0:0:
64,192,224799,1,0,0:0:0:0:
192,192,224885,1,0,0:0:0:0:
320,192,224971,1,2,0:0:0:0:
448,192,224971,1,0,0:0:0:0:
64,192,225057,1,0,0:0:0:0:
192,192,225143,1,8,0:0:0:0:
448,192,225143,1,0,0:0:0:0:
320,192,225316,1,0,0:0:0:0:
192,192,225402,1,0,0:0:0:0:
320,192,225488,1,0,0:0:0:0:
448,192,225574,1,0,0:0:0:0:
64,192,225661,1,2,0:0:0:0:
192,192,225661,1,0,0:0:0:0:
320,192,225747,1,0,0:0:0:0:
64,192,225833,1,8,0:0:0:0:
448,192,225833,1,0,0:0:0:0:
192,192,226005,1,0,0:0:0:0:
320,192,226092,1,0,0:0:0:0:
192,192,226178,1,0,0:0:0:0:
64,192,226264,1,0,0:0:0:0:
320,192,226350,1,2,0:0:0:0:
448,192,226350,1,0,0:0:0:0:
192,192,226437,1,0,0:0:0:0:
64,192,226523,1,8,0:0:0:0:
448,192,226523,1,0,0:0:0:0:
192,192,226695,1,0,0:0:0:0:
320,192,226868,1,2,0:0:0:0:
448,192,226868,1,0,0:0:0:0:
320,192,227040,1,2,0:0:0:0:
448,192,227040,1,0,0:0:0:0:
64,192,227212,1,8,0:0:0:0:
448,192,227212,1,0,0:0:0:0:
192,192,227385,1,0,0:0:0:0:
320,192,227471,1,0,0:0:0:0:
192,192,227557,1,0,0:0:0:0:
64,192,227643,1,0,0:0:0:0:
320,192,227730,1,2,0:0:0:0:
448,192,227730,1,0,0:0:0:0:
192,192,227816,1,0,0:0:0:0:
64,192,227902,1,8,0:0:0:0:
448,192,227902,1,0,0:0:0:0:
320,192,228074,1,0,0:0:0:0:
192,192,228161,1,0,0:0:0:0:
448,192,228247,1,0,0:0:0:0:
64,192,228419,1,2,0:0:0:0:
192,192,228419,1,0,0:0:0:0:
192,192,228592,1,8,0:0:0:0:
448,192,228592,1,0,0:0:0:0:
64,192,228764,1,2,0:0:0:0:
192,192,228764,1,0,0:0:0:0:
320,192,228850,1,0,0:0:0:0:
64,192,228937,1,0,0:0:0:0:
192,192,229023,1,0,0:0:0:0:
320,192,229109,1,2,0:0:0:0:
448,192,229109,1,0,0:0:0:0:
192,192,229195,1,2,0:0:0:0:
64,192,229281,1,8,0:0:0:0:
448,192,229281,1,0,0:0:0:0:
64,192,229454,1,2,0:0:0:0:
192,192,229454,1,0,0:0:0:0:
64,192,229626,1,2,0:0:0:0:
192,192,229626,1,0,0:0:0:0:
192,192,229799,1,0,0:0:0:0:
448,192,229885,1,0,0:0:0:0:
64,192,229971,1,8,0:0:0:0:
320,192,229971,1,0,0:0:0:0:
192,192,230143,1,0,0:0:0:0:
320,192,230230,1,0,0:0:0:0:
192,192,230316,1,0,0:0:0:0:
64,192,230402,1,0,0:0:0:0:
320,192,230488,1,2,0:0:0:0:
448,192,230488,1,0,0:0:0:0:
192,192,230574,1,0,0:0:0:0:
64,192,230661,1,8,0:0:0:0:
448,192,230661,1,0,0:0:0:0:
320,192,230833,1,0,0:0:0:0:
320,192,231005,1,0,0:0:0:0:
64,192,231178,1,2,0:0:0:0:
192,192,231178,1,0,0:0:0:0:
64,192,231350,1,8,0:0:0:0:
448,192,231350,1,0,0:0:0:0:
320,192,231523,1,0,0:0:0:0:
192,192,231695,1,0,0:0:0:0:
320,192,231868,1,2,0:0:0:0:
448,192,231868,1,0,0:0:0:0:
64,192,232040,1,8,0:0:0:0:
448,192,232040,1,0,0:0:0:0:
192,192,232212,1,0,0:0:0:0:
320,192,232385,1,2,0:0:0:0:
448,192,232385,1,0,0:0:0:0:
320,192,232557,1,2,0:0:0:0:
448,192,232557,1,0,0:0:0:0:
64,192,232730,1,8,0:0:0:0:
320,192,232730,1,0,0:0:0:0:
448,192,232902,1,0,0:0:0:0:
192,192,233074,1,0,0:0:0:0:
320,192,233247,1,2,0:0:0:0:
448,192,233247,1,0,0:0:0:0:
64,192,233419,1,8,0:0:0:0:
448,192,233419,1,0,0:0:0:0:
192,192,233592,1,0,0:0:0:0:
320,192,233764,1,0,0:0:0:0:
64,192,233937,1,2,0:0:0:0:
192,192,233937,1,0,0:0:0:0:
64,192,234109,1,8,0:0:0:0:
448,192,234109,1,0,0:0:0:0:
320,192,234281,1,0,0:0:0:0:
192,192,234368,1,0,0:0:0:0:
448,192,234454,1,0,0:0:0:0:
64,192,234626,1,2,0:0:0:0:
192,192,234626,1,0,0:0:0:0:
64,192,234799,1,8,0:0:0:0:
448,192,234799,1,0,0:0:0:0:
320,192,234971,1,2,0:0:0:0:
320,192,235143,1,2,0:0:0:0:
448,192,235488,1,8,0:0:0:0:
64,192,236005,1,2,0:0:0:0:
448,192,236178,1,8,0:0:0:0:
320,192,236523,1,0,0:0:0:0:
64,192,236695,1,2,0:0:0:0:
448,192,236868,1,8,0:0:0:0:
192,192,237040,1,0,0:0:0:0:
320,192,237212,1,0,0:0:0:0:
64,192,237385,1,2,0:0:0:0:
448,192,237557,1,8,0:0:0:0:
320,192,237730,1,0,0:0:0:0:
192,192,237902,1,2,0:0:0:0:
192,192,238074,1,2,0:0:0:0:
448,192,238247,1,8,0:0:0:0:
320,192,238592,1,0,0:0:0:0:
64,192,238764,1,2,0:0:0:0:
448,192,238937,1,8,0:0:0:0:
320,192,239281,1,0,0:0:0:0:
64,192,239454,1,0,0:0:0:0:
192,192,239626,1,0,0:0:0:0:
320,192,239799,128,0,239885:0:0:0:0:
320,192,239971,128,0,240574:0:0:0:0:
192,192,240316,128,0,240574:0:0:0:0:
320,192,240661,128,0,240747:0:0:0:0:
192,192,240661,128,0,240718:0:0:0:0:
64,192,243074,128,0,243132:0:0:0:0:
192,192,243419,128,0,243505:0:0:0:0:
448,192,243419,128,0,243477:0:0:0:0:
448,192,244799,128,0,244885:0:0:0:0:
192,192,245316,128,0,245373:0:0:0:0:
320,192,245488,128,0,245574:0:0:0:0:
64,192,245833,128,0,245891:0:0:0:0:
192,192,246178,128,0,246264:0:0:0:0:
448,192,246178,128,0,246235:0:0:0:0:
64,192,248592,128,0,248649:0:0:0:0:
192,192,248937,128,0,248994:0:0:0:0:
448,192,248937,128,0,249023:0:0:0:0:
448,192,249971,128,0,250028:0:0:0:0:
320,192,250316,128,0,250373:0:0:0:0:
64,192,250316,128,0,250402:0:0:0:0:
192,192,251005,128,0,251063:0:0:0:0:
192,192,251695,128,0,251781:0:0:0:0:
448,192,251695,128,0,251753:0:0:0:0:
320,192,254454,128,0,254540:0:0:0:0:
448,192,255833,128,0,255919:0:0:0:0:
192,192,256523,128,0,256609:0:0:0:0:
64,192,257212,128,0,257299:0:0:0:0:
192,192,259971,128,0,260057:0:0:0:0:
320,192,261350,128,0,261437:0:0:0:0:
