osu file format v14

[General]
AudioFilename: audio.mp3
AudioLeadIn: 0
PreviewTime: 74869
Countdown: 0
SampleSet: Normal
StackLeniency: 0.2
Mode: 0
LetterboxInBreaks: 0
SkinPreference:---- !Moonl1ght v1
EpilepsyWarning: 1
WidescreenStoryboard: 0

[Editor]
Bookmarks: 9006,81765,85731,89696,130731,174004,204693,211073,244866,248486,251762,254521,260038
DistanceSpacing: 1
BeatDivisor: 4
GridSize: 32
TimelineZoom: 3

[Metadata]
Title:crystallized
TitleUnicode:crystallized
Artist:Camellia
ArtistUnicode:Camellia
Creator:-ckopoctb-
Version:My Friends Never Die
Source:
Tags:dnb chillout dubstep mlg sourpls relax slider Emilia Adore Livstvichka wajinshu
BeatmapID:1142608
BeatmapSetID:539221

[Difficulty]
HPDrainRate:6.66
CircleSize:3.81
OverallDifficulty:9.99
ApproachRate:9.66
SliderMultiplier:2.1
SliderTickRate:0.6

[Events]
//Background and Video events
0,0,"thumb-1920-712346.jpg",0,0
//Break Periods
2,130585,140902
2,254720,255383
//Storyboard Layer 0 (Background)
//Storyboard Layer 1 (Fail)
//Storyboard Layer 2 (Pass)
//Storyboard Layer 3 (Foreground)
//Storyboard Sound Samples

[TimingPoints]
9007,344.827586206897,4,1,0,30,1,0
9007,-125,4,1,0,30,0,0
14869,-111.111111111111,4,1,0,30,0,0
20041,-100,4,1,0,40,0,0
25558,-100,4,1,0,50,0,0
29696,-111.111111111111,4,1,0,50,0,0
30041,-100,4,1,0,50,0,0
31075,-95.2380952380952,4,1,0,50,0,0
31765,-105.263157894737,4,1,0,50,0,0
33489,-86.9565217391304,4,1,0,50,0,0
33834,-74.0740740740741,4,1,0,50,0,0
34524,-95.2380952380952,4,1,0,50,0,0
35386,-86.9565217391304,4,1,0,50,0,0
35903,-100,4,1,0,50,0,0
36248,-76.9230769230769,4,1,0,50,0,0
36938,-100,4,1,0,50,0,0
37282,-86.9565217391304,4,1,0,50,0,0
37627,-100,4,1,0,50,0,0
37972,-100,4,1,0,50,0,0
38489,-83.3333333333333,4,1,0,50,0,0
38662,-100,4,1,0,50,0,0
39351,-76.9230769230769,4,1,0,50,0,0
39696,-100,4,1,0,50,0,0
41075,-83.3333333333333,4,1,0,50,0,0
42110,-76.9230769230769,4,1,0,50,0,0
42455,-100,4,1,0,50,0,0
44007,-83.3333333333333,4,1,0,50,0,0
44179,-100,4,1,0,50,0,0
44524,-76.9230769230769,4,1,0,50,0,0
44869,-100,4,1,0,50,0,0
46420,-83.3333333333333,4,1,0,50,0,0
46593,-100,4,1,0,50,0,0
47282,-66.6666666666667,4,1,0,50,0,0
47627,-76.9230769230769,4,1,0,50,0,0
47972,-100,4,1,0,50,0,0
48662,-66.6666666666667,4,1,0,50,0,0
49007,-76.9230769230769,4,1,0,50,0,0
49351,-100,4,1,0,50,0,0
50041,-76.9230769230769,4,1,0,50,0,0
50386,-133.333333333333,4,1,0,50,0,0
51075,-117.647058823529,4,1,0,65,0,0
51765,-71.4285714285714,4,1,0,65,0,0
52110,-62.5,4,1,0,65,0,0
52455,-71.4285714285714,4,1,0,65,0,0
53144,-83.3333333333333,4,1,0,65,0,0
53834,-100,4,1,0,65,0,0
54524,-83.3333333333333,4,1,0,65,0,0
55041,-71.4285714285714,4,1,0,65,0,0
56248,-100,4,1,0,65,0,0
56420,-83.3333333333333,4,1,0,65,0,0
56593,-71.4285714285714,4,1,0,65,0,0
56765,-62.5,4,1,0,65,0,0
56938,-100,4,1,0,65,0,0
57282,-83.3333333333333,4,1,0,65,0,0
57800,-71.4285714285714,4,1,0,65,0,0
58317,-66.6666666666667,4,1,0,65,0,0
59007,-83.3333333333333,4,1,0,65,0,0
60558,-71.4285714285714,4,1,0,65,0,0
61765,-133.333333333333,4,1,0,65,0,0
62110,-79.9999999999999,4,1,0,65,0,0
62455,-100,4,1,0,65,0,0
62800,-90.9090909090909,4,1,0,65,0,0
64869,-133.333333333333,4,1,0,65,0,0
65213,-83.3333333333333,4,1,0,65,0,0
65558,-76.9230769230769,4,1,0,65,0,0
66075,-66.6666666666667,4,1,0,65,0,0
68317,-83.3333333333333,4,1,0,65,0,0
68834,-76.9230769230769,4,1,0,65,0,0
69351,-66.6666666666667,4,1,0,65,0,0
70041,-83.3333333333333,4,1,0,65,0,0
71593,-71.4285714285714,4,1,0,65,0,0
72110,-62.5,4,1,0,65,0,0
72800,-83.3333333333333,4,1,0,65,0,0
73489,-90.9090909090909,4,1,0,65,0,0
74869,-133.333333333333,4,1,0,65,0,0
75213,-90.9090909090909,4,1,0,65,0,0
76593,-133.333333333333,4,1,0,65,0,0
76938,-111.111111111111,4,1,0,65,0,0
77627,-133.333333333333,4,1,0,65,0,0
77972,-90.9090909090909,4,1,0,65,0,0
79007,-133.333333333333,4,1,0,65,0,0
79351,-90.9090909090909,4,1,0,65,0,0
80731,-83.3333333333333,4,1,0,60,0,0
80817,-83.3333333333333,4,1,0,50,0,0
80989,-83.3333333333333,4,1,0,5,0,0
81075,-83.3333333333333,4,1,0,65,0,0
81334,-83.3333333333333,4,1,0,5,0,0
81420,-83.3333333333333,4,1,0,65,0,0
81679,-83.3333333333333,4,1,0,5,0,0
81765,-83.3333333333333,4,1,0,65,0,0
82024,-83.3333333333333,4,1,0,5,0,0
82110,-83.3333333333333,4,1,0,65,0,0
82369,-83.3333333333333,4,1,0,5,0,0
82455,-83.3333333333333,4,1,0,65,0,0
82713,-83.3333333333333,4,1,0,5,0,0
82800,-83.3333333333333,4,1,0,65,0,0
83058,-83.3333333333333,4,1,0,5,0,0
83144,-83.3333333333333,4,1,0,65,0,0
83403,-83.3333333333333,4,1,0,5,0,0
83489,-62.5,4,1,0,30,0,0
83662,-62.5,4,1,0,40,0,0
83834,-62.5,4,1,0,50,0,0
84007,-62.5,4,1,0,60,0,0
84179,-62.5,4,1,0,20,0,0
84265,-62.5,4,1,0,30,0,0
84351,-62.5,4,1,0,40,0,0
84438,-62.5,4,1,0,50,0,0
84524,-50,4,1,0,60,0,0
84610,-50,4,1,0,70,0,0
84696,-50,4,1,0,80,0,0
84782,-50,4,1,0,90,0,0
84869,-66.6666666666667,4,1,0,60,0,0
85213,-66.6666666666667,4,1,0,5,0,0
85731,-133.333333333333,4,1,0,20,0,0
85817,-133.333333333333,4,1,0,20,0,0
85903,-133.333333333333,4,1,0,30,0,0
85989,-133.333333333333,4,1,0,40,0,0
86075,-133.333333333333,4,1,0,50,0,0
86162,-133.333333333333,4,1,0,60,0,0
86593,-83.3333333333333,4,1,0,65,0,0
86765,-90.9090909090909,4,1,0,65,0,0
87282,-66.6666666666667,4,1,0,65,0,0
87627,-83.3333333333333,4,1,0,65,0,0
88317,-66.6666666666667,4,1,0,65,0,0
88662,-83.3333333333333,4,1,0,65,0,0
89007,-66.6666666666667,4,1,0,65,0,0
89351,-83.3333333333333,4,1,0,65,0,0
90386,-66.6666666666667,4,1,0,65,0,0
90731,-100,4,1,0,65,0,0
91765,-83.3333333333333,4,1,0,65,0,0
92282,-100,4,1,0,65,0,0
92627,-76.9230769230769,4,1,0,65,0,0
92800,-90.9090909090909,4,1,0,65,0,0
93144,-76.9230769230769,4,1,0,65,0,0
93317,-66.6666666666667,4,1,0,65,0,0
93662,-76.9230769230769,4,1,0,65,0,0
94179,-71.4285714285714,4,1,0,65,0,0
94524,-100,4,1,0,65,0,0
94869,-66.6666666666667,4,1,0,65,0,0
95903,-76.9230769230769,4,1,0,65,0,0
96248,-66.6666666666667,4,1,0,65,0,0
96593,-76.9230769230769,4,1,0,65,0,0
96938,-83.3333333333333,4,1,0,65,0,0
97627,-76.9230769230769,4,1,0,65,0,0
97800,-100,4,1,0,65,0,0
98144,-76.9230769230769,4,1,0,65,0,0
98317,-90.9090909090909,4,1,0,65,0,0
98662,-76.9230769230769,4,1,0,65,0,0
98834,-90.9090909090909,4,1,0,65,0,0
99179,-76.9230769230769,4,1,0,65,0,0
99351,-90.9090909090909,4,1,0,65,0,0
99696,-76.9230769230769,4,1,0,65,0,0
99869,-71.4285714285714,4,1,0,65,0,0
100386,-66.6666666666667,4,1,0,65,0,0
101420,-66.6666666666667,4,1,0,65,0,0
101765,-133.333333333333,4,1,0,65,0,0
103144,-76.9230769230769,4,1,0,65,0,0
103317,-90.9090909090909,4,1,0,65,0,0
103662,-76.9230769230769,4,1,0,65,0,0
103834,-90.9090909090909,4,1,0,65,0,0
104179,-76.9230769230769,4,1,0,65,0,0
104351,-90.9090909090909,4,1,0,65,0,0
104696,-76.9230769230769,4,1,0,65,0,0
104869,-83.3333333333333,4,1,0,65,0,0
105213,-66.6666666666667,4,1,0,65,0,0
105558,-133.333333333333,4,1,0,65,0,0
105903,-90.9090909090909,4,1,0,65,0,0
106248,-133.333333333333,4,1,0,65,0,0
106593,-90.9090909090909,4,1,0,65,0,0
106938,-83.3333333333333,4,1,0,65,0,0
107282,-71.4285714285714,4,1,0,65,0,0
107800,-83.3333333333333,4,1,0,65,0,0
108317,-200,4,1,0,75,0,1
109007,-83.3333333333333,4,1,0,75,0,1
111075,-133.333333333333,4,1,0,75,0,1
111420,-68.9655172413793,4,1,0,75,0,1
111765,-100,4,1,0,75,0,1
112455,-125,4,1,0,75,0,1
112972,-100,4,1,0,75,0,1
113489,-83.3333333333333,4,1,0,75,0,1
113834,-200,4,1,0,75,0,1
114524,-83.3333333333333,4,1,0,75,0,1
115903,-83.3333333333333,4,1,0,75,0,1
116593,-83.3333333333333,4,1,0,75,0,1
117282,-66.6666666666667,4,1,0,75,0,1
117627,-76.9230769230769,4,1,0,75,0,1
117972,-100,4,1,0,75,0,1
118317,-90.9090909090909,4,1,0,75,0,1
118662,-83.3333333333333,4,1,0,75,0,1
119351,-133.333333333333,4,1,0,75,0,1
120041,-76.9230769230769,4,1,0,75,0,1
121420,-133.333333333333,4,1,0,75,0,1
121765,-111.111111111111,4,1,0,75,0,1
122282,-100,4,1,0,75,0,1
122627,-90.9090909090909,4,1,0,75,0,1
123489,-133.333333333333,4,1,0,75,0,1
124007,-90.9090909090909,4,1,0,75,0,1
124524,-83.3333333333333,4,1,0,75,0,1
124869,-100,4,1,0,75,0,1
125558,-76.9230769230769,4,1,0,75,0,1
126938,-125,4,1,0,75,0,1
127627,-90.9090909090909,4,1,0,65,0,1
130041,-66.6666666666667,4,1,0,65,0,1
130731,-100,4,1,0,50,0,0
141247,689.655172413793,4,1,0,60,1,0
141419,-200,4,1,0,30,0,0
143833,344.827586206897,4,1,0,30,1,0
143833,-133.333333333333,4,1,0,30,0,0
144177,689.655172413793,4,1,0,30,1,0
146073,344.827586206897,4,1,0,40,1,0
146073,-100,4,1,0,40,0,0
148141,-76.9230769230769,4,1,0,60,0,0
149176,-71.4285714285714,4,1,0,70,0,0
149693,-90.9090909090909,4,1,0,70,0,0
151073,-55.5555555555556,4,1,0,70,0,0
151762,-100,4,1,0,70,0,0
152107,-133.333333333333,4,1,0,70,0,0
152452,-111.111111111111,4,1,0,70,0,0
153141,-100,4,1,0,60,0,0
153831,-83.3333333333333,4,1,0,60,0,0
154348,-76.9230769230769,4,1,0,60,0,0
154866,-133.333333333333,4,1,0,60,0,0
155555,-100,4,1,0,60,0,0
155728,-83.3333333333333,4,1,0,60,0,0
155900,-71.4285714285714,4,1,0,60,0,0
156073,-66.6666666666667,4,1,0,60,0,0
157107,-83.3333333333333,4,1,0,60,0,0
157624,-66.6666666666667,4,1,0,60,0,0
158314,-76.9230769230769,4,1,0,60,0,0
159348,-83.3333333333333,4,1,0,60,0,0
159866,-71.4285714285714,4,1,0,60,0,0
160383,-66.6666666666667,4,1,0,60,0,0
161245,-76.9230769230769,4,1,0,60,0,0
163141,-133.333333333333,4,1,0,60,0,0
163486,-90.9090909090909,4,1,0,60,0,0
164866,-133.333333333333,4,1,0,60,0,0
165210,-90.9090909090909,4,1,0,60,0,0
165900,-133.333333333333,4,1,0,60,0,0
166245,-90.9090909090909,4,1,0,60,0,0
167279,-133.333333333333,4,1,0,60,0,0
167624,-90.9090909090909,4,1,0,60,0,0
168486,-76.9230769230769,4,1,0,60,0,0
171245,-71.4285714285714,4,1,0,70,0,0
172452,-55.5555555555556,4,1,0,70,0,0
172797,-50,4,1,0,20,0,0
172883,-50,4,1,0,30,0,0
172969,-50,4,1,0,40,0,0
173055,-50,4,1,0,50,0,0
173141,-66.6666666666667,4,1,0,70,0,0
173659,-66.6666666666667,4,1,0,5,0,0
174004,-66.6666666666667,4,1,0,80,0,1
174090,-58.8235294117647,4,1,0,30,0,1
174176,-62.5,4,1,0,40,0,1
174262,-66.6666666666667,4,1,0,50,0,1
174348,-71.4285714285714,4,1,0,60,0,1
174435,-76.9230769230769,4,1,0,70,0,1
174521,-76.9230769230769,4,1,0,80,0,1
177452,-71.4285714285714,4,1,0,80,0,1
179952,-71.4285714285714,4,1,0,80,0,1
183659,-71.4285714285714,4,1,0,30,0,1
183745,-71.4285714285714,4,1,0,40,0,1
183831,-71.4285714285714,4,1,0,50,0,1
183917,-71.4285714285714,4,1,0,50,0,1
184004,-71.4285714285714,4,1,0,30,0,1
184090,-71.4285714285714,4,1,0,40,0,1
184176,-71.4285714285714,4,1,0,50,0,1
184262,-71.4285714285714,4,1,0,60,0,1
185383,-66.6666666666667,4,1,0,80,0,1
190986,-76.9230769230769,4,1,0,80,0,1
195210,-90.9090909090909,4,1,0,80,0,1
195900,-76.9230769230769,4,1,0,80,0,1
196073,-71.4285714285714,4,1,0,65,0,0
196590,-83.3333333333333,4,1,0,65,0,0
197107,-76.9230769230769,4,1,0,65,0,0
197452,-71.4285714285714,4,1,0,65,0,0
197624,-66.6666666666667,4,1,0,65,0,0
197969,-76.9230769230769,4,1,0,65,0,0
198141,-71.4285714285714,4,1,0,65,0,0
198486,-76.9230769230769,4,1,0,65,0,0
198659,-66.6666666666667,4,1,0,65,0,0
199693,-76.9230769230769,4,2,0,65,0,0
200728,-66.6666666666667,4,2,0,65,0,0
201073,-76.9230769230769,4,2,0,65,0,0
201762,-66.6666666666667,4,2,0,65,0,0
204176,-50,4,2,0,65,0,0
204521,-66.6666666666667,4,2,0,65,0,0
205210,-55.5555555555556,4,1,0,65,0,0
205555,-66.6666666666667,4,1,0,65,0,0
207452,-71.4285714285714,4,1,0,65,0,0
207797,-66.6666666666667,4,1,0,65,0,0
208141,-50,4,1,0,65,0,0
208486,-66.6666666666667,4,1,0,65,0,0
209866,-71.4285714285714,4,1,0,65,0,0
210210,-76.9230769230769,4,1,0,65,0,0
210383,-66.6666666666667,4,1,0,65,0,0
211762,-76.9230769230769,4,1,0,65,0,0
212107,-71.4285714285714,4,1,0,65,0,0
213141,-66.6666666666667,4,1,0,65,0,0
216073,-71.4285714285714,4,1,0,65,0,0
218659,-90.9090909090909,4,1,0,65,0,0
228314,-76.9230769230769,4,1,0,65,0,0
231590,-90.9090909090909,4,1,0,65,0,0
232969,-100,4,1,0,65,0,0
239866,-83.3333333333333,4,1,0,65,0,0
240728,-83.3333333333333,4,2,0,50,0,0
243314,-133.333333333333,4,2,0,50,0,0
245383,-133.333333333333,4,2,0,40,0,0
246245,-153.846153846153,4,2,0,30,0,0
251762,-133.333333333333,4,2,0,20,0,0
256590,1E-298,4,1,0,30,1,0
256590,-133.333333333333,4,2,0,20,0,0
257107,344.827586206897,4,1,0,30,1,0
257279,-153.846153846153,4,2,0,10,0,0
260210,4000,4,1,0,60,1,0
262279,338.983050847458,4,1,0,60,1,0
262617,335.195530726257,4,1,0,5,1,0
262700,-100,4,1,0,5,0,0
262952,-100,4,1,0,5,0,0

[Colours]
Combo1 : 163,78,203
Combo2 : 130,132,217
Combo3 : 103,192,226
Combo4 : 248,147,25
SliderBorder : 170,166,227
SliderTrackOverride : 5,0,9

[HitObjects]
336,208,9007,6,0,P|328:144|292:108,1,84,2|0,0:0|0:0,0:0:0:0:
220,144,9351,2,0,P|228:80|264:44,1,84,0|0,0:0|0:0,0:0:0:0:
336,208,9696,2,0,P|281:243|231:238,1,84,0|0,0:0|0:0,0:0:0:0:
238,65,10041,2,0,P|292:29|342:34,1,84,0|0,0:0|0:0,0:0:0:0:
388,148,10386,5,0,0:0:0:0:
336,208,10558,1,0,0:0:0:0:
263,244,10731,2,0,P|222:234|190:207,1,84,0|0,0:0|0:0,0:0:0:0:
188,108,11075,2,0,P|147:117|115:144,1,84,0|0,0:0|0:0,0:0:0:0:
190,207,11420,2,0,P|230:216|262:243,1,84,0|0,0:0|0:0,0:0:0:0:
192,292,11765,5,2,0:0:0:0:
260,340,11938,1,0,0:0:0:0:
344,332,12110,2,0,P|384:322|416:295,1,84,0|0,0:0|0:0,0:0:0:0:
336,228,12455,2,0,P|317:190|317:149,1,84,0|0,0:0|0:0,0:0:0:0:
408,168,12800,2,0,P|408:126|389:89,1,84,0|0,0:0|0:0,0:0:0:0:
320,40,13144,5,2,0:0:0:0:
236,24,13317,1,0,0:0:0:0:
152,32,13489,2,0,P|111:41|79:68,1,84,0|0,0:0|0:0,0:0:0:0:
32,128,13834,2,0,P|13:165|13:206,1,84,0|0,0:0|0:0,0:0:0:0:
44,300,14179,2,0,P|75:327|116:336,1,84,0|0,0:0|0:0,0:0:0:0:
120,236,14524,5,2,0:0:0:0:
212,192,14696,1,0,0:0:0:0:
324,184,14869,2,0,P|384:200|408:228,1,94.499997116089,0|0,0:0|0:0,0:0:0:0:
312,300,15213,2,0,B|260:328|260:328|212:324,1,94.499997116089,0|0,0:0|0:0,0:0:0:0:
190,207,15558,5,0,0:0:0:0:
116,336,15731,1,0,0:0:0:0:
76,200,15903,2,0,L|44:100,1,94.499997116089,0|0,0:0|0:0,0:0:0:0:
180,56,16248,1,0,0:0:0:0:
72,196,16420,1,0,0:0:0:0:
260,100,16593,2,0,P|268:44|244:-12,1,94.499997116089,0|0,0:0|0:0,0:0:0:0:
72,196,16938,2,0,P|60:241|69:287,1,94.499997116089,0|0,0:0|0:0,0:0:0:0:
200,236,17282,5,2,0:0:0:0:
320,164,17455,1,0,0:0:0:0:
456,204,17627,2,0,B|480:164|480:164|480:80,1,94.499997116089,0|0,0:0|0:0,0:0:0:0:
200,236,17972,2,0,B|200:283|200:283|224:323,1,94.499997116089,0|0,0:0|0:0,0:0:0:0:
392,144,18317,5,0,0:0:0:0:
268,52,18489,1,0,0:0:0:0:
144,104,18662,2,0,P|76:88|56:44,1,94.499997116089,2|0,0:0|0:0,0:0:0:0:
280,100,19007,2,0,L|304:216,1,94.499997116089,0|0,0:0|0:0,0:0:0:0:
200,236,19351,1,0,0:0:0:0:
456,204,19524,1,0,0:0:0:0:
144,104,19696,2,0,L|163:11,1,94.499997116089,0|0,0:0|0:0,0:0:0:0:
328,148,20041,5,2,0:0:0:0:
200,240,20213,5,0,0:0:0:0:
192,272,20300,1,0,0:0:0:0:
184,304,20386,1,0,0:0:0:0:
352,300,20558,5,0,0:0:0:0:
360,332,20645,1,0,0:0:0:0:
368,364,20731,1,0,0:0:0:0:
184,304,20903,6,0,L|104:280,1,52.5,0|0,0:0|0:0,0:0:0:0:
168,212,21075,2,0,P|152:160|88:128,1,105,0|0,0:0|0:0,0:0:0:0:
36,188,21420,5,0,0:0:0:0:
16,139,21506,1,0,0:0:0:0:
25,88,21592,1,0,0:0:0:0:
227,103,21765,2,0,L|287:99,1,52.5,0|0,0:0|0:0,0:0:0:0:
299,192,21938,2,0,L|351:195,1,52.5,0|0,0:0|0:0,0:0:0:0:
456,204,22110,2,0,L|424:328,1,105,0|0,0:0|0:0,0:0:0:0:
194,313,22455,2,0,L|167:211,1,105,0|0,0:0|0:0,0:0:0:0:
328,148,22800,5,2,0:0:0:0:
227,103,22972,5,0,0:0:0:0:
235,71,23058,1,0,0:0:0:0:
243,39,23145,1,0,0:0:0:0:
440,140,23317,5,0,0:0:0:0:
448,172,23404,1,0,0:0:0:0:
456,204,23490,1,0,0:0:0:0:
219,219,23662,6,0,L|143:207,1,52.5,0|0,0:0|0:0,0:0:0:0:
88,192,23834,2,0,P|40:152|36:84,1,105,0|0,0:0|0:0,0:0:0:0:
124,112,24179,5,2,0:0:0:0:
174,100,24265,1,0,0:0:0:0:
226,105,24351,1,0,0:0:0:0:
348,200,24524,2,0,L|340:272,1,52.5,8|0,0:0|0:0,0:0:0:0:
194,313,24696,2,0,L|205:364,1,52.5,0|0,0:0|0:0,0:0:0:0:
339,346,24869,2,0,B|411:330|411:330|443:286,1,105,2|0,0:0|0:0,0:0:0:0:
348,200,25213,2,0,P|324:148|340:80,1,105,8|0,0:0|0:0,0:0:0:0:
436,132,25558,5,2,0:0:0:0:
235,71,25731,5,0,0:0:0:0:
204,57,25817,1,0,0:0:0:0:
174,44,25904,1,8,0:0:0:0:
149,165,26075,5,0,0:0:0:0:
119,178,26162,1,0,0:0:0:0:
92,192,26248,2,0,P|56:244|56:288,1,105,0|0,0:0|0:0,0:0:0:0:
64,308,26593,1,8,0:0:0:0:
168,272,26765,2,0,P|200:268|232:280,1,52.5,0|0,0:0|0:0,0:0:0:0:
308,280,26938,2,0,L|416:252,1,105,2|0,0:0|0:0,0:0:0:0:
312,136,27282,5,0,0:0:0:0:
287,93,27368,1,0,0:0:0:0:
320,57,27454,1,8,0:0:0:0:
364,78,27540,1,0,0:0:0:0:
357,126,27626,1,0,0:0:0:0:
232,184,27800,6,0,P|200:180|168:160,1,52.5,2|0,0:0|0:0,0:0:0:0:
224,96,27972,2,0,B|204:32|132:16,1,105,8|0,0:0|0:0,0:0:0:0:
104,120,28317,2,0,B|72:159|97:220,1,105,2|0,0:0|0:0,0:0:0:0:
232,184,28662,2,0,B|263:223|238:284,1,105,8|0,0:0|0:0,0:0:0:0:
97,219,29007,1,0,0:0:0:0:
344,236,29179,1,2,0:0:0:0:
224,96,29351,2,0,B|280:76|280:76|344:88,1,105,8|0,0:0|0:0,0:0:0:0:
238,283,29696,6,0,P|246:343|304:380,1,94.499997116089,10|0,0:0|0:0,0:0:0:0:
409,253,30041,2,0,P|425:221|425:177,1,52.5,0|0,0:0|0:0,0:0:0:0:
424,100,30213,2,0,P|418:74|405:51,1,52.5,8|0,0:0|0:0,0:0:0:0:
224,96,30386,2,0,P|190:84|158:53,1,52.5,0|8,0:0|0:0,0:0:0:0:
296,44,30558,2,0,P|312:104|284:164,1,105,0|8,0:0|0:0,0:0:0:0:
168,192,30817,2,0,P|188:240|256:272,1,105,0|8,0:0|0:0,0:0:0:0:
353,227,31075,6,0,B|400:211|463:270|463:270|403:298|403:298|427:334,1,220.499993270874,2|8,0:0|0:0,0:0:0:0:
420,324,31593,1,0,0:0:0:0:
244,192,31765,2,0,P|224:132|248:84,1,99.7499973363877,0|2,0:0|0:0,0:0:0:0:
344,272,32110,2,0,B|328:332|328:332|284:368,1,99.7499973363877,8|0,0:0|0:0,0:0:0:0:
172,260,32455,1,2,0:0:0:0:
376,152,32627,1,2,0:0:0:0:
156,152,32800,5,0,0:0:0:0:
151,127,32886,1,0,0:0:0:0:
147,102,32972,1,8,0:0:0:0:
328,80,33144,2,0,P|392:68|440:92,1,99.7499973363877,0|2,0:0|0:0,0:0:0:0:
172,260,33489,2,0,B|100:244|100:244|144:224,1,120.750002303124,8|0,0:0|0:0,0:0:0:0:
344,272,33834,2,0,B|424:272|436:324|436:324|368:312,1,141.750000540733,2|2,0:0|0:0,0:0:0:0:
244,192,34179,5,8,0:0:0:0:
84,344,34351,1,0,0:0:0:0:
76,184,34524,2,0,L|72:116,1,55.1249983177186,0|0,0:0|0:0,0:0:0:0:
184,128,34696,2,0,P|212:108|252:100,1,55.1249983177186,2|0,0:0|0:0,0:0:0:0:
360,144,34869,2,0,P|423:164|471:151,1,110.249996635437,8|0,0:0|0:0,0:0:0:0:
420,44,35213,5,2,0:0:0:0:
196,176,35386,2,0,P|188:208|188:240,1,60.3750011515618,2|0,0:0|0:0,0:0:0:0:
288,220,35558,2,0,P|349:196|377:140,1,120.750002303124,8|0,0:0|0:0,0:0:0:0:
284,124,35817,1,2,0:0:0:0:
284,124,35903,2,0,B|224:96|224:96|144:88,1,105,0|2,0:0|0:0,0:0:0:0:
76,184,36248,2,0,P|80:240|112:200,1,136.499993751526,8|2,0:0|0:0,0:0:0:0:
288,220,36593,6,0,B|348:180|420:204|420:204|372:144,1,204.749990627289,2|0,0:0|0:0,0:0:0:0:
284,124,36938,2,0,P|316:76|384:60,1,105,8|0,0:0|0:0,0:0:0:0:
416,204,37282,2,0,P|412:240|400:268,1,60.3750011515618,0|0,0:0|0:0,0:0:0:0:
336,332,37455,2,0,P|305:352|276:360,1,60.3750011515618,2|0,0:0|0:0,0:0:0:0:
248,224,37627,2,0,L|124:200,1,105,8|0,0:0|0:0,0:0:0:0:
185,92,37972,5,2,0:0:0:0:
75,294,38144,5,2,0:0:0:0:
79,319,38230,1,0,0:0:0:0:
84,344,38316,1,0,0:0:0:0:
248,224,38489,2,0,P|284:204|320:204,1,62.9999980773926,8|0,0:0|0:0,0:0:0:0:
416,204,38662,2,0,L|432:88,1,105,0|2,0:0|0:0,0:0:0:0:
185,92,39007,2,0,P|129:76|93:8,1,105,8|0,0:0|0:0,0:0:0:0:
76,184,39351,6,0,B|92:240|139:252|139:252|124:296|124:296|176:304|172:360,1,204.749990627289,2|0,0:0|0:0,0:0:0:0:
168,156,39696,2,0,P|202:117|252:105,1,105,8|0,0:0|0:0,0:0:0:0:
380,100,40041,5,0,0:0:0:0:
404,100,40127,1,0,0:0:0:0:
430,99,40213,1,2,0:0:0:0:
284,104,40386,1,8,0:0:0:0:
224,316,40558,2,0,P|196:330|165:336,1,52.5,0|0,0:0|0:0,0:0:0:0:
164,244,40731,2,0,P|132:192|52:180,1,105,8|2,0:0|0:0,0:0:0:0:
262,213,41075,2,0,P|321:188|354:130,1,125.999996154785,2|8,0:0|0:0,0:0:0:0:
252,105,41420,5,2,0:0:0:0:
240,89,41507,1,8,0:0:0:0:
232,73,41593,2,0,P|220:29|224:1,1,62.9999980773926,2|0,0:0|0:0,0:0:0:0:
328,12,41765,5,8,0:0:0:0:
347,16,41852,1,0,0:0:0:0:
363,23,41938,2,0,P|400:48|415:73,1,62.9999980773926,0|8,0:0|0:0,0:0:0:0:
305,202,42110,6,0,B|265:266|289:330|289:330|312:280|356:268,1,204.749990627289,2|0,0:0|0:0,0:0:0:0:
376,360,42455,2,0,P|444:344|472:296,1,105,8|0,0:0|0:0,0:0:0:0:
448,184,42800,1,0,0:0:0:0:
443,160,42886,1,0,0:0:0:0:
436,135,42972,1,2,0:0:0:0:
336,92,43144,2,0,B|289:73|289:73|265:81|265:81|217:69,1,105,8|0,0:0|0:0,0:0:0:0:
248,224,43489,5,2,0:0:0:0:
160,72,43662,1,2,0:0:0:0:
165,48,43748,1,0,0:0:0:0:
172,23,43834,1,0,0:0:0:0:
336,92,44007,2,0,P|372:100|396:116,1,62.9999980773926,8|0,0:0|0:0,0:0:0:0:
338,177,44179,2,0,P|322:241|350:297,1,105,0|2,0:0|0:0,0:0:0:0:
436,232,44524,6,0,P|480:284|432:244,1,204.749990627289,8|0,0:0|0:0,0:0:0:0:
468,248,44869,2,0,B|404:268|336:180|336:180|308:232|344:268,1,210,2|8,0:0|0:0,0:0:0:0:
324,229,45386,1,0,0:0:0:0:
288,328,45558,2,0,P|232:332|176:304,1,105,0|2,0:0|0:0,0:0:0:0:
244,180,45903,2,0,B|208:124|208:124|136:100,1,105,8|0,0:0|0:0,0:0:0:0:
88,252,46248,5,2,0:0:0:0:
338,177,46420,2,0,P|374:161|410:161,1,62.9999980773926,0|0,0:0|0:0,0:0:0:0:
296,264,46593,2,0,P|248:214|252:150,1,105,8|2,0:0|0:0,0:0:0:0:
397,159,46938,2,0,B|425:107|425:107|409:51,1,105,0|2,0:0|0:0,0:0:0:0:
171,111,47282,2,0,B|47:67|53:117|67:171|127:103,1,157.500006008148,8|2,0:0|0:0,0:0:0:0:
296,264,47627,6,0,B|356:304|432:272|432:272|388:264|372:236,1,204.749990627289,2|0,0:0|0:0,0:0:0:0:
272,176,47972,2,0,P|212:224|204:280,1,105,8|0,0:0|0:0,0:0:0:0:
109,177,48317,1,0,0:0:0:0:
104,153,48403,1,0,0:0:0:0:
97,128,48489,1,2,0:0:0:0:
288,88,48662,2,0,B|412:44|405:94|392:148|332:80,1,157.500006008148,8|0,0:0|0:0,0:0:0:0:
204,248,49007,6,0,P|204:288|216:316,1,68.2499968757631,2|0,0:0|0:0,0:0:0:0:
377,244,49179,2,0,P|388:212|387:178,1,68.2499968757631,2|0,0:0|0:0,0:0:0:0:
272,176,49351,2,0,P|212:144|200:84,1,105,2|8,0:0|0:0,0:0:0:0:
315,91,49696,2,0,P|291:55|291:91,1,105,0|2,0:0|0:0,0:0:0:0:
280,272,50041,2,8,B|284:320|244:360|244:360|300:356,1,136.499993751526,8|0,0:0|0:0,0:0:0:0:
168,272,50386,5,2,0:0:0:0:
135,250,50472,1,2,0:0:0:0:
112,218,50558,1,2,0:0:0:0:
104,180,50644,1,2,0:0:0:0:
110,141,50730,1,2,0:0:0:0:
131,108,50817,1,2,0:0:0:0:
162,85,50903,1,2,0:0:0:0:
200,76,50989,1,2,0:0:0:0:
240,96,51075,5,2,0:0:0:0:
264,132,51161,1,2,0:0:0:0:
266,176,51247,1,2,0:0:0:0:
245,216,51333,1,2,0:0:0:0:
208,239,51419,1,2,0:0:0:0:
164,240,51506,1,2,0:0:0:0:
125,219,51592,1,2,0:0:0:0:
103,181,51678,1,2,0:0:0:0:
96,148,51765,6,0,P|96:120|104:92,7,36.749998878479,2|2|2|2|2|2|2|2,0:0|0:0|0:0|0:0|0:0|0:0|0:0|0:0,0:0:0:0:
104,80,52110,2,0,P|113:53|130:30,8,36.749998878479,2|0|0|0|0|0|0|0|2,0:0|0:0|0:0|0:0|0:0|0:0|0:0|0:0|0:0,0:0:0:0:
140,32,52455,2,0,B|279:26|264:191|328:261|519:164|460:-4|328:-12|292:80|328:128,1,514.499984298707,4|0,0:1|0:0,0:0:0:0:
325,124,53144,2,0,B|309:164|357:308|409:228|409:228|353:136|293:304|249:260|249:260|221:236|157:236,1,440.999986541748,6|0,0:2|0:0,0:0:0:0:
176,232,53834,2,0,B|120:200|120:200|156:172|156:124|156:124|160:68|76:8|20:128|112:152,1,367.5,8|0,2:0|2:0,2:2:0:0:
112,152,54524,6,0,P|50:260|172:232,1,314.999990386963,2|0,0:0|0:0,0:0:0:0:
112,152,55041,6,0,P|44:244|156:172,1,367.49998878479,2|0,0:0|0:0,0:0:0:0:
108,220,55558,2,0,B|247:214|232:379|296:449|487:352|428:184|296:176|260:268|296:316,1,514.499984298707,2|0,0:0|0:0,0:0:0:0:
328,288,56248,6,0,P|360:280|388:256,1,52.5,0|0,0:0|0:0,0:0:0:0:
320,196,56420,6,0,P|288:188|256:164,1,62.9999980773926,0|0,0:0|0:0,0:0:0:0:
332,104,56593,6,0,P|364:96|392:68,1,73.4999977569581,0|0,0:0|0:0,0:0:0:0:
256,36,56765,6,0,P|224:44|192:84,1,84,0|0,0:0|0:0,0:0:0:0:
180,184,56938,2,0,B|124:176|92:124|92:124|100:192,1,157.5,0|0,0:0|0:0,0:0:0:0:
144,276,57282,6,0,B|212:296|260:252|260:252|320:256|320:256|340:204|340:204|432:180,1,314.999990386963,2|0,0:0|0:0,0:0:0:0:
440,112,57800,2,0,P|336:200|488:192,1,367.49998878479,2|0,0:0|0:0,0:0:0:0:
412,185,58317,2,0,B|328:137|260:176|260:176|264:296|84:280|124:152|124:152|88:80|-20:113,1,551.25002102852,2|0,0:0|0:0,0:0:0:0:
48,196,59007,6,0,P|52:236|64:260,1,62.9999980773926,0|0,0:0|0:0,0:0:0:0:
188,188,59179,2,0,P|199:159|201:127,1,62.9999980773926,0|0,0:0|0:0,0:0:0:0:
132,268,59351,2,0,B|188:296|236:272|236:272|276:300|276:300|324:288,1,188.999994232178,0|0,0:0|0:0,0:0:0:0:
412,248,59696,2,0,B|356:276|308:252|308:252|268:280|268:280|220:268,1,188.999994232178,0|0,0:0|0:0,0:0:0:0:
352,184,60041,6,0,B|192:100|320:-104|444:60|348:116,1,314.999990386963,2|0,0:0|0:0,0:0:0:0:
352,184,60558,6,0,B|184:96|320:-104|452:56|348:116,1,367.49998878479,2|0,0:0|0:0,0:0:0:0:
332,72,61075,2,0,B|260:104|212:48|212:48|164:80|164:80|112:32|16:52|16:52|52:144|152:144,1,514.499984298707,2|0,0:0|0:0,0:0:0:0:
180,156,61765,2,0,B|236:168|264:196|264:196|312:204,1,118.125004506111,2|0,0:0|0:0,0:0:0:0:
184,252,62110,2,0,B|156:276|120:264|120:264|100:292|100:292|60:276|4:292,1,196.875,0|0,0:0|0:0,0:0:0:0:
184,252,62455,2,0,B|212:276|248:264|248:264|268:292|268:292|308:276|352:288,1,157.5,8|0,0:0|0:0,0:0:0:0:
287,199,62800,6,0,B|312:128|259:75|259:75|303:91,1,173.250005287171,2|0,0:0|0:0,0:0:0:0:
204,152,63144,1,8,0:0:0:0:
388,88,63317,2,0,P|380:52|364:24,1,57.7500017623902,2|0,0:0|0:0,0:0:0:0:
260,76,63489,2,0,P|184:92|144:8,1,173.250005287171,2|0,0:0|0:0,0:0:0:0:
208,28,63834,2,0,B|204:56|204:56|224:92|224:92|192:140|192:140|228:192|200:232,1,173.250005287171,8|0,0:0|0:0,0:0:0:0:
136,240,64179,6,0,B|204:300|280:244|280:244|252:324|332:380|440:340|408:240,1,404.250012336731,2|0,0:0|0:0,0:0:0:0:
344,268,64869,2,0,B|342:228|361:205|361:205|336:175|342:143,1,118.125004506111,0|0,0:0|0:0,0:0:0:0:
388,88,65213,2,0,L|325:79,3,62.9999980773926,0|0|0|0,0:0|0:0|0:0|0:0,0:0:0:0:
210,181,65558,6,0,P|138:253|266:213,1,341.249984378815,2|0,0:0|0:0,0:0:0:0:
210,181,66075,6,0,P|138:253|252:196,1,393.750015020371,2|0,0:0|0:0,0:0:0:0:
208,252,66593,2,0,B|280:292|504:176|464:48|304:40|216:136|408:284|504:288,1,551.25002102852,2|0,0:0|0:0,0:0:0:0:
240,160,67282,2,0,P|201:167|165:183,3,78.7500030040742,0|0|0|0,0:0|0:0|0:0|0:0,0:0:0:0:
104,232,67627,2,0,P|79:262|62:297,1,78.7500030040742,0|0,0:0|0:0,0:0:0:0:
168,312,67800,2,0,P|203:328|242:335,1,78.7500030040742,0|0,0:0|0:0,0:0:0:0:
240,160,67972,2,0,B|316:100|256:12|256:12|240:52|212:72,1,236.250009012223,0|0,0:0|0:0,0:0:0:0:
144,144,68317,6,0,B|144:240|232:260|232:260|204:308|204:308|292:316|300:364,1,314.999990386963,2|0,0:0|0:0,0:0:0:0:
317,260,68834,2,0,B|393:68|213:-28|169:156|269:172,1,341.249984378815,2|0,0:0|0:0,0:0:0:0:
239,159,69351,2,0,P|124:304|224:144,1,551.25002102852,2|0,0:0|0:0,0:0:0:0:
196,200,70041,6,0,P|163:254|171:183,1,188.999994232178,0|0,0:0|0:0,0:0:0:0:
239,159,70386,2,0,B|263:147|263:147|283:159|283:159|315:143,3,62.9999980773926,0|0|0|0,0:0|0:0|0:0|0:0,0:0:0:0:
332,152,70731,2,0,B|356:140|356:140|376:152|376:152|408:136,3,62.9999980773926,0|0|0|0,0:0|0:0|0:0|0:0,0:0:0:0:
364,196,71075,6,0,P|338:283|212:164,1,314.999990386963,2|0,0:0|0:0,0:0:0:0:
284,180,71593,6,0,P|258:267|132:136,1,367.49998878479,2|0,0:0|0:0,0:0:0:0:
212,124,72110,6,0,P|186:211|132:56,1,420,2|0,0:0|0:0,0:0:0:0:
212,124,72627,5,2,0:0:0:0:
336,116,72800,2,0,B|404:104|404:104|472:124,1,125.999996154785,8|0,0:0|0:0,0:0:0:0:
396,228,73144,1,0,0:0:0:0:
256,24,73317,1,2,0:0:0:0:
195,199,73489,6,0,P|143:227|63:203,1,115.50000352478,8|0,0:0|0:0,0:0:0:0:
336,116,73834,1,0,0:0:0:0:
483,284,74007,1,2,0:0:0:0:
227,302,74179,2,0,P|191:242|199:186,1,115.50000352478,8|0,0:0|0:0,0:0:0:0:
458,120,74524,2,0,B|446:68|446:68|454:48|454:48|438:-8,1,115.50000352478,0|2,0:0|0:0,0:0:0:0:
260,140,74869,6,0,P|200:112|144:124,1,118.125004506111,8|0,0:0|0:0,0:0:0:0:
272,232,75213,2,0,P|337:243|389:216,1,115.50000352478,0|0,0:0|0:0,0:0:0:0:
308,64,75558,5,8,0:0:0:0:
320,204,75731,1,0,0:0:0:0:
328,344,75903,1,2,0:0:0:0:
420,56,76075,5,0,0:0:0:0:
432,196,76248,1,8,0:0:0:0:
440,336,76420,1,0,0:0:0:0:
268,232,76593,6,0,P|224:164|232:112,1,118.125004506111,2|0,0:0|0:0,0:0:0:0:
300,80,76938,2,0,P|260:48|204:44,1,94.499997116089,8|0,0:0|0:0,0:0:0:0:
196,192,77282,1,2,0:0:0:0:
458,120,77455,1,0,0:0:0:0:
160,120,77627,6,0,P|128:76|132:-4,1,118.125004506111,8|0,0:0|0:0,0:0:0:0:
300,160,77972,2,0,P|300:232|256:280,1,115.50000352478,2|0,0:0|0:0,0:0:0:0:
108,288,78317,1,8,0:0:0:0:
384,336,78489,1,0,0:0:0:0:
216,192,78662,2,0,L|204:68,1,115.50000352478,2|0,0:0|0:0,0:0:0:0:
432,196,79007,6,0,B|456:224|456:256|456:256|480:272|480:272|484:292|484:292|504:300,1,118.125004506111,8|0,0:0|0:0,0:0:0:0:
323,265,79351,2,0,P|294:215|299:159,1,115.50000352478,2|0,0:0|0:0,0:0:0:0:
448,72,79696,5,8,0:0:0:0:
252,56,79869,1,0,0:0:0:0:
448,72,80041,2,0,L|312:64,1,115.50000352478,2|0,0:0|0:0,0:0:0:0:
100,192,80386,2,0,B|160:192|160:192|164:188|164:188|168:192|168:192|215:191,1,115.50000352478,8|8,0:0|0:0,0:0:0:0:
384,196,80731,5,8,0:0:0:0:
392,204,80817,1,0,0:0:0:0:
400,216,80903,2,0,P|408:252|400:284,1,62.9999980773926,2|0,0:0|0:0,0:0:0:0:
276,265,81075,5,8,0:0:0:0:
270,274,81161,1,0,0:0:0:0:
260,285,81247,2,0,P|227:302|194:302,1,62.9999980773926,2|0,0:0|0:0,0:0:0:0:
100,198,81420,5,8,0:0:0:0:
92,190,81506,1,0,0:0:0:0:
84,178,81592,2,0,P|76:147|80:116,1,62.9999980773926,2|0,0:0|0:0,0:0:0:0:
313,146,81765,5,8,0:0:0:0:
321,138,81851,1,0,0:0:0:0:
329,126,81937,2,0,P|336:95|332:64,1,62.9999980773926,2|0,0:0|0:0,0:0:0:0:
201,303,82110,5,8,0:0:0:0:
193,311,82196,1,0,0:0:0:0:
185,323,82282,2,0,P|177:359|185:391,1,62.9999980773926,2|0,0:0|0:0,0:0:0:0:
232,184,82455,5,8,0:0:0:0:
226,175,82541,1,0,0:0:0:0:
216,164,82627,2,0,P|188:148|157:145,1,62.9999980773926,2|0,0:0|0:0,0:0:0:0:
402,277,82800,5,8,0:0:0:0:
408,286,82886,1,0,0:0:0:0:
418,297,82972,2,0,P|450:314|483:314,1,62.9999980773926,2|0,0:0|0:0,0:0:0:0:
382,132,83144,5,8,0:0:0:0:
381,120,83230,1,0,0:0:0:0:
376,106,83316,2,0,P|357:80|331:64,1,62.9999980773926,2|0,0:0|0:0,0:0:0:0:
292,148,83489,5,2,0:0:0:0:
264,225,83575,1,2,0:0:0:0:
192,264,83661,1,2,0:0:0:0:
112,245,83747,1,2,0:0:0:0:
65,178,83833,1,2,0:0:0:0:
75,96,83920,1,2,0:0:0:0:
137,42,84006,1,2,0:0:0:0:
219,43,84092,1,2,0:0:0:0:
296,68,84179,6,0,L|332:104,7,42,2|2|2|2|2|2|2|2,0:0|0:0|0:0|0:0|0:0|0:0|0:0|0:0,0:0:0:0:
356,160,84524,2,0,L|377:206,8,42,10|0|0|0|0|2|0|0|0,0:0|0:0|0:0|0:0|0:0|0:0|0:0|0:0|0:0,0:0:0:0:
356,248,84869,2,0,P|348:320|380:232,1,315.000012016297,10|0,0:0|0:0,0:0:0:0:
336,216,85731,5,2,0:0:0:0:
283,207,85817,1,0,0:0:0:0:
231,201,85903,1,8,0:3:0:0:
179,193,85989,1,8,0:3:0:0:
126,186,86075,1,4,0:3:0:0:
74,178,86162,1,4,0:3:0:0:
28,172,86248,6,0,P|60:216|136:228,1,118.125004506111,6|0,1:0|0:0,0:0:0:0:
120,124,86593,2,0,P|156:100|208:96,1,62.9999980773926,8|0,0:0|0:0,0:0:0:0:
356,160,86765,2,0,B|428:140|428:140|460:88,1,115.50000352478,0|0,0:0|0:0,0:0:0:0:
226,70,87110,6,0,P|198:78|174:94,1,57.7500017623902,2|0,0:0|0:0,0:0:0:0:
356,160,87282,2,0,B|392:208|380:272|380:272|428:240,1,157.500006008148,8|0,0:0|0:0,0:0:0:0:
240,244,87627,6,0,L|156:224,1,62.9999980773926,0|0,0:0|0:0,0:0:0:0:
28,172,87800,2,0,L|52:40,1,125.999996154785,2|8,0:0|0:0,0:0:0:0:
240,244,88144,6,0,L|324:224,1,62.9999980773926,0|0,0:0|0:0,0:0:0:0:
449,105,88317,2,0,P|441:49|409:113,1,157.500006008148,0|2,0:0|0:0,0:0:0:0:
172,192,88662,6,0,P|156:228|160:268,1,62.9999980773926,8|0,0:0|0:0,0:0:0:0:
284,192,88834,2,0,P|281:160|267:132,1,62.9999980773926,2|2,0:0|0:0,0:0:0:0:
174,94,89007,2,0,B|125:29|22:78|22:78|69:101|92:136,1,236.250009012223,2|0,0:0|0:0,0:0:0:0:
155,251,89351,6,0,P|151:291|103:347,1,62.9999980773926,8|0,0:0|0:0,0:0:0:0:
28,224,89524,2,0,P|16:194|14:163,1,62.9999980773926,0|0,0:0|0:0,0:0:0:0:
267,132,89696,2,0,P|303:112|347:112,1,62.9999980773926,0|0,0:0|0:0,0:0:0:0:
412,250,89869,2,0,P|442:256|469:272,1,62.9999980773926,2|0,0:0|0:0,0:0:0:0:
198,334,90041,2,0,P|167:327|140:311,1,62.9999980773926,8|0,0:0|0:0,0:0:0:0:
187,154,90213,2,0,P|175:124|173:93,1,62.9999980773926,0|0,0:0|0:0,0:0:0:0:
324,109,90386,2,0,P|376:133|320:129,1,157.500006008148,0|2,0:0|0:0,0:0:0:0:
185,225,90731,5,8,0:0:0:0:
137,245,90817,1,0,0:0:0:0:
87,234,90903,1,0,0:0:0:0:
53,195,90989,1,0,0:0:0:0:
48,144,91075,1,0,0:0:0:0:
75,100,91162,1,0,0:0:0:0:
123,80,91248,1,2,0:0:0:0:
173,93,91334,1,0,0:0:0:0:
216,132,91420,2,0,B|232:192|188:236|188:236|220:216|256:204,1,157.5,8|0,0:0|0:0,0:0:0:0:
398,158,91765,6,0,B|478:154|466:98|466:98|422:114,1,125.999996154785,2|0,0:0|0:0,0:0:0:0:
256,56,92110,2,0,P|220:48|176:52,1,62.9999980773926,8|0,0:0|0:0,0:0:0:0:
36,160,92282,2,0,P|96:172|156:152,1,105,0|0,0:0|0:0,0:0:0:0:
398,158,92627,6,0,P|414:194|418:230,1,68.2499968757631,2|0,0:0|0:0,0:0:0:0:
194,258,92800,2,0,P|155:215|137:161,1,115.50000352478,8|0,0:0|0:0,0:0:0:0:
312,112,93144,6,0,P|332:72|332:32,1,68.2499968757631,0|0,0:0|0:0,0:0:0:0:
194,258,93317,2,0,P|238:318|230:254,1,157.500006008148,2|8,0:0|0:0,0:0:0:0:
418,222,93662,6,0,L|498:210,1,68.2499968757631,0|0,0:0|0:0,0:0:0:0:
440,312,93834,2,0,P|364:296|328:224,1,136.499993751526,0|0,0:0|0:0,0:0:0:0:
209,175,94179,6,0,P|165:163|121:163,1,73.4999977569581,8|0,0:0|0:0,0:0:0:0:
52,232,94351,2,0,L|32:88,1,73.4999977569581,2|0,0:0|0:0,0:0:0:0:
32,75,94524,2,0,L|52:239,1,157.5,2|0,0:0|0:0,0:0:0:0:
209,175,94869,6,0,L|257:163,7,39.3750015020371,8|0|0|0|0|0|0|0,0:0|0:0|0:0|0:0|0:0|0:0|0:0|0:0,0:0:0:0:
341,203,95213,2,0,L|425:223,1,78.7500030040742,0|0,0:0|0:0,0:0:0:0:
363,119,95386,2,0,P|355:79|327:43,1,78.7500030040742,2|0,0:0|0:0,0:0:0:0:
176,100,95558,2,0,P|88:68|92:-16,1,157.500006008148,8|0,0:0|0:0,0:0:0:0:
176,100,95817,1,0,0:0:0:0:
247,165,95903,2,0,B|235:261|235:261|183:297,1,136.499993751526,0|2,0:0|0:0,0:0:0:0:
51,231,96248,6,0,B|31:283|67:319|67:319|59:351|59:351|99:383|99:383|111:423,1,157.500006008148,8|0,0:0|0:0,0:0:0:0:
292,227,96593,2,0,P|380:203|436:239,1,136.499993751526,0|2,0:0|0:0,0:0:0:0:
360,308,96851,1,2,0:0:0:0:
360,308,96938,2,0,P|348:348|328:364,1,62.9999980773926,8|0,0:0|0:0,0:0:0:0:
164,208,97110,2,0,L|152:128,1,62.9999980773926,2|0,0:0|0:0,0:0:0:0:
312,112,97282,6,0,B|332:28|332:28|288:60,1,125.999996154785,2|0,0:0|0:0,0:0:0:0:
154,145,97627,2,0,L|62:121,1,68.2499968757631,8|0,0:0|0:0,0:0:0:0:
299,51,97800,2,0,P|360:28|411:59,1,105,0|0,0:0|0:0,0:0:0:0:
292,227,98144,6,0,P|260:255|224:259,1,68.2499968757631,2|0,0:0|0:0,0:0:0:0:
154,145,98317,2,0,B|136:64|136:64|178:93,1,115.50000352478,8|0,0:0|0:0,0:0:0:0:
400,116,98662,6,0,P|436:112|484:84,1,68.2499968757631,0|0,0:0|0:0,0:0:0:0:
136,68,98834,2,0,B|76:52|76:52|-16:76,1,115.50000352478,2|8,0:0|0:0,0:0:0:0:
202,283,99179,6,0,L|230:359,1,68.2499968757631,0|0,0:0|0:0,0:0:0:0:
332,250,99351,2,0,P|376:202|444:202,1,115.50000352478,0|2,0:0|0:0,0:0:0:0:
291,363,99696,6,0,L|211:343,1,68.2499968757631,8|0,0:0|0:0,0:0:0:0:
199,199,99869,2,0,P|179:163|151:143,1,73.4999977569581,2|0,0:0|0:0,0:0:0:0:
76,196,100041,2,2,B|48:144|72:96|72:96|32:120,1,146.999995513916,2|0,0:0|0:0,0:0:0:0:
222,59,100386,6,0,P|258:47|310:55,1,78.7500030040742,8|0,0:0|0:0,0:0:0:0:
304,192,100558,2,0,P|336:211|363:256,1,78.7500030040742,0|0,0:0|0:0,0:0:0:0:
168,284,100731,2,0,P|127:303|100:348,1,78.7500030040742,0|0,0:0|0:0,0:0:0:0:
76,196,100903,2,0,P|43:176|20:128,1,78.7500030040742,2|0,0:0|0:0,0:0:0:0:
153,144,101075,2,0,P|191:140|229:152,1,78.7500030040742,8|0,0:0|0:0,0:0:0:0:
252,312,101248,2,0,P|288:324|340:316,1,78.7500030040742,0|0,0:0|0:0,0:0:0:0:
304,216,101420,6,0,B|368:176|348:136|348:136|380:136|380:136|372:104|372:104|364:56|396:20,1,236.250009012223,0|0,0:0|0:0,0:0:0:0:
272,88,101765,5,8,0:0:0:0:
237,93,101851,1,0,0:0:0:0:
244,127,101937,1,0,0:0:0:0:
278,117,102023,1,0,0:0:0:0:
276,82,102110,1,0,0:0:0:0:
230,89,102196,1,0,0:0:0:0:
240,133,102282,1,2,0:0:0:0:
284,120,102368,1,0,0:0:0:0:
284,80,102455,2,0,B|276:64|248:56|248:56|224:68|224:68|204:56|204:56|172:60|148:56,1,118.125004506111,8|0,0:0|0:0,0:0:0:0:
164,56,102800,5,2,0:0:0:0:
184,216,103144,2,0,P|184:256|200:288,1,68.2499968757631,8|0,0:0|0:0,0:0:0:0:
359,244,103317,2,0,B|439:268|439:268|475:316,1,115.50000352478,0|0,0:0|0:0,0:0:0:0:
228,356,103662,6,0,P|180:360|144:344,1,68.2499968757631,2|0,0:0|0:0,0:0:0:0:
218,148,103834,2,0,P|198:80|154:52,1,115.50000352478,8|0,0:0|0:0,0:0:0:0:
76,196,104179,6,0,L|52:276,1,68.2499968757631,0|0,0:0|0:0,0:0:0:0:
304,216,104351,2,0,B|332:192|384:200|384:200|348:164,1,115.50000352478,2|8,0:0|0:0,0:0:0:0:
320,308,104696,6,0,P|280:308|248:292,1,68.2499968757631,0|0,0:0|0:0,0:0:0:0:
163,55,104869,2,0,B|99:27|99:27|23:43,1,125.999996154785,0|2,0:0|0:0,0:0:0:0:
159,174,105213,2,0,B|215:190|251:170|251:170|271:206|271:206|291:186|291:186|327:170|367:178,1,236.250009012223,8|0,0:0|0:0,0:0:0:0:
344,268,105558,6,0,P|376:336|440:352,1,118.125004506111,0|0,0:0|0:0,0:0:0:0:
448,208,105903,2,0,P|448:140|404:96,1,115.50000352478,8|0,0:0|0:0,0:0:0:0:
204,104,106248,2,0,P|152:92|208:84,1,118.125004506111,2|0,0:0|0:0,0:0:0:0:
272,204,106593,2,0,P|240:272|168:296,1,115.50000352478,8|2,0:0|0:0,0:0:0:0:
168,192,106938,2,0,B|84:180|84:180|28:192,1,125.999996154785,2|2,0:0|0:0,0:0:0:0:
284,80,107282,5,8,0:0:0:0:
43,188,107455,1,2,0:0:0:0:
344,268,107627,1,8,3:0:0:0:
176,220,107800,6,0,B|73:231|68:357|68:357|100:294|175:288,1,314.999990386963,0|0,0:0|0:0,0:0:0:0:
264,264,108317,2,0,B|296:164|224:188|264:76,1,183.75,2|0,0:0|0:0,0:0:0:0:
357,132,109007,5,8,0:0:0:0:
366,127,109093,1,0,2:0:0:0:
375,120,109179,2,0,P|410:64|409:27,1,62.9999980773926,0|0,2:0|2:0,0:0:0:0:
181,60,109351,6,0,P|142:59|103:73,1,62.9999980773926,0|0,2:0|2:0,0:0:0:0:
43,188,109524,5,2,0:0:0:0:
46,197,109610,1,0,2:0:0:0:
51,207,109696,2,0,P|100:251|136:256,1,62.9999980773926,0|0,2:0|2:0,0:0:0:0:
237,345,109869,6,0,P|267:352|298:348,1,62.9999980773926,0|0,2:0|2:0,0:0:0:0:
382,225,110041,5,2,0:0:0:0:
389,219,110127,1,0,2:0:0:0:
396,212,110213,2,0,P|413:185|420:155,1,62.9999980773926,0|0,2:0|2:0,0:0:0:0:
281,147,110386,6,0,B|256:64|144:88|100:160|180:388|316:160|388:316,1,440.999986541748,8|0,2:0|0:0,0:0:0:0:
297,352,111075,6,0,P|271:302|304:256,1,118.125004506111,2|0,0:0|0:0,0:0:0:0:
380,301,111420,2,0,B|401:111|401:111|343:146,1,228.375006969452,0|0,0:0|0:0,0:0:0:0:
272,156,111765,2,0,P|216:60|276:144,1,367.5,8|0,0:0|0:0,0:0:0:0:
208,128,112455,2,0,B|224:176|224:176|204:204|204:204|240:248|240:248|204:288|216:336,1,210,2|0,0:0|0:0,0:0:0:0:
380,301,112972,5,2,0:0:0:0:
404,280,113058,1,2,0:0:0:0:
428,256,113144,2,0,B|444:200|444:200|432:140,1,105,8|2,0:0|0:0,0:0:0:0:
208,128,113489,2,0,P|192:96|188:56,1,62.9999980773926,8|0,0:0|0:0,0:0:0:0:
324,197,113662,2,0,P|318:227|303:255,1,62.9999980773926,0|0,0:0|0:0,0:0:0:0:
213,309,113834,6,0,B|113:261|129:337|13:293,1,183.75,2|0,0:0|0:0,0:0:0:0:
88,160,114524,5,8,0:0:0:0:
96,136,114610,1,0,2:0:0:0:
108,112,114696,2,0,P|128:80|164:60,1,62.9999980773926,0|0,2:0|2:0,0:0:0:0:
324,197,114869,6,0,L|348:277,1,62.9999980773926,0|0,2:0|2:0,0:0:0:0:
176,268,115041,5,2,0:0:0:0:
162,289,115127,1,0,2:0:0:0:
152,314,115213,2,0,P|140:349|148:390,1,62.9999980773926,0|0,2:0|2:0,0:0:0:0:
404,316,115386,6,0,P|424:272|424:232,1,62.9999980773926,0|0,2:0|2:0,0:0:0:0:
324,197,115558,5,2,0:0:0:0:
305,180,115644,1,0,2:0:0:0:
282,165,115730,2,0,P|254:149|224:144,1,62.9999980773926,0|0,2:0|2:0,0:0:0:0:
58,116,115903,6,0,B|37:77|48:39|115:17|158:38|200:152|81:216|81:216|22:267|63:328,1,440.999986541748,8|0,2:0|0:0,0:0:0:0:
139,280,116593,2,0,L|205:272,3,62.9999980773926,2|0|0|0,0:0|0:0|0:0|0:0,0:0:0:0:
258,273,116938,2,0,L|320:280,3,62.9999980773926,0|0|0|0,0:0|0:0|0:0|0:0,0:0:0:0:
347,294,117282,2,0,P|315:366|331:282,1,236.250009012223,8|0,0:2|0:0,0:0:0:0:
312,320,117627,6,0,B|328:256|328:256|312:188|312:188|332:108|332:108,1,204.749990627289,0|0,0:2|0:0,0:0:0:0:
404,184,117972,2,0,L|416:120,3,52.5,8|0|2|0,0:0|0:0|0:0|0:0,0:0:0:0:
328,121,118317,2,0,L|272:81,3,57.7500017623902,2|0|8|0,0:0|0:0|0:0|0:0,0:0:0:0:
120,132,118662,6,0,P|96:164|92:188,1,62.9999980773926,2|0,0:0|0:0,0:0:0:0:
88,288,118834,2,0,P|95:318|115:341,1,62.9999980773926,2|0,0:0|0:0,0:0:0:0:
200,264,119007,5,8,0:0:0:0:
232,211,119093,1,2,0:0:0:0:
292,197,119179,1,2,0:0:0:0:
345,228,119265,1,2,0:0:0:0:
372,284,119351,2,0,P|328:328|356:236,1,275.62501051426,2|0,0:0|0:0,0:0:0:0:
413,132,120041,5,8,0:0:0:0:
424,125,120127,1,0,2:0:0:0:
436,122,120213,2,0,P|478:113|514:125,1,68.2499968757631,0|0,2:0|2:0,0:0:0:0:
318,275,120386,6,0,P|276:284|240:272,1,68.2499968757631,2|0,0:0|2:0,0:0:0:0:
120,132,120558,5,8,0:0:0:0:
108,125,120644,1,0,2:0:0:0:
99,117,120730,2,0,P|70:85|62:47,1,68.2499968757631,0|0,2:0|2:0,0:0:0:0:
296,83,120903,2,0,P|284:114|260:138,1,68.2499968757631,2|0,0:0|2:0,0:0:0:0:
158,290,121075,5,8,0:0:0:0:
161,302,121161,1,0,2:0:0:0:
169,312,121247,2,0,P|195:345|230:359,1,68.2499968757631,2|0,0:0|2:0,0:0:0:0:
288,248,121420,6,0,P|288:184|232:120,1,118.125004506111,2|0,0:0|0:0,0:0:0:0:
167,130,121765,2,0,P|151:74|167:18,1,94.499997116089,0|0,0:0|0:0,0:0:0:0:
167,130,122110,1,2,0:0:0:0:
378,84,122282,2,0,P|378:44|358:76,1,105,0|0,0:0|0:0,0:0:0:0:
428,216,122627,6,0,P|436:256|408:316,1,57.7500017623902,0|0,0:0|0:0,0:0:0:0:
370,347,122800,6,0,P|331:361|268:344,1,57.7500017623902,8|0,0:0|0:0,0:0:0:0:
200,264,122972,6,0,L|124:224,1,57.7500017623902,0|0,0:0|0:0,0:0:0:0:
260,139,123144,6,0,L|244:63,1,57.7500017623902,0|0,0:0|0:0,0:0:0:0:
120,132,123317,6,0,P|100:100|96:76,1,57.7500017623902,0|0,0:0|0:0,0:0:0:0:
248,82,123489,6,0,B|340:106|324:54|440:90,1,157.500006008148,2|0,0:0|0:0,0:0:0:0:
372,204,124007,5,2,0:0:0:0:
364,260,124093,1,2,0:0:0:0:
352,316,124179,2,0,P|296:348|236:340,1,115.50000352478,8|2,0:0|0:0,0:0:0:0:
208,196,124524,2,0,P|184:164|152:152,1,62.9999980773926,8|0,0:0|0:0,0:0:0:0:
80,112,124696,2,0,P|104:80|136:68,1,62.9999980773926,0|0,0:0|0:0,0:0:0:0:
304,104,124869,6,0,B|380:152|352:232|352:232|332:300|400:364|496:296|456:236,1,367.5,2|0,0:0|0:0,0:0:0:0:
208,196,125558,5,8,0:0:0:0:
180,204,125644,1,0,2:0:0:0:
152,216,125731,2,0,P|116:240|100:276,1,68.2499968757631,0|0,2:0|2:0,0:0:0:0:
285,311,125903,6,0,P|321:319|353:315,1,68.2499968757631,2|0,0:0|2:0,0:0:0:0:
365,197,126075,5,8,0:0:0:0:
381,172,126161,1,0,2:0:0:0:
395,145,126248,2,0,P|407:103|396:65,1,68.2499968757631,0|0,2:0|2:0,0:0:0:0:
248,82,126420,6,0,P|220:42|220:14,1,68.2499968757631,2|0,0:0|2:0,0:0:0:0:
408,252,126593,5,8,0:0:0:0:
431,269,126679,1,0,2:0:0:0:
453,289,126766,2,0,P|478:323|481:363,1,68.2499968757631,2|0,0:0|2:0,0:0:0:0:
285,311,126938,6,0,B|216:328|185:251|185:251|136:280|136:280|101:243|101:243|49:231|16:240,1,294,2|0,0:0|0:0,0:0:0:0:
52,328,127627,6,0,P|116:364|176:356,1,115.50000352478,2|2,0:0|0:0,0:0:0:0:
184,252,127886,1,0,0:0:0:0:
167,152,127972,2,0,B|199:96|199:96|279:72,1,115.50000352478,2|2,0:0|0:0,0:0:0:0:
332,104,128231,1,0,0:0:0:0:
365,197,128317,2,0,P|429:205|481:153,1,115.50000352478,2|2,0:0|0:0,0:0:0:0:
247,81,128575,1,0,0:0:0:0:
167,152,128662,2,0,P|111:162|63:132,1,115.50000352478,2|2,0:0|0:0,0:0:0:0:
247,81,129007,5,2,0:0:0:0:
302,92,129093,1,2,0:0:0:0:
346,129,129179,1,2,0:0:0:0:
366,183,129265,1,2,0:0:0:0:
358,239,129351,1,2,0:0:0:0:
324,285,129438,1,2,0:0:0:0:
268,284,129524,5,2,0:0:0:0:
229,243,129610,1,2,0:0:0:0:
227,186,129696,1,2,0:0:0:0:
264,143,129782,1,2,0:0:0:0:
320,135,129868,1,2,0:0:0:0:
367,166,129955,1,2,0:0:0:0:
380,220,130041,5,8,0:3:0:0:
339,286,130127,1,8,0:3:0:0:
268,317,130213,1,4,0:3:0:0:
192,302,130299,1,4,0:3:0:0:
137,247,130385,1,6,0:0:0:0:
96,248,141419,6,2,B|136:232|184:252|184:252|216:232|216:232|248:268|248:268|284:232|336:224|376:256|388:312,1,341.25,0|0,0:0|0:0,0:0:0:0:
312,322,143833,6,0,P|256:350|196:334,1,118.125004506111,0|0,0:0|0:0,0:0:0:0:
256,244,144177,2,0,B|272:188|248:148|248:148|280:104|180:35|320:-4|364:44|352:112|296:132|296:132|208:112|145:174,1,525,2|0,0:0|0:0,0:0:0:0:
147,173,146073,6,0,P|59:137|156:132,1,262.5,2|0,0:0|0:0,0:0:0:0:
112,140,146590,2,0,B|160:160|200:148|200:148|240:128|280:152,1,157.5,2|0,0:0|0:0,0:0:0:0:
224,224,146935,2,0,B|284:248|336:204|336:204|368:232|368:232|412:204|456:208,1,210,2|2,0:0|0:0,0:0:0:0:
428,328,147452,6,0,B|485:321|509:269,1,105,2|2,0:0|0:0,0:0:0:0:
265,144,147797,2,0,B|256:76|217:44,1,105,2|2,0:0|0:0,3:3:0:0:
147,173,148141,5,2,0:0:0:0:
402,79,148314,1,2,0:0:0:0:
104,100,148486,1,2,0:0:0:0:
410,212,148659,1,2,0:0:0:0:
96,248,148831,1,2,0:0:0:0:
436,308,149004,1,2,0:0:0:0:
96,248,149176,6,0,B|-4:228|-4:228|24:263,2,146.999995513916,2|2|2,0:0|0:0|0:0,3:3:0:0:
264,336,149693,5,2,0:0:0:0:
305,296,149779,1,2,0:0:0:0:
324,242,149865,1,2,0:0:0:0:
317,185,149951,1,2,0:0:0:0:
286,137,150037,1,2,0:0:0:0:
244,100,150124,1,2,0:0:0:0:
245,156,150210,1,2,0:0:0:0:
215,204,150296,1,2,0:0:0:0:
162,226,150382,1,2,0:0:0:0:
106,215,150468,5,2,0:0:0:0:
67,174,150555,1,2,0:0:0:0:
58,118,150641,1,2,0:0:0:0:
88,68,150728,1,2,0:0:0:0:
140,45,150814,1,2,0:0:0:0:
197,50,150900,1,2,0:0:0:0:
243,83,150986,1,2,0:0:0:0:
292,116,151073,6,0,L|368:128,15,47.2499985580445,2|2|2|2|2|2|2|0|2|2|2|2|2|2|2|0,0:0|0:0|0:0|0:0|0:0|0:0|0:0|0:0|0:0|0:0|0:0|0:0|0:0|0:0|0:0|0:0,0:0:0:0:
288,224,151762,6,0,L|304:300,3,52.5,2|0|0|0,0:0|0:0|0:0|0:0,0:0:0:0:
168,264,152107,6,0,L|152:332,3,39.3750015020371,0|0|0|0,0:0|0:0|0:0|0:0,0:0:0:0:
67,174,152452,6,0,B|15:50|163:10|163:10|119:82|155:138,1,330.749989906311,2|0,0:0|0:0,0:0:0:0:
260,80,153141,2,0,B|360:148|384:348|192:348|208:200|280:216,1,367.5,8|0,0:2|0:0,0:0:0:0:
280,216,153831,6,0,B|488:172|488:172|340:144,1,314.999990386963,2|0,0:0|0:0,0:0:0:0:
239,176,154348,6,0,B|23:131|23:131|171:103,1,341.249984378815,2|0,0:0|0:0,0:0:0:0:
316,104,154866,6,0,B|388:216|264:260|356:364,1,275.62501051426,2|0,0:0|0:0,0:0:0:0:
428,280,155555,6,0,L|500:260,1,52.5,0|0,0:0|0:0,0:0:0:0:
240,264,155728,6,0,L|160:244,1,62.9999980773926,0|0,0:0|0:0,0:0:0:0:
387,152,155900,6,0,L|468:132,1,73.4999977569581,0|0,0:0|0:0,0:0:0:0:
218,130,156073,6,0,L|133:107,1,78.7500030040742,0|0,0:0|0:0,0:0:0:0:
106,215,156245,6,0,P|70:247|30:259,1,78.7500030040742,0|0,0:0|0:0,0:0:0:0:
32,136,156417,6,0,L|16:36,1,78.7500030040742,0|0,0:0|0:0,0:0:0:0:
218,130,156590,6,0,B|322:102|402:170|402:170|322:214|322:214|406:262|362:354,1,393.750015020371,2|0,0:0|0:0,0:0:0:0:
178,248,157107,2,0,P|130:328|242:276,1,314.999990386963,2|0,0:0|0:0,0:0:0:0:
192,308,157624,2,0,B|208:208|84:128|84:128|224:116|200:36|200:36|112:64|200:164,1,551.25002102852,2|0,0:0|0:0,0:0:0:0:
316,104,158314,6,0,P|356:80|396:76,1,68.2499968757631,0|0,0:0|0:0,0:0:0:0:
378,231,158486,2,0,P|382:279|370:311,1,68.2499968757631,0|0,0:0|0:0,0:0:0:0:
260,348,158659,2,0,B|184:328|124:360|124:360|168:308,1,204.749990627289,0|0,0:0|0:0,0:0:0:0:
196,228,159004,2,0,B|228:156|208:120|208:120|224:100|224:100|200:60|204:36,1,204.749990627289,0|0,0:0|0:0,0:0:0:0:
136,184,159348,6,0,P|164:296|264:192,1,314.999990386963,2|0,0:0|0:0,0:0:0:0:
184,176,159866,6,0,P|228:276|316:132,1,367.49998878479,2|0,0:0|0:0,0:0:0:0:
264,196,160383,6,0,P|424:264|256:136,1,708.750027036668,2|0,0:0|0:0,0:0:0:0:
184,176,161245,5,0,0:0:0:0:
147,231,161331,1,0,0:0:0:0:
82,240,161417,1,0,0:0:0:0:
33,195,161503,1,0,0:0:0:0:
35,129,161589,1,2,0:0:0:0:
86,88,161676,1,0,0:0:0:0:
167,81,161762,2,0,P|217:88|246:110,1,68.2499968757631,8|0,0:0|0:0,0:0:0:0:
264,196,161935,2,0,P|314:189|343:167,1,68.2499968757631,0|0,0:0|0:0,0:0:0:0:
399,100,162107,2,0,B|465:188|377:299|377:299|347:242,1,272.999987503052,2|8,0:0|0:0,0:0:0:0:
80,284,162624,5,0,0:0:0:0:
296,132,162797,1,0,0:0:0:0:
436,308,162969,1,2,0:0:0:0:
228,200,163141,6,0,P|200:132|216:84,1,118.125004506111,8|0,0:0|0:0,0:0:0:0:
356,224,163486,2,0,P|352:296|296:340,1,115.50000352478,0|0,0:0|0:0,0:0:0:0:
76,156,163831,5,8,0:0:0:0:
284,136,164004,1,0,0:0:0:0:
492,112,164176,1,2,0:0:0:0:
76,280,164348,5,0,0:0:0:0:
284,260,164521,1,8,0:0:0:0:
492,236,164693,1,0,0:0:0:0:
211,91,164866,6,0,P|143:71|76:92,1,118.125004506111,2|0,0:0|0:0,0:0:0:0:
196,284,165210,2,0,P|232:336|284:348,1,115.50000352478,8|0,0:0|0:0,0:0:0:0:
376,156,165555,5,2,0:0:0:0:
120,352,165728,1,0,0:0:0:0:
152,144,165900,6,0,B|152:108|136:84|136:84|152:56|152:56|136:8,1,118.125004506111,8|0,0:0|0:0,0:0:0:0:
356,224,166245,2,0,P|420:248|452:300,1,115.50000352478,2|0,0:0|0:0,0:0:0:0:
76,140,166590,5,8,0:0:0:0:
436,44,166762,1,0,0:0:0:0:
364,312,166935,1,2,0:0:0:0:
144,34,167107,1,0,0:0:0:0:
196,284,167279,6,0,P|165:335|100:352,1,118.125004506111,8|0,0:0|0:0,0:0:0:0:
376,156,167624,2,0,B|448:152|448:152|508:196,1,115.50000352478,2|0,0:0|0:0,0:0:0:0:
108,264,167969,5,8,0:0:0:0:
482,177,168141,1,0,0:0:0:0:
136,84,168314,1,2,0:0:0:0:
364,312,168486,6,0,B|424:380|424:380|356:376,1,136.499993751526,0|8,0:0|1:1,0:0:0:0:
44,268,168831,5,2,1:0:0:0:
264,252,169004,1,8,0:0:0:0:
480,228,169176,1,2,0:0:0:0:
32,188,169348,5,8,0:0:0:0:
252,172,169521,1,2,0:0:0:0:
468,148,169693,1,8,0:0:0:0:
24,112,169866,5,2,0:0:0:0:
244,96,170039,1,8,0:0:0:0:
460,72,170211,1,2,0:0:0:0:
300,344,170383,5,8,0:0:0:0:
136,84,170555,1,2,0:0:0:0:
24,356,170728,1,8,0:0:0:0:
256,48,170900,1,2,0:0:0:0:
176,352,171073,1,8,0:0:0:0:
376,156,171245,6,0,P|424:152|460:172,1,73.4999977569581,2|0,0:0|0:0,0:0:0:0:
364,312,171417,2,0,L|284:332,1,73.4999977569581,8|0,0:0|0:0,0:0:0:0:
228,208,171590,2,0,L|144:172,1,73.4999977569581,2|0,0:0|0:0,0:0:0:0:
105,290,171762,6,0,P|105:342|149:398,3,73.4999977569581,8|2|2|0,0:0|0:0|0:0|0:0,0:0:0:0:
221,312,172107,2,0,L|305:332,3,73.4999977569581,8|2|2|0,0:0|0:0|0:0|0:0,0:0:0:0:
360,232,172452,6,0,L|436:212,7,47.2499985580445,2|2|2|2|2|2|2|2,0:0|0:0|0:0|0:0|0:0|0:0|0:0|0:0,0:0:0:0:
272,132,172797,6,0,L|232:124,14,26.25,2|0|2|0|2|0|2|0|2|0|2|0|2|0|2,0:0|0:0|0:0|0:0|0:0|0:0|0:0|0:0|0:0|0:0|0:0|0:0|0:0|0:0|0:0,0:0:0:0:
262,145,173141,2,0,P|324:304|332:136,1,472.500018024445,2|0,0:0|0:0,0:0:0:0:
224,72,174004,6,0,L|204:24,1,39.3750015020371,2|0,0:0|0:0,0:0:0:0:
180,98,174090,2,0,L|134:59,1,44.6250008511543,0|0,0:0|0:0,0:0:0:0:
152,146,174176,2,0,L|106:129,1,42,8|0,0:3|0:0,3:3:0:0:
140,202,174262,2,0,L|100:202,1,39.3750015020371,8|0,0:3|0:0,0:0:0:0:
148,258,174348,2,0,L|102:274,1,36.749998878479,4|0,0:3|0:0,3:3:0:0:
172,306,174435,2,0,L|138:334,1,34.1249984378815,4|0,0:3|0:0,0:0:0:0:
216,335,174521,2,0,P|252:346|285:342,1,68.2499968757631,6|0,0:0|0:0,0:0:0:0:
258,239,174693,5,0,0:0:0:0:
258,239,174779,1,0,0:0:0:0:
258,239,174866,2,0,P|260:193|272:163,1,68.2499968757631,2|0,0:0|0:0,0:0:0:0:
445,110,175038,5,0,0:0:0:0:
445,110,175124,1,0,0:0:0:0:
445,110,175211,2,0,P|443:64|431:34,1,68.2499968757631,0|0,0:0|0:0,0:0:0:0:
300,80,175383,6,0,P|262:74|209:88,1,68.2499968757631,0|0,0:0|0:0,0:0:0:0:
32,188,175555,2,0,P|65:192|99:186,1,68.2499968757631,2|0,0:0|0:0,0:0:0:0:
267,172,175728,5,0,0:0:0:0:
323,207,175814,1,0,0:0:0:0:
343,271,175900,1,0,0:0:0:0:
316,332,175986,1,0,0:0:0:0:
257,362,176072,1,0,0:0:0:0:
192,346,176159,1,0,0:0:0:0:
153,291,176245,1,2,0:0:0:0:
159,225,176331,1,0,0:0:0:0:
213,183,176417,6,0,P|243:170|289:171,1,68.2499968757631,0|0,0:0|0:0,0:0:0:0:
429,297,176590,2,0,P|399:310|353:309,1,68.2499968757631,2|0,0:0|0:0,0:0:0:0:
44,253,176762,5,0,0:0:0:0:
44,253,176848,1,0,0:0:0:0:
44,253,176935,2,0,P|30:211|34:176,1,68.2499968757631,2|0,0:0|0:0,0:0:0:0:
220,143,177107,5,0,0:0:0:0:
220,143,177193,1,0,0:0:0:0:
220,143,177280,2,0,P|234:101|230:66,1,68.2499968757631,2|0,0:0|0:0,0:0:0:0:
141,91,177452,5,0,0:0:0:0:
111,157,177538,1,0,0:0:0:0:
123,228,177624,1,2,0:0:0:0:
172,281,177710,1,0,0:0:0:0:
243,298,177796,1,0,0:0:0:0:
311,274,177883,1,0,0:0:0:0:
354,216,177969,1,0,0:0:0:0:
358,143,178055,1,0,0:0:0:0:
323,79,178141,6,0,P|294:53|248:39,1,73.4999977569581,0|0,0:0|0:0,0:0:0:0:
302,273,178314,2,0,P|328:297|362:311,1,73.4999977569581,2|0,0:0|0:0,0:0:0:0:
177,184,178486,5,0,0:0:0:0:
177,184,178573,1,0,0:0:0:0:
177,184,178659,2,0,P|126:191|94:214,1,73.4999977569581,0|0,0:0|0:0,0:0:0:0:
401,196,178831,5,0,0:0:0:0:
401,196,178918,1,0,0:0:0:0:
401,196,179004,2,0,P|452:189|484:166,1,73.4999977569581,2|0,0:0|0:0,0:0:0:0:
232,77,179176,5,0,0:0:0:0:
232,77,179263,1,0,0:0:0:0:
232,77,179349,2,0,P|188:49|149:46,1,73.4999977569581,2|0,0:0|0:0,0:0:0:0:
163,261,179521,6,0,P|154:300|121:345,1,73.4999977569581,0|0,0:0|0:0,0:0:0:0:
31,187,179693,2,0,L|20:134,5,36.749998878479,2|0|0|0|0|0,0:0|0:0|0:0|0:0|0:0|0:0,0:0:0:0:
105,83,179952,5,0,0:0:0:0:
167,45,180038,1,2,0:0:0:0:
240,37,180124,1,0,0:0:0:0:
309,60,180210,1,0,0:0:0:0:
363,109,180296,1,0,0:0:0:0:
393,175,180383,1,2,0:0:0:0:
392,248,180469,1,0,0:0:0:0:
351,309,180555,6,0,P|315:338|244:344,1,73.4999977569581,0|0,0:0|0:0,0:0:0:0:
167,343,180728,2,0,P|133:330|106:306,1,73.4999977569581,0|0,0:0|0:0,0:0:0:0:
195,227,180900,5,0,0:0:0:0:
195,227,180986,1,0,0:0:0:0:
195,227,181073,2,0,P|218:184|215:150,1,73.4999977569581,2|0,0:0|0:0,0:0:0:0:
57,111,181245,5,0,0:0:0:0:
57,111,181331,1,0,0:0:0:0:
57,111,181418,2,0,P|34:68|37:34,1,73.4999977569581,0|0,0:0|0:0,0:0:0:0:
323,79,181590,5,0,0:0:0:0:
323,79,181676,1,0,0:0:0:0:
323,79,181763,2,0,P|366:55|400:58,1,73.4999977569581,2|0,0:0|0:0,0:0:0:0:
389,181,181935,5,0,0:0:0:0:
354,244,182021,1,0,0:0:0:0:
287,271,182107,1,2,0:0:0:0:
218,249,182193,1,0,0:0:0:0:
179,189,182279,1,0,0:0:0:0:
227,133,182366,1,0,0:0:0:0:
254,197,182452,1,2,0:0:0:0:
216,256,182538,1,0,0:0:0:0:
143,262,182624,6,0,P|103:253|74:230,1,73.4999977569581,0|0,0:0|0:0,0:0:0:0:
166,77,182797,2,0,P|195:55|231:48,1,73.4999977569581,2|0,0:0|0:0,0:0:0:0:
389,181,182969,2,0,P|424:188|454:209,1,73.4999977569581,0|0,0:0|0:0,0:0:0:0:
332,290,183141,2,0,B|281:309|239:272|239:272|194:294|194:294|173:260|173:260|99:263,1,220.499993270874,2|0,0:0|0:0,0:0:0:0:
239,120,183486,6,0,P|240:74|217:29,1,73.4999977569581,2|0,0:0|0:0,0:0:0:0:
61,214,183659,2,0,P|50:248|52:285,1,73.4999977569581,0|0,0:0|0:0,0:0:0:0:
332,290,183831,2,0,L|395:273,7,36.749998878479,2|0|0|0|0|0|0|0,0:0|0:0|0:0|0:0|0:0|0:0|0:0|0:0,0:0:0:0:
166,77,184176,6,0,L|94:60,1,73.4999977569581,0|0,0:0|0:0,0:0:0:0:
379,132,184348,2,0,L|450:115,1,73.4999977569581,0|0,0:0|0:0,0:0:0:0:
183,235,184521,6,0,P|172:323|235:256,1,220.499993270874,2|2,0:0|0:0,0:0:0:0:
311,149,184866,2,0,P|349:129|388:135,1,73.4999977569581,2|0,0:0|0:0,0:0:0:0:
373,269,185038,2,0,P|298:298|218:240,1,146.999995513916,0|0,0:0|0:0,0:0:0:0:
233,111,185383,5,0,0:0:0:0:
233,111,185469,1,0,0:0:0:0:
233,111,185555,2,0,P|195:81|150:79,1,78.7500030040742,6|0,0:0|0:0,0:0:0:0:
61,214,185728,5,0,0:0:0:0:
61,214,185814,1,0,0:0:0:0:
61,214,185900,2,0,P|99:184|144:182,1,78.7500030040742,8|0,0:0|0:0,0:0:0:0:
196,280,186073,6,0,P|239:301|284:300,1,78.7500030040742,0|0,0:0|0:0,0:0:0:0:
373,269,186245,2,0,P|416:248|461:249,1,78.7500030040742,0|0,0:0|0:0,0:0:0:0:
436,342,186417,5,0,0:0:0:0:
362,362,186503,1,0,0:0:0:0:
298,321,186589,1,8,0:0:0:0:
285,246,186675,1,0,0:0:0:0:
334,187,186761,1,0,0:0:0:0:
413,188,186848,1,0,0:0:0:0:
436,115,186934,1,0,0:0:0:0:
394,52,187020,1,0,0:0:0:0:
317,28,187107,6,0,P|279:16|240:17,1,78.7500030040742,0|0,0:0|0:0,0:0:0:0:
204,169,187279,2,0,P|166:180|127:179,1,78.7500030040742,8|0,0:0|0:0,0:0:0:0:
351,196,187452,5,0,0:0:0:0:
351,196,187538,1,0,0:0:0:0:
351,196,187624,2,0,P|373:243|370:279,1,78.7500030040742,2|0,0:0|0:0,0:0:0:0:
142,261,187797,5,0,0:0:0:0:
142,261,187883,1,0,0:0:0:0:
142,261,187969,2,0,P|120:308|123:344,1,78.7500030040742,8|0,0:0|0:0,0:0:0:0:
152,100,188141,6,0,P|119:77|81:70,1,78.7500030040742,0|0,0:0|0:0,0:0:0:0:
225,281,188314,2,0,P|263:273|295:251,1,78.7500030040742,2|0,0:0|0:0,0:0:0:0:
228,176,188486,5,0,0:0:0:0:
274,114,188572,1,0,0:0:0:0:
349,98,188658,1,8,0:0:0:0:
416,136,188744,1,0,0:0:0:0:
459,203,188831,1,0,0:0:0:0:
383,205,188917,1,0,0:0:0:0:
340,142,189003,1,0,0:0:0:0:
370,73,189089,1,0,0:0:0:0:
449,61,189176,6,0,P|493:92|502:119,1,78.7500030040742,0|0,0:0|0:0,0:0:0:0:
501,270,189348,2,0,P|483:304|449:323,1,78.7500030040742,8|0,0:0|0:0,0:0:0:0:
264,117,189521,5,0,0:0:0:0:
264,117,189607,1,0,0:0:0:0:
264,117,189693,2,0,P|218:91|206:49,1,78.7500030040742,0|0,0:0|0:0,0:0:0:0:
372,268,189866,5,0,0:0:0:0:
372,268,189952,1,0,0:0:0:0:
372,268,190038,2,0,P|338:308|294:313,1,78.7500030040742,8|0,0:0|0:0,0:0:0:0:
127,179,190210,6,0,P|80:170|33:187,1,78.7500030040742,0|0,0:0|0:0,0:0:0:0:
238,313,190383,6,0,P|285:322|332:305,1,78.7500030040742,2|0,0:0|0:0,0:0:0:0:
391,111,190555,6,0,P|414:79|448:60,1,78.7500030040742,2|0,0:0|0:0,0:0:0:0:
500,230,190728,2,0,L|501:297,5,39.3750015020371,8|0|0|0|0|0,0:0|0:0|0:0|0:0|0:0|0:0,0:0:0:0:
436,343,190986,5,0,0:0:0:0:
369,330,191072,1,8,0:0:0:0:
322,282,191158,1,0,0:0:0:0:
310,216,191244,1,2,0:0:0:0:
338,155,191330,1,0,0:0:0:0:
325,87,191417,1,8,0:0:0:0:
271,47,191503,1,0,0:0:0:0:
203,34,191590,2,0,P|168:34|122:50,1,68.2499968757631,2|0,0:0|0:0,0:0:0:0:
180,144,191762,5,8,0:0:0:0:
175,211,191848,1,0,0:0:0:0:
208,269,191934,1,2,0:0:0:0:
268,299,192020,1,0,0:0:0:0:
335,291,192106,1,8,0:0:0:0:
386,247,192193,1,0,0:0:0:0:
400,174,192279,2,0,P|400:136|391:103,1,68.2499968757631,2|0,0:0|0:0,0:0:0:0:
302,152,192452,5,8,0:0:0:0:
236,136,192538,1,0,0:0:0:0:
174,162,192624,1,2,0:0:0:0:
110,185,192710,1,0,0:0:0:0:
48,164,192796,1,8,0:0:0:0:
34,100,192882,1,0,0:0:0:0:
72,43,192969,2,0,P|111:22|161:14,1,68.2499968757631,2|0,0:0|0:0,0:0:0:0:
257,222,193141,6,0,B|312:290|274:358|274:358|224:295,1,204.749990627289,8|0,0:0|0:0,0:0:0:0:
162,197,193486,2,0,B|190:123|274:123|274:123|231:112|201:87,1,204.749990627289,8|0,0:0|0:0,0:0:0:0:
358,58,193831,6,0,L|447:68,1,68.2499968757631,8|0,0:0|0:0,0:0:0:0:
154,58,194004,6,0,L|65:68,1,68.2499968757631,8|0,0:0|0:0,0:0:0:0:
350,197,194176,6,0,L|417:204,1,68.2499968757631,8|0,0:0|0:0,0:0:0:0:
162,197,194348,6,0,L|94:204,1,68.2499968757631,8|0,0:0|0:0,0:0:0:0:
444,321,194521,6,0,L|511:328,1,68.2499968757631,8|0,0:0|0:0,0:0:0:0:
68,321,194693,6,0,L|0:328,1,68.2499968757631,8|0,0:0|0:0,0:0:0:0:
283,198,194866,6,0,P|329:191|371:210,1,68.2499968757631,8|0,0:0|0:0,0:0:0:0:
237,312,195038,6,0,P|191:319|149:300,1,68.2499968757631,8|0,0:0|0:0,0:0:0:0:
197,230,195210,5,2,0:0:0:0:
176,176,195296,1,2,0:0:0:0:
183,119,195382,1,2,0:0:0:0:
215,72,195468,1,2,0:0:0:0:
265,44,195554,1,2,0:0:0:0:
322,42,195641,1,2,0:0:0:0:
374,67,195727,1,2,0:0:0:0:
408,112,195813,1,2,0:0:0:0:
416,164,195900,2,0,L|420:224,7,34.1249984378815,2|0|0|0|0|0|0|0,0:1|0:0|0:0|0:0|0:1|0:0|0:0|0:0,0:0:0:0:
344,184,196245,6,0,B|320:152|268:156|268:156|256:132|256:132|188:120,1,146.999995513916,8|2,0:1|0:1,0:0:0:0:
160,317,196590,6,0,L|84:329,1,62.9999980773926,6|0,0:0|0:0,0:0:0:0:
120,176,196762,2,0,B|172:128|172:128|236:128,1,125.999996154785,0|8,0:0|0:0,0:0:0:0:
288,244,197021,1,0,0:0:0:0:
332,336,197107,2,0,P|416:356|484:312,1,136.499993751526,0|2,0:0|0:0,0:0:0:0:
416,164,197452,6,0,P|416:124|400:88,1,73.4999977569581,0|0,0:0|0:0,0:0:0:0:
120,111,197624,2,0,P|104:43|144:99,1,157.500006008148,8|0,0:0|0:0,0:0:0:0:
317,271,197969,6,0,P|333:307|325:351,1,68.2499968757631,2|0,0:0|0:0,0:0:0:0:
160,317,198141,2,0,B|120:313|120:313|108:285|108:285|68:301|44:261,1,146.999995513916,0|8,0:0|0:0,0:0:0:0:
317,271,198486,6,0,P|337:235|341:199,1,68.2499968757631,0|0,0:0|0:0,0:0:0:0:
220,128,198659,2,0,B|156:-8|276:24|236:64,1,157.500006008148,2|0,0:0|0:0,0:0:0:0:
235,301,199004,6,0,P|191:317|144:313,1,78.7500030040742,8|0,0:0|0:0,0:0:0:0:
158,176,199176,2,0,P|142:132|106:104,1,78.7500030040742,0|0,0:0|0:0,0:0:0:0:
92,248,199348,2,0,B|164:296|228:244|228:244|272:280|272:280|356:268,1,236.250009012223,2|0,0:0|0:0,0:0:0:0:
320,76,199693,6,0,P|332:40|364:20,1,68.2499968757631,8|0,0:0|0:0,0:0:0:0:
416,164,199866,2,0,P|404:200|372:220,1,68.2499968757631,0|0,0:0|0:0,0:0:0:0:
224,191,200038,2,0,L|140:171,1,68.2499968757631,2|0,0:0|0:0,0:0:0:0:
56,328,200210,2,0,L|140:308,1,68.2499968757631,0|0,0:0|0:0,0:0:0:0:
303,275,200383,2,0,P|343:263|387:267,1,68.2499968757631,8|0,0:0|0:0,0:0:0:0:
188,323,200555,2,0,P|154:322|121:311,1,68.2499968757631,0|0,0:0|0:0,0:0:0:0:
194,95,200728,6,0,P|162:19|162:119,1,236.250009012223,2|0,0:0|0:0,0:0:0:0:
157,175,201073,5,8,0:0:0:0:
188,234,201159,1,0,0:0:0:0:
247,266,201245,1,0,0:0:0:0:
314,259,201331,1,0,0:0:0:0:
366,216,201417,1,2,0:0:0:0:
384,151,201504,1,0,0:0:0:0:
372,84,201590,1,0,0:0:0:0:
323,38,201676,1,0,0:0:0:0:
256,24,201762,2,0,B|156:8|156:234|-14:19|158:-17|180:92,1,236.250009012223,8|0,0:0|0:0,0:0:0:0:
252,120,202107,6,0,P|276:156|284:228,1,78.7500030040742,2|0,0:0|0:0,0:0:0:0:
152,208,202279,2,0,P|116:296|144:380,1,157.500006008148,0|8,0:0|0:0,0:0:0:0:
285,189,202538,1,0,0:0:0:0:
369,263,202624,2,0,B|457:247|457:247|509:183,1,157.500006008148,0|2,0:0|0:0,0:0:0:0:
133,39,202969,6,0,P|89:35|41:55,1,78.7500030040742,0|0,0:0|0:0,0:0:0:0:
213,288,203141,2,0,L|429:253,1,157.500006008148,8|0,0:0|0:0,0:0:0:0:
252,120,203486,6,0,P|264:72|300:40,1,78.7500030040742,2|0,0:0|0:0,0:0:0:0:
213,288,203659,2,0,P|128:344|40:336,1,157.500006008148,0|8,0:0|0:0,0:0:0:0:
372,132,204004,6,0,B|416:128|416:128|496:156,1,78.7500030040742,0|0,0:0|0:0,0:0:0:0:
368,262,204176,2,0,P|400:342|392:258,1,210,2|0,0:0|0:0,0:0:0:0:
172,148,204521,6,0,P|124:140|92:104,1,78.7500030040742,8|0,0:0|0:0,0:0:0:0:
282,50,204693,2,0,P|313:26|352:23,1,78.7500030040742,0|0,0:0|0:0,0:0:0:0:
368,262,204866,6,0,B|408:358|320:398|320:398|300:302,1,236.250009012223,2|0,0:0|0:0,0:0:0:0:
213,288,205210,6,0,L|133:272,7,47.2499985580445,8|0|0|0|0|0|0|0,0:0|0:0|0:0|0:0|0:0|0:0|0:0|0:0,0:0:0:0:
295,127,205555,2,0,L|280:43,1,78.7500030040742,2|0,0:0|0:0,0:0:0:0:
102,121,205728,2,0,B|47:138|42:177|42:177|86:171|100:121,1,157.500006008148,0|8,0:0|0:0,0:0:0:0:
201,167,205986,1,0,0:0:0:0:
295,127,206073,2,0,P|383:107|468:158,2,157.500006008148,0|2|0,0:0|0:0|0:0,0:0:0:0:
231,267,206590,6,0,B|179:268|157:221|157:221|99:226|99:226|90:187|90:187|6:161,1,236.250009012223,8|0,0:0|0:0,0:0:0:0:
442,131,206935,2,0,P|467:86|460:43,1,78.7500030040742,2|0,0:0|0:0,0:0:0:0:
229,189,207107,2,0,P|207:294|248:355,1,157.500006008148,0|0,0:0|0:0,0:0:0:0:
368,262,207452,6,0,P|421:260|462:278,1,73.4999977569581,2|0,0:0|0:0,0:0:0:0:
227,334,207624,2,0,P|190:338|154:330,1,73.4999977569581,2|0,0:0|0:0,0:0:0:0:
229,189,207797,2,0,P|253:115|227:43,1,157.500006008148,2|8,0:0|0:3,0:0:0:0:
168,69,208055,1,8,0:3:0:0:
125,112,208141,2,0,L|422:154,1,210,4|6,0:3|0:0,0:0:0:0:
488,161,208486,6,0,L|321:140,1,157.500006008148,0|8,0:0|0:0,0:0:0:0:
154,330,208831,2,0,P|108:344|60:333,1,78.7500030040742,0|0,0:0|0:0,0:0:0:0:
99,223,209004,2,0,B|111:161|47:134|47:134|88:82,1,157.500006008148,2|0,0:0|0:0,0:0:0:0:
314,63,209348,6,0,P|353:60|389:73,1,78.7500030040742,8|0,0:0|0:0,0:0:0:0:
337,188,209521,2,0,P|333:277|393:358,1,157.500006008148,0|2,0:0|0:0,0:0:0:0:
141,57,209866,2,0,B|37:90|37:90|93:104,2,146.999995513916,0|8|0,0:0|0:0|0:0,0:0:0:0:
136,297,210383,6,0,B|208:331|260:289|260:289|312:314|312:314|368:285,1,236.250009012223,2|0,0:0|0:0,0:0:0:0:
286,133,210728,6,0,P|295:86|326:54,1,78.7500030040742,8|0,0:0|0:0,0:0:0:0:
445,290,210900,2,0,P|436:337|405:369,1,78.7500030040742,0|0,0:0|0:0,0:0:0:0:
195,209,211073,2,0,P|163:172|120:160,1,78.7500030040742,2|0,0:0|0:0,0:0:0:0:
389,73,211245,2,0,P|424:56|448:25,1,78.7500030040742,0|0,0:0|0:0,0:0:0:0:
136,297,211417,2,0,P|141:335|163:367,1,78.7500030040742,8|0,0:0|0:0,0:0:0:0:
353,292,211590,2,0,P|375:260|380:221,1,78.7500030040742,0|0,0:0|0:0,0:0:0:0:
135,162,211762,2,0,P|59:169|134:215,1,204.749990627289,2|0,0:0|0:0,0:0:0:0:
195,234,212107,5,8,0:0:0:0:
266,241,212193,1,0,0:0:0:0:
327,203,212279,1,0,0:0:0:0:
351,135,212365,1,0,0:0:0:0:
327,67,212451,1,2,0:0:0:0:
265,29,212538,1,0,0:0:0:0:
195,51,212624,1,0,0:0:0:0:
158,111,212710,1,0,0:0:0:0:
209,169,212797,2,0,B|252:209|225:262|225:262|189:335|327:360|309:251|268:256,1,220.499993270874,8|0,0:0|0:0,0:0:0:0:
380,221,213141,6,0,P|412:186|459:172,1,78.7500030040742,12|0,0:0|0:0,0:0:0:0:
441,314,213314,2,0,B|367:330|367:330|273:297,1,157.500006008148,2|2,0:0|0:0,0:0:0:0:
262,232,213573,1,0,0:0:0:0:
209,169,213659,2,0,P|127:177|70:238,1,157.500006008148,8|2,0:0|0:0,0:0:0:0:
180,290,214004,6,0,P|177:333|158:368,1,78.7500030040742,2|0,0:0|0:0,0:0:0:0:
75,227,214176,2,0,L|55:67,1,157.500006008148,8|2,0:0|0:0,0:0:0:0:
178,71,214435,1,0,0:0:0:0:
286,133,214521,2,0,P|367:151|458:88,1,157.500006008148,12|2,0:0|0:0,0:0:0:0:
352,44,214866,6,0,P|324:16|283:5,1,78.7500030040742,2|0,0:0|0:0,0:0:0:0:
178,71,215038,2,0,P|97:89|6:26,1,157.500006008148,8|2,0:0|0:0,0:0:0:0:
286,133,215383,6,0,P|308:173|309:216,1,78.7500030040742,2|0,0:0|0:0,0:0:0:0:
103,309,215555,2,0,P|81:349|80:392,1,78.7500030040742,8|2,0:0|0:0,0:0:0:0:
282,317,215728,2,0,P|333:319|369:298,1,78.7500030040742,2|2,0:0|0:0,0:0:0:0:
158,225,215900,5,12,0:0:0:0:
158,225,215986,1,0,0:0:0:0:
158,225,216072,2,0,P|130:174|136:132,1,78.7500030040742,2|2,0:0|0:0,0:0:0:0:
331,111,216244,5,8,0:0:0:0:
331,111,216330,1,0,0:0:0:0:
331,111,216416,2,0,P|357:60|345:10,1,73.4999977569581,2|2,0:0|0:0,0:0:0:0:
117,64,216589,5,8,0:0:0:0:
117,64,216675,1,0,0:0:0:0:
117,64,216761,2,0,P|74:81|52:117,1,73.4999977569581,2|2,0:0|0:0,0:0:0:0:
311,226,216934,5,8,0:0:0:0:
311,226,217020,1,0,0:0:0:0:
311,226,217107,2,0,P|353:208|375:172,1,73.4999977569581,2|2,0:0|0:0,0:0:0:0:
269,58,217279,6,0,P|241:30|180:21,1,73.4999977569581,8|2,0:0|0:0,0:0:0:0:
137,157,217451,2,0,P|109:185|48:194,1,73.4999977569581,2|2,0:0|0:0,0:0:0:0:
369,187,217624,2,0,P|412:193|441:215,1,73.4999977569581,8|2,0:0|0:0,0:0:0:0:
170,331,217796,2,0,P|127:325|98:303,1,73.4999977569581,2|2,0:0|0:0,0:0:0:0:
269,58,217968,2,0,P|297:30|358:21,1,73.4999977569581,8|2,0:0|0:0,0:0:0:0:
377,278,218141,2,0,P|366:318|331:352,1,73.4999977569581,2|2,0:0|0:0,0:0:0:0:
268,258,218314,2,0,B|261:251|261:251|229:248|229:248|217:216|217:216|183:214|155:173,1,146.999995513916,0|0,0:0|0:0,0:0:0:0:
198,99,218659,6,0,P|115:97|72:145,1,115.50000352478,6|0,0:3|0:0,0:0:0:0:
154,275,219004,2,0,L|176:354,1,57.7500017623902,8|0,0:0|0:0,0:0:0:0:
252,202,219176,2,0,L|267:257,1,57.7500017623902,0|0,0:0|0:0,0:0:0:0:
353,131,219348,2,0,L|375:210,1,57.7500017623902,0|0,0:0|0:0,0:0:0:0:
399,297,219521,2,0,L|362:165,1,115.50000352478,2|8,0:0|0:0,0:0:0:0:
180,174,219866,6,0,P|124:158|87:89,1,115.50000352478,0|0,0:0|0:0,0:0:0:0:
328,19,220210,2,0,B|396:21|396:21|437:43,1,115.50000352478,2|8,0:0|0:0,0:0:0:0:
233,140,220555,5,0,0:0:0:0:
215,194,220641,1,0,0:0:0:0:
224,251,220727,1,0,0:0:0:0:
256,298,220813,1,0,0:0:0:0:
306,326,220899,1,2,0:0:0:0:
353,131,221073,5,8,0:0:0:0:
169,330,221245,2,0,L|53:312,1,115.50000352478,0|2,0:0|0:0,0:0:0:0:
377,278,221590,2,0,P|445:265|514:299,1,115.50000352478,2|8,0:0|0:0,0:0:0:0:
252,202,221935,5,0,0:0:0:0:
208,165,222021,1,0,0:0:0:0:
152,149,222107,1,0,0:0:0:0:
96,156,222193,1,0,0:0:0:0:
47,186,222279,1,2,0:0:0:0:
377,278,222452,5,8,0:0:0:0:
95,117,222624,2,0,L|102:-19,1,115.50000352478,0|0,0:0|0:0,0:0:0:0:
426,226,222969,2,0,L|431:341,1,115.50000352478,2|8,0:0|0:0,0:0:0:0:
268,258,223314,5,0,0:0:0:0:
219,227,223400,1,0,0:0:0:0:
189,178,223486,1,0,0:0:0:0:
183,121,223572,1,0,0:0:0:0:
202,67,223658,1,2,0:0:0:0:
431,337,223831,5,8,0:0:0:0:
158,225,224004,2,0,B|93:221|93:221|37:255,1,115.50000352478,2|2,0:0|0:0,0:0:0:0:
332,203,224348,2,0,P|344:120|322:70,1,115.50000352478,0|8,0:0|0:0,0:0:0:0:
95,117,224693,5,0,0:0:0:0:
81,172,224779,1,0,0:0:0:0:
90,229,224865,1,0,0:0:0:0:
121,277,224951,1,0,0:0:0:0:
168,310,225037,1,2,0:0:0:0:
202,67,225210,5,8,0:0:0:0:
49,247,225383,2,0,L|17:385,1,115.50000352478,0|0,0:0|0:0,0:0:0:0:
316,237,225728,2,0,P|375:216|466:256,1,115.50000352478,2|8,0:0|0:0,0:0:0:0:
379,320,226073,5,0,0:0:0:0:
328,347,226159,1,0,0:0:0:0:
271,358,226245,1,0,0:0:0:0:
214,351,226331,1,0,0:0:0:0:
162,327,226417,1,2,0:0:0:0:
368,186,226590,5,8,0:0:0:0:
183,121,226762,2,0,P|171:38|193:-12,1,115.50000352478,0|2,0:0|0:0,0:0:0:0:
161,244,227107,2,0,B|101:258|101:258|22:241,1,115.50000352478,0|8,0:0|0:0,0:0:0:0:
311,65,227452,5,0,0:0:0:0:
367,73,227538,1,0,0:0:0:0:
415,105,227624,1,0,0:0:0:0:
445,154,227710,1,0,0:0:0:0:
452,211,227796,1,2,0:0:0:0:
95,117,227969,5,8,0:0:0:0:
301,172,228141,5,0,0:0:0:0:
301,172,228228,1,0,0:0:0:0:
301,172,228314,2,0,P|317:215|313:248,1,68.2499968757631,0|0,0:0|0:0,0:0:0:0:
161,244,228486,5,2,0:0:0:0:
161,244,228573,1,0,0:0:0:0:
161,244,228659,2,0,P|145:287|149:320,1,68.2499968757631,8|0,0:0|0:0,0:0:0:0:
423,108,228831,5,0,0:0:0:0:
423,108,228918,1,0,0:0:0:0:
423,108,229004,2,0,P|439:65|435:32,1,68.2499968757631,0|0,0:0|0:0,0:0:0:0:
247,15,229176,6,0,P|200:6|148:22,1,68.2499968757631,2|2,0:0|0:0,0:0:0:0:
67,123,229348,2,0,P|134:136|209:91,1,136.499993751526,8|2,0:0|0:0,0:0:0:0:
296,93,229693,6,0,P|363:80|438:125,1,136.499993751526,2|0,0:0|0:0,0:0:0:0:
315,236,230038,2,0,P|321:279|340:306,1,68.2499968757631,8|0,0:0|0:0,0:0:0:0:
473,160,230210,2,0,P|489:130|491:96,1,68.2499968757631,0|0,0:0|0:0,0:0:0:0:
296,93,230383,2,0,P|234:65|169:78,1,136.499993751526,0|2,0:0|0:0,0:0:0:0:
161,244,230728,2,0,B|127:314|127:314|63:353,1,136.499993751526,8|0,0:0|0:0,0:0:0:0:
281,179,231073,6,0,L|361:159,1,68.2499968757631,0|0,0:0|0:0,0:0:0:0:
385,248,231245,2,0,P|427:309|533:320,1,136.499993751526,2|8,0:0|0:0,0:0:0:0:
227,147,231590,5,0,0:0:0:0:
169,145,231676,1,0,0:0:0:0:
115,165,231762,1,0,0:0:0:0:
73,204,231848,1,0,0:0:0:0:
50,256,231934,1,2,0:0:0:0:
385,248,232107,5,8,0:0:0:0:
227,147,232279,2,0,P|214:94|233:11,1,115.50000352478,0|2,0:0|0:0,0:0:0:0:
387,160,232624,2,0,P|465:216|463:275,1,115.50000352478,2|8,0:0|0:0,0:0:0:0:
324,336,232969,5,0,0:0:0:0:
272,341,233055,1,0,0:0:0:0:
222,325,233141,1,0,0:0:0:0:
183,291,233227,1,0,0:0:0:0:
161,244,233313,1,2,0:0:0:0:
387,160,233486,5,8,0:0:0:0:
169,78,233659,2,0,L|49:85,1,105,0|0,0:0|0:0,0:0:0:0:
280,241,234004,2,0,L|400:248,1,105,2|8,0:0|0:0,0:0:0:0:
379,92,234348,5,0,0:0:0:0:
383,42,234434,1,0,0:0:0:0:
341,15,234520,1,0,0:0:0:0:
298,41,234606,1,0,0:0:0:0:
302,91,234692,1,2,0:0:0:0:
384,247,234866,5,8,0:0:0:0:
161,244,235038,2,0,P|122:193|124:132,1,105,0|2,0:0|0:0,0:0:0:0:
384,247,235383,2,0,P|375:298|341:337,1,105,0|8,0:0|0:0,0:0:0:0:
379,92,236073,6,0,L|506:74,1,105,2|8,0:0|0:0,0:0:0:0:
273,108,236417,2,0,L|169:122,1,105,0|0,0:0|0:0,0:0:0:0:
379,91,236762,1,2,0:0:0:0:
479,78,236935,1,8,0:0:0:0:
296,248,237452,6,0,P|315:314|367:347,1,105,2|8,0:0|0:0,0:0:0:0:
423,179,237797,2,0,P|413:128|378:90,1,105,0|2,0:0|0:0,0:0:0:0:
296,248,238141,1,2,0:0:0:0:
338,338,238314,1,8,0:0:0:0:
123,222,238831,6,2,P|67:261|42:331,1,105,2|8,0:0|0:0,0:0:0:0:
220,226,239521,6,0,P|269:211|321:219,1,105,2|2,0:0|0:0,0:0:0:0:
431,337,239866,6,0,B|449:292|426:261|426:261|463:237|463:237|434:195|434:195|420:145|507:131|509:35|481:-9|367:-5|340:93|420:131,1,503.999984619141,2|2,0:0|0:0,0:0:0:0:
321,219,240728,5,8,0:0:0:0:
195,237,240900,1,0,0:0:0:0:
69,249,241073,1,0,0:0:0:0:
195,237,241245,1,0,0:0:0:0:
316,218,241417,1,0,0:0:0:0:
126,69,241762,5,0,0:0:0:0:
276,81,241934,1,0,0:0:0:0:
427,84,242107,1,0,0:0:0:0:
276,81,242279,1,0,0:0:0:0:
131,308,242624,5,0,0:0:0:0:
282,321,242797,1,0,0:0:0:0:
431,337,242969,1,0,0:0:0:0:
282,321,243141,1,0,0:0:0:0:
131,308,243486,6,0,B|95:276|29:286|29:286|14:224|85:148|123:159|148:188|148:188|130:214|95:219|59:222|31:129|38:84|38:84|114:111|149:75|149:75,1,630.000024032594,2|2,0:0|0:0,0:0:0:0:
148,76,245383,5,0,0:0:0:0:
152,75,245900,1,0,0:0:0:0:
160,80,246245,6,0,B|224:112|176:192|176:192|256:144|304:192|400:272|288:288|288:288|240:224|304:192|384:176|448:240|448:240|416:176|336:80|448:0|528:96|464:160,1,955.499956260683,2|0,0:0|0:0,0:0:0:0:
157,317,249004,5,2,0:0:0:0:
157,317,250038,1,0,0:0:0:0:
176,320,250383,6,0,B|208:304|232:327|232:327|299:269|256:231|256:231|215:269|275:329|275:329|288:336,1,272.999987503052,2|2,0:0|0:0,0:0:0:0:
263,316,251762,6,0,B|240:278|176:342|176:342|144:278|192:214|304:198|332:263|332:263|354:288|475:206|400:182|352:86|288:134|288:134|336:198|416:86|382:56|382:56|288:22|237:59|208:112|208:112|173:61|128:49|71:74|65:160|132:187|171:157,1,1260.00004806519,2|2,0:0|0:0,0:0:0:0:
169,158,255900,5,2,0:0:0:0:
168,157,256590,70,0,B|105:103|75:172|56:181|56:181|66:200|49:273|178:267|178:267|75:337|131:387|133:408|133:408|156:404|219:443|255:322|255:322|289:445|352:408|375:412|375:412|377:391|433:340|326:269|326:269|455:275|440:200|450:181|450:181|431:172|401:103|300:183|300:183|345:63|270:56|255:41|255:41|240:56|169:64|211:189,1,1653.75006308556,0|0,0:0|0:0,0:0:0:0:
162,158,257279,6,0,B|174:217|140:272|79:244|79:244|112:176|205:212|221:275|199:330|199:330|256:284|411:306|338:377|338:377|257:344|348:266|424:255|424:255|470:239|508:180|463:44|310:131|389:221,1,1091.99995001221,2|2,0:0|0:0,0:0:0:0:
256,192,260210,12,0,266304,0:0:0:0:
