osu file format v14

[General]
AudioFilename: audio.mp3
AudioLeadIn: 0
PreviewTime: 74869
Countdown: 0
SampleSet: Soft
StackLeniency: 0.3
Mode: 0
LetterboxInBreaks: 0
EpilepsyWarning: 1
WidescreenStoryboard: 1

[Editor]
Bookmarks: 9006,31075,53144,75213,86248,108317,130386,152455,174524,196593,218662,240731
DistanceSpacing: 2
BeatDivisor: 4
GridSize: 4
TimelineZoom: 3.499999

[Metadata]
Title:crystallized
TitleUnicode:crystallized
Artist:Camellia
ArtistUnicode:Camellia
Creator:-ckopoctb-
Version:Girl's C11H15NO2
Source:
Tags:dnb chillout dubstep mlg sourpls relax slider Emilia Adore Livstvichka wajinshu
BeatmapID:1263210
BeatmapSetID:539221

[Difficulty]
HPDrainRate:4.3
CircleSize:4
OverallDifficulty:8.8
ApproachRate:9.6
SliderMultiplier:2.4
SliderTickRate:1

[Events]
//Background and Video events
0,0,"thumb-1920-712346.jpg",0,0
//Break Periods
2,130586,140911
2,240931,242632
//Storyboard Layer 0 (Background)
//Storyboard Layer 1 (Fail)
//Storyboard Layer 2 (Pass)
//Storyboard Layer 3 (Foreground)
//Storyboard Sound Samples

[TimingPoints]
9007,344.827586206897,4,2,1,30,1,0
9007,-100,4,2,1,30,0,0
31075,-133.333333333333,4,2,1,30,0,0
52455,-200,4,2,1,30,0,0
53834,-133.333333333333,4,2,1,30,0,0
54524,-100,4,2,1,30,0,0
56248,-66.6666666666667,4,2,1,30,0,0
56938,-133.333333333333,4,2,1,30,0,0
57282,-100,4,2,1,30,0,0
59007,-50,4,2,1,30,0,0
59179,-200,4,2,1,30,0,0
59351,-66.6666666666667,4,2,1,30,0,0
60041,-100,4,2,1,30,0,0
61075,-133.333333333333,4,2,1,30,0,0
61765,-200,4,2,1,30,0,0
62110,-50,4,2,1,30,0,0
62282,-133.333333333333,4,2,1,30,0,0
62800,-100,4,2,1,30,0,0
64179,-200,4,2,1,30,0,0
64869,-100,4,2,1,30,0,0
65213,-66.6666666666667,4,2,1,30,0,0
65558,-100,4,2,1,30,0,0
72800,-133.333333333333,4,2,1,30,0,0
74869,-200,4,2,1,30,0,0
75213,-133.333333333333,4,2,1,30,0,0
84179,-66.6666666666667,4,2,1,30,0,0
84869,1E-298,-69,2,1,70,1,0
85558,344.827586206897,4,2,1,30,1,0
85558,-100,4,2,1,30,0,0
86248,-66.6666666666667,4,2,1,30,0,0
86593,-200,4,2,1,30,0,0
86765,-50,4,2,1,30,0,0
87110,-200,4,2,1,30,0,0
87282,-50,4,2,1,30,0,0
87627,-200,4,2,1,30,0,0
87800,-50,4,2,1,30,0,0
88144,-200,4,2,1,30,0,0
88317,-50,4,2,1,30,0,0
88662,-66.6666666666667,4,2,1,30,0,0
89007,-100,4,2,1,30,0,0
89696,-133.333333333333,4,2,1,30,0,0
90041,-66.6666666666667,4,2,1,30,0,0
91420,-100,4,2,1,30,0,0
91765,-66.6666666666667,4,2,1,30,0,0
92110,-200,4,2,1,30,0,0
92282,-50,4,2,1,30,0,0
92627,-200,4,2,1,30,0,0
92800,-50,4,2,1,30,0,0
93144,-200,4,2,1,30,0,0
93317,-50,4,2,1,30,0,0
93662,-200,4,2,1,30,0,0
93834,-50,4,2,1,30,0,0
94179,-66.6666666666667,4,2,1,30,0,0
94869,-100,4,2,1,30,0,0
95558,-66.6666666666667,4,2,1,30,0,0
97282,-66.6666666666667,4,2,1,30,0,0
97627,-200,4,2,1,30,0,0
97800,-50,4,2,1,30,0,0
98144,-200,4,2,1,30,0,0
98317,-50,4,2,1,30,0,0
98662,-200,4,2,1,30,0,0
98834,-50,4,2,1,30,0,0
99179,-200,4,2,1,30,0,0
99351,-50,4,2,1,30,0,0
99696,-66.6666666666667,4,2,1,30,0,0
102455,-133.333333333333,4,2,1,30,0,0
102800,-66.6666666666667,4,2,1,30,0,0
103144,-200,4,2,1,30,0,0
103317,-50,4,2,1,30,0,0
103662,-200,4,2,1,30,0,0
103834,-50,4,2,1,30,0,0
104179,-200,4,2,1,30,0,0
104351,-50,4,2,1,30,0,0
104696,-200,4,2,1,30,0,0
104869,-50,4,2,1,30,0,0
107627,1E-298,-69,2,1,70,1,0
108317,344.827586206897,4,2,1,30,1,0
108317,-200,4,2,1,60,0,0
109007,-66.6666666666667,4,2,1,60,0,1
111075,-200,4,2,1,60,0,1
111765,-100,4,2,1,60,0,1
112110,-66.6666666666667,4,2,1,60,0,1
112455,-200,4,2,1,60,0,1
113144,-50,4,2,1,60,0,1
113834,-200,4,2,1,60,0,1
114524,-66.6666666666667,4,2,1,60,0,1
117282,-100,4,2,1,60,0,1
119351,-133.333333333333,4,2,1,60,0,1
120041,-66.6666666666667,4,2,1,60,0,1
122110,-66.6666666666667,4,2,1,60,0,1
122455,-133.333333333333,4,2,1,60,0,1
122800,-66.6666666666667,4,2,1,60,0,1
123489,-200,4,2,1,60,0,1
124179,-100,4,2,1,60,0,1
124524,-66.6666666666667,4,2,1,60,0,1
124869,-200,4,2,1,60,0,1
125558,-66.6666666666667,4,2,1,60,0,1
130386,1E-298,-69,2,1,70,1,0
131765,-66.6666666666667,4,2,1,40,0,0
141420,344.827586206897,4,2,1,30,1,0
141420,-200,4,2,1,40,0,0
151075,-100,4,2,1,40,0,0
152110,-133.333333333333,4,2,1,40,0,0
152455,-200,4,2,1,40,0,0
153144,-100,4,2,1,40,0,0
155558,-66.6666666666667,4,2,1,40,0,0
156248,-133.333333333333,4,2,1,40,0,0
156593,-100,4,2,1,40,0,0
158317,-50,4,2,1,40,0,0
158489,-200,4,2,1,40,0,0
158662,-66.6666666666667,4,2,1,40,0,0
159007,-50,4,2,1,40,0,0
159351,-100,4,2,1,40,0,0
161075,-133.333333333333,4,2,1,40,0,0
162110,-100,4,2,1,40,0,0
163489,-200,4,2,1,40,0,0
171765,-66.6666666666667,4,2,1,40,0,0
173144,1E-298,-69,2,1,70,1,0
173833,344.827586206897,4,2,1,30,1,0
174524,-66.6666666666667,4,2,1,60,0,1
185213,-80,4,2,1,60,0,1
185558,-66.6666666666667,4,2,1,60,0,1
190384,-200,4,2,1,60,0,1
190557,-50,4,2,1,60,0,1
190729,-66.6666666666667,4,2,1,60,0,1
190731,-66.6666666666667,4,2,1,60,0,1
191075,-66.6666666666667,4,2,1,60,0,1
193489,-100,4,2,1,60,0,1
193834,-66.6666666666667,4,2,1,60,0,1
195213,-50,4,2,1,60,0,1
195901,1E-298,-69,2,1,70,1,0
196243,-50,4,2,1,30,0,0
196246,344.827586206897,4,2,1,30,1,0
196590,-66.6666666666667,4,2,1,30,0,0
196935,-200,4,2,1,60,0,0
197107,-50,4,2,1,60,0,0
197452,-200,4,2,1,60,0,0
197624,-50,4,2,1,60,0,0
197969,-200,4,2,1,60,0,0
198141,-50,4,2,1,60,0,0
198486,-200,4,2,1,60,0,0
198659,-50,4,2,1,60,0,0
199004,-200,4,2,1,60,0,0
199176,-50,4,2,1,60,0,0
199348,-50,4,2,1,60,0,0
199693,-66.6666666666667,4,2,1,60,0,0
200038,-200,4,2,1,60,0,0
200383,-66.6666666666667,4,2,1,60,0,0
201762,-100,4,2,1,60,0,0
202107,-66.6666666666667,4,2,1,60,0,0
202452,-200,4,2,1,60,0,0
202624,-50,4,2,1,60,0,0
202969,-200,4,2,1,60,0,0
203141,-50,4,2,1,60,0,0
203486,-200,4,2,1,60,0,0
203659,-50,4,2,1,60,0,0
204004,-200,4,2,1,60,0,0
204176,-50,4,2,1,60,0,0
204521,-66.6666666666667,4,2,1,60,0,0
205210,-100,4,2,1,60,0,0
205900,-66.6666666666667,4,2,1,60,0,0
209004,-200,4,2,1,60,0,0
209176,-50,4,2,1,60,0,0
209521,-200,4,2,1,60,0,0
209693,-50,4,2,1,60,0,0
210038,-66.6666666666667,4,2,1,60,0,0
212797,-133.333333333333,4,2,1,60,0,0
213141,-100,4,2,1,60,0,0
215900,-50,4,2,1,60,0,0
218311,1E-298,-69,2,1,70,1,0
218656,344.827586206897,4,2,1,30,1,0
218656,-200,4,2,1,40,0,0
219518,-66.6666666666667,4,2,1,40,0,0
220035,-200,4,2,1,40,0,0
220897,-66.6666666666667,4,2,1,40,0,0
221414,-200,4,2,1,40,0,0
222276,-66.6666666666667,4,2,1,40,0,0
222793,-200,4,2,1,40,0,0
223656,-66.6666666666667,4,2,1,40,0,0
224173,-200,4,2,1,40,0,0
229690,-200,4,2,1,40,0,0
240731,1E-298,-69,2,1,70,1,0
241590,344.827586206897,4,2,1,30,1,0
243486,-200,4,2,1,30,0,0
261417,6E+298,4,2,1,100,1,0
261590,-100,4,2,1,40,0,0

[Colours]
Combo1 : 163,78,203
Combo2 : 130,132,217
Combo3 : 103,192,226
Combo4 : 248,147,25
SliderBorder : 170,166,227
SliderTrackOverride : 5,0,9

[HitObjects]
256,192,29696,12,0,30903,0:0:0:0:
76,116,31075,6,0,L|96:8,2,90.0000034332277,2|0|8,0:0|0:0|0:0,0:0:0:0:
56,204,31593,1,0,0:0:0:0:
100,202,31679,1,0,0:0:0:0:
142,217,31765,1,0,0:0:0:0:
175,248,31851,1,0,0:0:0:0:
193,289,31938,1,2,0:0:0:0:
80,320,32110,1,8,0:0:0:0:
344,60,32455,5,2,0:0:0:0:
256,72,32627,1,2,0:0:0:0:
168,84,32800,1,0,0:0:0:0:
222,153,32972,2,0,L|199:210,4,45.0000017166138,8|0|0|0|2,0:0|0:0|0:0|0:0|0:0,0:0:0:0:
277,224,33489,1,8,0:0:0:0:
104,341,33834,6,0,L|-4:321,2,90.0000034332277,2|2|8,0:0|0:0|0:0,0:0:0:0:
192,361,34351,1,0,0:0:0:0:
190,317,34438,1,0,0:0:0:0:
205,275,34524,1,0,0:0:0:0:
236,242,34610,1,0,0:0:0:0:
277,224,34696,1,2,0:0:0:0:
308,337,34869,1,8,0:0:0:0:
210,60,35213,5,2,0:0:0:0:
298,72,35386,1,2,0:0:0:0:
386,84,35558,1,8,0:0:0:0:
332,153,35731,2,0,L|355:210,4,45.0000017166138,0|2|0|0|2,0:0|0:0|0:0|0:0|0:0,0:0:0:0:
277,224,36248,1,8,0:0:0:0:
210,60,36593,6,0,P|249:44|309:54,2,90.0000034332277,2|0|8,0:0|0:0|0:0,0:0:0:0:
121,42,37110,1,0,0:0:0:0:
132,86,37196,1,0,0:0:0:0:
143,129,37282,1,0,0:0:0:0:
154,173,37369,1,0,0:0:0:0:
165,216,37455,1,2,0:0:0:0:
101,279,37627,1,8,0:0:0:0:
448,268,37972,5,2,0:0:0:0:
423,181,38144,1,2,0:0:0:0:
360,246,38317,1,0,0:0:0:0:
423,181,38489,2,0,L|439:237,4,45.0000017166138,8|0|0|0|2,0:0|0:0|0:0|0:0|0:0,0:0:0:0:
360,246,39007,1,8,0:0:0:0:
204,201,39351,6,0,P|188:162|198:102,2,90.0000034332277,2|2|8,0:0|0:0|0:0,0:0:0:0:
186,290,39869,1,0,0:0:0:0:
230,279,39955,1,0,0:0:0:0:
273,268,40041,1,0,0:0:0:0:
317,257,40127,1,0,0:0:0:0:
360,246,40213,1,2,0:0:0:0:
423,310,40386,1,8,0:0:0:0:
192,115,40731,5,8,0:0:0:0:
217,28,40903,1,2,0:0:0:0:
280,93,41075,1,2,0:0:0:0:
192,115,41248,1,8,0:0:0:0:
192,115,41334,1,0,0:0:0:0:
217,28,41507,1,8,0:0:0:0:
217,28,41593,1,0,0:0:0:0:
280,93,41765,1,8,0:0:0:0:
280,93,41938,1,0,0:0:0:0:
436,116,42110,6,0,L|416:8,2,90.0000034332277,2|0|8,0:0|0:0|0:0,0:0:0:0:
456,204,42627,1,0,0:0:0:0:
412,202,42713,1,0,0:0:0:0:
370,217,42800,1,0,0:0:0:0:
337,248,42886,1,0,0:0:0:0:
319,289,42972,1,2,0:0:0:0:
432,320,43144,1,8,0:0:0:0:
168,60,43489,5,2,0:0:0:0:
256,72,43662,1,2,0:0:0:0:
344,84,43834,1,0,0:0:0:0:
290,153,44007,2,0,L|313:210,4,45.0000017166138,8|0|0|0|2,0:0|0:0|0:0|0:0|0:0,0:0:0:0:
235,224,44524,1,8,0:0:0:0:
408,341,44869,6,0,L|516:321,2,90.0000034332277,2|2|8,0:0|0:0|0:0,0:0:0:0:
320,361,45386,1,0,0:0:0:0:
322,317,45472,1,0,0:0:0:0:
307,275,45558,1,0,0:0:0:0:
276,242,45644,1,0,0:0:0:0:
235,224,45731,1,2,0:0:0:0:
204,337,45903,1,8,0:0:0:0:
302,60,46248,5,2,0:0:0:0:
214,72,46420,1,0,0:0:0:0:
126,84,46593,1,8,0:0:0:0:
180,153,46765,1,2,0:0:0:0:
180,153,46851,1,2,0:0:0:0:
235,224,47024,1,0,0:0:0:0:
235,224,47110,1,2,0:0:0:0:
146,234,47282,1,8,0:0:0:0:
302,60,47627,6,0,P|263:44|203:54,2,90.0000034332277,2|0|8,0:0|0:0|0:0,0:0:0:0:
391,42,48144,1,0,0:0:0:0:
380,86,48231,1,0,0:0:0:0:
369,129,48317,1,0,0:0:0:0:
358,173,48403,1,0,0:0:0:0:
347,216,48489,1,2,0:0:0:0:
411,279,48662,1,8,0:0:0:0:
64,268,49007,5,2,0:0:0:0:
89,181,49179,1,2,0:0:0:0:
152,246,49351,1,0,0:0:0:0:
89,181,49524,2,0,L|73:237,4,45.0000017166138,8|0|0|0|2,0:0|0:0|0:0|0:0|0:0,0:0:0:0:
152,246,50041,1,8,0:0:0:0:
255,39,50386,5,2,0:0:0:0:
243,63,50472,1,2,0:0:0:0:
238,90,50558,1,2,0:0:0:0:
242,117,50644,1,2,0:0:0:0:
254,142,50731,1,2,0:0:0:0:
272,162,50817,1,2,0:0:0:0:
296,176,50903,1,2,0:0:0:0:
322,183,50989,1,2,0:0:0:0:
349,182,51075,5,2,0:0:0:0:
394,187,51162,1,2,0:0:0:0:
429,214,51248,1,2,0:0:0:0:
446,255,51334,1,2,0:0:0:0:
440,299,51420,1,2,0:0:0:0:
413,334,51507,1,2,0:0:0:0:
371,350,51593,1,2,0:0:0:0:
327,344,51679,1,2,0:0:0:0:
293,316,51765,6,0,L|296:280,15,22.5000008583069,2|2|2|2|2|2|2|2|2|2|2|2|2|2|2|2,0:0|0:0|0:0|0:0|0:0|0:0|0:0|0:0|0:0|0:0|0:0|0:0|0:0|0:0|0:0|0:0,0:0:0:0:
300,268,52455,6,0,B|268:265|268:265|235:279|235:279|205:245|205:245|172:259|172:259|141:257,1,180,4|0,0:1|0:0,0:0:0:0:
36,244,53144,6,0,B|16:108|16:108|64:164,1,210,6|0,0:2|0:0,0:0:0:0:
192,168,53834,6,0,P|252:143|126:80,1,315.000012016297,8|0,2:0|2:0,2:2:0:0:
196,96,54524,6,0,B|278:82|278:82|348:112|348:112|427:99,1,240,2|0,0:0|0:0,0:0:0:0:
408,252,55041,2,0,B|325:265|325:265|255:235|255:235|176:248,1,240,2|0,0:0|0:0,0:0:0:0:
79,328,55558,6,0,B|96:278|70:236|70:236|94:202|94:202|49:155|73:80|73:80|57:128|12:144,1,360.000013732911,2|0,0:0|0:0,0:0:0:0:
184,124,56248,6,0,L|280:136,1,90.0000034332277,0|0,0:0|0:0,0:0:0:0:
440,204,56420,2,0,L|350:192,1,90.0000034332277,0|0,0:0|0:0,0:0:0:0:
172,220,56593,2,0,L|268:232,1,90.0000034332277,0|0,0:0|0:0,0:0:0:0:
428,300,56765,2,0,L|338:288,1,90.0000034332277,0|0,0:0|0:0,0:0:0:0:
164,316,56938,6,0,L|260:328,1,90.0000034332277,0|0,0:0|0:0,0:0:0:0:
424,296,57282,6,0,B|408:136|408:136|388:212,1,240,2|0,0:0|0:0,0:0:0:0:
208,176,57800,2,0,B|224:16|224:16|244:92,1,240,2|0,0:0|0:0,0:0:0:0:
286,242,58317,2,0,P|206:326|230:178,1,360,2|0,0:0|0:0,0:0:0:0:
507,161,59007,6,0,B|460:155|460:155|437:140|437:140|378:133,1,120,0|0,0:0|0:0,0:0:0:0:
286,242,59179,6,0,L|315:245,1,30,0|0,0:0|0:0,0:0:0:0:
387,337,59351,6,0,B|403:218|403:218|441:264,1,180.000006866455,0|0,0:0|0:0,0:0:0:0:
387,337,59696,2,0,B|211:313|211:313|279:385,1,270.000010299683,0|0,0:0|0:0,0:0:0:0:
274,380,60041,6,0,B|242:324|274:268|274:268|306:212|274:152,1,240,2|0,0:0|0:0,0:0:0:0:
174,84,60558,2,0,P|90:144|172:208,1,240,2|0,0:0|0:0,0:0:0:0:
456,120,61075,6,0,B|349:70|349:70|388:268,1,315.000012016297,2|0,0:0|0:0,0:0:0:0:
403,355,61765,6,0,P|335:343|307:311,1,90,2|0,0:0|0:0,0:0:0:0:
168,236,62110,6,0,B|264:236|264:236|228:248,1,120,0|0,0:0|0:0,0:0:0:0:
64,256,62282,6,0,B|49:104|49:104|105:160,1,225.000008583069,2|0,0:0|0:0,0:0:0:0:
168,236,62800,6,0,P|192:300|100:344,1,180,2|0,0:0|0:0,0:0:0:0:
109,347,63144,1,8,0:0:0:0:
100,155,63317,2,0,P|160:132|224:147,1,120,2|2,0:0|0:0,0:0:0:0:
280,228,63662,1,2,0:0:0:0:
352,48,63834,2,0,B|305:9|305:9|324:128,1,180,8|0,0:0|0:0,0:0:0:0:
280,228,64179,6,0,B|416:244|416:244|340:296,1,210,2|0,0:0|0:0,0:0:0:0:
323,126,64869,6,0,B|259:118|259:118|208:140|208:140|144:132,1,180,0|0,0:0|0:0,0:0:0:0:
36,24,65213,6,0,L|23:123,1,90.0000034332277,0|0,0:0|0:0,0:0:0:0:
60,320,65386,2,0,L|71:230,1,90.0000034332277,0|0,0:0|0:0,0:0:0:0:
148,132,65558,6,0,P|260:180|196:228,1,240,2|0,0:0|0:0,0:0:0:0:
281,320,66075,2,0,P|179:321|215:225,1,240,2|0,0:0|0:0,0:0:0:0:
396,350,66593,2,0,B|408:298|380:254|380:254|408:214|408:214|380:174|400:98|400:98|384:146|339:162,1,360,2|0,0:0|0:0,0:0:0:0:
313,71,67282,2,0,L|314:41,7,30,0|0|0|0|0|0|0|0,0:0|0:0|0:0|0:0|0:0|0:0|0:0|0:0,0:0:0:0:
226,93,67627,2,0,L|227:63,7,30,0|0|0|0|0|0|0|0,0:0|0:0|0:0|0:0|0:0|0:0|0:0|0:0,0:0:0:0:
144,28,67972,2,0,L|135:162,1,120,0|0,0:0|0:0,0:0:0:0:
52,264,68317,6,0,B|134:280|134:280|211:262|211:262|301:279,1,240,2|0,0:0|0:0,0:0:0:0:
448,376,68834,2,0,B|365:359|365:359|288:377|288:377|198:360,1,240,2|0,0:0|0:0,0:0:0:0:
136,147,69351,2,0,P|191:101|285:279,1,360,2|0,0:0|0:0,0:0:0:0:
213,362,70041,6,0,B|197:238|197:238|177:302,1,180,0|0,0:0|0:0,0:0:0:0:
26,315,70386,2,0,L|97:303,1,60,0|0,0:0|0:0,0:0:0:0:
180,290,70558,2,0,B|247:279|247:279|293:288|293:288|364:277,1,180,0|0,0:0|0:0,0:0:0:0:
357,278,70903,1,0,0:0:0:0:
340,88,71075,6,0,B|404:36|404:36|372:204,1,240,2|0,0:0|0:0,0:0:0:0:
214,187,71593,2,0,B|150:135|150:135|182:303,1,240,2|0,0:0|0:0,0:0:0:0:
374,190,72110,2,0,P|442:186|354:266,1,300,2|0,0:0|0:0,0:0:0:0:
357,272,72627,1,2,0:0:0:0:
376,96,72800,6,0,B|316:96|316:96|256:124|256:124|184:124,1,180.000006866455,8|0,0:0|0:0,0:0:0:0:
228,4,73317,1,2,0:0:0:0:
54,216,73489,2,0,B|114:216|114:216|174:244|174:244|246:244,1,180.000006866455,8|0,0:0|0:0,0:0:0:0:
202,124,74007,1,2,0:0:0:0:
375,336,74179,2,0,B|315:336|315:336|255:364|255:364|183:364,1,180.000006866455,8|0,0:0|0:0,0:0:0:0:
227,244,74696,1,2,0:0:0:0:
145,131,74869,2,0,P|175:134|205:120,1,60,8|0,0:0|0:0,0:0:0:0:
164,40,75213,6,0,L|281:58,1,90.0000034332277,0|0,0:0|0:0,0:0:0:0:
493,146,75558,2,0,L|392:130,1,90.0000034332277,8|0,0:0|0:0,0:0:0:0:
263,205,75903,5,2,0:0:0:0:
257,129,76075,1,0,0:0:0:0:
252,53,76248,1,8,0:0:0:0:
269,281,76420,5,0,0:0:0:0:
263,205,76593,1,2,0:0:0:0:
258,129,76765,1,0,0:0:0:0:
275,357,76938,5,8,0:0:0:0:
269,281,77110,1,0,0:0:0:0:
264,205,77282,5,2,0:0:0:0:
264,205,77455,1,0,0:0:0:0:
404,132,77627,5,8,0:0:0:0:
404,132,77800,1,8,0:0:0:0:
388,241,77972,2,0,L|313:148,1,90.0000034332277,2|0,0:0|0:0,0:0:0:0:
131,10,78317,2,0,L|194:89,1,90.0000034332277,8|0,0:0|0:0,0:0:0:0:
195,238,78662,5,2,0:0:0:0:
264,205,78834,1,0,0:0:0:0:
332,172,79007,1,8,0:0:0:0:
126,271,79179,5,0,0:0:0:0:
195,238,79351,1,2,0:0:0:0:
263,205,79524,1,0,0:0:0:0:
57,304,79696,5,8,0:0:0:0:
126,271,79869,1,0,0:0:0:0:
195,237,80041,5,2,0:0:0:0:
195,237,80213,1,0,0:0:0:0:
188,80,80386,5,8,0:0:0:0:
188,80,80558,1,8,0:0:0:0:
376,144,80731,5,8,0:0:0:0:
344,320,80903,1,2,0:0:0:0:
224,200,81075,5,8,0:0:0:0:
256,376,81248,1,2,0:0:0:0:
152,80,81420,5,8,0:0:0:0:
120,256,81593,1,2,0:0:0:0:
0,136,81765,5,8,0:0:0:0:
32,312,81938,1,2,0:0:0:0:
152,80,82110,5,8,0:0:0:0:
360,116,82282,1,2,0:0:0:0:
88,200,82455,5,8,0:0:0:0:
296,164,82627,1,2,0:0:0:0:
164,160,82800,5,8,0:0:0:0:
372,196,82972,1,2,0:0:0:0:
100,280,83144,5,8,0:0:0:0:
308,244,83317,1,2,0:0:0:0:
250,23,83489,5,2,0:0:0:0:
221,57,83575,1,2,0:0:0:0:
213,101,83662,1,2,0:0:0:0:
228,143,83748,1,2,0:0:0:0:
261,173,83834,1,2,0:0:0:0:
293,202,83920,1,2,0:0:0:0:
308,244,84007,1,2,0:0:0:0:
300,288,84093,1,2,0:0:0:0:
272,323,84179,6,0,L|204:316,7,45.0000017166138,2|2|2|2|2|2|2|2,0:0|0:0|0:0|0:0|0:0|0:0|0:0|0:0,0:0:0:0:
192,332,84524,2,0,L|124:325,7,45.0000017166138,10|2|2|2|2|2|2|2,0:0|0:0|0:0|0:0|0:0|0:0|0:0|0:0,0:0:0:0:
115,306,84869,70,0,B|-23:416|54:468|61:492|61:492|87:485|172:522|194:363|194:363|257:503|331:445|356:448|356:448|356:419|418:350|277:280|277:280|435:265|404:179|413:152|413:152|388:145|339:65|228:181|228:181|262:24|167:26|147:10|147:10|131:30|39:52|116:194|116:194|-20:113|-46:204|-67:219|-67:219|-52:241|-57:353|129:302,1,2160,10|10,0:0|0:0,0:0:0:0:
376,0,85558,2,0,L|368:60,1,60,0|0,0:0|0:0,0:0:0:0:
363,91,85731,1,2,0:0:0:0:
359,124,85817,1,0,0:0:0:0:
355,157,85903,1,8,0:3:0:0:
351,189,85989,1,8,0:3:0:0:
347,222,86076,1,4,0:3:0:0:
343,255,86162,1,4,0:3:0:0:
388,332,86248,6,0,B|329:341|329:341|285:319|285:319|210:331,1,180.000006866455,6|0,1:0|0:0,0:0:0:0:
20,200,86593,6,0,L|77:188,1,30,8|0,0:0|0:0,0:0:0:0:
182,164,86765,2,0,B|198:111|198:111|132:161|132:161|156:260,1,240,0|0,0:0|0:0,0:0:0:0:
120,384,87110,6,0,L|128:355,1,30,2|0,0:0|0:0,0:0:0:0:
182,164,87282,2,0,B|234:128|294:164|294:164|354:200|408:165,1,240,8|0,0:0|0:0,0:0:0:0:
359,50,87627,6,0,L|352:80,1,30,0|0,0:0|0:0,0:0:0:0:
300,260,87800,2,0,B|460:276|460:276|380:312,1,240,2|8,0:0|0:0,0:0:0:0:
96,272,88144,6,0,L|148:284,1,30,0|0,0:0|0:0,0:0:0:0:
216,384,88317,2,0,B|224:300|224:300|199:237|199:237|209:141,1,240,0|2,0:0|0:0,0:0:0:0:
56,36,88662,6,0,P|108:36|164:56,1,90.0000034332277,8|0,0:0|0:0,0:0:0:0:
296,160,88834,2,0,P|244:160|188:140,1,90.0000034332277,2|0,0:0|0:0,0:0:0:0:
264,44,89007,5,2,0:0:0:0:
328,272,89179,1,0,0:0:0:0:
378,73,89351,5,8,0:0:0:0:
213,242,89523,1,0,0:0:0:0:
138,115,89696,6,0,B|236:128|236:128|204:152,1,135.000005149841,0|0,0:0|0:0,0:0:0:0:
16,216,90041,6,0,L|118:229,1,90.0000034332277,8|0,0:0|0:0,0:0:0:0:
213,242,90213,2,0,L|315:255,1,90.0000034332277,0|0,0:0|0:0,0:0:0:0:
410,268,90386,2,0,B|398:148|398:148|394:192|370:212,1,180.000006866455,0|2,0:0|0:0,0:0:0:0:
248,336,90731,5,8,0:0:0:0:
221,289,90817,1,0,0:0:0:0:
215,234,90903,1,0,0:0:0:0:
231,182,90989,1,0,0:0:0:0:
288,120,91076,5,0,0:0:0:0:
241,93,91162,1,0,0:0:0:0:
186,87,91248,1,2,0:0:0:0:
134,103,91334,1,0,0:0:0:0:
56,52,91420,6,0,B|47:107|47:107|62:166|62:166|52:229,1,180,8|0,0:0|0:0,0:0:0:0:
32,328,91765,6,0,B|152:308|152:308|108:360,1,180.000006866455,2|0,0:0|0:0,0:0:0:0:
52,228,92110,6,0,L|92:220,1,30,8|0,0:0|0:0,0:0:0:0:
252,192,92282,2,0,B|240:160|248:124|248:124|196:204|256:292,1,240,0|0,0:0|0:0,0:0:0:0:
348,348,92627,6,0,L|348:292,1,30,2|0,0:0|0:0,0:0:0:0:
341,69,92800,2,0,P|429:108|344:152,1,240,8|0,0:0|0:0,0:0:0:0:
60,100,93144,6,0,L|108:92,1,30,0|0,0:0|0:0,0:0:0:0:
224,68,93317,2,0,B|156:12|156:12|180:161,1,240,2|8,0:0|0:0,0:0:0:0:
296,359,93662,6,0,L|296:329,1,30,0|0,0:0|0:0,0:0:0:0:
126,246,93834,2,0,B|178:282|238:246|238:246|298:210|352:245,1,240,0|0,0:0|0:0,0:0:0:0:
490,308,94179,6,0,L|482:211,1,90.0000034332277,8|0,0:0|0:0,0:0:0:0:
408,28,94351,2,0,L|400:117,1,90.0000034332277,2|0,0:0|0:0,0:0:0:0:
292,108,94524,6,0,B|401:117|401:117|320:167,1,180.000006866455,2|0,0:0|0:0,0:0:0:0:
220,240,94869,6,0,B|220:180|220:180|192:136|192:136|192:64,1,180,8|0,0:0|0:0,0:0:0:0:
292,48,95213,2,0,L|292:124,1,60,0|0,0:0|0:0,0:0:0:0:
296,280,95386,1,2,0:0:0:0:
296,280,95472,1,0,0:0:0:0:
296,280,95558,6,0,L|392:292,1,90.0000034332277,8|0,0:0|0:0,0:0:0:0:
484,168,95730,2,0,L|388:180,1,90.0000034332277,0|0,0:0|0:0,0:0:0:0:
128,220,95903,6,0,B|86:68|86:68|191:10|191:10|165:89,1,360.000013732911,0|8,0:0|0:0,0:0:0:0:
33,187,96593,2,0,P|29:229|46:279,1,90.0000034332277,0|0,0:0|0:0,0:0:0:0:
172,301,96765,1,2,0:0:0:0:
172,301,96851,2,0,B|156:174|156:174|128:218,1,180.000006866455,2|0,0:0|0:0,0:0:0:0:
128,218,97110,2,0,L|218:219,1,90.0000034332277,2|0,0:0|0:0,0:0:0:0:
392,216,97282,6,0,P|416:288|332:244,1,180.000006866455,2|0,0:0|0:0,0:0:0:0:
280,19,97627,2,0,L|288:47,1,30,8|0,0:0|0:0,0:0:0:0:
454,126,97800,2,0,B|374:113|374:113|304:150|304:150|221:137,1,240,0|0,0:0|0:0,0:0:0:0:
0,62,98144,6,0,L|41:69,1,30,2|0,0:0|0:0,0:0:0:0:
135,174,98317,2,0,B|159:75|159:75|93:25|93:25|109:81,1,240,8|0,0:0|0:0,0:0:0:0:
261,368,98662,6,0,L|253:340,1,30,0|0,0:0|0:0,0:0:0:0:
82,259,98834,2,0,B|134:295|194:259|194:259|254:223|310:259,1,240,2|8,0:0|0:0,0:0:0:0:
512,213,99179,6,0,L|464:209,1,30,0|0,0:0|0:0,0:0:0:0:
404,277,99351,2,0,B|389:115|389:115|390:160|364:205,1,240,0|2,0:0|0:0,0:0:0:0:
253,340,99696,6,0,L|247:251,1,90.0000034332277,8|0,0:0|0:0,0:0:0:0:
249,26,99869,2,0,L|255:115,1,90.0000034332277,2|0,0:0|0:0,0:0:0:0:
182,198,100041,6,0,B|299:219|299:219|202:276,1,180.000006866455,2|0,0:0|0:0,0:0:0:0:
84,308,100300,1,0,0:0:0:0:
84,308,100386,2,0,B|94:244|94:244|80:202|80:202|91:131,1,180.000006866455,8|0,0:0|0:0,0:0:0:0:
114,12,100731,2,0,P|47:72|94:132,1,180.000006866455,0|2,0:0|0:0,0:0:0:0:
208,92,101075,2,0,B|262:102|262:102|325:74|325:74|384:85,1,180.000006866455,8|0,0:0|0:0,0:0:0:0:
456,304,101420,6,0,B|480:116|480:116|426:177,1,270.000010299683,0|0,0:0|0:0,0:0:0:0:
372,256,101765,5,8,0:0:0:0:
320,281,101851,1,0,0:0:0:0:
263,266,101937,1,0,0:0:0:0:
231,216,102023,1,0,0:0:0:0:
250,99,102110,5,0,0:0:0:0:
218,49,102196,1,0,0:0:0:0:
161,34,102282,1,2,0:0:0:0:
108,60,102368,1,0,0:0:0:0:
52,148,102455,6,0,B|62:199|62:199|52:229|52:229|62:280,1,135.000005149841,8|0,0:0|0:0,0:0:0:0:
61,279,102800,5,2,0:0:0:0:
348,112,103144,2,0,L|300:100,1,30,8|0,0:0|0:0,0:0:0:0:
196,84,103317,2,0,B|244:20|244:20|220:188,1,240,0|0,0:0|0:0,0:0:0:0:
128,371,103662,6,0,L|138:316,1,30,2|0,0:0|0:0,0:0:0:0:
60,260,103834,2,0,B|142:246|142:246|211:272|211:272|314:256,1,240,8|0,0:0|0:0,0:0:0:0:
512,252,104179,6,0,L|460:244,1,30,0|0,0:0|0:0,0:0:0:0:
356,173,104351,2,0,P|400:209|288:249,1,240,2|8,0:0|0:0,0:0:0:0:
240,8,104696,6,0,L|228:52,1,30,0|0,0:0|0:0,0:0:0:0:
120,116,104869,2,0,B|264:140|264:140|160:228,1,240,0|2,0:0|0:0,0:0:0:0:
72,300,105213,2,0,B|12:344|-30:214|121:196|189:336,1,240,8|0,0:0|0:0,0:0:0:0:
256,368,105558,5,0,0:0:0:0:
440,384,105731,1,2,0:0:0:0:
274,278,105903,5,8,0:0:0:0:
457,261,106076,1,0,0:0:0:0:
268,188,106248,5,2,0:0:0:0:
446,140,106421,1,2,0:0:0:0:
237,103,106593,5,8,0:0:0:0:
404,24,106764,1,2,0:0:0:0:
332,280,106938,5,2,0:0:0:0:
112,80,107110,1,2,0:0:0:0:
288,12,107282,5,8,0:0:0:0:
224,302,107454,1,2,0:0:0:0:
404,62,107627,70,0,B|594:-191|419:-260|394:-306|394:-306|348:-281|165:-317|190:4|190:4|8:-246|-112:-101|-163:-95|-163:-95|-151:-39|-244:122|61:200|61:200|-243:295|-144:450|-151:506|-151:506|-100:509|30:645|198:373|198:373|196:695|381:651|428:673|428:673|450:626|620:545|411:300|411:300|713:401|725:214|761:176|761:176|723:139|702:-182|378:82,1,4320,8|8,3:0|3:0,0:0:0:0:
187,142,108317,6,0,B|322:138|322:138|260:186,1,210,2|0,0:0|0:0,0:0:0:0:
174,253,109007,5,8,0:0:0:0:
134,270,109093,1,0,2:0:0:0:
91,269,109179,1,0,2:0:0:0:
52,252,109265,1,0,2:0:0:0:
22,221,109351,2,0,L|34:121,1,90.0000034332277,0|0,2:0|2:0,0:0:0:0:
7,5,109524,5,2,0:0:0:0:
44,7,109610,1,0,2:0:0:0:
82,10,109696,1,0,2:0:0:0:
120,13,109782,1,0,2:0:0:0:
157,16,109869,2,0,L|252:24,1,90.0000034332277,0|0,2:0|2:0,0:0:0:0:
386,43,110041,5,2,0:0:0:0:
403,83,110127,1,0,2:0:0:0:
402,126,110213,1,0,2:0:0:0:
385,165,110299,1,0,2:0:0:0:
354,195,110385,2,0,L|254:183,1,90.0000034332277,8|0,2:0|0:0,0:0:0:0:
98,79,110558,2,0,B|143:63|159:15|159:15|139:91|167:131|167:131|139:171|139:171|167:215|155:267,1,360.000013732911,2|2,0:0|0:0,0:0:0:0:
151,342,111075,6,0,B|175:298|151:246|151:246|159:286,1,120,2|0,0:0|0:0,0:0:0:0:
120,152,111765,6,0,B|151:154|151:154|184:140|184:140|214:174|214:174|247:160|247:160|283:163,1,180,8|0,0:0|2:0,0:0:0:0:
364,116,112110,6,0,P|305:147|418:176,1,270.000010299683,0|0,0:0|0:0,0:0:0:0:
420,28,112455,6,0,B|396:28|364:12|364:12|332:28|304:28,1,120,2|0,0:0|0:0,0:0:0:0:
161,31,112972,1,2,0:0:0:0:
161,31,113058,1,2,0:0:0:0:
161,31,113144,6,0,B|229:71|305:27|305:27|229:131|316:214,1,360,8|0,0:0|0:0,0:0:0:0:
503,128,113489,2,0,B|459:123|459:123|455:127|455:127|451:122|451:122|388:116,1,120,8|0,0:0|0:0,0:0:0:0:
53,157,113662,2,0,B|96:152|96:152|101:155|101:155|104:151|104:151|168:144,1,120,0|0,0:0|0:0,0:0:0:0:
268,267,113834,6,0,B|302:252|316:213|316:213|303:352,1,210,2|0,0:0|0:0,0:0:0:0:
424,202,114524,5,8,0:0:0:0:
399,147,114610,1,0,2:0:0:0:
351,113,114696,1,0,2:0:0:0:
291,109,114782,1,0,2:0:0:0:
238,136,114869,2,0,P|181:153|116:133,1,90.0000034332277,0|0,2:0|2:0,0:0:0:0:
140,42,115041,5,2,0:0:0:0:
85,67,115127,1,0,2:0:0:0:
51,115,115213,1,0,2:0:0:0:
47,175,115299,1,0,2:0:0:0:
74,228,115386,2,0,P|110:252|156:260,1,90.0000034332277,0|0,2:0|2:0,0:0:0:0:
335,331,115558,5,2,0:0:0:0:
280,306,115644,1,0,2:0:0:0:
246,258,115730,1,0,2:0:0:0:
242,198,115816,1,0,2:0:0:0:
269,144,115903,2,0,P|306:120|350:112,1,90.0000034332277,8|0,2:0|0:0,0:0:0:0:
512,130,116075,2,0,B|467:114|451:66|451:66|475:141|430:188|430:188|454:222|454:222|428:264|446:320,1,360.000013732911,2|2,0:0|0:0,0:0:0:0:
331,233,116593,2,0,P|277:195|363:173,1,180.000006866455,2|0,0:0|0:0,0:0:0:0:
512,130,116938,2,0,P|431:174|349:155,1,180.000006866455,0|0,0:0|0:0,0:0:0:0:
188,116,117282,6,0,L|196:56,1,60,8|0,0:2|0:0,0:0:0:0:
304,0,117455,2,0,L|296:60,1,60,0|0,0:2|0:0,0:0:0:0:
341,214,117627,6,0,L|349:154,1,60,0|0,0:2|0:0,0:0:0:0:
457,98,117800,2,0,L|449:158,1,60,0|0,0:2|0:0,0:0:0:0:
413,330,117972,5,8,0:0:0:0:
219,252,118144,1,2,0:0:0:0:
292,44,118317,1,2,0:0:0:0:
340,340,118489,5,8,0:0:0:0:
210,175,118661,1,2,0:0:0:0:
374,46,118834,1,2,0:0:0:0:
503,210,119007,1,8,0:0:0:0:
465,232,119093,1,2,0:0:0:0:
421,241,119179,1,2,0:0:0:0:
378,233,119265,1,2,0:0:0:0:
340,211,119351,6,0,P|244:263|384:311,1,315.000012016297,2|0,0:0|0:0,0:0:0:0:
424,104,120041,6,0,L|408:-8,1,90.0000034332277,8|0,0:0|2:0,0:0:0:0:
240,0,120213,1,0,2:0:0:0:
240,0,120300,1,0,2:0:0:0:
240,0,120386,2,0,L|252:89,1,90.0000034332277,2|0,0:0|2:0,0:0:0:0:
316,281,120558,6,0,P|284:305|236:309,1,90.0000034332277,8|0,0:0|2:0,0:0:0:0:
64,228,120731,1,0,2:0:0:0:
64,228,120817,1,0,2:0:0:0:
64,228,120903,2,0,P|96:204|144:200,1,90.0000034332277,2|0,0:0|2:0,0:0:0:0:
316,281,121075,6,0,L|300:393,1,90.0000034332277,8|0,0:0|2:0,0:0:0:0:
424,120,121247,1,2,0:0:0:0:
424,120,121334,1,0,2:0:0:0:
424,120,121420,2,0,L|436:30,1,90.0000034332277,2|0,0:0|2:0,0:0:0:0:
452,216,121593,2,0,B|392:216|392:216|344:184|344:184|280:184,1,180.000006866455,2|0,0:0|0:0,0:0:0:0:
281,184,121851,1,2,0:0:0:0:
104,232,122110,6,0,L|116:280,6,45.0000017166138,2|0|0|0|0|0|0,0:0|0:0|0:0|0:0|0:0|0:0|0:0,0:0:0:0:
115,276,122455,6,0,L|131:112,1,135.000005149841,0|0,0:0|0:0,0:0:0:0:
48,32,122800,6,0,L|156:16,1,90.0000034332277,8|0,0:0|0:0,0:0:0:0:
240,88,122972,2,0,L|348:72,1,90.0000034332277,0|0,0:0|0:0,0:0:0:0:
39,154,123144,6,0,L|147:138,1,90.0000034332277,0|0,0:0|0:0,0:0:0:0:
231,210,123316,2,0,L|339:194,1,90.0000034332277,0|0,0:0|0:0,0:0:0:0:
428,96,123489,6,0,B|418:143|418:143|434:186|434:186|424:241,1,150,2|0,0:0|0:0,0:0:0:0:
408,336,124007,1,2,0:0:0:0:
408,336,124093,1,2,0:0:0:0:
408,336,124179,6,0,B|284:348|284:348|332:384,1,180,8|0,0:0|0:0,0:0:0:0:
328,220,124524,6,0,L|238:229,1,90.0000034332277,8|0,0:0|0:0,0:0:0:0:
4,316,124696,2,0,L|93:325,1,90.0000034332277,0|0,0:0|0:0,0:0:0:0:
168,376,124869,6,0,B|196:324|168:280|168:280|136:232|168:176,1,210,2|0,0:0|0:0,0:0:0:0:
108,32,125558,6,0,L|96:128,1,90.0000034332277,8|0,0:0|2:0,0:0:0:0:
248,240,125731,1,0,2:0:0:0:
248,240,125817,1,0,2:0:0:0:
248,240,125903,2,0,L|259:150,1,90.0000034332277,2|0,0:0|2:0,0:0:0:0:
360,0,126075,6,0,L|348:96,1,90.0000034332277,8|0,0:0|2:0,0:0:0:0:
500,208,126248,1,0,2:0:0:0:
500,208,126334,1,0,2:0:0:0:
500,208,126420,2,0,L|511:118,1,90.0000034332277,2|0,0:0|2:0,0:0:0:0:
264,160,126593,6,0,L|252:256,1,90.0000034332277,8|0,0:0|2:0,0:0:0:0:
404,368,126766,1,2,0:0:0:0:
404,368,126852,1,0,2:0:0:0:
404,368,126938,6,0,B|424:188|424:188|376:264,1,270.000010299683,2|0,0:0|0:0,0:0:0:0:
240,116,127282,2,0,B|326:132|326:132|407:91|407:91|498:109,1,270.000010299683,0|0,0:0|0:0,0:0:0:0:
496,108,127627,5,2,0:0:0:0:
256,268,127800,1,2,0:0:0:0:
366,44,127972,5,2,0:0:0:0:
385,331,128145,1,2,0:0:0:0:
16,108,128317,5,2,0:0:0:0:
256,268,128490,1,2,0:0:0:0:
144,44,128662,5,2,0:0:0:0:
126,331,128835,1,2,0:0:0:0:
256,192,129007,5,2,0:0:0:0:
305,173,129093,1,2,0:0:0:0:
324,124,129179,1,2,0:0:0:0:
305,76,129265,1,2,0:0:0:0:
256,57,129351,1,2,0:0:0:0:
208,76,129437,1,2,0:0:0:0:
189,124,129524,1,2,0:0:0:0:
208,173,129610,1,2,0:0:0:0:
256,192,129696,5,2,0:0:0:0:
305,213,129783,1,2,0:0:0:0:
324,262,129869,1,2,0:0:0:0:
305,310,129955,1,2,0:0:0:0:
256,329,130041,1,8,0:3:0:0:
208,310,130127,1,8,0:3:0:0:
189,262,130214,1,4,0:3:0:0:
208,213,130300,1,4,0:3:0:0:
256,192,130386,6,0,B|440:188|592:318|531:532|586:647|586:647|496:557|274:549|196:365|256:192|256:192|318:363|237:543|15:556|-74:645|-74:645|-19:532|-79:321|72:188|256:192|256:192|109:298|-91:279|-167:71|-279:15|-279:15|-154:28|28:-92|200:11|256:192|256:192|108:78|62:-114|234:-253|257:-375|257:-375|278:-252|452:-116|406:82|256:192|256:192|312:13|485:-91|671:30|790:19|790:19|683:71|605:280|406:299|256:192,1,6300,6|6,0:0|0:0,0:0:0:0:
2,191,141420,6,0,B|130:177|341:-26|-94:-65|119:184|119:184|175:232|365:361|-28:415|162:194|162:194|202:169|255:169,1,960,0|0,0:0|0:0,0:0:0:0:
141,220,143834,1,0,0:0:0:0:
243,169,144179,6,0,B|281:158|341:180|341:180|408:199|549:112|456:-30|255:12|349:184|349:184|406:256|487:249|487:249|412:279|393:351|393:351|347:292|276:300,1,960,0|2,0:0|0:0,0:0:0:0:
466,249,146075,1,0,0:0:0:0:
383,339,146593,1,0,0:0:0:0:
277,300,146938,6,0,L|285:363,3,60,2|2|2|2,0:0|0:0|0:0|0:0,0:0:0:0:
164,260,147627,2,0,L|171:322,3,60,2|2|2|2,0:0|0:0|0:0|0:0,0:0:0:0:
256,132,148317,6,0,L|263:194,3,60,2|2|2|2,0:0|0:0|0:0|0:0,0:0:0:0:
140,88,149006,2,0,L|147:150,3,60,2|2|2|2,0:0|0:0|0:0|0:0,0:0:0:0:
240,20,149696,5,2,0:0:0:0:
266,6,149782,1,2,0:0:0:0:
296,3,149868,1,2,0:0:0:0:
325,10,149954,1,2,0:0:0:0:
349,27,150040,1,2,0:0:0:0:
366,51,150127,1,2,0:0:0:0:
374,80,150213,1,2,0:0:0:0:
371,110,150299,1,2,0:0:0:0:
358,136,150386,5,2,0:0:0:0:
345,162,150472,1,2,0:0:0:0:
342,192,150558,1,2,0:0:0:0:
350,221,150644,1,2,0:0:0:0:
367,245,150731,1,2,0:0:0:0:
391,262,150817,1,2,0:0:0:0:
420,269,150903,1,2,0:0:0:0:
450,266,150989,1,2,0:0:0:0:
477,253,151075,6,0,L|472:216,15,30,2|2|2|2|2|2|2|0|2|2|2|2|2|2|2|0,0:0|0:0|0:0|0:0|0:0|0:0|0:0|0:0|0:0|0:0|0:0|0:0|0:0|0:0|0:0|0:0,0:0:0:0:
466,192,151765,2,0,L|453:123,3,60,2|0|0|0,0:0|0:0|0:0|0:0,0:0:0:0:
447,105,152110,6,0,L|427:1,1,90.0000034332277,0|0,0:0|0:0,0:0:0:0:
232,40,152455,6,0,B|364:56|364:56|276:104,1,210,2|0,0:0|0:0,0:0:0:0:
96,136,153144,6,0,P|152:100|92:216,1,420,8|0,0:2|0:0,0:0:0:0:
8,148,153834,2,0,B|0:223|0:223|19:302|19:302|11:385,1,240,2|0,0:0|0:0,0:0:0:0:
176,332,154351,2,0,B|183:256|183:256|164:177|164:177|172:94,1,240,2|0,0:0|0:0,0:0:0:0:
289,11,154869,2,0,B|498:37|498:37|351:129,1,360,2|0,0:0|0:0,0:0:0:0:
83,83,155558,6,0,L|175:95,1,90.0000034332277,0|0,0:0|0:0,0:0:0:0:
272,180,155731,2,0,L|182:168,1,90.0000034332277,0|0,0:0|0:0,0:0:0:0:
64,228,155903,2,0,L|156:240,1,90.0000034332277,0|0,0:0|0:0,0:0:0:0:
260,328,156076,2,0,L|170:316,1,90.0000034332277,0|0,0:0|0:0,0:0:0:0:
40,372,156248,6,0,L|129:383,1,90.0000034332277,0|0,0:0|0:0,0:0:0:0:
408,168,156593,6,0,B|401:227|401:227|413:265|413:265|379:285|379:285|391:323|391:323|385:386,1,240,2|0,0:0|0:0,0:0:0:0:
260,328,157110,2,0,B|266:268|266:268|254:230|254:230|288:210|288:210|276:172|276:172|282:109,1,240,2|0,0:0|0:0,0:0:0:0:
340,2,157627,2,0,P|432:58|276:90,1,360,2|0,0:0|0:0,0:0:0:0:
60,30,158317,6,0,B|107:24|107:24|130:9|130:9|189:2,1,120,0|0,0:0|0:0,0:0:0:0:
281,111,158489,6,0,L|236:116,1,30,0|0,0:0|0:0,0:0:0:0:
126,133,158662,6,0,B|164:87|164:87|180:206,1,180.000006866455,0|0,0:0|0:0,0:0:0:0:
199,379,159007,6,0,B|183:334|135:318|135:318|210:342|257:297|257:297|291:321|291:321|333:295|389:313,1,360.000013732911,0|0,0:0|0:0,0:0:0:0:
472,360,159351,6,0,B|494:196|494:196|437:247,1,240,2|0,0:0|0:0,0:0:0:0:
307,221,159869,2,0,B|285:57|285:57|342:108,1,240,2|0,0:0|0:0,0:0:0:0:
383,311,160386,2,0,B|299:319|299:319|249:304|249:304|206:349|206:349|152:335|152:335|44:346,1,360,2|0,0:0|0:0,0:0:0:0:
0,128,161075,6,0,L|44:133,1,45.0000017166138,0|0,0:0|0:0,0:0:0:0:
88,176,161248,1,0,0:0:0:0:
88,176,161334,1,0,0:0:0:0:
88,176,161420,5,0,0:0:0:0:
126,153,161506,1,0,0:0:0:0:
170,147,161592,1,2,0:0:0:0:
213,160,161678,1,0,0:0:0:0:
247,189,161764,1,8,0:0:0:0:
281,218,161852,1,0,0:0:0:0:
324,231,161938,1,0,0:0:0:0:
368,225,162024,1,0,0:0:0:0:
407,203,162110,6,0,L|392:292,1,60,2|0,0:0|0:0,0:0:0:0:
384,344,162282,1,0,0:0:0:0:
384,344,162455,2,0,P|320:324|268:340,1,120,8|0,0:0|0:0,0:0:0:0:
176,384,162800,1,0,0:0:0:0:
176,384,162972,1,2,0:0:0:0:
128,286,163144,2,0,P|116:230|124:153,1,120,8|0,0:0|0:0,0:0:0:0:
100,56,163489,6,0,L|12:44,1,60,0|0,0:0|0:0,0:0:0:0:
180,160,163834,2,0,L|92:172,1,60,8|0,0:0|0:0,0:0:0:0:
260,52,164179,2,0,L|172:40,1,60,2|0,0:0|0:0,0:0:0:0:
340,156,164524,2,0,L|252:168,1,60,8|0,0:0|0:0,0:0:0:0:
424,272,164869,6,0,L|512:260,1,60,2|0,0:0|0:0,0:0:0:0:
344,376,165214,2,0,L|432:388,1,60,8|0,0:0|0:0,0:0:0:0:
264,268,165557,2,0,L|352:256,1,60,2|0,0:0|0:0,0:0:0:0:
184,372,165902,2,0,L|272:384,1,60,8|0,0:0|0:0,0:0:0:0:
144,268,166248,6,0,P|160:228|156:196,1,60,2|0,0:0|0:0,0:0:0:0:
180,80,166593,2,0,P|220:96|252:92,1,60,8|0,0:0|0:0,0:0:0:0:
368,116,166938,2,0,P|352:156|356:188,1,60,2|0,0:0|0:0,0:0:0:0:
332,304,167283,2,0,P|292:288|260:292,1,60,8|0,0:0|0:0,0:0:0:0:
144,268,167627,6,0,P|136:292|144:332,1,60,2|0,0:0|0:0,0:0:0:0:
180,80,167972,2,0,P|156:72|116:80,1,60,8|0,0:0|0:0,0:0:0:0:
368,116,168317,2,0,P|376:92|368:52,1,60,2|0,0:0|0:0,0:0:0:0:
332,304,168662,2,0,P|356:312|396:304,1,60,8|2,1:1|1:0,0:0:0:0:
240,324,169007,5,8,0:0:0:0:
52,356,169179,1,2,0:0:0:0:
226,245,169351,5,8,0:0:0:0:
35,243,169523,1,2,0:0:0:0:
237,167,169696,5,8,0:0:0:0:
49,132,169868,1,2,0:0:0:0:
270,95,170041,5,8,0:0:0:0:
91,28,170213,1,2,0:0:0:0:
419,238,170386,5,8,0:0:0:0:
131,133,170558,1,2,0:0:0:0:
142,277,170731,5,8,0:0:0:0:
376,80,170903,1,2,0:0:0:0:
375,303,171075,5,8,0:0:0:0:
170,75,171248,1,2,0:0:0:0:
112,208,171420,5,8,0:0:0:0:
412,144,171593,1,2,0:0:0:0:
16,152,171765,5,8,0:0:0:0:
63,106,171851,1,2,0:0:0:0:
127,96,171937,1,2,0:0:0:0:
186,124,172023,1,0,0:0:0:0:
218,182,172109,1,8,0:0:0:0:
249,239,172196,1,2,0:0:0:0:
308,268,172282,1,2,0:0:0:0:
373,258,172368,1,0,0:0:0:0:
420,212,172455,6,0,L|412:160,7,45.0000017166138,2|2|2|2|2|2|2|2,0:0|0:0|0:0|0:0|0:0|0:0|0:0|0:0,0:0:0:0:
424,128,172800,2,0,L|416:76,7,45.0000017166138,2|2|2|2|2|2|2|2,0:0|0:0|0:0|0:0|0:0|0:0|0:0|0:0,0:0:0:0:
424,44,173144,86,0,B|-1789:-2712|-1574:-6575|2419:-8056|3480:-10191|3480:-10191|3169:-7827|5710:-4305|3703:-964|425:60|425:60|2269:-2823|6084:-3636|8821:-439|11136:-46|11136:-46|8886:375|6275:3797|2543:2995|425:60|425:60|3750:1170|5753:4481|3469:8098|3842:10430|3842:10430|2637:8375|-1306:7003|-1809:3042|425:60|425:60|391:3809|-2007:6693|-6228:5598|-8397:6624|-8397:6624|-6733:4962|-6698:659|-3078:-936|425:60|425:60|-3128:1362|-6681:-107|-6857:-4427|-8470:-6172|-8470:-6172|-6384:-5029|-2276:-6331|314:-3444|425:60,1,121320,2|2,0:0|0:0,0:0:0:0:
432,44,173834,5,0,0:0:0:0:
414,83,173920,1,0,0:0:0:0:
403,125,174006,1,2,0:0:0:0:
399,168,174092,1,0,0:0:0:0:
402,211,174177,5,8,0:3:0:0:
407,286,174265,1,8,0:3:0:0:
353,338,174351,1,4,0:3:0:0:
278,330,174437,1,4,0:3:0:0:
236,268,174523,5,6,0:0:0:0:
236,268,174608,1,0,0:0:0:0:
236,268,174696,2,0,P|232:216|244:172,1,90.0000034332277,0|0,0:0|0:0,0:0:0:0:
208,56,174867,1,2,0:0:0:0:
208,56,174953,2,0,L|328:80,1,90.0000034332277,0|0,0:0|0:0,0:0:0:0:
416,0,175127,6,0,P|408:44|416:100,1,90.0000034332277,0|0,0:0|0:0,0:0:0:0:
472,188,175298,1,0,0:0:0:0:
472,188,175384,2,0,P|476:232|468:276,1,90.0000034332277,0|0,0:0|0:0,0:0:0:0:
392,352,175558,1,2,0:0:0:0:
341,301,175644,1,0,0:0:0:0:
272,283,175730,1,0,0:0:0:0:
204,302,175815,6,0,P|144:312|108:304,1,90.0000034332277,0|0,0:0|0:0,0:0:0:0:
160,179,175989,1,0,0:0:0:0:
160,179,176075,2,0,P|220:169|256:177,1,90.0000034332277,0|0,0:0|0:0,0:0:0:0:
384,224,176246,1,2,0:0:0:0:
384,224,176334,1,0,0:0:0:0:
384,224,176420,2,0,L|368:128,1,90.0000034332277,0|0,0:0|0:0,0:0:0:0:
445,70,176591,5,2,0:0:0:0:
388,36,176677,1,0,0:0:0:0:
324,44,176765,1,0,0:0:0:0:
278,91,176851,1,0,0:0:0:0:
248,174,176936,5,2,0:0:0:0:
202,221,177022,1,0,0:0:0:0:
138,229,177108,1,0,0:0:0:0:
82,196,177196,1,0,0:0:0:0:
157,126,177282,5,2,0:0:0:0:
157,126,177367,1,0,0:0:0:0:
157,126,177453,2,0,P|181:180|181:211,1,90.0000034332277,0|0,0:0|0:0,0:0:0:0:
109,315,177627,1,2,0:0:0:0:
109,315,177713,2,0,P|149:334|193:336,1,90.0000034332277,0|0,0:0|0:0,0:0:0:0:
260,301,177884,1,0,0:0:0:0:
311,250,177970,1,0,0:0:0:0:
329,181,178058,1,0,0:0:0:0:
310,113,178143,6,0,P|300:53|308:17,1,90.0000034332277,0|0,0:0|0:0,0:0:0:0:
426,70,178315,1,2,0:0:0:0:
420,89,178401,1,0,0:0:0:0:
420,110,178489,1,0,0:0:0:0:
423,131,178575,2,0,P|433:191|425:227,1,90.0000034332277,0|0,0:0|0:0,0:0:0:0:
389,283,178746,1,0,0:0:0:0:
407,352,178834,2,0,L|297:322,1,90.0000034332277,0|0,0:0|0:0,0:0:0:0:
250,311,179006,5,2,0:0:0:0:
179,314,179092,1,0,0:0:0:0:
120,353,179177,2,0,P|88:322|83:271,1,90.0000034332277,0|0,0:0|0:0,0:0:0:0:
118,217,179351,5,2,0:0:0:0:
117,145,179437,1,0,0:0:0:0:
80,85,179522,2,0,P|120:60|161:51,1,90.0000034332277,0|0,0:0|0:0,0:0:0:0:
210,106,179696,5,2,0:0:0:0:
278,125,179781,1,0,0:0:0:0:
347,107,179867,2,0,L|354:197,1,90.0000034332277,0|0,0:0|0:0,0:0:0:0:
242,332,180039,5,2,0:0:0:0:
242,332,180127,1,0,0:0:0:0:
242,332,180213,2,0,L|235:242,1,90.0000034332277,0|0,0:0|0:0,0:0:0:0:
123,77,180384,1,2,0:0:0:0:
123,77,180470,2,0,L|130:167,1,90.0000034332277,0|0,0:0|0:0,0:0:0:0:
29,293,180644,6,0,P|91:302|137:288,1,90.0000034332277,0|0,0:0|0:0,0:0:0:0:
235,242,180815,1,0,0:0:0:0:
235,242,180901,2,0,P|279:235|323:245,1,90.0000034332277,0|0,0:0|0:0,0:0:0:0:
398,372,181075,1,2,0:0:0:0:
449,321,181161,1,0,0:0:0:0:
467,252,181247,1,0,0:0:0:0:
448,184,181334,6,0,P|438:124|446:88,1,90.0000034332277,0|0,0:0|0:0,0:0:0:0:
317,19,181505,1,0,0:0:0:0:
317,19,181591,2,0,P|327:79|319:115,1,90.0000034332277,0|0,0:0|0:0,0:0:0:0:
261,149,181765,5,2,0:0:0:0:
190,152,181851,1,0,0:0:0:0:
131,191,181936,2,0,P|112:232|114:280,1,90.0000034332277,0|0,0:0|0:0,0:0:0:0:
163,330,182108,5,2,0:0:0:0:
234,327,182196,1,0,0:0:0:0:
293,288,182281,2,0,P|312:247|310:199,1,90.0000034332277,0|0,0:0|0:0,0:0:0:0:
296,130,182453,5,2,0:0:0:0:
334,70,182539,1,0,0:0:0:0:
397,38,182626,2,0,P|442:42|482:67,1,90.0000034332277,0|0,0:0|0:0,0:0:0:0:
512,158,182798,5,2,0:0:0:0:
512,158,182884,1,0,0:0:0:0:
512,158,182970,2,0,L|507:259,1,90.0000034332277,0|0,0:0|0:0,0:0:0:0:
430,350,183143,1,2,0:0:0:0:
430,350,183229,2,0,P|364:353|334:333,1,90.0000034332277,0|0,0:0|0:0,0:0:0:0:
278,257,183401,2,0,L|178:270,1,90.0000034332277,0|2,0:0|0:0,0:0:0:0:
125,149,183574,1,0,0:0:0:0:
125,149,183660,2,0,L|225:162,1,90.0000034332277,0|0,0:0|0:0,0:0:0:0:
280,121,183833,1,2,0:0:0:0:
351,133,183919,1,0,0:0:0:0:
406,178,184005,1,0,0:0:0:0:
430,248,184091,6,0,P|421:296|392:328,1,90.0000034332277,0|0,0:0|0:0,0:0:0:0:
280,338,184265,1,0,0:0:0:0:
280,338,184351,2,0,L|304:229,1,90.0000034332277,0|0,0:0|0:0,0:0:0:0:
298,33,184522,2,0,L|279:121,1,90.0000034332277,2|0,0:0|0:0,0:0:0:0:
176,180,184695,1,0,0:0:0:0:
176,180,184781,1,2,0:0:0:0:
176,180,184867,6,0,B|61:168|61:168|101:219,1,180,2|0,0:0|0:0,0:0:0:0:
280,338,185213,6,0,B|256:286|280:238|280:238|308:182|280:122,1,225,0|0,0:0|0:0,0:0:0:0:
172,36,185558,5,6,0:0:0:0:
172,36,185644,1,0,0:0:0:0:
172,36,185729,2,0,L|80:24,1,90.0000034332277,0|0,0:0|0:0,0:0:0:0:
279,121,185901,1,8,0:0:0:0:
279,121,185988,2,0,L|368:112,1,90.0000034332277,0|0,0:0|0:0,0:0:0:0:
448,188,186160,6,0,P|464:252|456:288,1,90.0000034332277,0|0,0:0|0:0,0:0:0:0:
320,364,186333,1,0,0:0:0:0:
320,364,186420,2,0,P|304:300|312:263,1,90.0000034332277,0|0,0:0|0:0,0:0:0:0:
348,212,186591,1,8,0:0:0:0:
364,141,186677,1,0,0:0:0:0:
344,73,186765,1,0,0:0:0:0:
289,24,186850,2,0,P|240:18|200:27,1,90.0000034332277,0|0,0:0|0:0,0:0:0:0:
109,111,187022,1,0,0:0:0:0:
109,111,187108,2,0,P|131:155|131:200,1,90.0000034332277,0|0,0:0|0:0,0:0:0:0:
69,324,187281,1,8,0:0:0:0:
69,324,187367,1,0,0:0:0:0:
69,324,187453,2,0,P|117:310|159:311,1,90.0000034332277,0|0,0:0|0:0,0:0:0:0:
331,384,187626,5,2,0:0:0:0:
269,360,187713,1,0,0:0:0:0:
236,304,187799,1,0,0:0:0:0:
244,239,187885,1,0,0:0:0:0:
291,164,187970,5,8,0:0:0:0:
300,99,188057,1,0,0:0:0:0:
267,44,188143,1,0,0:0:0:0:
206,20,188229,1,0,0:0:0:0:
178,138,188315,5,2,0:0:0:0:
178,138,188401,1,0,0:0:0:0:
178,138,188488,2,0,L|72:123,1,90.0000034332277,0|0,0:0|0:0,0:0:0:0:
236,304,188660,1,8,0:0:0:0:
236,304,188746,2,0,L|342:289,1,90.0000034332277,0|0,0:0|0:0,0:0:0:0:
379,241,188919,1,0,0:0:0:0:
403,173,189005,1,0,0:0:0:0:
392,102,189091,1,0,0:0:0:0:
343,43,189177,6,0,P|295:35|255:49,1,90.0000034332277,0|0,0:0|0:0,0:0:0:0:
160,104,189350,1,8,0:0:0:0:
141,110,189437,1,0,0:0:0:0:
120,110,189523,1,0,0:0:0:0:
96,104,189608,2,0,L|101:217,1,90.0000034332277,0|0,0:0|0:0,0:0:0:0:
121,266,189782,1,0,0:0:0:0:
76,327,189867,2,0,P|141:339|181:313,1,90.0000034332277,0|0,0:0|0:0,0:0:0:0:
228,300,190039,5,8,0:0:0:0:
299,303,190126,1,0,0:0:0:0:
358,342,190212,2,0,P|390:311|395:260,1,90.0000034332277,0|0,0:0|0:0,0:0:0:0:
340,68,190384,6,0,L|328:111,1,30,2|0,0:0|0:0,0:0:0:0:
421,178,190557,6,0,B|381:175|381:175|348:188|348:188|300:185,1,120,2|0,0:0|0:0,0:0:0:0:
192,188,190729,6,0,L|203:235,7,45.0000017166138,8|0|0|0|0|0|0|0,0:0|0:0|0:0|0:0|0:0|0:0|0:0|0:0,0:0:0:0:
176,108,191075,6,0,L|265:115,1,90.0000034332277,8|0,0:0|0:0,0:0:0:0:
500,156,191246,1,2,0:0:0:0:
498,164,191334,1,0,0:0:0:0:
496,173,191420,6,0,L|406:180,1,90.0000034332277,8|0,0:0|0:0,0:0:0:0:
176,252,191591,1,2,0:0:0:0:
178,260,191677,1,0,0:0:0:0:
180,269,191765,6,0,L|269:276,1,90.0000034332277,8|0,0:0|0:0,0:0:0:0:
500,320,191936,1,2,0:0:0:0:
498,328,192022,1,0,0:0:0:0:
496,337,192108,6,0,L|406:344,1,90.0000034332277,8|0,0:0|0:0,0:0:0:0:
260,356,192282,1,2,0:0:0:0:
258,364,192368,1,0,0:0:0:0:
256,372,192453,5,8,0:0:0:0:
312,184,192627,1,2,0:0:0:0:
310,192,192713,1,0,0:0:0:0:
308,200,192798,1,8,0:0:0:0:
364,12,192970,1,2,0:0:0:0:
362,20,193058,1,0,0:0:0:0:
360,28,193143,1,8,0:0:0:0:
312,184,193315,1,2,0:0:0:0:
124,184,193489,6,0,B|180:184|220:144|220:144|204:180|216:220,1,180,8|0,0:0|0:0,0:0:0:0:
248,320,193834,6,0,B|295:312|295:312|298:307|298:307|303:311|303:311|342:304,1,90.0000034332277,8|0,0:0|0:0,0:0:0:0:
512,240,194005,2,0,B|464:232|464:232|461:227|461:227|456:231|456:231|417:224,1,90.0000034332277,8|0,0:0|0:0,0:0:0:0:
248,144,194177,6,0,B|295:136|295:136|298:131|298:131|303:135|303:135|342:128,1,90.0000034332277,8|0,0:0|0:0,0:0:0:0:
512,64,194350,2,0,B|464:56|464:56|461:51|461:51|456:55|456:55|417:48,1,90.0000034332277,8|0,0:0|0:0,0:0:0:0:
192,0,194522,6,0,P|176:44|184:88,1,90.0000034332277,8|0,0:0|0:0,0:0:0:0:
57,151,194695,2,0,P|87:187|129:202,1,90.0000034332277,8|0,0:0|0:0,0:0:0:0:
121,343,194867,6,0,P|167:335|201:306,1,90.0000034332277,8|0,0:0|0:0,0:0:0:0:
320,384,195039,2,0,P|336:340|328:296,1,90.0000034332277,8|0,0:0|0:0,0:0:0:0:
256,192,195212,5,2,0:0:0:0:
257,137,195298,1,2,0:0:0:0:
297,99,195384,1,2,0:0:0:0:
351,102,195470,1,2,0:0:0:0:
388,142,195557,1,2,0:0:0:0:
385,197,195643,1,2,0:0:0:0:
346,233,195729,1,2,0:0:0:0:
291,231,195815,1,2,0:0:0:0:
256,192,195901,70,0,B|520:144|451:0|462:-42|462:-42|419:-53|327:-181|156:31|156:31|188:-228|29:-208|-5:-234|-5:-234|-30:-192|-181:-146|-37:79|-37:79|-280:-38|-309:115|-346:146|-346:146|-316:177|-314:337|-52:265|-52:265|-239:464|-99:544|-83:585|-83:585|-42:569|110:617|122:343|122:343|251:581|367:472|411:469|411:469|409:424|582:213|228:189,1,3660,2|2,0:1|0:1,0:0:0:0:
224,48,196246,1,8,0:1:0:0:
108,336,196418,1,2,0:1:0:0:
82,188,196590,6,0,B|145:177|145:177|201:201|201:201|260:192,1,180.000006866455,6|0,0:0|0:0,0:0:0:0:
488,150,196935,6,0,L|441:144,1,30,8|0,0:0|0:0,0:0:0:0:
333,125,197108,2,0,B|374:66|374:66|358:234,1,240,0|2,0:0|0:0,0:0:0:0:
185,346,197452,6,0,L|187:317,1,30,0|0,0:0|0:0,0:0:0:0:
358,233,197625,2,0,B|306:269|246:233|246:233|186:197|130:233,1,240,8|0,0:0|0:0,0:0:0:0:
303,149,197970,6,0,L|258:146,1,30,2|0,0:0|0:0,0:0:0:0:
132,231,198142,2,0,B|108:132|108:132|174:82|174:82|158:138,1,240,0|8,0:0|0:0,0:0:0:0:
69,329,198487,6,0,L|107:329,1,30,0|0,0:0|0:0,0:0:0:0:
280,293,198659,2,0,B|324:233|194:191|176:342|316:410,1,240,2|0,0:0|0:0,0:0:0:0:
430,295,199004,6,0,L|430:253,1,30,8|0,0:0|0:0,0:0:0:0:
364,124,199177,2,0,B|455:133|455:133|425:146,1,120,0|0,0:0|0:0,0:0:0:0:
176,181,199349,6,0,B|160:136|112:120|112:120|180:141|228:112|228:112|268:140|268:140|312:112|364:124,1,360.000013732911,2|0,0:0|0:0,0:0:0:0:
351,320,199694,2,0,P|326:284|328:240,1,90.0000034332277,8|0,0:0|0:0,0:0:0:0:
456,0,199866,2,0,P|481:36|479:80,1,90.0000034332277,0|0,0:0|0:0,0:0:0:0:
328,240,200039,6,0,B|288:244|288:244|283:240|283:240|280:245|280:245|240:249,1,90,2|0,0:0|0:0,0:0:0:0:
188,176,200383,6,0,P|236:156|284:168,1,90.0000034332277,8|0,0:0|0:0,0:0:0:0:
296,320,200556,2,0,P|248:339|200:327,1,90.0000034332277,0|0,0:0|0:0,0:0:0:0:
108,352,200728,2,0,B|97:305|97:305|104:266|104:266|81:235|81:235|68:180,1,180.000006866455,2|0,0:0|0:0,0:0:0:0:
32,52,201073,5,8,0:0:0:0:
79,25,201159,1,0,0:0:0:0:
134,19,201246,1,0,0:0:0:0:
186,35,201332,1,0,0:0:0:0:
212,116,201418,5,2,0:0:0:0:
259,143,201504,1,0,0:0:0:0:
314,149,201590,1,0,0:0:0:0:
366,133,201677,1,0,0:0:0:0:
424,72,201763,6,0,B|440:56|444:18|444:18|444:88|472:136,1,180,8|0,0:0|0:0,0:0:0:0:
512,260,202108,6,0,B|464:252|464:252|439:256|439:256|418:237|418:237|393:241|393:241|342:233,1,180.000006866455,2|0,0:0|0:0,0:0:0:0:
112,192,202452,6,0,L|148:188,1,30,8|0,0:0|0:0,0:0:0:0:
276,164,202625,2,0,B|224:108|224:108|236:272,1,240,0|2,0:0|0:0,0:0:0:0:
352,332,202970,6,0,L|322:335,1,30,0|0,0:0|0:0,0:0:0:0:
148,344,203142,2,0,B|125:267|125:267|144:186|144:186|122:109,1,240,8|0,0:0|0:0,0:0:0:0:
12,176,203487,6,0,L|52:192,1,30,2|0,0:0|0:0,0:0:0:0:
172,5,203659,2,0,B|40:69|40:69|140:121,1,240,0|8,0:0|0:0,0:0:0:0:
260,160,204004,6,0,L|257:205,1,30,0|0,0:0|0:0,0:0:0:0:
342,331,204177,2,0,B|243:355|243:355|193:289|193:289|249:305,1,240,2|0,0:0|0:0,0:0:0:0:
444,356,204521,6,0,L|460:268,1,90.0000034332277,8|0,0:0|0:0,0:0:0:0:
362,203,204694,2,0,L|346:115,1,90.0000034332277,0|0,0:0|0:0,0:0:0:0:
276,67,204866,2,0,B|395:79|395:79|343:118,1,180.000006866455,2|0,0:0|0:0,0:0:0:0:
172,185,205211,6,0,B|186:120|186:120|173:72|173:72|187:10,1,180,8|0,0:0|0:0,0:0:0:0:
24,118,205556,2,0,L|84:124,1,60,2|0,0:0|0:0,0:0:0:0:
124,280,205728,1,0,0:0:0:0:
124,280,205814,1,0,0:0:0:0:
124,280,205901,6,0,L|220:292,1,90.0000034332277,8|0,0:0|0:0,0:0:0:0:
443,196,206073,2,0,L|347:208,1,90.0000034332277,0|0,0:0|0:0,0:0:0:0:
316,338,206246,6,0,B|274:186|274:186|379:128|379:128|353:207,1,360.000013732911,2|8,0:0|0:0,0:0:0:0:
56,37,206935,2,0,P|44:78|52:130,1,90.0000034332277,2|0,0:0|0:0,0:0:0:0:
170,176,207108,1,0,0:0:0:0:
170,176,207194,2,0,B|179:49|179:49|143:87,1,180.000006866455,2|0,0:0|0:0,0:0:0:0:
144,88,207452,2,0,L|236:106,1,90.0000034332277,0|0,0:0|0:0,0:0:0:0:
328,48,207625,6,0,B|346:105|346:105|330:160|330:160|350:221,1,180.000006866455,2|2,0:0|0:0,0:0:0:0:
371,263,207883,1,2,0:0:0:0:
417,275,207970,1,8,0:3:0:0:
457,249,208056,1,8,0:3:0:0:
464,201,208142,1,4,0:3:0:0:
433,165,208228,1,4,0:3:0:0:
338,139,208314,6,0,L|250:155,1,90.0000034332277,6|0,0:0|0:0,0:0:0:0:
160,172,208487,1,0,0:0:0:0:
256,352,208659,1,8,0:0:0:0:
56,332,208832,1,0,0:0:0:0:
56,332,208918,1,0,0:0:0:0:
56,332,209004,6,0,L|80:292,1,30,2|0,0:0|0:0,0:0:0:0:
160,172,209177,2,0,B|-4:156|-4:156|60:204,1,240,0|8,0:0|0:0,0:0:0:0:
416,300,209521,6,0,L|384:309,1,30,0|0,0:0|0:0,0:0:0:0:
244,344,209694,2,0,B|208:292|244:232|244:232|280:172|245:118,1,240,2|0,0:0|0:0,0:0:0:0:
60,64,210039,6,0,P|120:44|156:48,1,90.0000034332277,8|0,0:0|0:0,0:0:0:0:
245,118,210211,2,0,P|289:117|331:100,1,90.0000034332277,0|0,0:0|0:0,0:0:0:0:
440,56,210383,6,0,B|392:16|392:16|416:132,1,180.000006866455,2|0,0:0|0:0,0:0:0:0:
440,256,210642,1,0,0:0:0:0:
440,256,210728,2,0,B|316:240|316:240|364:272,1,180.000006866455,8|0,0:0|0:0,0:0:0:0:
484,356,211073,2,0,B|424:348|424:348|370:362|370:362|306:354,1,180.000006866455,2|0,0:0|0:0,0:0:0:0:
176,268,211418,2,0,B|192:248|192:216|192:216|220:280|192:336,1,180.000006866455,8|0,0:0|0:0,0:0:0:0:
62,335,211763,6,0,B|38:147|38:147|92:208,1,270.000010299683,2|0,0:0|0:0,0:0:0:0:
176,268,212108,5,8,0:0:0:0:
228,293,212194,1,0,0:0:0:0:
285,278,212280,1,0,0:0:0:0:
317,228,212366,1,0,0:0:0:0:
298,111,212452,5,2,0:0:0:0:
330,61,212539,1,0,0:0:0:0:
387,46,212625,1,0,0:0:0:0:
440,72,212711,1,0,0:0:0:0:
496,160,212797,6,0,B|486:211|486:211|496:241|496:241|486:292,1,135.000005149841,8|0,0:0|0:0,0:0:0:0:
480,316,213142,5,12,0:0:0:0:
204,192,213314,1,2,0:0:0:0:
188,194,213487,1,2,0:0:0:0:
440,72,213659,5,8,0:0:0:0:
172,196,213832,1,2,0:0:0:0:
157,199,214004,1,2,0:0:0:0:
424,376,214177,5,8,0:0:0:0:
141,201,214349,1,2,0:0:0:0:
472,152,214521,5,12,0:0:0:0:
126,203,214694,1,2,0:0:0:0:
110,206,214866,1,2,0:0:0:0:
480,316,215039,5,8,0:0:0:0:
95,208,215211,1,2,0:0:0:0:
79,210,215383,1,2,0:0:0:0:
440,72,215556,5,8,0:0:0:0:
63,213,215728,1,2,0:0:0:0:
184,24,215901,5,12,0:0:0:0:
184,24,215987,1,0,0:0:0:0:
184,24,216073,2,0,B|193:71|193:71|190:100|190:100|199:143,1,120,2|2,0:0|0:0,0:0:0:0:
424,120,216246,5,8,0:0:0:0:
424,120,216332,1,0,0:0:0:0:
424,120,216418,2,0,B|377:129|377:129|348:126|348:126|305:135,1,120,2|2,0:0|0:0,0:0:0:0:
328,360,216590,5,8,0:0:0:0:
328,360,216677,1,0,0:0:0:0:
328,360,216763,2,0,B|319:313|319:313|322:284|322:284|313:241,1,120,2|2,0:0|0:0,0:0:0:0:
88,264,216935,5,8,0:0:0:0:
88,264,217021,1,0,0:0:0:0:
88,264,217108,2,0,B|135:254|135:254|164:258|164:258|207:249,1,120,2|2,0:0|0:0,0:0:0:0:
402,67,217280,5,8,0:0:0:0:
467,95,217366,1,2,0:0:0:0:
499,160,217452,1,2,0:0:0:0:
480,229,217539,1,2,0:0:0:0:
421,270,217625,1,8,0:0:0:0:
350,262,217711,1,2,0:0:0:0:
301,209,217797,1,2,0:0:0:0:
252,156,217883,1,2,0:0:0:0:
181,149,217970,1,8,0:0:0:0:
122,189,218056,1,2,0:0:0:0:
104,258,218142,1,2,0:0:0:0:
135,323,218228,1,2,0:0:0:0:
196,360,218314,70,0,B|174:679|358:642|404:667|404:667|429:621|602:551|407:296|407:296|695:406|717:219|757:186|757:186|716:146|706:-39|408:61|408:61|611:-183|444:-259|419:-310|419:-310|375:-285|192:-328|199:-9|199:-9|25:-280|-105:-142|-156:-135|-156:-135|-149:-83|-248:76|60:168|60:168|-247:247|-155:411|-165:462|-165:462|-113:473|78:730|200:348,1,4320,2|0,0:0|2:0,0:0:0:0:
395,170,218656,6,0,L|388:246,1,60,6|0,0:3|0:0,0:0:0:0:
315,324,219000,2,0,L|322:400,1,60,8|0,0:0|0:0,0:0:0:0:
282,82,219518,6,0,B|160:92|160:92|211:120,1,180.000006866455,2|8,0:0|0:0,0:0:0:0:
117,170,220035,6,0,L|124:246,1,60,0|2,0:0|0:0,0:0:0:0:
197,324,220380,2,0,L|190:400,1,60,8|0,0:0|0:0,0:0:0:0:
230,82,220897,6,0,B|351:92|351:92|300:120,1,180.000006866455,2|8,0:0|0:0,0:0:0:0:
57,175,221414,6,0,L|133:168,1,60,2|2,0:0|0:0,0:0:0:0:
211,95,221759,2,0,L|287:102,1,60,8|0,0:0|0:0,0:0:0:0:
357,246,222276,6,0,B|339:372|339:372|315:326,1,180.000006866455,2|8,0:0|0:0,0:0:0:0:
455,175,222793,6,0,L|384:160,1,60,0|2,0:0|0:0,0:0:0:0:
301,95,223138,2,0,L|225:102,1,60,8|0,0:0|0:0,0:0:0:0:
155,246,223656,6,0,B|173:372|173:372|197:326,2,180.000006866455,2|8|2,0:0|0:0|0:0,0:0:0:0:
128,84,224173,5,2,0:0:0:0:
366,186,224518,2,0,L|357:245,1,60,8|0,0:0|0:0,0:0:0:0:
146,186,225035,2,0,L|154:245,2,60,2|8|0,0:0|0:0|0:0,0:0:0:0:
328,80,225552,2,0,L|396:72,1,60,0|2,0:0|0:0,0:0:0:0:
184,80,225897,2,0,L|116:72,1,60,8|0,0:0|0:0,0:0:0:0:
328,80,226414,2,0,L|396:72,2,60,2|8|0,0:0|0:0|0:0,0:0:0:0:
256,256,226932,5,2,0:0:0:0:
256,256,227104,1,0,0:0:0:0:
256,256,227276,2,0,L|256:192,1,60,8|0,0:0|0:0,0:0:0:0:
256,256,227794,1,2,0:0:0:0:
256,256,227966,2,0,L|256:192,1,60,8|0,0:0|0:0,0:0:0:0:
184,80,228311,6,0,L|116:72,1,60,0|2,0:0|0:0,0:0:0:0:
328,80,228656,2,0,L|396:72,1,60,8|0,0:0|0:0,0:0:0:0:
256,256,229001,2,0,L|256:300,1,30,0|0,0:0|0:0,0:0:0:0:
300,360,229173,1,2,0:0:0:0:
256,376,229259,1,2,0:0:0:0:
212,360,229345,2,0,P|168:352|144:356,1,60,8|2,0:0|0:0,0:0:0:0:
48,384,229690,5,2,0:0:0:0:
108,152,230035,1,8,0:0:0:0:
48,384,230552,5,2,0:0:0:0:
76,268,230724,1,8,0:0:0:0:
339,88,231069,5,0,0:0:0:0:
224,121,231242,1,2,0:0:0:0:
108,152,231414,1,8,0:0:0:0:
224,121,231587,1,0,0:0:0:0:
339,88,231932,5,2,0:0:0:0:
224,121,232103,1,8,0:0:0:0:
510,257,232449,5,2,0:0:0:0:
510,257,232621,1,2,0:0:0:0:
425,172,232794,1,8,0:0:0:0:
425,172,232966,1,0,0:0:0:0:
425,172,233311,5,2,0:0:0:0:
339,88,233483,1,8,0:0:0:0:
339,88,233828,5,0,0:0:0:0:
425,172,234001,1,2,0:0:0:0:
510,257,234173,1,8,0:0:0:0:
425,172,234345,5,0,0:0:0:0:
425,172,234518,1,0,0:0:0:0:
425,172,234690,1,2,0:0:0:0:
510,257,234863,5,8,0:0:0:0:
510,257,235035,1,0,0:0:0:0:
396,289,235207,5,2,0:0:0:0:
456,57,235552,1,8,0:0:0:0:
396,289,236069,5,2,0:0:0:0:
425,172,236242,1,8,0:0:0:0:
396,289,236587,5,0,0:0:0:0:
425,172,236758,1,2,0:0:0:0:
456,57,236932,1,8,0:0:0:0:
425,172,237104,1,0,0:0:0:0:
456,57,237449,5,2,0:0:0:0:
425,172,237621,1,8,0:0:0:0:
396,289,237794,1,0,0:0:0:0:
256,192,237966,5,2,0:0:0:0:
256,192,238138,1,2,0:0:0:0:
256,192,238311,1,8,0:0:0:0:
256,192,238656,5,0,0:0:0:0:
256,192,238828,1,2,0:0:0:0:
256,192,239001,1,8,0:0:0:0:
256,192,239345,5,0,0:0:0:0:
256,192,239517,1,2,0:0:0:0:
256,192,239690,1,2,0:0:0:0:
256,192,239863,1,2,0:0:0:0:
256,192,240035,1,0,0:0:0:0:
256,192,240207,2,0,L|256:236,2,30,2|2|2,0:0|0:0|0:0,0:0:0:0:
256,192,240552,1,2,0:0:0:0:
256,192,240731,6,0,B|-1181:-803|-1623:-2655|34:-3955|228:-5143|228:-5143|421:-3955|2108:-2655|1665:-803|256:192|256:192|725:-1466|2357:-2406|4126:-1273|5315:-1439|5315:-1439|4264:-886|3545:1049|1638:1242|256:192|256:192|1942:192|3407:1463|2799:3481|3352:4504|3352:4504|2495:3730|421:3647|-324:1878|256:192|256:192|725:1878|34:3620|-2066:3730|-2951:4532|-2951:4532|-2398:3481|-3006:1436|-1513:192|256:192|256:192|-1181:1242|-3089:1076|-3835:-886|-4831:-1466|-4831:-1466|-3697:-1273|-1928:-2434|-296:-1466|256:192,1,59700,8|8,0:0|0:0,0:0:0:0:
240,272,243141,5,0,0:0:0:0:
172,98,243486,6,0,B|220:110|264:102|264:102|524:10|120:-182|296:194|296:194|252:222|240:274,1,660,2|0,0:0|0:0,0:0:0:0:
357,296,245900,1,0,0:0:0:0:
127,271,246245,6,0,B|215:231|219:115|219:115|255:175|331:171|331:171|231:239|199:367|263:503|419:479|483:351|407:275|331:299,1,840,2|0,0:0|0:0,0:0:0:0:
127,271,249003,1,2,0:0:0:0:
102,161,250038,2,0,P|134:225|118:285,1,120,0|2,0:0|0:0,0:0:0:0:
0,384,251072,1,2,0:0:0:0:
102,161,251762,6,0,B|66:161|66:161|103:153|122:121|122:121|186:165|398:179|354:17|114:-71|226:245|226:245|158:453|-7:124|302:257,1,960,2|2,0:0|0:0,0:0:0:0:
319,341,255900,2,0,B|343:189|343:189|279:249,1,240,2|0,0:0|0:0,0:0:0:0:
83,110,257279,2,0,B|94:118|146:118|146:118|366:38|102:-93|98:42|190:198|190:198|226:338|122:314|18:258|54:158|210:130|394:142|306:338|280:247,1,960,2|2,0:0|0:0,0:0:0:0:
279,246,261417,6,0,L|385:288,1,40,2|0,0:0|0:0,0:0:0:0:
