osu file format v14

[General]
AudioFilename: audio.mp3
AudioLeadIn: 0
PreviewTime: 74869
Countdown: 0
SampleSet: None
StackLeniency: 0.2
Mode: 0
LetterboxInBreaks: 0
EpilepsyWarning: 1
WidescreenStoryboard: 1

[Editor]
Bookmarks: 9006,53144,53834,55041,62110,81765,85731,89696,107800,108058,108317,130731,141420,174004,192800,204693,211073,218317,218403,240728,244866,248486,251762,254521,260038,261414,262621,273483
DistanceSpacing: 0.3
BeatDivisor: 4
GridSize: 32
TimelineZoom: 2.300001

[Metadata]
Title:crystallized
TitleUnicode:crystallized
Artist:Camellia
ArtistUnicode:Camellia
Creator:-ckopoctb-
Version:Emilia's C9H13NO3
Source:
Tags:dnb chillout dubstep mlg sourpls relax slider Emilia Adore Livstvichka wajinshu
BeatmapID:1267365
BeatmapSetID:539221

[Difficulty]
HPDrainRate:6.7
CircleSize:4.4
OverallDifficulty:10
ApproachRate:9.7
SliderMultiplier:1.74
SliderTickRate:1

[Events]
//Background and Video events
0,0,"thumb-1920-712346.jpg",0,0
//Break Periods
2,130586,140925
//Storyboard Layer 0 (Background)
//Storyboard Layer 1 (Fail)
//Storyboard Layer 2 (Pass)
//Storyboard Layer 3 (Foreground)
//Storyboard Sound Samples

[TimingPoints]
9007,344.827586206897,4,1,0,20,1,0
9007,-142.857142857143,4,1,0,20,0,0
20213,-100,4,1,0,20,0,0
53144,-100,4,1,0,20,0,0
53834,-50,4,1,0,20,0,0
54524,-100,4,1,0,20,0,0
56420,-111.111111111111,4,1,0,20,0,0
56593,-125,4,1,0,20,0,0
56765,-142.857142857143,4,1,0,20,0,0
56938,-500,4,1,0,20,0,0
57282,-100,4,1,0,20,0,0
59007,-50,4,1,0,20,0,0
59351,-33.3333333333333,4,1,0,20,0,0
59696,-50,4,1,0,20,0,0
60041,-100,4,1,0,20,0,0
61765,-50,4,1,0,20,0,0
62800,-100,4,1,0,20,0,0
63144,-66.6666666666667,4,1,0,20,0,0
63834,-100,4,1,0,20,0,0
64869,-50,4,1,0,20,0,0
65558,-100,4,1,0,20,0,0
67282,-33.3333333333333,4,1,0,20,0,0
67972,-50,4,1,0,20,0,0
68317,-100,4,1,0,20,0,0
70041,-50,4,1,0,20,0,0
70558,-33.3333333333333,4,1,0,20,0,0
71075,-100,4,1,0,20,0,0
84869,-142.857142857143,4,1,0,20,0,0
85558,-100,4,1,0,20,0,0
89007,-200,4,1,0,20,0,0
89351,-100,4,1,0,20,0,0
91420,-50,4,1,0,20,0,0
91765,-100,4,1,0,20,0,0
94524,-200,4,1,0,20,0,0
94869,-33.3333333333333,4,1,0,20,0,0
95213,-50,4,1,0,20,0,0
96075,-100,4,1,0,20,0,0
96248,-33.3333333333333,4,1,0,20,0,0
96938,-66.6666666666667,4,1,0,20,0,0
97282,-100,4,1,0,20,0,0
100041,-200,4,1,0,20,0,0
100386,-100,4,1,0,20,0,0
102455,-50,4,1,0,20,0,0
102800,-200,4,1,0,20,0,0
103144,-100,4,1,0,20,0,0
105558,-200,4,1,0,20,0,0
105903,-33.3333333333333,4,1,0,20,0,0
106248,-50,4,1,0,20,0,0
106938,-66.6666666666667,4,1,0,20,0,0
107800,-111.111111111111,4,1,0,20,0,0
108058,-200,4,1,0,20,0,0
108317,-66.6666666666667,4,1,0,20,0,0
111075,-200,4,1,0,20,0,0
111765,-66.6666666666667,4,1,0,20,0,0
112110,-50,4,1,0,20,0,0
112455,-100,4,1,0,20,0,0
112972,-50,4,1,0,20,0,0
113144,-33.3333333333333,4,1,0,20,0,0
113489,-50,4,1,0,20,0,0
113834,-66.6666666666667,4,1,0,20,0,0
115903,-50,4,1,0,20,0,0
116593,-66.6666666666667,4,1,0,20,0,0
117282,-100,4,1,0,20,0,0
117972,-50,4,1,0,20,0,0
119351,-200,4,1,0,20,0,0
120041,-66.6666666666667,4,1,0,20,0,0
121420,-50,4,1,0,20,0,0
122455,-66.6666666666667,4,1,0,20,0,0
122800,-100,4,1,0,20,0,0
123834,-66.6666666666667,4,1,0,20,0,0
124179,-33.3333333333333,4,1,0,20,0,0
124524,-50,4,1,0,20,0,0
124869,-66.6666666666667,4,1,0,20,0,0
126938,-66.6666666666667,4,1,0,20,0,0
127282,-200,4,1,0,20,0,0
127627,-66.6666666666667,4,1,0,20,0,0
141420,-142.857142857143,4,1,0,20,0,0
151765,-200,4,1,0,20,0,0
152455,-100,4,1,0,20,0,0
153144,-50,4,1,0,20,0,0
153834,-100,4,1,0,20,0,0
155731,-111.111111111111,4,1,0,20,0,0
155903,-125,4,1,0,20,0,0
156075,-142.857142857143,4,1,0,20,0,0
156248,-500,4,1,0,20,0,0
156593,-100,4,1,0,20,0,0
158317,-50,4,1,0,20,0,0
158662,-33.3333333333333,4,1,0,20,0,0
159007,-50,4,1,0,20,0,0
159351,-100,4,1,0,20,0,0
161075,-50,4,1,0,20,0,0
161420,-66.6666666666667,4,1,0,20,0,0
162111,-50,4,1,0,20,0,0
162972,-66.6666666666667,4,1,0,20,0,0
163144,-142.857142857143,4,1,0,20,0,0
163489,-100,4,1,0,20,0,0
173144,-142.857142857143,4,1,0,20,0,0
173834,-100,4,1,0,20,0,0
179696,-50,4,1,0,20,0,0
180041,-100,4,1,0,20,0,0
183144,-50,4,1,0,20,0,0
183489,-66.6666666666667,4,1,0,20,0,0
183834,-100,4,1,0,20,0,0
184524,-50,4,1,0,20,0,0
184869,-66.6666666666667,4,1,0,20,0,0
185213,-200,4,1,0,20,0,0
185558,-100,4,1,0,20,0,0
190731,-50,4,1,0,20,0,0
191075,-100,4,1,0,20,0,0
193144,-50,4,1,0,20,0,0
193489,-200,4,1,0,20,0,0
193834,-100,4,1,0,20,0,0
194179,-50,4,1,0,20,0,0
194524,-66.6666666666667,4,1,0,20,0,0
194869,-100,4,1,0,20,0,0
196075,-66.6666666666667,4,1,0,20,0,0
196420,-50,4,1,0,20,0,0
207627,-100,4,1,0,20,0,0
208317,-50,4,1,0,20,0,0
215903,-40,4,1,0,20,0,0
218231,-100,4,1,0,20,0,0
218662,1E-72,4,1,0,20,1,0
218746,344.827586206897,4,1,0,20,1,0
218832,344.827586206897,4,1,0,20,1,0
219005,344.827586206897,4,1,0,20,1,0
220039,344.827586206897,4,1,0,20,1,0
229693,1E-72,4,1,0,20,1,0
229780,344.827586206897,4,1,0,20,1,0
230038,1E-72,4,1,0,20,1,0
230124,344.827586206897,4,1,0,20,1,0
230382,1E-72,4,1,0,20,1,0
230468,344.827586206897,4,1,0,20,1,0
230726,1E-72,4,1,0,20,1,0
230812,344.827586206897,4,1,0,20,1,0
231070,344.827586206897,4,1,0,20,1,0
240725,-142.857142857143,4,1,0,20,0,0

[Colours]
Combo1 : 221,237,129
Combo2 : 255,219,145
Combo3 : 255,177,151
Combo4 : 255,136,166
Combo5 : 217,145,255
Combo6 : 151,153,255
Combo7 : 176,227,255
Combo8 : 163,237,158
SliderBorder : 170,166,227
SliderTrackOverride : 5,0,9

[HitObjects]
55,106,9007,6,0,B|120:112|167:146|185:202|170:263|115:272|62:258|38:202|67:156|137:121|176:122|211:146|211:146|193:105|206:53|206:53|242:97|291:96|291:96|247:149|253:209|253:209|283:237|278:288|278:288|238:249|176:278,1,913.499972122193,2|0,0:0|0:0,0:0:0:0:
218,339,11765,6,0,B|253:337|281:348|281:348|303:325|332:322|332:322|350:362|382:377|382:377|413:314|395:257|345:233|345:233|383:244|414:230,1,426.299986990357,2|0,0:0|0:0,0:0:0:0:
468,152,13144,6,0,B|335:140|335:140|369:150|387:177,1,182.699994424439,2|0,0:0|0:0,0:0:0:0:
275,208,13834,2,0,B|142:220|142:220|176:210|194:183,1,182.699994424439,0|0,0:0|0:0,0:0:0:0:
210,112,14524,6,0,B|215:67|184:19|184:19|166:55|125:61|125:61|156:107|145:176|75:195|14:177|1:119|16:84|16:84|-11:126|10:184|10:184|5:200|5:200|32:250|-8:289|-8:289|35:305|49:355|49:355|104:308|81:253|81:253|97:278|133:291,1,913.499972122193,2|0,0:0|0:0,0:0:0:0:
209,285,17282,6,0,B|182:335|199:385|263:402|306:369|315:315|285:282|285:282|324:307|365:294|365:294|390:303|390:303|431:262|485:275,1,426.299986990357,2|0,0:0|0:0,0:0:0:0:
334,224,18662,6,0,B|295:203|260:214|260:214|229:166|229:166|199:215|199:215|181:218|163:231|163:231|102:214|102:214|137:261|137:261|113:308|123:348,1,426.299986990357,2|0,0:0|0:0,0:0:0:0:
133,353,20041,5,2,0:0:0:0:
293,290,20213,2,0,L|340:299,2,43.5,0|0|0,0:0|0:0|0:0,0:0:0:0:
191,216,20558,2,0,L|144:225,2,43.5,0|0|0,0:0|0:0|0:0,0:0:0:0:
321,117,20903,2,0,L|368:126,2,43.5,0|0|0,0:0|0:0|0:0,0:0:0:0:
226,22,21248,2,0,P|226:53|236:89,1,43.5,0|0,0:0|0:0,0:0:0:0:
298,203,21420,5,0,0:0:0:0:
298,203,21593,2,0,P|271:187|234:178,1,43.5,0|0,0:0|0:0,0:0:0:0:
105,174,21765,1,0,0:0:0:0:
105,174,21938,2,0,P|131:158|158:131,1,43.5,0|0,0:0|0:0,0:0:0:0:
226,22,22110,1,0,0:0:0:0:
226,22,22282,2,0,P|226:53|236:89,1,43.5,0|0,0:0|0:0,0:0:0:0:
298,203,22455,2,0,P|351:201|394:149,1,87,0|0,0:0|0:0,0:0:0:0:
387,157,22713,1,0,0:0:0:0:
383,130,22800,6,0,L|278:122,1,87,2|0,0:0|0:0,0:0:0:0:
269,121,23058,1,0,0:0:0:0:
243,119,23144,1,0,0:0:0:0:
138,194,23317,1,0,0:0:0:0:
164,192,23403,1,0,0:0:0:0:
190,191,23489,1,0,0:0:0:0:
363,266,23662,1,0,0:0:0:0:
337,264,23748,1,0,0:0:0:0:
311,263,23834,1,0,0:0:0:0:
121,361,24007,1,0,0:0:0:0:
147,359,24093,1,0,0:0:0:0:
173,358,24179,5,2,0:0:0:0:
302,378,24351,1,0,0:0:0:0:
360,199,24524,2,0,P|290:184|233:249,1,130.5,8|0,0:0|0:0,0:0:0:0:
239,241,24869,1,2,0:0:0:0:
317,105,25041,2,0,P|326:71|324:47,1,43.5,0|0,0:0|0:0,0:0:0:0:
234,4,25213,2,0,L|242:133,1,87,8|0,0:0|0:0,0:0:0:0:
239,241,25558,5,2,0:0:0:0:
157,87,25731,2,0,L|171:157,1,43.5,0|0,0:0|0:0,0:0:0:0:
297,285,25903,2,0,P|311:236|282:183,1,87,8|0,0:0|0:0,0:0:0:0:
196,316,26248,1,0,0:0:0:0:
402,355,26420,2,0,P|371:336|351:333,1,43.5,0|0,0:0|0:0,0:0:0:0:
172,319,26593,2,0,L|62:329,1,87,8|0,0:0|0:0,0:0:0:0:
280,384,26938,6,0,P|276:343|259:314,1,43.5,2|0,0:0|0:0,0:0:0:0:
238,221,27110,2,0,P|281:241|348:172,1,130.5,0|0,0:0|0:0,0:0:0:0:
343,170,27455,1,8,0:0:0:0:
161,248,27627,1,0,0:0:0:0:
280,116,27800,2,0,P|287:83|287:66,1,43.5,2|0,0:0|0:0,0:0:0:0:
186,2,27972,2,0,L|194:111,1,87,8|0,0:0|0:0,0:0:0:0:
195,114,28231,1,0,0:0:0:0:
198,139,28317,6,0,P|153:165|90:142,1,87,2|0,0:0|0:0,0:0:0:0:
5,236,28662,2,0,P|71:240|111:278,1,87,8|0,0:0|0:0,0:0:0:0:
102,270,28920,1,0,0:0:0:0:
108,295,29007,1,0,0:0:0:0:
107,321,29093,1,0,0:0:0:0:
99,345,29179,1,2,0:0:0:0:
192,249,29351,2,0,P|227:273|284:269,1,87,8|0,0:0|0:0,0:0:0:0:
374,184,29696,5,10,0:0:0:0:
291,358,29869,1,0,0:0:0:0:
484,343,30041,1,0,0:0:0:0:
374,184,30213,2,0,P|369:232|372:258,1,43.5,8|0,0:0|0:0,0:0:0:0:
409,379,30386,1,0,0:0:0:0:
411,353,30472,1,8,0:0:0:0:
407,327,30558,1,0,0:0:0:0:
248,272,30731,2,0,P|191:284|156:319,1,87,8|0,0:0|0:0,0:0:0:0:
129,378,30989,1,8,0:0:0:0:
106,365,31075,6,0,P|59:346|19:353,1,87,2|0,0:0|0:0,0:0:0:0:
107,261,31420,1,8,0:0:0:0:
186,184,31593,1,0,0:0:0:0:
194,164,31679,1,0,0:0:0:0:
199,142,31765,1,0,0:0:0:0:
199,121,31851,1,0,0:0:0:0:
195,99,31937,1,2,0:0:0:0:
14,189,32110,2,0,L|24:290,1,87,8|0,0:0|0:0,0:0:0:0:
110,135,32455,5,2,0:0:0:0:
51,54,32627,1,2,0:0:0:0:
180,17,32800,2,0,P|230:22|275:73,1,87,0|8,0:0|0:0,0:0:0:0:
255,69,33058,1,0,0:0:0:0:
251,94,33144,1,0,0:0:0:0:
247,120,33231,1,0,0:0:0:0:
244,145,33317,1,2,0:0:0:0:
435,59,33489,2,0,P|356:75|333:103,1,87,8|0,0:0|0:0,0:0:0:0:
339,288,33834,6,0,L|332:189,1,87,2|2,0:0|0:0,0:0:0:0:
412,133,34179,1,8,0:0:0:0:
468,265,34351,1,0,0:0:0:0:
476,284,34437,1,0,0:0:0:0:
480,306,34523,1,0,0:0:0:0:
478,327,34609,1,0,0:0:0:0:
470,348,34695,1,2,0:0:0:0:
294,350,34869,2,0,L|193:341,1,87,8|0,0:0|0:0,0:0:0:0:
183,351,35127,1,0,0:0:0:0:
158,361,35213,6,0,P|111:367|56:323,1,87,2|2,0:0|0:0,0:0:0:0:
206,259,35558,1,8,0:0:0:0:
307,366,35731,1,0,0:0:0:0:
303,340,35817,2,0,L|294:234,1,87,2|0,0:0|0:0,0:0:0:0:
314,181,36075,2,0,P|367:182|411:221,1,87,2|8,0:0|0:0,0:0:0:0:
189,252,36420,1,2,0:0:0:0:
249,122,36593,6,0,L|240:16,1,87,2|0,0:0|0:0,0:0:0:0:
168,168,36938,1,8,0:0:0:0:
322,175,37110,1,0,0:0:0:0:
331,155,37196,1,0,0:0:0:0:
336,134,37282,1,0,0:0:0:0:
335,112,37368,1,0,0:0:0:0:
329,92,37454,1,2,0:0:0:0:
176,89,37627,2,0,P|129:98|89:143,1,87,8|0,0:0|0:0,0:0:0:0:
175,259,37972,5,2,0:0:0:0:
233,149,38144,1,2,0:0:0:0:
88,263,38317,1,0,0:0:0:0:
244,370,38489,1,8,0:0:0:0:
254,351,38575,1,0,0:0:0:0:
260,330,38661,1,0,0:0:0:0:
260,308,38747,1,0,0:0:0:0:
253,287,38833,1,2,0:0:0:0:
79,354,39007,2,0,L|169:346,1,87,8|0,0:0|0:0,0:0:0:0:
339,362,39351,5,2,0:0:0:0:
275,209,39524,1,2,0:0:0:0:
371,106,39696,2,0,L|378:207,1,87,8|0,0:0|0:0,0:0:0:0:
362,215,39955,1,0,0:0:0:0:
381,231,40041,1,0,0:0:0:0:
406,238,40127,1,0,0:0:0:0:
432,237,40213,1,2,0:0:0:0:
462,129,40386,1,8,0:0:0:0:
286,176,40558,1,0,0:0:0:0:
333,0,40730,5,8,0:0:0:0:
372,207,40903,1,2,0:0:0:0:
244,109,41075,1,2,0:0:0:0:
443,169,41248,1,8,0:0:0:0:
449,189,41334,1,0,0:0:0:0:
451,211,41420,1,2,0:0:0:0:
447,232,41506,1,8,0:0:0:0:
438,252,41592,1,0,0:0:0:0:
322,305,41765,2,0,L|218:295,1,87,8|0,0:0|0:0,0:0:0:0:
213,311,42024,1,8,0:0:0:0:
188,319,42110,6,0,P|137:317|103:278,1,87,2|0,0:0|0:0,0:0:0:0:
224,216,42455,1,8,0:0:0:0:
275,81,42627,1,0,0:0:0:0:
285,99,42713,1,0,0:0:0:0:
291,120,42799,1,0,0:0:0:0:
292,142,42885,1,0,0:0:0:0:
288,163,42971,1,2,0:0:0:0:
124,130,43144,2,0,L|214:136,1,87,8|0,0:0|0:0,0:0:0:0:
351,215,43489,6,0,P|306:242|239:222,1,87,2|2,0:0|0:0,0:0:0:0:
161,206,43834,1,0,0:0:0:0:
213,59,44007,1,8,0:0:0:0:
214,80,44093,1,0,0:0:0:0:
216,102,44179,1,0,0:0:0:0:
218,123,44265,1,0,0:0:0:0:
220,145,44351,1,2,0:0:0:0:
94,248,44524,2,0,P|83:202|104:152,1,87,8|0,0:0|0:0,0:0:0:0:
221,301,44869,6,0,P|232:347|211:397,1,87,2|2,0:0|0:0,0:0:0:0:
184,224,45213,2,0,L|295:229,1,87,8|0,0:0|0:0,0:0:0:0:
295,237,45472,1,0,0:0:0:0:
313,218,45558,1,0,0:0:0:0:
322,193,45644,1,0,0:0:0:0:
322,166,45731,1,2,0:0:0:0:
378,270,45903,2,0,P|430:291|486:267,1,87,8|0,0:0|0:0,0:0:0:0:
404,184,46248,5,2,0:0:0:0:
302,307,46420,1,0,0:0:0:0:
246,157,46593,1,8,0:0:0:0:
393,167,46765,1,2,0:0:0:0:
414,166,46851,1,2,0:0:0:0:
436,165,46937,1,0,0:0:0:0:
458,165,47023,1,0,0:0:0:0:
479,164,47109,1,2,0:0:0:0:
338,24,47282,2,0,P|323:85|337:128,1,87,8|2,0:0|0:0,0:0:0:0:
383,253,47627,5,2,0:0:0:0:
406,75,47800,1,0,0:0:0:0:
241,147,47972,2,0,L|121:141,1,87,8|0,0:0|0:0,0:0:0:0:
123,139,48231,1,0,0:0:0:0:
97,138,48317,1,0,0:0:0:0:
70,137,48403,1,0,0:0:0:0:
44,135,48489,1,2,0:0:0:0:
102,297,48662,2,0,P|119:240|101:198,1,87,8|0,0:0|0:0,0:0:0:0:
19,332,49007,5,2,0:0:0:0:
189,275,49179,1,2,0:0:0:0:
152,366,49351,2,0,L|273:374,1,87,0|8,0:0|0:0,0:0:0:0:
269,374,49610,1,0,0:0:0:0:
294,356,49696,1,0,0:0:0:0:
307,328,49782,1,0,0:0:0:0:
305,297,49869,1,2,0:0:0:0:
191,197,50041,2,0,P|141:211|108:262,1,87,8|0,0:0|0:0,0:0:0:0:
310,217,50386,5,2,0:0:0:0:
310,211,50472,1,2,0:0:0:0:
311,206,50558,1,2,0:0:0:0:
312,200,50644,1,2,0:0:0:0:
313,195,50730,1,2,0:0:0:0:
313,190,50817,1,2,0:0:0:0:
314,184,50903,1,2,0:0:0:0:
315,179,50989,1,2,0:0:0:0:
316,173,51075,5,2,0:0:0:0:
305,192,51161,1,2,0:0:0:0:
300,213,51247,1,2,0:0:0:0:
301,235,51333,1,2,0:0:0:0:
309,255,51420,5,2,0:0:0:0:
366,283,51506,1,2,0:0:0:0:
425,259,51592,1,2,0:0:0:0:
446,200,51678,1,2,0:0:0:0:
416,144,51765,6,0,P|389:136|381:134,6,21.75,2|2|2|2|2|2|2,0:0|0:0|0:0|0:0|0:0|0:0|0:0,0:0:0:0:
333,93,52110,2,0,P|305:102|298:105,6,21.75,2|2|2|2|2|2|2,0:0|0:0|0:0|0:0|0:0|0:0|0:0,0:0:0:0:
356,78,52455,6,0,P|374:45|281:34,1,174,4|0,0:1|0:0,0:0:0:0:
191,154,53144,6,0,B|350:150|350:150|368:159|368:159|402:134|451:135|451:135|433:152|416:173,1,304.5,6|0,0:2|0:0,0:0:0:0:
356,376,53834,6,0,B|389:317|363:235|309:195|309:195|379:264|465:223|465:223|473:279|428:312|428:312|371:293|371:293|318:291|275:332,1,609,8|0,2:0|2:0,2:2:0:0:
212,361,54524,6,0,B|217:283|217:283|209:260|209:260|211:178,1,174,2|0,0:0|0:0,0:0:0:0:
136,377,55041,2,0,B|141:299|141:299|133:276|133:276|135:194,1,174,2|0,0:0|0:0,0:0:0:0:
277,122,55558,6,0,B|201:117|201:117|164:128|164:128|117:122|117:122|83:105|48:105|48:105|70:133|60:178,1,304.5,2|0,0:0|0:0,0:0:0:0:
26,240,56248,6,0,P|16:281|18:296,1,43.5,0|0,0:0|0:0,0:0:0:0:
26,240,56420,6,0,P|31:281|38:294,1,39.1499988052368,0|0,0:0|0:0,0:0:0:0:
26,240,56593,6,0,P|42:271|52:280,1,34.8,0|0,0:0|0:0,0:0:0:0:
26,240,56765,6,0,P|47:260|57:264,1,30.4499990707398,0|0,0:0|0:0,0:0:0:0:
26,240,56938,6,0,P|45:249|52:249,1,26.1,0|0,0:0|0:0,0:0:0:0:
26,240,57282,6,0,B|156:228|156:228|208:242,1,174,2|0,0:0|0:0,0:0:0:0:
398,163,57800,2,0,B|268:175|268:175|216:161,1,174,2|0,0:0|0:0,0:0:0:0:
324,66,58317,6,0,B|330:140|330:140|325:156|325:156|327:182|327:182|337:205|337:205|318:242|318:242|328:305|328:305|359:278|359:278|342:244,1,304.5,2|0,0:0|0:0,0:0:0:0:
255,124,59007,6,0,B|248:152|248:152|257:235,1,87,0|0,0:0|0:0,0:0:0:0:
398,163,59179,2,0,B|405:135|405:135|396:52,1,87,0|0,0:0|0:0,0:0:0:0:
237,283,59351,6,0,B|144:274|144:274|199:310,1,130.50000497818,0|0,0:0|0:0,0:0:0:0:
435,236,59524,2,0,B|528:227|528:227|473:263,1,130.50000497818,0|0,0:0|0:0,0:0:0:0:
317,248,59696,6,0,B|276:280|276:280|237:282|237:282|289:322|279:391|279:391|296:368|292:329,1,261.00000995636,0|0,0:0|0:0,0:0:0:0:
187,226,60041,6,0,P|140:213|168:290,1,174,2|0,0:0|0:0,0:0:0:0:
384,206,60558,2,0,P|406:162|325:174,1,174,2|0,0:0|0:0,0:0:0:0:
175,197,61075,6,0,B|427:192|427:192|476:211,1,304.5,2|0,0:0|0:0,0:0:0:0:
399,224,61765,6,0,B|366:260|372:337|416:367|416:367|429:326|453:308|453:308|438:308|409:328,1,261,2|0,0:0|0:0,0:0:0:0:
313,374,62110,1,0,0:0:0:0:
284,380,62282,2,0,P|221:372|194:339,1,87,2|0,0:0|0:0,0:0:0:0:
83,290,62455,2,0,B|176:283|176:283|194:288|194:288|211:281|211:281|297:274|297:274|272:289|257:322,1,261,8|0,0:0|0:0,0:0:0:0:
193,205,62800,6,0,P|181:170|255:174,1,130.5,2|0,0:0|0:0,0:0:0:0:
193,205,63144,6,0,B|110:198|110:198|95:205|95:205|-5:198,1,195.75000746727,8|0,0:0|0:0,0:0:0:0:
56,130,63489,1,2,0:0:0:0:
172,280,63662,2,0,P|178:323|167:363,1,65.2500024890901,2|0,0:0|0:0,0:0:0:0:
90,361,63834,2,0,L|102:219,1,130.5,8|0,0:0|0:0,0:0:0:0:
139,117,64179,6,0,B|126:12|126:12|201:73|201:73|163:182,1,304.5,2|0,0:0|0:0,0:0:0:0:
63,147,64869,6,0,B|112:126|112:126|138:143|138:143|163:139|163:139|191:155|191:155|239:128|239:128|271:134|271:134|327:126,1,261,0|0,0:0|0:0,0:0:0:0:
364,174,65213,2,0,P|306:204|249:181,1,87,0|0,0:0|0:0,0:0:0:0:
286,54,65386,2,0,P|328:56|363:82,1,87,0|0,0:0|0:0,0:0:0:0:
271,211,65558,6,0,B|398:220|398:220|472:253,1,174,2|0,0:0|0:0,0:0:0:0:
362,383,66075,2,0,B|386:290|386:290|475:338,1,174,2|0,0:0|0:0,0:0:0:0:
290,308,66593,2,0,B|264:346|264:346|160:378|160:378|80:322|80:322|146:328,1,304.5,2|0,0:0|0:0,0:0:0:0:
235,227,67282,6,0,B|263:272|182:322|143:280|187:239|225:276|235:204|219:169|219:169|242:184|280:200|327:183|339:151|336:128|328:116|294:102|270:105|258:112|245:132|252:174|279:208|323:221|356:210|378:168|381:109|368:73|326:55|282:55|282:55|255:57|235:74|226:84|226:84|149:53|190:-41|289:20|243:117|131:135,1,913.500034847261,0|0,0:0|0:0,0:0:0:0:
128,93,67972,6,0,P|115:38|125:-7,1,87,0|0,0:0|0:0,0:0:0:0:
299,0,68144,2,0,P|353:16|387:47,1,87,0|0,0:0|0:0,0:0:0:0:
200,113,68317,6,0,L|12:103,1,174,2|0,0:0|0:0,0:0:0:0:
234,191,68834,2,0,L|46:181,1,174,2|0,0:0|0:0,0:0:0:0:
19,332,69351,6,0,B|92:315|132:377|132:377|116:295|176:260|176:260|159:282|159:320,1,304.5,2|0,0:0|0:0,0:0:0:0:
234,361,70041,6,0,P|224:328|298:380,1,261,0|0,0:0|0:0,0:0:0:0:
265,206,70386,2,0,P|324:213|372:243,1,87,0|0,0:0|0:0,0:0:0:0:
227,123,70558,6,0,B|281:106|325:137|325:137|354:109|398:98|398:98|392:146|425:191|425:191|441:127|515:126,1,391.50001493454,0|0,0:0|0:0,0:0:0:0:
512,141,70903,1,0,0:0:0:0:
202,26,71075,6,0,B|213:77|213:77|185:205,1,174,2|0,0:0|0:0,0:0:0:0:
126,28,71593,2,0,B|137:79|137:79|109:207,1,174,2|0,0:0|0:0,0:0:0:0:
0,280,72110,6,0,B|91:274|91:274|123:279|123:279|150:270|150:270|232:262|232:262|201:284,1,261,2|2,0:0|0:0,0:0:0:0:
66,342,72800,6,0,P|129:326|188:388,1,130.5,8|0,0:0|0:0,0:0:0:0:
164,384,73144,1,0,0:0:0:0:
291,307,73317,1,2,0:0:0:0:
395,374,73489,2,0,L|386:242,1,130.5,8|0,0:0|0:0,0:0:0:0:
376,216,73834,6,0,P|436:220|469:251,1,87,0|2,0:0|0:0,0:0:0:0:
285,217,74179,2,0,L|292:125,1,87,8|0,0:0|0:0,0:0:0:0:
295,99,74438,1,0,0:0:0:0:
298,68,74524,1,0,0:0:0:0:
391,143,74696,1,2,0:0:0:0:
247,12,74869,2,0,P|294:-6|358:18,1,87,8|0,0:0|0:0,0:0:0:0:
182,129,75213,6,0,P|139:133|99:116,1,87,0|0,0:0|0:0,0:0:0:0:
155,51,75558,1,8,0:0:0:0:
236,192,75731,1,0,0:0:0:0:
138,295,75903,2,0,L|146:205,1,87,2|0,0:0|0:0,0:0:0:0:
214,334,76248,1,8,0:0:0:0:
100,373,76420,1,0,0:0:0:0:
281,378,76593,6,0,P|339:380|383:349,1,87,2|0,0:0|0:0,0:0:0:0:
466,377,76938,1,8,0:0:0:0:
396,241,77110,1,0,0:0:0:0:
487,192,77282,2,0,L|480:287,1,87,2|0,0:0|0:0,0:0:0:0:
324,172,77627,2,0,P|306:115|320:73,1,87,8|8,0:0|0:0,0:0:0:0:
469,0,77972,6,0,L|462:95,1,87,2|0,0:0|0:0,0:0:0:0:
383,119,78317,1,8,0:0:0:0:
337,19,78489,1,0,0:0:0:0:
186,66,78662,2,0,P|137:74|91:52,1,87,2|0,0:0|0:0,0:0:0:0:
234,0,79007,1,8,0:0:0:0:
292,133,79179,1,0,0:0:0:0:
190,242,79351,6,0,L|200:149,1,87,2|0,0:0|0:0,0:0:0:0:
352,75,79696,2,0,P|374:125|362:175,1,87,8|0,0:0|0:0,0:0:0:0:
269,254,80041,1,2,0:0:0:0:
116,216,80213,1,0,0:0:0:0:
14,340,80386,2,0,L|181:324,1,130.5,8|0,0:0|0:0,0:0:0:0:
182,322,80731,5,8,0:0:0:0:
234,384,80903,1,2,0:0:0:0:
301,258,81075,1,8,0:0:0:0:
321,336,81248,1,2,0:0:0:0:
425,205,81420,1,8,0:0:0:0:
416,280,81593,1,2,0:0:0:0:
512,326,81765,1,8,0:0:0:0:
463,384,81938,1,2,0:0:0:0:
376,148,82110,5,8,0:0:0:0:
415,291,82282,1,2,0:0:0:0:
278,125,82455,1,8,0:0:0:0:
307,291,82627,1,2,0:0:0:0:
167,90,82800,1,8,0:0:0:0:
146,332,82972,1,2,0:0:0:0:
49,110,83144,1,8,0:0:0:0:
0,347,83317,1,2,0:0:0:0:
148,238,83489,5,2,0:0:0:0:
157,218,83575,1,2,0:0:0:0:
160,196,83661,1,2,0:0:0:0:
156,175,83747,1,2,0:0:0:0:
147,156,83834,5,2,0:0:0:0:
120,110,83920,1,2,0:0:0:0:
141,62,84006,1,2,0:0:0:0:
192,50,84092,1,2,0:0:0:0:
232,84,84179,6,0,P|244:103|248:114,6,21.75,2|2|2|2|2|2|2,0:0|0:0|0:0|0:0|0:0|0:0|0:0,0:0:0:0:
316,28,84524,2,0,P|313:49|309:60,6,21.75,10|2|2|2|2|2|2,0:0|0:0|0:0|0:0|0:0|0:0|0:0,0:0:0:0:
391,75,84869,6,0,L|531:82,1,121.799996282959,10|0,0:0|0:0,0:0:0:0:
298,146,85558,6,0,P|269:154|229:149,1,43.5,0|0,0:0|0:0,0:0:0:0:
439,189,85731,5,2,0:0:0:0:
448,200,85817,1,0,0:0:0:0:
454,213,85903,1,8,0:3:0:0:
459,226,85989,1,8,0:3:0:0:
460,241,86075,1,4,0:3:0:0:
459,255,86162,1,4,0:3:0:0:
455,269,86248,6,0,P|426:257|402:251,1,43.5,6|0,1:0|0:0,0:0:0:0:
277,226,86420,1,0,0:0:0:0:
347,380,86593,2,0,P|355:331|352:316,1,43.5,8|0,0:0|0:0,0:0:0:0:
251,173,86765,2,0,P|253:195|260:216,1,43.5,0|0,0:0|0:0,0:0:0:0:
385,241,86938,1,0,0:0:0:0:
157,263,87110,2,0,P|200:271|226:269,1,43.5,2|0,0:0|0:0,0:0:0:0:
396,161,87282,2,0,P|374:163|353:168,1,43.5,8|0,0:0|0:0,0:0:0:0:
247,329,87455,1,0,0:0:0:0:
318,93,87627,6,0,P|322:47|317:22,1,43.5,0|0,0:0|0:0,0:0:0:0:
186,152,87800,2,0,P|186:173|190:195,1,43.5,2|0,0:0|0:0,0:0:0:0:
299,274,87972,1,8,0:0:0:0:
245,38,88144,2,0,P|222:18|194:3,1,43.5,0|0,0:0|0:0,0:0:0:0:
368,158,88317,2,0,P|396:148|423:131,1,43.5,0|0,0:0|0:0,0:0:0:0:
202,204,88489,2,0,P|196:233|197:265,1,43.5,2|0,0:0|0:0,0:0:0:0:
340,62,88662,2,0,P|346:32|345:0,1,43.5,8|0,0:0|0:0,0:0:0:0:
298,229,88835,2,0,P|321:249|349:264,1,43.5,2|0,0:0|0:0,0:0:0:0:
175,108,89007,6,0,P|146:118|119:135,1,43.5,2|0,0:0|0:0,0:0:0:0:
111,137,89351,6,0,P|126:102|131:78,1,43.5,8|0,0:0|0:0,0:0:0:0:
70,43,89524,2,0,P|63:5|54:-17,1,43.5,0|0,0:0|0:0,0:0:0:0:
190,226,89696,6,0,P|181:197|167:173,1,43.5,0|0,0:0|0:0,0:0:0:0:
43,115,89869,2,0,P|13:108|-14:109,1,43.5,2|0,0:0|0:0,0:0:0:0:
314,188,90041,6,0,P|266:199|254:206,1,43.5,8|0,0:0|0:0,0:0:0:0:
129,334,90213,2,0,P|120:382|122:396,1,43.5,0|0,0:0|0:0,0:0:0:0:
353,259,90386,5,0,0:0:0:0:
418,96,90558,2,0,P|426:57|421:32,1,43.5,2|0,0:0|0:0,0:0:0:0:
302,27,90731,5,8,0:0:0:0:
303,48,90817,1,0,0:0:0:0:
305,70,90903,1,0,0:0:0:0:
306,92,90989,1,0,0:0:0:0:
267,128,91075,5,0,0:0:0:0:
268,85,91161,1,0,0:0:0:0:
272,43,91247,1,2,0:0:0:0:
274,1,91333,1,0,0:0:0:0:
349,106,91420,6,0,B|342:153|342:153|360:214|360:214|302:263|302:263|314:229|314:229|324:141,1,261,8|0,0:0|0:0,0:0:0:0:
420,152,91765,6,0,P|460:164|482:181,1,43.5,2|0,0:0|0:0,0:0:0:0:
396,282,91938,1,0,0:0:0:0:
295,193,92110,2,0,P|325:173|343:167,1,43.5,8|0,0:0|0:0,0:0:0:0:
407,78,92282,2,0,P|442:81|460:88,1,43.5,0|0,0:0|0:0,0:0:0:0:
391,272,92455,1,0,0:0:0:0:
201,216,92627,2,0,P|215:175|229:157,1,43.5,2|0,0:0|0:0,0:0:0:0:
325,11,92800,2,0,P|368:6|390:11,1,43.5,8|0,0:0|0:0,0:0:0:0:
386,262,92972,1,0,0:0:0:0:
131,337,93144,6,0,P|120:300|119:281,1,43.5,0|0,0:0|0:0,0:0:0:0:
177,93,93317,2,0,P|212:78|231:75,1,43.5,2|0,0:0|0:0,0:0:0:0:
381,252,93489,1,8,0:0:0:0:
17,283,93662,2,0,P|33:233|46:213,1,43.5,0|0,0:0|0:0,0:0:0:0:
270,128,93834,2,0,P|320:142|340:154,1,43.5,0|0,0:0|0:0,0:0:0:0:
376,242,94007,1,0,0:0:0:0:
44,98,94179,2,0,P|102:101|116:108,1,43.5,8|0,0:0|0:0,0:0:0:0:
266,293,94351,2,0,P|272:350|267:365,1,43.5,2|0,0:0|0:0,0:0:0:0:
172,103,94524,6,0,L|165:52,1,43.5,2|0,0:0|0:0,0:0:0:0:
172,103,94869,6,0,B|160:28|160:28|224:76|295:63|295:63|213:133|212:243,1,391.50001493454,8|0,0:0|0:0,0:0:0:0:
289,246,95213,6,0,B|300:204|300:204|278:147,1,87,0|0,0:0|0:0,0:0:0:0:
137,224,95386,2,0,B|126:266|126:266|148:323,1,87,2|0,0:0|0:0,0:0:0:0:
256,332,95558,2,0,B|318:321|318:321|340:310|340:310|365:312|365:312|443:297,1,174,8|0,0:0|0:0,0:0:0:0:
355,384,95903,5,0,0:0:0:0:
435,220,96075,2,0,P|471:233|492:250,1,43.5,2|0,0:0|0:0,0:0:0:0:
369,171,96248,6,0,B|359:131|359:131|381:25,1,130.50000497818,8|0,0:0|0:0,0:0:0:0:
489,2,96420,2,0,B|508:90|508:90|498:130,1,130.50000497818,0|0,0:0|0:0,0:0:0:0:
314,30,96593,6,0,B|414:16|414:16|360:51,1,130.50000497818,0|0,0:0|0:0,0:0:0:0:
258,102,96765,1,2,0:0:0:0:
228,99,96851,1,2,0:0:0:0:
200,96,96938,6,0,B|154:92|154:92|117:98|117:98|54:85,1,130.50000497818,8|2,0:0|0:0,0:0:0:0:
191,306,97282,6,0,P|195:272|191:246,1,43.5,2|0,0:0|0:0,0:0:0:0:
110,373,97455,1,0,0:0:0:0:
243,375,97627,2,0,P|267:341|273:317,1,43.5,8|0,0:0|0:0,0:0:0:0:
309,234,97800,2,0,P|306:192|296:169,1,43.5,0|0,0:0|0:0,0:0:0:0:
114,360,97972,1,0,0:0:0:0:
405,303,98144,2,0,P|386:270|368:254,1,43.5,2|0,0:0|0:0,0:0:0:0:
231,162,98317,2,0,P|195:148|171:148,1,43.5,8|0,0:0|0:0,0:0:0:0:
118,347,98489,1,0,0:0:0:0:
400,135,98662,6,0,P|345:139|326:149,1,43.5,0|0,0:0|0:0,0:0:0:0:
162,221,98834,2,0,P|121:258|112:277,1,43.5,2|0,0:0|0:0,0:0:0:0:
122,334,99007,1,8,0:0:0:0:
331,36,99179,2,0,P|306:70|296:97,1,43.5,0|0,0:0|0:0,0:0:0:0:
283,199,99351,2,0,P|289:240|301:266,1,43.5,0|0,0:0|0:0,0:0:0:0:
364,348,99524,2,0,P|398:373|425:383,1,43.5,2|0,0:0|0:0,0:0:0:0:
486,250,99696,2,0,P|449:250|420:259,1,43.5,8|0,0:0|0:0,0:0:0:0:
239,312,99869,2,0,P|211:336|195:362,1,43.5,2|0,0:0|0:0,0:0:0:0:
189,364,100041,6,0,P|197:322|194:299,1,43.5,2|0,0:0|0:0,0:0:0:0:
134,140,100386,6,0,P|155:167|164:189,1,43.5,8|0,0:0|0:0,0:0:0:0:
79,328,100558,2,0,P|92:310|101:291,1,43.5,0|0,0:0|0:0,0:0:0:0:
180,112,100731,6,0,P|184:145|180:169,1,43.5,0|0,0:0|0:0,0:0:0:0:
0,270,100903,2,0,P|20:262|38:250,1,43.5,2|0,0:0|0:0,0:0:0:0:
233,111,101075,6,0,P|219:142|203:160,1,43.5,8|0,0:0|0:0,0:0:0:0:
0,173,101247,2,0,P|21:176|43:175,1,43.5,0|0,0:0|0:0,0:0:0:0:
207,253,101420,5,0,0:0:0:0:
65,74,101593,2,0,P|51:39|48:15,1,43.5,2|0,0:0|0:0,0:0:0:0:
206,41,101765,5,8,0:0:0:0:
213,87,101851,1,0,0:0:0:0:
199,125,101937,1,0,0:0:0:0:
172,158,102023,1,0,0:0:0:0:
249,131,102110,5,0,0:0:0:0:
250,116,102196,1,0,0:0:0:0:
249,102,102282,1,2,0:0:0:0:
247,87,102368,1,0,0:0:0:0:
281,13,102455,6,0,B|316:52|355:63|402:39|421:9|421:9|389:41|383:86|414:132,1,261,8|0,0:0|0:0,0:0:0:0:
478,92,102800,6,0,P|493:70|467:72,1,65.25,2|0,0:0|0:0,0:0:0:0:
326,150,103144,6,0,P|353:172|370:196,1,43.5,8|0,0:0|0:0,0:0:0:0:
336,382,103317,2,0,P|327:348|327:318,1,43.5,0|0,0:0|0:0,0:0:0:0:
455,192,103489,1,0,0:0:0:0:
472,192,103662,2,0,P|439:216|415:219,1,43.5,2|0,0:0|0:0,0:0:0:0:
280,280,103834,2,0,P|242:264|226:245,1,43.5,8|0,0:0|0:0,0:0:0:0:
249,86,104007,1,0,0:0:0:0:
263,101,104179,6,0,P|307:96|334:82,1,43.5,0|0,0:0|0:0,0:0:0:0:
433,13,104351,2,0,P|411:8|390:8,1,43.5,2|0,0:0|0:0,0:0:0:0:
128,64,104524,1,8,0:0:0:0:
141,82,104696,2,0,P|154:137|150:164,1,43.5,0|0,0:0|0:0,0:0:0:0:
37,270,104869,2,0,P|58:217|77:198,1,43.5,0|0,0:0|0:0,0:0:0:0:
231,183,105041,2,0,P|182:212|155:216,1,43.5,2|0,0:0|0:0,0:0:0:0:
20,142,105214,2,0,P|76:146|100:158,1,43.5,8|0,0:0|0:0,0:0:0:0:
168,296,105386,2,0,P|125:259|112:234,1,43.5,0|0,0:0|0:0,0:0:0:0:
144,71,105558,6,0,L|148:132,1,43.5,0|2,0:0|0:0,0:0:0:0:
260,236,105903,6,0,B|315:184|316:36|286:1|216:8|192:38|216:111|344:115,1,391.50001493454,8|0,0:0|0:0,0:0:0:0:
441,66,106248,6,0,P|401:43|333:58,1,87,2|0,0:0|0:0,0:0:0:0:
212,176,106420,2,0,P|186:214|198:283,1,87,2|0,0:0|0:0,0:0:0:0:
352,378,106593,2,0,B|336:271|383:301|366:184,1,174,8|2,0:0|0:0,0:0:0:0:
77,312,106938,6,0,L|156:321,1,65.2500024890901,2|0,0:0|0:0,0:0:0:0:
164,313,107110,2,0,L|243:322,1,65.2500024890901,2|0,0:0|0:0,0:0:0:0:
354,279,107282,2,0,P|314:259|265:259,1,65.2500024890901,8|0,0:0|0:0,0:0:0:0:
229,321,107455,2,0,P|231:365|256:408,1,65.2500024890901,2|0,0:0|0:0,0:0:0:0:
374,356,107627,1,8,3:0:0:0:
202,213,107800,6,0,L|112:223,1,78.2999976104737,0|0,0:0|0:0,0:0:0:0:
99,202,108058,6,0,P|123:203|149:217,1,43.5,0|0,0:0|0:0,0:0:0:0:
85,286,108317,6,0,B|99:335|74:373|11:372|-27:338|-1:287|14:270|14:270|-1:228|23:193|23:193|41:160|21:126|-1:114|-1:114|37:151|117:123,1,456.75001742363,2|0,0:0|0:0,0:0:0:0:
276,199,109007,5,8,0:0:0:0:
273,195,109093,1,0,2:0:0:0:
270,192,109179,1,0,2:0:0:0:
268,189,109265,1,0,2:0:0:0:
265,186,109351,2,0,P|217:170|183:176,1,65.2500024890901,0|0,2:0|2:0,0:0:0:0:
10,61,109524,5,2,0:0:0:0:
14,63,109610,1,0,2:0:0:0:
18,64,109696,1,0,2:0:0:0:
21,65,109782,1,0,2:0:0:0:
25,67,109868,2,0,P|74:57|100:35,1,65.2500024890901,0|0,2:0|2:0,0:0:0:0:
257,0,110041,5,2,0:0:0:0:
255,4,110127,1,0,2:0:0:0:
255,8,110213,2,0,L|240:93,1,65.2500024890901,0|0,2:0|2:0,0:0:0:0:
336,157,110386,6,0,B|334:119|357:84|357:84|330:122|259:120,1,130.50000497818,8|2,2:0|0:0,0:0:0:0:
247,144,110644,2,0,L|514:132,1,261.00000995636,0|0,0:0|0:0,0:0:0:0:
465,209,111075,6,0,B|454:222|451:237|451:237|433:209|450:175,1,87,2|0,0:0|0:0,0:0:0:0:
364,39,111765,6,0,B|416:-3|486:26|486:26|449:41|425:76,1,195.75000746727,8|0,0:0|2:0,0:0:0:0:
379,151,112110,6,0,B|343:207|345:296|409:350|409:350|357:321|302:321,1,261,0|0,0:0|0:0,0:0:0:0:
282,270,112455,6,0,B|415:258|415:258|481:280,1,174,2|0,0:0|0:0,0:0:0:0:
227,329,112972,6,0,P|178:334|133:377,1,87,2|2,0:0|0:0,0:0:0:0:
234,259,113144,6,0,B|259:247|259:247|225:241|201:258|201:258|179:251|179:251|142:272|92:254|77:219|77:219|90:251|88:299|48:325|48:325|61:266,1,391.50001493454,8|0,0:0|0:0,0:0:0:0:
47,148,113489,6,0,P|98:148|155:201,1,87,8|0,0:0|0:0,0:0:0:0:
168,274,113662,2,0,P|166:324|111:380,1,87,0|0,0:0|0:0,0:0:0:0:
210,125,113834,6,0,B|260:121|283:78|283:78|297:116|348:135|348:135|388:89|370:20|328:-2|328:-2|377:26|420:10|420:10|399:25|386:43,1,456.75001742363,2|0,0:0|0:0,0:0:0:0:
430,167,114524,5,8,0:0:0:0:
425,165,114610,1,0,2:0:0:0:
425,160,114696,1,0,2:0:0:0:
430,159,114782,1,0,2:0:0:0:
430,167,114869,2,0,P|415:206|422:265,1,65.2500024890901,0|0,2:0|2:0,0:0:0:0:
406,375,115041,5,2,0:0:0:0:
402,379,115127,1,0,2:0:0:0:
404,384,115213,1,0,2:0:0:0:
409,383,115299,1,0,2:0:0:0:
406,375,115386,2,0,P|377:344|362:286,1,65.2500024890901,0|0,2:0|2:0,0:0:0:0:
373,94,115558,5,2,0:0:0:0:
368,90,115644,1,0,2:0:0:0:
370,85,115731,2,0,L|274:79,1,65.2500024890901,0|0,2:0|2:0,0:0:0:0:
189,122,115903,6,0,P|132:137|75:109,1,87,8|0,2:0|0:0,0:0:0:0:
170,20,116075,2,0,B|228:42|271:0|271:0|221:37|216:102|226:164|243:186|243:186|283:163|296:127|296:127|264:105|253:76,1,435,2|0,0:0|0:0,0:0:0:0:
154,213,116593,6,0,B|176:249|176:249|157:368|157:368|196:330,1,195.75000746727,2|0,0:0|0:0,0:0:0:0:
243,271,116938,2,0,B|264:250|264:250|80:265,1,195.75000746727,0|0,0:0|0:0,0:0:0:0:
38,320,117282,6,0,P|-5:339|-55:321,1,87,8|0,0:2|0:2,0:0:0:0:
106,113,117627,2,0,P|143:140|153:193,1,87,0|0,0:2|0:2,0:0:0:0:
0,249,117972,6,0,L|97:243,1,87,8|0,0:0|0:0,0:0:0:0:
269,249,118144,1,2,0:0:0:0:
262,272,118317,1,2,0:0:0:0:
260,17,118489,6,0,P|276:52|267:120,1,87,8|0,0:0|0:0,0:0:0:0:
183,282,118662,1,2,0:0:0:0:
190,259,118835,1,2,0:0:0:0:
444,324,119007,6,0,L|349:316,1,87,8|2,0:0|0:0,0:0:0:0:
145,355,119179,1,2,0:0:0:0:
205,351,119265,1,2,0:0:0:0:
265,347,119351,6,0,B|382:345|382:345|419:362,1,152.25,2|0,0:0|0:0,0:0:0:0:
486,285,120041,5,8,0:0:0:0:
470,280,120127,1,0,2:0:0:0:
454,278,120213,1,0,2:0:0:0:
437,278,120299,1,0,2:0:0:0:
421,280,120386,2,0,P|460:256|476:227,1,65.2500024890901,2|0,0:0|2:0,0:0:0:0:
378,98,120558,5,8,0:0:0:0:
362,103,120644,1,0,2:0:0:0:
346,105,120730,1,0,2:0:0:0:
329,105,120816,1,0,2:0:0:0:
313,103,120903,2,0,P|351:128|367:157,1,65.2500024890901,2|0,0:0|2:0,0:0:0:0:
232,193,121075,5,8,0:0:0:0:
216,188,121161,1,0,2:0:0:0:
200,186,121247,1,2,0:0:0:0:
183,186,121333,1,0,2:0:0:0:
94,177,121420,6,0,L|296:166,1,174,2|2,0:0|0:0,0:0:0:0:
236,95,121679,2,0,B|201:78|184:49|184:49|223:108|179:180,1,174,0|2,0:0|0:0,0:0:0:0:
136,243,121938,2,0,P|72:252|27:211,1,87,0|0,0:0|0:0,0:0:0:0:
11,177,122110,2,0,P|9:152|15:129,6,43.5,2|0|0|0|0|0|0,0:0|0:0|0:0|0:0|0:0|0:0|0:0,0:0:0:0:
0,284,122455,6,0,B|142:273|142:273|211:288,1,195.75000746727,0|0,0:0|0:0,0:0:0:0:
266,322,122800,6,0,P|265:345|272:372,1,43.5,8|0,0:0|0:0,0:0:0:0:
240,252,122972,2,0,P|219:262|199:282,1,43.5,0|0,0:0|0:0,0:0:0:0:
287,194,123144,2,0,P|267:181|240:174,1,43.5,0|0,0:0|0:0,0:0:0:0:
360,206,123317,2,0,P|361:183|353:156,1,43.5,0|0,0:0|0:0,0:0:0:0:
299,88,123489,6,0,L|460:99,1,130.5,2|0,0:0|0:0,0:0:0:0:
448,26,123834,6,0,P|397:31|364:59,1,65.2500024890901,0|0,0:0|0:0,0:0:0:0:
234,134,124007,1,2,0:0:0:0:
189,144,124093,1,2,0:0:0:0:
144,136,124179,6,0,B|103:103|102:42|141:9|141:9|160:40|200:47|200:47|186:73|186:73|212:49|261:31|292:61|292:61|264:56|230:60,1,391.50001493454,8|0,0:0|0:0,0:0:0:0:
56,144,124524,6,0,P|-9:147|-51:117,1,87,8|0,0:0|0:0,0:0:0:0:
115,214,124696,2,0,P|170:227|209:272,1,87,0|0,0:0|0:0,0:0:0:0:
28,376,124869,6,0,B|-7:350|-9:295|24:255|24:255|65:277|74:306|74:306|106:308|131:296|131:296|122:325|129:350|143:369|171:385|208:384|226:361|228:344|228:344|208:356|192:358,1,456.75001742363,2|0,0:0|0:0,0:0:0:0:
303,372,125558,6,0,P|316:334|306:286,1,65.2500024890901,8|0,0:0|2:0,0:0:0:0:
216,153,125731,1,0,2:0:0:0:
209,167,125817,1,0,2:0:0:0:
205,183,125903,2,0,P|204:215|216:245,1,65.2500024890901,2|0,0:0|2:0,0:0:0:0:
367,255,126075,6,0,P|339:238|306:233,1,65.2500024890901,8|0,0:0|2:0,0:0:0:0:
157,299,126248,1,0,2:0:0:0:
143,307,126334,1,0,2:0:0:0:
131,318,126420,2,0,P|111:344|103:375,1,65.2500024890901,2|0,0:0|2:0,0:0:0:0:
294,321,126593,6,0,L|200:313,1,65.2500024890901,8|0,0:0|2:0,0:0:0:0:
138,214,126765,1,2,0:0:0:0:
121,215,126851,1,0,2:0:0:0:
86,243,126937,6,0,B|80:189|80:189|69:167|69:167|76:147|76:147|67:48,1,195.75000746727,2|0,0:0|0:0,0:0:0:0:
137,19,127282,6,0,P|145:56|139:83,1,65.25,0|0,0:0|0:0,0:0:0:0:
0,68,127627,6,0,P|3:98|28:119,1,65.2500024890901,2|0,0:0|0:0,0:0:0:0:
70,197,127800,6,0,P|102:198|131:184,1,65.2500024890901,2|0,0:0|0:0,0:0:0:0:
277,205,127972,6,0,P|290:175|289:143,1,65.2500024890901,2|0,0:0|0:0,0:0:0:0:
473,52,128144,6,0,P|451:27|421:16,1,65.2500024890901,2|0,0:0|0:0,0:0:0:0:
210,0,128317,6,0,L|222:87,1,65.2500024890901,2|0,0:0|0:0,0:0:0:0:
263,316,128489,2,0,L|251:403,1,65.2500024890901,2|0,0:0|0:0,0:0:0:0:
243,371,128662,6,0,L|234:306,1,65.2500024890901,2|0,0:0|0:0,0:0:0:0:
233,82,128834,2,0,L|241:17,1,65.2500024890901,2|0,0:0|0:0,0:0:0:0:
367,70,129007,5,2,0:0:0:0:
429,87,129093,1,2,0:0:0:0:
469,138,129179,1,2,0:0:0:0:
471,203,129265,1,2,0:0:0:0:
438,259,129351,1,2,0:0:0:0:
376,282,129438,1,2,0:0:0:0:
313,265,129524,1,2,0:0:0:0:
271,215,129610,1,2,0:0:0:0:
215,181,129696,5,2,0:0:0:0:
152,197,129782,1,2,0:0:0:0:
119,254,129869,1,2,0:0:0:0:
140,315,129955,1,2,0:0:0:0:
162,283,130041,5,8,0:3:0:0:
163,250,130127,5,8,0:3:0:0:
154,225,130213,5,4,0:3:0:0:
144,207,130300,5,4,0:3:0:0:
133,199,130386,5,6,0:0:0:0:
26,159,141420,6,0,B|2:206|30:267|108:274|149:210|140:164|80:122|80:122|131:147|199:96|199:96|164:157|160:230|208:273|208:273|227:235|260:216|260:216|236:187|232:152|232:152|274:201|351:167,1,852.599973980714,0|0,0:0|0:0,0:0:0:0:
397,36,144179,6,0,B|391:83|411:118|411:118|382:143|373:177|373:177|419:223|489:263|513:266|580:179|524:125|425:106|422:183|420:245|436:282|436:282|391:251|326:277|319:338,1,669.899979556275,0|0,0:0|0:0,0:0:0:0:
395,343,146593,1,0,0:0:0:0:
201,330,146938,6,0,B|151:345|115:314|115:314|114:347|81:377|81:377|19:336|35:275|75:244|75:244|115:194|80:142,1,426.299986990357,2|2,0:0|0:0,0:0:0:0:
42,73,148317,6,0,P|88:63|123:71,1,60.8999981414796,2|2,0:0|0:0,0:0:0:0:
162,107,148662,2,0,P|172:153|164:188,1,60.8999981414796,2|2,0:0|0:0,0:0:0:0:
128,227,149007,2,0,P|82:237|47:229,1,60.8999981414796,2|2,0:0|0:0,0:0:0:0:
8,193,149351,2,0,P|-2:147|6:112,1,60.8999981414796,2|2,0:0|0:0,0:0:0:0:
31,51,149696,5,2,0:0:0:0:
52,44,149782,1,2,0:0:0:0:
75,43,149868,1,2,0:0:0:0:
97,48,149954,1,2,0:0:0:0:
117,59,150041,5,2,0:0:0:0:
143,74,150127,1,2,0:0:0:0:
173,77,150213,1,2,0:0:0:0:
202,67,150299,1,2,0:0:0:0:
224,47,150386,5,2,0:0:0:0:
214,86,150472,1,2,0:0:0:0:
228,125,150558,1,2,0:0:0:0:
262,148,150644,1,2,0:0:0:0:
304,147,150730,1,2,0:0:0:0:
337,123,150817,1,2,0:0:0:0:
350,84,150903,1,2,0:0:0:0:
339,45,150989,1,2,0:0:0:0:
307,19,151075,6,0,P|297:17|289:15,6,15.2249995353699,2|2|2|2|2|2|2,0:0|0:0|0:0|0:0|0:0|0:0|0:0,0:0:0:0:
412,30,151420,2,0,P|408:19|406:11,6,15.2249995353699,2|2|2|2|2|2|2,0:0|0:0|0:0|0:0|0:0|0:0|0:0,0:0:0:0:
455,125,151765,6,0,P|465:113|479:91,3,21.75,2|0|0|0,0:0|0:0|0:0|0:0,0:0:0:0:
447,141,152110,6,0,P|439:179|444:202,1,54.375,0|0,0:0|0:0,0:0:0:0:
335,366,152455,6,0,B|393:292|361:216|361:216|377:260|411:282|453:281|478:268,1,304.5,2|0,0:0|0:0,0:0:0:0:
426,365,153144,6,0,B|266:374|266:374|252:366|252:366|220:383|220:383|201:336|227:294|227:294|262:258|252:209|252:209|206:198|175:238|175:238|193:273|221:296|277:286,1,609,8|0,0:2|0:0,0:0:0:0:
335,181,153834,6,0,B|346:52|346:52|329:10,1,174,2|0,0:0|0:0,0:0:0:0:
453,133,154351,2,0,B|436:174|436:174|447:303,1,174,2|0,0:0|0:0,0:0:0:0:
511,206,154869,6,0,B|356:217|356:217|315:193|269:197|269:197|297:222|300:273,1,304.5,2|0,0:0|0:0,0:0:0:0:
206,277,155558,6,0,L|142:272,1,43.5,0|0,0:0|0:0,0:0:0:0:
172,283,155731,6,0,L|212:287,1,39.1499988052369,0|0,0:0|0:0,0:0:0:0:
218,297,155903,6,0,L|154:292,1,34.8,0|0,0:0|0:0,0:0:0:0:
193,304,156075,6,0,L|224:307,1,30.4499990707398,0|0,0:0|0:0,0:0:0:0:
230,317,156248,6,0,L|199:314,1,26.1,0|0,0:0|0:0,0:0:0:0:
236,327,156593,6,0,B|194:347|194:347|49:332,1,174,2|0,0:0|0:0,0:0:0:0:
329,222,157110,2,0,B|287:202|287:202|142:217,1,174,2|0,0:0|0:0,0:0:0:0:
432,337,157627,6,0,B|391:375|391:375|423:186|423:186|398:110,1,304.5,2|0,0:0|0:0,0:0:0:0:
357,13,158317,6,0,P|331:50|350:139,1,87,0|0,0:0|0:0,0:0:0:0:
430,205,158489,2,0,P|475:209|542:148,1,87,0|0,0:0|0:0,0:0:0:0:
289,162,158662,6,0,B|254:157|254:157|245:151|245:151|235:155|235:155|146:143,1,130.50000497818,0|0,0:0|0:0,0:0:0:0:
0,250,158834,2,0,B|35:245|35:245|44:239|44:239|54:243|54:243|143:231,1,130.50000497818,0|0,0:0|0:0,0:0:0:0:
315,286,159007,6,0,P|271:239|257:357,1,261,0|0,0:0|0:0,0:0:0:0:
398,203,159351,6,0,B|315:194|315:194|302:199|302:199|222:191,1,174,2|0,0:0|0:0,0:0:0:0:
127,79,159869,2,0,B|210:70|210:70|223:75|223:75|303:67,1,174,2|0,0:0|0:0,0:0:0:0:
486,54,160386,6,0,B|525:88|519:144|482:180|482:180|446:158|435:124|435:124|407:133|407:133|341:125,1,304.5,2|0,0:0|0:0,0:0:0:0:
204,189,161075,6,0,L|338:181,1,87,0|0,0:0|0:0,0:0:0:0:
396,217,161248,5,0,0:0:0:0:
409,235,161334,1,0,0:0:0:0:
414,259,161420,2,0,P|409:314|392:343,1,65.2500024890901,0|0,0:0|0:0,0:0:0:0:
243,374,161593,2,0,P|233:342|234:310,1,65.2500024890901,2|0,0:0|0:0,0:0:0:0:
196,200,161765,1,8,0:0:0:0:
167,214,161851,1,0,0:0:0:0:
134,215,161937,1,0,0:0:0:0:
105,202,162023,1,0,0:0:0:0:
51,241,162110,6,0,B|206:228|206:228|284:249,1,195.75000746727,2|0,0:0|0:0,0:0:0:0:
321,271,162455,1,8,0:0:0:0:
332,262,162800,1,0,0:0:0:0:
414,125,162972,6,0,P|432:172|423:214,1,65.2500024890901,2|0,0:0|0:0,0:0:0:0:
323,154,163144,6,0,L|329:34,1,91.3499972122193,8|0,0:0|0:0,0:0:0:0:
305,170,163489,6,0,L|300:78,1,87,0|0,0:0|0:0,0:0:0:0:
211,143,163834,1,8,0:0:0:0:
268,9,164007,1,0,0:0:0:0:
151,84,164179,2,0,P|129:139|138:182,1,87,2|0,0:0|0:0,0:0:0:0:
293,282,164524,2,0,P|256:235|214:221,1,87,8|0,0:0|0:0,0:0:0:0:
50,305,164869,6,0,P|108:296|141:267,1,87,2|0,0:0|0:0,0:0:0:0:
65,217,165213,1,8,0:0:0:0:
87,42,165386,2,0,L|82:138,1,87,0|2,0:0|0:0,0:0:0:0:
196,225,165731,1,0,0:0:0:0:
333,146,165903,2,0,P|266:148|234:175,1,87,8|0,0:0|0:0,0:0:0:0:
192,312,166248,6,0,L|319:320,1,87,2|0,0:0|0:0,0:0:0:0:
461,295,166593,2,0,P|491:343|485:391,1,87,8|0,0:0|0:0,0:0:0:0:
376,282,166938,1,2,0:0:0:0:
474,167,167110,1,0,0:0:0:0:
332,116,167282,2,0,L|319:235,1,87,8|0,0:0|0:0,0:0:0:0:
506,88,167627,6,0,P|450:87|414:112,1,87,2|0,0:0|0:0,0:0:0:0:
400,208,167972,1,8,0:0:0:0:
205,262,168144,2,0,P|261:261|297:286,1,87,0|2,0:0|0:0,0:0:0:0:
356,374,168489,1,0,0:0:0:0:
134,384,168662,2,0,L|122:230,1,130.5,8|0,1:1|0:0,0:0:0:0:
121,216,169007,5,8,0:0:0:0:
56,351,169179,1,2,0:0:0:0:
129,146,169351,1,8,0:0:0:0:
217,322,169524,1,2,0:0:0:0:
135,77,169696,1,8,0:0:0:0:
18,289,169869,1,2,0:0:0:0:
142,6,170041,1,8,0:0:0:0:
235,237,170213,1,2,0:0:0:0:
10,120,170386,5,8,0:0:0:0:
246,83,170558,1,2,0:0:0:0:
113,207,170731,1,8,0:0:0:0:
320,68,170903,1,2,0:0:0:0:
243,297,171075,1,8,0:0:0:0:
393,55,171248,1,2,0:0:0:0:
369,380,171420,1,8,0:0:0:0:
464,48,171593,1,2,0:0:0:0:
328,3,171765,5,8,0:0:0:0:
318,22,171851,1,2,0:0:0:0:
314,43,171937,1,2,0:0:0:0:
315,65,172023,1,0,0:0:0:0:
321,86,172110,5,8,0:0:0:0:
335,136,172196,1,2,0:0:0:0:
300,174,172282,1,2,0:0:0:0:
249,164,172368,1,0,0:0:0:0:
230,115,172455,6,0,P|221:98|210:87,6,21.75,2|2|2|2|2|2|2,0:0|0:0|0:0|0:0|0:0|0:0|0:0,0:0:0:0:
151,142,172800,2,0,P|130:141|115:145,6,21.75,2|2|2|2|2|2|2,0:0|0:0|0:0|0:0|0:0|0:0|0:0,0:0:0:0:
48,221,173144,6,0,L|176:213,1,121.799996282959,2|0,0:0|0:0,0:0:0:0:
216,304,173834,6,0,P|182:296|163:283,1,43.5,0|0,0:0|0:0,0:0:0:0:
304,157,174007,5,2,0:0:0:0:
315,170,174093,1,0,0:0:0:0:
323,187,174179,1,8,0:3:0:0:
328,204,174265,1,8,0:3:0:0:
328,222,174351,1,4,0:3:0:0:
325,240,174438,1,4,0:3:0:0:
317,256,174524,6,0,P|300:279|281:290,1,43.5,6|0,0:0|0:0,0:0:0:0:
472,259,174696,2,0,P|507:268|529:281,1,43.5,0|0,0:0|0:0,0:0:0:0:
364,382,174869,5,2,0:0:0:0:
359,371,174955,2,0,P|361:331|372:310,1,43.5,0|0,0:0|0:0,0:0:0:0:
420,200,175127,6,0,P|418:159|407:138,1,43.5,0|0,0:0|0:0,0:0:0:0:
275,103,175300,5,0,0:0:0:0:
284,108,175386,2,0,P|327:97|344:82,1,43.5,0|0,0:0|0:0,0:0:0:0:
499,49,175558,5,2,0:0:0:0:
490,41,175644,1,0,0:0:0:0:
481,35,175731,2,0,P|439:27|417:25,1,43.5,0|0,0:0|0:0,0:0:0:0:
194,22,175903,5,0,0:0:0:0:
189,31,175989,1,0,0:0:0:0:
185,41,176075,2,0,P|183:88|190:115,1,43.5,0|0,0:0|0:0,0:0:0:0:
6,140,176248,1,2,0:0:0:0:
16,139,176334,1,0,0:0:0:0:
26,138,176420,2,0,P|67:116|87:96,1,43.5,0|0,0:0|0:0,0:0:0:0:
221,171,176593,6,0,P|262:184|277:197,1,43.5,2|0,0:0|0:0,0:0:0:0:
96,317,176765,2,0,P|82:288|76:257,1,43.5,0|0,0:0|0:0,0:0:0:0:
296,261,176938,5,2,0:0:0:0:
295,271,177024,1,0,0:0:0:0:
294,282,177110,1,0,0:0:0:0:
294,293,177196,1,0,0:0:0:0:
293,304,177282,6,0,L|287:377,1,43.5,2|0,0:0|0:0,0:0:0:0:
141,181,177455,2,0,P|132:147|134:125,1,43.5,0|0,0:0|0:0,0:0:0:0:
291,32,177627,5,2,0:0:0:0:
295,42,177713,2,0,P|291:81|279:106,1,43.5,0|0,0:0|0:0,0:0:0:0:
53,82,177886,6,0,P|87:65|107:62,1,43.5,0|0,0:0|0:0,0:0:0:0:
265,169,178058,5,0,0:0:0:0:
265,179,178144,2,0,P|258:209|246:236,1,43.5,0|0,0:0|0:0,0:0:0:0:
91,301,178317,5,2,0:0:0:0:
88,311,178403,1,0,0:0:0:0:
86,322,178489,2,0,L|91:376,1,43.5,0|0,0:0|0:0,0:0:0:0:
30,204,178662,5,0,0:0:0:0:
39,199,178748,1,0,0:0:0:0:
49,196,178834,2,0,P|89:198|111:204,1,43.5,0|0,0:0|0:0,0:0:0:0:
261,323,179007,1,2,0:0:0:0:
271,325,179093,1,0,0:0:0:0:
281,325,179179,2,0,P|320:311|351:294,1,43.5,0|0,0:0|0:0,0:0:0:0:
279,136,179351,6,0,P|270:178|268:207,1,43.5,2|0,0:0|0:0,0:0:0:0:
427,310,179524,2,0,P|415:273|398:244,1,43.5,0|0,0:0|0:0,0:0:0:0:
340,75,179696,6,0,B|377:47|424:65|441:90|441:90|439:69|432:55|432:55|481:57|512:28|512:28|480:70,1,261,2|0,0:0|0:0,0:0:0:0:
430,166,180041,6,0,P|401:156|370:121,1,43.5,2|0,0:0|0:0,0:0:0:0:
236,67,180213,2,0,P|197:78|182:88,1,43.5,0|0,0:0|0:0,0:0:0:0:
280,272,180386,5,2,0:0:0:0:
284,262,180472,2,0,P|296:224|295:201,1,43.5,0|0,0:0|0:0,0:0:0:0:
128,130,180644,6,0,P|135:166|146:190,1,43.5,0|0,0:0|0:0,0:0:0:0:
233,349,180817,5,0,0:0:0:0:
225,341,180903,2,0,P|190:333|155:336,1,43.5,0|0,0:0|0:0,0:0:0:0:
6,260,181075,5,2,0:0:0:0:
16,260,181161,1,0,0:0:0:0:
27,259,181248,2,0,P|71:244|86:233,1,43.5,0|0,0:0|0:0,0:0:0:0:
251,139,181420,5,0,0:0:0:0:
260,143,181507,1,0,0:0:0:0:
269,147,181593,2,0,P|306:176|320:200,1,43.5,0|0,0:0|0:0,0:0:0:0:
391,358,181765,1,2,0:0:0:0:
389,347,181851,1,0,0:0:0:0:
387,336,181938,2,0,L|372:262,1,43.5,0|0,0:0|0:0,0:0:0:0:
383,52,182110,6,0,L|377:128,1,43.5,2|0,0:0|0:0,0:0:0:0:
484,259,182282,2,0,P|438:247|420:249,1,43.5,0|0,0:0|0:0,0:0:0:0:
256,302,182455,5,2,0:0:0:0:
245,305,182541,1,0,0:0:0:0:
234,307,182627,1,0,0:0:0:0:
223,306,182713,1,0,0:0:0:0:
212,303,182800,6,0,P|170:293|137:293,1,43.5,2|0,0:0|0:0,0:0:0:0:
1,349,182972,2,0,P|50:333|72:332,1,43.5,0|0,0:0|0:0,0:0:0:0:
270,373,183144,6,0,B|218:312|257:227|313:202|313:202|301:249|356:307,1,261,2|0,0:0|0:0,0:0:0:0:
389,299,183489,6,0,B|403:270|403:270|398:216,1,65.2500024890901,2|0,0:0|0:0,0:0:0:0:
310,123,183662,2,0,B|277:125|277:125|233:156,1,65.2500024890901,0|0,0:0|0:0,0:0:0:0:
439,163,183834,5,2,0:0:0:0:
449,166,183920,1,0,0:0:0:0:
459,166,184007,2,0,L|541:150,1,43.5,0|0,0:0|0:0,0:0:0:0:
378,20,184179,1,0,0:0:0:0:
374,30,184265,1,0,0:0:0:0:
370,40,184351,2,0,P|376:74|385:93,1,43.5,0|0,0:0|0:0,0:0:0:0:
505,56,184524,6,0,P|508:21|489:49,1,87,2|0,0:0|0:0,0:0:0:0:
366,155,184696,1,0,0:0:0:0:
291,145,184782,1,2,0:0:0:0:
216,135,184869,6,0,B|174:146|174:146|50:125,1,130.50000497818,2|0,0:0|0:0,0:0:0:0:
12,198,185127,1,0,0:0:0:0:
0,211,185213,6,0,L|53:204,1,43.5,0|0,0:0|0:0,0:0:0:0:
283,215,185558,6,0,P|304:254|306:279,1,43.5,6|0,0:0|0:0,0:0:0:0:
122,374,185731,2,0,P|132:329|141:314,1,43.5,0|0,0:0|0:0,0:0:0:0:
375,291,185903,5,8,0:0:0:0:
375,301,185989,1,0,0:0:0:0:
373,311,186075,2,0,L|367:392,1,43.5,0|0,0:0|0:0,0:0:0:0:
177,234,186248,1,0,0:0:0:0:
171,224,186334,1,0,0:0:0:0:
165,214,186420,2,0,L|240:227,1,43.5,0|0,0:0|0:0,0:0:0:0:
454,171,186593,1,8,0:0:0:0:
443,171,186679,1,0,0:0:0:0:
432,173,186765,2,0,P|393:192|377:205,1,43.5,0|0,0:0|0:0,0:0:0:0:
284,323,186938,5,0,0:0:0:0:
282,312,187024,1,0,0:0:0:0:
281,301,187110,2,0,L|286:256,1,43.5,0|0,0:0|0:0,0:0:0:0:
362,81,187282,1,8,0:0:0:0:
354,73,187369,1,0,0:0:0:0:
344,67,187455,2,0,P|314:56|284:54,1,43.5,0|0,0:0|0:0,0:0:0:0:
94,111,187627,6,0,P|144:104|169:95,1,43.5,2|0,0:0|0:0,0:0:0:0:
217,0,187800,2,0,P|235:53|237:82,1,43.5,0|0,0:0|0:0,0:0:0:0:
79,199,187972,2,0,P|44:192|23:180,1,43.5,8|0,0:0|0:0,0:0:0:0:
247,200,188144,5,0,0:0:0:0:
256,204,188231,1,0,0:0:0:0:
264,210,188317,6,0,P|279:242|285:272,1,43.5,2|0,0:0|0:0,0:0:0:0:
71,371,188489,2,0,P|83:331|94:304,1,43.5,0|0,0:0|0:0,0:0:0:0:
184,122,188662,5,8,0:0:0:0:
183,132,188748,1,0,0:0:0:0:
181,143,188834,2,0,L|172:197,1,43.5,0|0,0:0|0:0,0:0:0:0:
24,273,189007,1,0,0:0:0:0:
20,262,189093,1,0,0:0:0:0:
18,251,189179,2,0,P|22:207|28:194,1,43.5,0|0,0:0|0:0,0:0:0:0:
261,188,189351,5,8,0:0:0:0:
271,189,189437,1,0,0:0:0:0:
282,191,189523,1,0,0:0:0:0:
292,195,189609,1,0,0:0:0:0:
302,200,189696,6,0,P|339:224|358:242,1,43.5,0|0,0:0|0:0,0:0:0:0:
489,329,189869,2,0,P|495:283|505:262,1,43.5,0|0,0:0|0:0,0:0:0:0:
461,93,190041,5,8,0:0:0:0:
459,103,190127,1,0,0:0:0:0:
456,113,190213,2,0,P|455:157|460:180,1,43.5,0|0,0:0|0:0,0:0:0:0:
281,353,190386,5,2,0:0:0:0:
270,354,190472,1,0,0:0:0:0:
259,356,190558,1,2,0:0:0:0:
249,359,190644,1,0,0:0:0:0:
174,325,190731,6,0,B|294:336|294:336|329:357|329:357|335:322|375:286|435:314,1,261,8|0,0:0|0:0,0:0:0:0:
481,352,191075,5,8,0:0:0:0:
211,241,191248,1,2,0:0:0:0:
459,252,191420,1,8,0:0:0:0:
105,214,191593,1,2,0:0:0:0:
349,106,191765,1,8,0:0:0:0:
24,271,191938,1,2,0:0:0:0:
267,22,192110,1,8,0:0:0:0:
8,364,192282,1,2,0:0:0:0:
192,74,192455,5,8,0:0:0:0:
474,167,192627,1,2,0:0:0:0:
282,14,192800,1,8,0:0:0:0:
124,299,192972,1,2,0:0:0:0:
61,71,193144,6,0,B|154:81|154:81|169:88|169:88|185:84|185:84|272:91|272:91|232:92|183:131,1,261,8|0,0:0|0:0,0:0:0:0:
161,68,193489,6,0,B|140:45|140:45|165:22,1,65.25,8|0,0:0|0:0,0:0:0:0:
91,157,193834,6,0,L|22:163,1,43.5,8|0,0:0|0:0,0:0:0:0:
248,197,194007,2,0,L|317:203,1,43.5,8|0,0:0|0:0,0:0:0:0:
175,285,194179,6,0,B|98:233|98:233|74:362|74:362|124:311,1,261,8|0,0:0|0:0,0:0:0:0:
250,326,194524,6,0,P|300:335|330:368,1,65.2500024890901,8|0,0:0|0:0,0:0:0:0:
382,240,194696,2,0,P|399:287|385:330,1,65.2500024890901,8|0,0:0|0:0,0:0:0:0:
510,187,194869,5,8,0:0:0:0:
512,244,194955,1,0,0:0:0:0:
503,300,195041,2,0,P|488:343|465:369,1,43.5,8|0,0:0|0:0,0:0:0:0:
421,160,195214,5,2,0:0:0:0:
410,118,195300,1,2,0:0:0:0:
417,75,195386,1,2,0:0:0:0:
441,39,195472,1,2,0:0:0:0:
492,15,195558,5,2,0:0:0:0:
462,72,195644,1,2,0:0:0:0:
405,101,195730,1,2,0:0:0:0:
342,91,195816,1,2,0:0:0:0:
296,46,195903,6,0,L|233:40,1,43.5,2|0,0:1|0:0,0:0:0:0:
61,102,196075,6,0,L|147:96,1,65.2500024890901,0|0,0:0|0:0,0:0:0:0:
148,78,196248,6,0,P|193:97|215:137,1,65.2500024890901,8|0,0:1|0:0,0:0:0:0:
96,268,196420,6,0,P|83:217|116:157,1,87,2|0,0:1|0:0,0:0:0:0:
246,195,196593,6,0,L|235:374,1,174,6|0,0:0|0:0,0:0:0:0:
319,333,196851,1,0,0:0:0:0:
330,201,196938,2,0,P|324:159|299:124,1,87,8|0,0:0|0:0,0:0:0:0:
161,188,197110,2,0,P|167:230|193:266,1,87,0|0,0:0|0:0,0:0:0:0:
401,265,197282,1,2,0:0:0:0:
390,279,197455,2,0,L|507:274,1,87,0|0,0:0|0:0,0:0:0:0:
484,75,197627,2,0,B|349:59|349:59|389:99,1,174,8|0,0:0|0:0,0:0:0:0:
454,165,197886,1,0,0:0:0:0:
277,168,197972,6,0,P|202:166|164:126,1,87,2|0,0:0|0:0,0:0:0:0:
227,0,198144,2,0,P|262:65|247:118,1,87,0|0,0:0|0:0,0:0:0:0:
120,277,198317,2,0,B|101:152|101:152|117:108,1,174,8|0,0:0|0:0,0:0:0:0:
196,242,198575,1,0,0:0:0:0:
22,353,198662,2,0,P|22:294|50:247,1,87,2|0,0:0|0:0,0:0:0:0:
281,214,198834,2,0,P|281:273|253:320,1,87,0|0,0:0|0:0,0:0:0:0:
6,189,199007,2,0,L|129:180,1,87,8|0,0:0|0:0,0:0:0:0:
180,366,199179,2,0,L|303:375,1,87,0|0,0:0|0:0,0:0:0:0:
446,312,199351,6,0,B|427:225|427:225|325:293,1,174,2|0,0:0|0:0,0:0:0:0:
384,379,199610,1,0,0:0:0:0:
505,216,199696,2,0,L|491:130,1,87,8|0,0:0|0:0,0:0:0:0:
319,27,199869,2,0,L|305:113,1,87,0|0,0:0|0:0,0:0:0:0:
512,42,200041,2,0,P|459:18|415:27,1,87,2|0,0:0|0:0,0:0:0:0:
361,168,200213,2,0,P|308:192|264:183,1,87,0|0,0:0|0:0,0:0:0:0:
49,142,200386,2,0,B|138:136|138:136|152:140|152:140|259:131,1,174,8|0,0:0|0:0,0:0:0:0:
127,234,200644,1,0,0:0:0:0:
127,52,200731,6,0,B|156:92|149:133|149:133|109:176|118:248,1,174,2|0,0:0|0:0,0:0:0:0:
201,292,200989,1,0,0:0:0:0:
278,240,201075,2,0,P|236:209|163:210,1,87,8|0,0:0|0:0,0:0:0:0:
92,333,201248,1,0,0:0:0:0:
84,357,201334,1,0,0:0:0:0:
36,232,201420,2,0,L|21:105,1,87,2|0,0:0|0:0,0:0:0:0:
199,83,201593,1,0,0:0:0:0:
191,107,201679,1,0,0:0:0:0:
109,43,201765,2,0,B|209:36|209:36|225:30|225:30|242:33|242:33|375:19,1,261,8|0,0:0|0:0,0:0:0:0:
347,207,202110,6,0,B|311:98|311:98|418:116,1,174,2|0,0:0|0:0,0:0:0:0:
445,188,202369,1,0,0:0:0:0:
258,351,202455,2,0,L|276:251,1,87,8|0,0:0|0:0,0:0:0:0:
460,332,202627,2,0,L|353:321,1,87,0|0,0:0|0:0,0:0:0:0:
163,329,202800,2,0,P|116:363|58:356,1,87,2|0,0:0|0:0,0:0:0:0:
51,182,202972,2,0,P|93:189|125:218,1,87,0|0,0:0|0:0,0:0:0:0:
2,269,203144,2,0,L|14:63,1,174,8|0,0:0|0:0,0:0:0:0:
105,110,203403,1,0,0:0:0:0:
170,0,203489,6,0,P|191:49|172:115,1,87,2|0,0:0|0:0,0:0:0:0:
0,22,203662,2,0,L|116:31,1,87,0|0,0:0|0:0,0:0:0:0:
269,90,203834,2,0,B|363:70|353:126|473:90,1,174,8|0,0:0|0:0,0:0:0:0:
405,19,204093,1,0,0:0:0:0:
269,90,204179,2,0,P|249:157|276:222,1,87,2|0,0:0|0:0,0:0:0:0:
444,298,204351,2,0,P|443:254|425:215,1,87,0|0,0:0|0:0,0:0:0:0:
183,263,204524,2,0,B|236:251|236:251|387:271,1,174,8|0,0:0|0:0,0:0:0:0:
239,335,204782,1,0,0:0:0:0:
49,283,204869,6,0,P|22:221|102:257,1,174,2|0,0:0|0:0,0:0:0:0:
132,329,205127,1,0,0:0:0:0:
171,178,205213,2,0,B|211:127|199:58|150:18|150:18|185:52|242:46,1,261,8|0,0:0|0:0,0:0:0:0:
339,4,205558,2,0,P|281:11|238:46,1,87,2|0,0:0|0:0,0:0:0:0:
395,159,205731,2,0,P|417:105|409:50,1,87,0|0,0:0|0:0,0:0:0:0:
301,201,205903,2,0,L|516:192,1,174,8|0,0:0|0:0,0:0:0:0:
129,251,206248,6,0,B|143:286|143:286|124:388|124:388|169:360,1,174,2|0,0:0|0:0,0:0:0:0:
213,262,206507,1,0,0:0:0:0:
70,182,206593,2,0,B|214:160|214:160|176:210,1,174,8|0,0:0|0:0,0:0:0:0:
13,249,206851,1,0,0:0:0:0:
171,80,206938,2,0,B|239:22|239:22|284:138,1,174,2|0,0:0|0:0,0:0:0:0:
300,220,207196,1,2,0:0:0:0:
487,202,207282,2,0,B|472:160|427:132|366:135|336:152|336:152|378:178|376:225,1,261,0|0,0:0|0:0,0:0:0:0:
308,300,207627,6,0,L|413:295,1,87,2|2,0:0|0:0,0:0:0:0:
478,329,207886,1,2,0:0:0:0:
486,315,207972,2,0,P|490:296|482:271,3,43.5,8|8|4|4,0:3|0:3|0:3|0:3,0:0:0:0:
446,168,208317,6,0,B|454:42|454:42|436:68|398:81,1,174,6|0,0:0|0:0,0:0:0:0:
383,0,208575,1,0,0:0:0:0:
353,166,208662,2,0,P|264:182|222:67,1,174,8|0,0:0|0:0,0:0:0:0:
237,32,208920,1,0,0:0:0:0:
110,119,209007,6,0,P|46:135|-18:114,1,87,2|0,0:0|0:0,0:0:0:0:
0,277,209179,2,0,P|45:324|59:390,1,87,0|0,0:0|0:0,0:0:0:0:
131,202,209351,2,0,L|142:11,1,174,8|0,0:0|0:0,0:0:0:0:
56,49,209610,1,0,0:0:0:0:
232,163,209696,2,0,B|251:121|251:121|237:58,1,87,2|0,0:0|0:0,0:0:0:0:
108,219,209869,2,0,B|99:258|99:258|118:300,1,87,0|0,0:0|0:0,0:0:0:0:
306,268,210041,2,0,B|334:245|334:245|160:261,1,174,8|0,0:0|0:0,0:0:0:0:
442,18,210386,6,0,P|489:56|437:173,1,174,2|0,0:0|0:0,0:0:0:0:
367,58,210644,1,0,0:0:0:0:
324,180,210731,2,0,P|248:158|230:111,1,87,8|0,0:0|0:0,0:0:0:0:
156,36,210903,2,0,P|113:36|77:60,1,87,0|0,0:0|0:0,0:0:0:0:
0,154,211075,2,0,B|87:148|87:148|102:153|102:153|201:144,1,174,2|0,0:0|0:0,0:0:0:0:
404,305,211420,2,0,B|393:355|345:366|345:366|307:319|342:264,1,174,8|0,0:0|0:0,0:0:0:0:
387,206,211679,1,0,0:0:0:0:
512,206,211765,6,0,B|556:231|552:280|552:280|495:302|453:252,1,174,2|0,0:0|0:0,0:0:0:0:
412,191,212024,1,0,0:0:0:0:
415,92,212110,2,0,P|475:101|511:141,1,87,8|0,0:0|0:0,0:0:0:0:
317,107,212282,1,0,0:0:0:0:
322,82,212369,1,0,0:0:0:0:
206,19,212455,2,0,L|216:141,1,87,2|0,0:0|0:0,0:0:0:0:
152,218,212627,1,0,0:0:0:0:
157,193,212714,1,0,0:0:0:0:
296,257,212800,2,0,B|331:237|331:237|278:352|278:352|195:291,1,261,8|0,0:0|0:0,0:0:0:0:
310,163,213144,6,0,P|373:167|413:212,1,87,12|0,0:0|0:0,0:0:0:0:
464,286,213317,2,0,P|429:338|370:350,1,87,2|0,0:0|0:0,0:0:0:0:
415,186,213489,2,0,L|530:172,1,87,2|0,0:0|0:0,0:0:0:0:
400,78,213662,2,0,B|278:61|278:61|196:93,1,174,8|2,0:0|0:0,0:0:0:0:
136,136,213920,1,0,0:0:0:0:
52,30,214007,2,0,P|107:35|154:77,1,87,2|0,0:0|0:0,0:0:0:0:
181,212,214179,2,0,B|97:241|102:192|9:213,1,174,8|2,0:0|0:0,0:0:0:0:
57,299,214438,1,0,0:0:0:0:
151,384,214524,6,0,P|167:329|155:287,1,87,12|0,0:0|0:0,0:0:0:0:
257,149,214696,2,0,B|267:221|267:221|263:242|263:242|281:349,1,174,2|2,0:0|0:0,0:0:0:0:
351,253,214955,1,0,0:0:0:0:
423,117,215041,2,0,P|366:128|332:167,1,87,8|0,0:0|0:0,0:0:0:0:
416,357,215213,2,0,P|434:302|418:253,1,87,2|0,0:0|0:0,0:0:0:0:
164,226,215386,2,0,L|322:233,1,87,2|0,0:0|0:0,0:0:0:0:
454,197,215558,5,8,0:0:0:0:
432,200,215644,1,2,0:0:0:0:
356,267,215731,1,2,0:0:0:0:
334,263,215817,1,2,0:0:0:0:
191,141,215903,6,0,B|362:122|362:122|337:137|326:176,1,217.5,12|2,0:0|0:0,0:0:0:0:
149,226,216162,1,2,0:0:0:0:
379,232,216248,2,0,B|427:296|386:379|386:379|354:347|291:341,1,217.5,8|2,0:0|0:0,0:0:0:0:
226,373,216507,1,2,0:0:0:0:
92,295,216593,2,0,P|27:312|-9:359,1,108.75,8|0,0:0|0:0,0:0:0:0:
231,198,216765,2,0,P|183:150|125:142,1,108.75,2|2,0:0|0:0,0:0:0:0:
0,93,216938,2,0,P|100:116|165:11,1,217.5,8|2,0:0|0:0,0:0:0:0:
69,27,217196,1,2,0:0:0:0:
98,217,217282,5,8,0:0:0:0:
62,280,217369,1,2,0:0:0:0:
78,349,217455,1,2,0:0:0:0:
145,373,217541,5,2,0:0:0:0:
212,349,217627,1,8,0:0:0:0:
238,282,217713,1,2,0:0:0:0:
203,218,217800,5,2,0:0:0:0:
185,148,217886,1,2,0:0:0:0:
218,84,217972,5,8,0:0:0:0:
172,139,218058,1,2,0:0:0:0:
103,161,218144,1,2,0:0:0:0:
33,139,218231,6,0,P|20:113|15:83,1,43.5,2|0,0:0|0:0,0:0:0:0:
512,233,218403,6,0,L|506:360,1,87,0|0,0:0|0:0,0:0:0:0:
511,369,218662,6,0,B|37412:36563|-52:743|-52:743|-34:532|-34:532|13:535|153:510|212:463|212:463|165:456|106:494|106:494|63:527|11:636|9:782|122:781|179:661|192:605|192:605|181:578|158:609|151:647|221:596|221:596|217:659|212:710|273:691|294:555|294:555|287:609|287:669|357:667|390:532|390:532|368:751|368:751|367:787|307:884|262:852|343:748|343:748|396:657|439:607|439:607|514:513|490:489|490:489|462:485|434:525|602:555|505:628|418:612|418:612|536:597|580:478|580:478|620:319|620:319|500:595|578:640|675:534|566:427|566:427|551:432|551:432|621:436|771:359|771:359|683:383|634:494|668:569|719:555|790:480|786:375|786:375|777:470|821:488|821:488|840:492|909:375|915:205|899:210|899:210|884:210|858:388|890:450|890:450|901:460|922:455|951:441|951:441|974:423|994:404|1024:237|1038:163|1026:166|1026:166|1005:175|978:304|952:409|989:446|1061:399|1061:399|1084:381|1096:336|1104:294|1092:294|1092:294|1079:303|1066:346|1075:428|1174:352|1174:352|1225:294|1154:271|1154:271|1319:208|1319:208|1221:300|1221:300|1353:348|1269:492|1233:510|1197:524|1197:524|1145:549|1173:442|1302:267|1302:267|1377:239|1475:187|1475:187|1465:158|1401:144|1295:247|1306:337|1372:337|1470:287|1474:218|1474:218|1471:205|1508:163|1587:129|1616:121|1616:121|1528:152|1424:253|1480:272|1546:305|1649:224|1665:-44|1646:-45|1646:-45|1623:-36|1617:102|1623:220|1675:194|1675:194|1676:195,1,59986.5,6|6,0:3|0:3,0:0:0:0:
425,276,218832,5,0,0:0:0:0:
343,322,219005,2,0,P|295:328|246:290,1,87,8|0,0:0|0:0,0:0:0:0:
422,384,219349,1,0,0:0:0:0:
342,233,219522,1,2,0:0:0:0:
432,160,219694,2,0,L|425:266,1,87,8|0,0:0|0:0,0:0:0:0:
357,105,220039,5,0,0:0:0:0:
511,144,220211,1,2,0:0:0:0:
463,14,220383,2,0,P|395:17|371:41,1,87,8|0,0:0|0:0,0:0:0:0:
344,185,220728,1,0,0:0:0:0:
434,79,220901,1,2,0:0:0:0:
234,33,221073,2,0,L|249:133,1,87,8|0,0:0|0:0,0:0:0:0:
191,209,221418,5,2,0:0:0:0:
325,149,221590,1,2,0:0:0:0:
216,281,221763,2,0,P|144:272|120:238,1,87,8|0,0:0|0:0,0:0:0:0:
312,307,222107,2,0,P|340:373|322:411,1,87,0|2,0:0|0:0,0:0:0:0:
287,211,222452,2,0,P|330:153|372:149,1,87,8|0,0:0|0:0,0:0:0:0:
453,205,222797,5,0,0:0:0:0:
498,89,222970,1,2,0:0:0:0:
405,0,223142,2,0,P|389:46|406:95,1,87,8|0,0:0|0:0,0:0:0:0:
462,200,223487,1,0,0:0:0:0:
358,253,223659,1,2,0:0:0:0:
229,134,223832,2,0,L|330:147,1,87,8|2,0:0|0:0,0:0:0:0:
242,250,224176,6,0,L|141:263,1,87,2|0,0:0|0:0,0:0:0:0:
34,108,224521,2,0,P|99:113|137:147,1,87,8|0,0:0|0:0,0:0:0:0:
44,314,224866,1,0,0:0:0:0:
64,185,225039,1,2,0:0:0:0:
204,79,225211,2,0,L|215:177,1,87,8|0,0:0|0:0,0:0:0:0:
141,27,225556,5,0,0:0:0:0:
280,97,225728,1,2,0:0:0:0:
408,9,225901,2,0,P|357:6|318:30,1,87,8|0,0:0|0:0,0:0:0:0:
306,202,226245,1,0,0:0:0:0:
376,80,226418,1,2,0:0:0:0:
199,197,226590,2,0,L|312:204,1,87,8|0,0:0|0:0,0:0:0:0:
442,211,226935,5,2,0:0:0:0:
268,324,227107,1,0,0:0:0:0:
381,372,227280,2,0,P|387:311|371:268,1,87,8|0,0:0|0:0,0:0:0:0:
296,135,227625,1,0,0:0:0:0:
452,208,227797,1,2,0:0:0:0:
507,70,227970,2,0,P|457:73|411:107,1,87,8|0,0:0|0:0,0:0:0:0:
224,215,228314,6,0,L|212:116,1,87,0|2,0:0|0:0,0:0:0:0:
157,292,228659,1,8,0:0:0:0:
289,371,228832,2,0,P|328:308|308:231,1,130.5,0|0,0:0|0:0,0:0:0:0:
305,230,229176,1,2,0:0:0:0:
333,232,229263,1,2,0:0:0:0:
361,234,229349,1,8,0:0:0:0:
475,170,229521,1,2,0:0:0:0:
253,17,229694,6,0,B|176:1|176:1|169:-43|19916:-158573|19916:-158573|102:-42|102:-42|97:4|79:31|79:31|88:74|88:74|11:81|11:81|196:65|196:65|203:216|203:216|150:198|150:198|203:216|203:216|196:65|196:65|88:74|88:74|97:176|-9:215,1,320725.5,2|2,0:0|0:0,0:0:0:0:
460,35,229866,1,0,0:0:0:0:
383,201,230039,6,0,B|402:189|410:162|410:162|418:108|358:68|233:63|233:63|103:60|111:154|111:154|133:190|178:204|275:187|331:66|329:6|329:6|20033:-158570|20033:-158570|231:-55|219:-39|219:-39|191:-1|186:22|186:22|180:94|206:182|326:201,1,320638.5,8|8,0:0|0:0,0:0:0:0:
477,19,230210,1,0,0:0:0:0:
259,95,230383,6,0,B|20095:-158510|20095:-158510|261:-13|260:20|260:20|276:67|253:134|253:134|321:73|437:38|550:152|385:265|249:258,1,320160,0|0,0:0|0:0,0:0:0:0:
417,248,230554,1,2,0:0:0:0:
498,44,230728,6,0,B|520:20|20334:-158561|20334:-158561|500:-64|499:-30|499:-30|501:48|501:48|500:54|500:54|421:57|421:57|568:46|568:46|500:54|500:54|490:154|511:226|526:251|526:251|511:228|504:203|504:203|546:160|577:112|577:112|546:159|504:203|504:203|510:227|526:251|526:251|511:228|504:203|504:203|477:228|427:256|359:218|355:196|355:196|340:143|362:108|699:104|694:202|694:202|694:256|629:268,1,321247.5,8|8,0:0|0:0,0:0:0:0:
413,266,230898,1,0,0:0:0:0:
368,44,231070,5,0,0:0:0:0:
296,225,231242,1,0,0:0:0:0:
507,192,231414,2,0,L|408:186,1,87,0|0,0:0|0:0,0:0:0:0:
254,294,231759,1,0,0:0:0:0:
327,140,231932,1,0,0:0:0:0:
248,86,232104,2,0,P|232:150|248:195,1,87,0|0,0:0|0:0,0:0:0:0:
329,324,232449,6,0,P|332:280|316:240,1,87,0|0,0:0|0:0,0:0:0:0:
124,373,232794,2,0,L|232:358,1,87,0|0,0:0|0:0,0:0:0:0:
382,384,233138,1,0,0:0:0:0:
254,294,233311,1,0,0:0:0:0:
407,183,233483,2,0,L|403:281,1,87,0|0,0:0|0:0,0:0:0:0:
354,106,233828,6,0,P|402:88|446:97,1,87,0|0,0:0|0:0,0:0:0:0:
271,200,234173,2,0,P|228:203|188:186,1,87,0|0,0:0|0:0,0:0:0:0:
155,115,234432,2,0,L|257:105,1,87,0|0,0:0|0:0,0:0:0:0:
272,102,234690,1,0,0:0:0:0:
86,196,234863,1,0,0:0:0:0:
112,40,235035,1,0,0:0:0:0:
2,165,235207,6,0,P|-5:213|12:255,1,87,0|0,0:0|0:0,0:0:0:0:
163,313,235552,2,0,L|173:218,1,87,0|0,0:0|0:0,0:0:0:0:
115,377,235897,1,0,0:0:0:0:
247,307,236070,1,0,0:0:0:0:
342,368,236242,2,0,P|398:381|441:367,1,87,0|0,0:0|0:0,0:0:0:0:
319,181,236587,6,0,L|327:279,1,87,0|0,0:0|0:0,0:0:0:0:
489,320,236932,2,0,P|504:265|487:221,1,87,0|0,0:0|0:0,0:0:0:0:
374,119,237276,1,0,0:0:0:0:
428,270,237449,1,0,0:0:0:0:
512,83,237621,2,0,P|467:62|415:75,1,87,0|0,0:0|0:0,0:0:0:0:
266,133,237966,5,0,0:0:0:0:
316,27,238138,1,0,0:0:0:0:
164,6,238311,2,0,L|174:122,1,87,0|0,0:0|0:0,0:0:0:0:
247,211,238656,2,0,P|310:202|343:159,1,87,0|0,0:0|0:0,0:0:0:0:
153,274,239001,2,0,P|129:333|150:383,1,87,0|0,0:0|0:0,0:0:0:0:
341,381,239345,6,0,P|343:338|322:301,1,87,0|0,0:0|0:0,0:0:0:0:
208,331,239690,1,0,0:0:0:0:
386,249,239863,1,0,0:0:0:0:
279,186,240035,1,0,0:0:0:0:
353,114,240207,1,0,0:0:0:0:
355,101,240294,1,0,0:0:0:0:
357,88,240380,1,0,0:0:0:0:
434,132,240552,1,0,0:0:0:0:
407,21,240725,6,0,B|357:8|314:21|314:21|275:58|217:33|217:33|256:63|261:111|232:151|232:151|196:133|182:100|182:100|144:123|100:107|100:107|153:123|176:174|169:241|99:267|59:261|23:230|3:189|23:147,1,791.699975839234,0|0,0:0|0:0,0:0:0:0:
84,173,243138,1,0,0:0:0:0:
199,254,243483,6,0,B|243:299|225:371|225:371|267:322|324:275|376:281|376:281|391:323|351:358|351:358|294:334|295:260,1,487.199985131836,0|0,0:0|0:0,0:0:0:0:
356,209,245380,6,0,P|391:209|432:226,1,60.8999981414796,0|0,0:0|0:0,0:0:0:0:
473,281,245725,1,0,0:0:0:0:
478,153,245897,2,0,P|495:183|501:227,1,60.8999981414796,0|0,0:0|0:0,0:0:0:0:
391,127,246242,6,0,B|361:81|368:12|368:12|338:53|278:66|278:66|282:99|273:133|273:133|226:98|183:114|183:114|206:69|186:14|186:14|247:98|218:225|147:240|147:240|166:216|173:201,1,791.699975839234,0|0,0:0|0:0,0:0:0:0:
99,180,248656,1,0,0:0:0:0:
293,207,249001,6,0,B|320:193|336:167|336:167|358:239|338:325|282:366|282:366|276:304|252:282,1,365.399988848877,0|0,0:0|0:0,0:0:0:0:
259,132,250380,6,0,B|344:126|344:126|358:129|358:129|450:122,1,182.699994424439,0|0,0:0|0:0,0:0:0:0:
265,60,251070,2,0,B|350:54|350:54|364:57|364:57|456:50,1,182.699994424439,0|0,0:0|0:0,0:0:0:0:
495,193,251759,6,0,B|425:216|387:160|387:160|365:172|339:173|339:173|354:155|345:123|319:108|279:110|260:147|256:192|292:225|292:225|242:172|198:185|198:185|181:221|164:240|164:240|118:222|117:178|117:178|183:163|199:93|162:38|162:38|170:71|151:114,1,852.599973980714,0|0,0:0|0:0,0:0:0:0:
0,108,254518,6,0,B|19:161|-16:198|-16:198|23:180|52:200|52:200|48:221|33:238|33:238|88:275|65:358|21:380|21:380|39:344|27:312,1,426.299986990357,0|0,0:0|0:0,0:0:0:0:
142,330,255897,6,0,B|276:320|276:320|324:339,1,182.699994424439,0|0,0:0|0:0,0:0:0:0:
253,240,256587,2,0,B|387:250|387:250|435:231,1,182.699994424439,0|0,0:0|0:0,0:0:0:0:
493,100,257276,6,0,B|505:63|492:27|457:18|417:55|406:90|427:139|452:159|452:159|411:117|354:121|354:121|323:165|278:158|278:158|275:94|306:65|306:65|313:110|234:118|234:118|221:64|182:57|182:57|220:77|231:150|160:198|80:137|118:85,1,913.499972122193,0|0,0:0|0:0,0:0:0:0:
37,79,260035,6,0,B|29:61|36:34|36:34|6:82|22:128|22:128|54:164|27:219|27:219|52:207|68:208|68:208|25:267|66:324|66:324|91:293,1,426.299986990357,0|0,0:0|0:0,0:0:0:0:
142,277,261414,6,0,B|161:262|201:252|245:277|296:312|284:367|212:420|139:333|226:275|226:275|205:236|235:197,1,365.399988848877,0|0,0:0|0:0,0:0:0:0:
279,117,262621,6,0,B|293:132|300:157|300:157|322:170|322:170|283:191|283:191|295:221|279:251|279:251|313:225|342:221|387:233|387:233|328:258|310:302|313:342|334:387|387:395|405:349|390:315|390:315|389:306|402:298|402:298|409:311|423:322|423:322|435:360|481:371|481:371|515:311|461:269|461:269|448:254|451:245|451:245|488:247|513:204|513:204|486:221|451:216|451:216|448:206|443:196|443:196|428:175|409:168|389:165|389:165|402:138|428:132|444:142|444:142|457:161|457:161|512:147|504:62|481:27|481:27|467:58|444:75|444:75|329:71|382:-32|456:31|390:85|390:85|367:80|367:80|352:110|352:110|339:83|323:64|323:64|315:38|320:19|320:19|308:36|288:45|288:45|244:45|223:75|223:75|188:89|195:145|221:153|221:153|208:126|214:101|214:101|208:79|197:73|197:73|183:60|183:60|164:57|164:57|173:31|195:10|195:10|164:34|138:33|138:33|118:50|93:50|93:50|62:45|45:24|1:42|1:42|24:88|-8:136|-8:136|28:120|48:97|48:97|75:113|75:113|87:108|87:108|115:110|135:118|135:118|135:137|144:161|144:161|63:220|-51:188|87:131|149:199|149:199|133:235|138:286|138:286|86:233|35:244|18:259|18:259|3:248|-15:250|-15:250|-6:264|-4:283|-4:283|-16:306|-23:340|-11:396|41:377|63:364|65:334|57:311|57:311|73:311|98:329|106:356|106:356|154:374|190:336|190:336|208:313|203:282|203:282|198:253|208:226|208:226|223:217|223:217|213:232|214:256|214:256|216:288|241:308|257:314|257:314|278:345|266:384|225:388|193:356,1,3836.69988291321,0|0,0:0|0:0,0:0:0:0:
