osu file format v14

[General]
AudioFilename: audio.mp3
AudioLeadIn: 0
PreviewTime: 74869
Countdown: 0
SampleSet: Normal
StackLeniency: 0.2
Mode: 0
LetterboxInBreaks: 0
EpilepsyWarning: 1
WidescreenStoryboard: 1

[Editor]
DistanceSpacing: 1.6
BeatDivisor: 4
GridSize: 4
TimelineZoom: 2.400001

[Metadata]
Title:crystallized
TitleUnicode:crystallized
Artist:Camellia
ArtistUnicode:Camellia
Creator:-ckopoctb-
Version:Waji's C4OH64O4
Source:
Tags:dnb chillout dubstep mlg sourpls relax slider Emilia Adore Livstvichka wajinshu
BeatmapID:1266100
BeatmapSetID:539221

[Difficulty]
HPDrainRate:6
CircleSize:4
OverallDifficulty:8
ApproachRate:9.4
SliderMultiplier:2.1
SliderTickRate:1

[Events]
//Background and Video events
0,0,"thumb-1920-712346.jpg",0,0
//Break Periods
2,130731,140880
2,141620,143294
2,144379,145535
2,240931,242604
2,246448,248122
2,251964,253984
2,257482,259501
//Storyboard Layer 0 (Background)
//Storyboard Layer 1 (Fail)
//Storyboard Layer 2 (Pass)
//Storyboard Layer 3 (Foreground)
//Storyboard Sound Samples

[TimingPoints]
9007,344.827586206897,4,2,7,25,1,0
9007,-400,4,2,7,25,0,0
11593,-400,4,2,7,5,0,0
11765,-400,4,2,7,25,0,0
17110,-400,4,2,7,5,0,0
17282,-400,4,2,7,25,0,0
20041,-181.818181818182,4,2,7,35,0,0
30213,-133.333333333333,4,2,1,30,0,0
31075,-142.857142857143,4,2,1,50,0,0
31420,-117.647058823529,4,2,1,50,0,0
50472,-117.647058823529,4,2,1,30,0,0
50731,-117.647058823529,4,2,1,35,0,0
51075,-117.647058823529,4,2,1,40,0,0
51420,-117.647058823529,4,2,1,45,0,0
51765,-117.647058823529,4,2,1,50,0,0
52455,-400,4,2,7,30,0,0
53144,-111.111111111111,4,2,7,60,0,0
53748,-111.111111111111,4,1,1,5,0,0
53834,-200,4,2,1,40,0,0
54438,-200,4,2,1,5,0,0
54524,-111.111111111111,4,1,1,60,0,0
54955,-111.111111111111,4,2,1,5,0,0
55041,-111.111111111111,4,1,1,60,0,0
55472,-111.111111111111,4,2,1,5,0,0
55558,-111.111111111111,4,1,1,60,0,0
56248,-200,4,1,1,40,0,0
57282,-111.111111111111,4,1,1,60,0,0
57713,-111.111111111111,4,2,1,5,0,0
57800,-111.111111111111,4,1,1,60,0,0
58231,-111.111111111111,4,2,1,5,0,0
58317,-111.111111111111,4,1,1,60,0,0
58920,-111.111111111111,4,2,1,5,0,0
59007,-76.9230769230769,4,1,1,75,0,0
59093,-76.9230769230769,4,1,1,20,0,0
59179,-76.9230769230769,4,1,1,75,0,0
59265,-76.9230769230769,4,1,1,20,0,0
59351,-76.9230769230769,4,1,1,75,0,0
59696,-200,4,2,1,40,0,0
59955,-200,4,2,1,5,0,0
60041,-111.111111111111,4,1,1,60,0,0
60472,-111.111111111111,4,2,1,5,0,0
60558,-111.111111111111,4,1,1,60,0,0
60989,-111.111111111111,4,2,1,5,0,0
61075,-111.111111111111,4,1,1,60,0,0
61593,-111.111111111111,4,2,1,5,0,0
61765,-200,4,1,1,50,0,0
62110,-100,4,1,1,50,0,0
64179,-142.857142857143,4,1,1,60,0,0
64782,-142.857142857143,4,2,1,5,0,0
64869,-200,4,1,1,75,0,0
65127,-200,4,1,1,20,0,0
65213,-100,4,1,1,75,0,0
65300,-100,4,1,1,20,0,0
65386,-100,4,1,1,75,0,0
65472,-100,4,1,1,20,0,0
65558,-142.857142857143,4,1,1,60,0,0
65989,-142.857142857143,4,2,1,5,0,0
66075,-142.857142857143,4,1,1,60,0,0
66507,-142.857142857143,4,2,1,5,0,0
66593,-142.857142857143,4,1,1,60,0,0
67196,-142.857142857143,4,2,1,5,0,0
67282,-142.857142857143,4,1,1,60,0,0
67325,-142.857142857143,4,1,1,30,0,0
67627,-142.857142857143,4,1,1,60,0,0
67670,-142.857142857143,4,1,1,30,0,0
67972,-142.857142857143,4,1,1,75,0,0
68317,-142.857142857143,4,1,1,60,0,0
68748,-142.857142857143,4,2,1,5,0,0
68834,-142.857142857143,4,1,1,60,0,0
69265,-142.857142857143,4,2,1,5,0,0
69351,-142.857142857143,4,1,1,60,0,0
69955,-142.857142857143,4,2,1,5,0,0
70041,-200,4,1,1,60,0,0
70300,-200,4,1,1,30,0,0
70386,-100,4,1,1,65,0,0
71075,-142.857142857143,4,1,1,60,0,0
71507,-142.857142857143,4,2,1,5,0,0
71593,-142.857142857143,4,1,1,60,0,0
72024,-142.857142857143,4,2,1,5,0,0
72110,-142.857142857143,4,1,1,60,0,0
72541,-142.857142857143,4,2,1,5,0,0
72627,-142.857142857143,4,1,1,60,0,0
73317,-142.857142857143,4,1,1,50,0,0
74007,-142.857142857143,4,1,1,40,0,0
75213,-142.857142857143,4,1,1,60,0,0
78144,-142.857142857143,4,2,1,40,0,0
80731,-142.857142857143,4,1,1,50,0,0
83489,-142.857142857143,4,1,1,30,0,0
83834,-142.857142857143,4,1,1,40,0,0
85731,-76.9230769230769,4,1,1,60,0,0
86248,-100,4,1,7,70,0,0
86334,-100,4,1,1,70,0,0
91420,-90.909090909091,4,1,1,70,0,0
91679,-142.857142857143,4,2,1,5,0,0
91765,-100,4,1,1,70,0,0
94869,-90.9090909090909,4,1,1,70,0,0
95213,-76.9230769230769,4,1,1,70,0,0
95903,-100,4,1,1,70,0,0
96248,-66.6666666666667,4,1,1,70,0,0
96593,-71.4285714285714,4,1,1,70,0,0
96938,-83.3333333333333,4,1,1,70,0,0
97282,-100,4,1,1,70,0,0
102455,-90.909090909091,4,1,1,70,0,0
102800,-100,4,1,1,70,0,0
105213,-200,4,1,1,70,0,0
105558,-100,4,1,1,70,0,0
105903,-66.6666666666667,4,1,1,70,0,0
106248,-100,4,1,1,70,0,0
107627,-100,4,2,7,70,0,0
108317,-200,4,1,1,70,0,0
109007,-100,4,1,1,70,0,0
110558,-166.666666666667,4,1,1,70,0,0
111075,-200,4,1,1,70,0,0
111420,-166.666666666667,4,1,1,70,0,0
112110,-76.9230769230769,4,1,1,70,0,0
112455,-100,4,1,1,70,0,0
113834,-200,4,1,1,70,0,0
114524,-100,4,1,1,70,0,0
116075,-166.666666666667,4,1,1,70,0,0
116593,-100,4,1,1,70,0,0
117972,-100,4,1,1,70,0,0
119351,-200,4,2,1,50,0,0
119438,-200,4,2,1,5,0,0
120041,-100,4,1,1,70,0,0
120127,-100,4,1,1,70,0,0
122455,-100,4,1,1,70,0,0
122800,-83.3333333333333,4,1,1,70,0,0
123489,-142.857142857143,4,1,1,70,0,0
123834,-100,4,1,1,70,0,0
124869,-166.666666666667,4,1,1,70,0,0
125558,-100,4,1,1,70,0,0
126938,-200,4,1,1,70,0,0
127627,-200,4,1,1,50,0,0
128317,-200,4,1,1,45,0,0
129007,-200,4,1,1,40,0,0
129869,-100,4,1,1,60,0,0
143834,-200,4,1,1,20,0,0
144179,-100,4,1,1,60,0,0
146938,-285.714285714286,4,2,1,20,0,0
147627,-285.714285714286,4,2,1,30,0,0
148317,-285.714285714286,4,2,1,40,0,0
149007,-285.714285714286,4,2,1,50,0,0
150386,-100,4,2,1,50,0,0
151075,-200,4,2,1,40,0,0
152455,-111.111111111111,4,1,1,60,0,0
153058,-142.857142857143,4,2,1,5,0,0
153144,-200,4,2,1,60,0,0
153748,-200,4,2,1,5,0,0
153834,-111.111111111111,4,1,1,60,0,0
154265,-142.857142857143,4,2,1,5,0,0
154351,-111.111111111111,4,1,1,60,0,0
154782,-142.857142857143,4,2,1,5,0,0
154869,-111.111111111111,4,1,1,60,0,0
155386,-200,4,1,1,60,0,0
155472,-200,4,2,1,5,0,0
155558,-200,4,1,1,50,0,0
156593,-142.857142857143,4,1,1,60,0,0
157024,-142.857142857143,4,2,1,5,0,0
157110,-142.857142857143,4,1,1,60,0,0
157541,-142.857142857143,4,2,1,5,0,0
157627,-142.857142857143,4,1,1,60,0,0
158231,-142.857142857143,4,2,1,5,0,0
158317,-100,4,1,1,75,0,0
158748,-100,4,1,1,20,0,0
158834,-100,4,1,1,75,0,0
158920,-100,4,1,1,20,0,0
159007,-200,4,2,1,50,0,0
159265,-200,4,2,1,5,0,0
159351,-142.857142857143,4,1,1,60,0,0
159782,-142.857142857143,4,2,1,5,0,0
159869,-142.857142857143,4,1,1,60,0,0
160300,-142.857142857143,4,2,1,5,0,0
160386,-142.857142857143,4,1,1,60,0,0
160989,-142.857142857143,4,2,1,5,0,0
161075,-142.857142857143,4,1,1,60,0,0
161162,-142.857142857143,4,1,1,20,0,0
161248,-142.857142857143,4,1,1,60,0,0
162110,-100,4,1,1,60,0,0
163489,-200,4,1,1,60,0,0
163575,-200,4,2,1,40,0,0
166248,-200,4,2,1,50,0,0
169007,-200,4,1,1,60,0,0
171075,-200,4,1,1,50,0,0
171765,-100,4,1,1,40,0,0
172455,-100,4,1,1,30,0,0
174007,-66.6666666666667,4,1,1,70,0,0
174524,-100,4,1,7,70,0,0
174610,-100,4,1,1,70,0,0
179696,-83.3333333333333,4,1,1,70,0,0
180041,-100,4,1,1,70,0,0
183144,-83.3333333333333,4,1,1,70,0,0
183489,-100,4,1,1,70,0,0
184696,-200,4,1,1,70,0,0
185127,-200,4,2,1,5,0,0
185213,-142.857142857143,4,2,1,50,0,0
185558,-100,4,1,1,70,0,0
193489,-100,4,1,1,70,0,0
193834,-100,4,1,1,70,0,0
194179,-66.6666666666667,4,1,1,70,0,0
195213,-100,4,1,1,70,0,0
195903,-100,4,2,1,70,0,0
196593,-100,4,1,1,70,0,0
201765,-76.9230769230769,4,1,1,70,0,0
202110,-100,4,1,1,70,0,0
206593,-66.6666666666667,4,1,1,70,0,0
206765,-100,4,1,1,70,0,0
207800,-100,4,2,1,60,0,0
207886,-100,4,2,1,55,0,0
207972,-100,4,2,1,50,0,0
208058,-100,4,2,1,45,0,0
208144,-100,4,2,1,40,0,0
208231,-100,4,2,1,35,0,0
208317,-100,4,1,1,70,0,0
212800,-66.6666666666667,4,1,1,70,0,0
213144,-100,4,1,1,80,0,0
218662,-100,4,1,7,50,0,0
218748,-125,4,1,1,50,0,0
229696,-142.857142857143,4,1,1,35,0,0
233834,-142.857142857143,4,1,1,30,0,0
235213,-200,4,2,1,30,0,0
239524,-200,4,2,1,20,0,0
243144,-200,4,2,7,25,0,0
244869,-400,4,2,7,25,0,0
245386,-200,4,2,7,25,0,0
245817,-200,4,2,7,5,0,0
245903,-200,4,2,7,25,0,0
246162,-200,4,2,7,5,0,0
246248,-400,4,2,7,25,0,0
251075,-285.714285714286,4,2,7,25,0,0
251765,-400,4,2,7,25,0,0
262627,-400,4,2,7,5,0,0

[Colours]
Combo1 : 92,96,226
Combo2 : 203,250,244
Combo3 : 114,185,211
Combo4 : 50,96,141

[HitObjects]
92,180,9007,6,0,B|146:170|162:110|162:110|224:121|256:80|256:80|292:124|346:111|346:111|367:167|400:178,1,393.75,2|0,0:0|0:0,0:0:0:0:
256,201,11765,1,2,0:0:0:0:
180,300,13144,1,2,0:0:0:0:
304,348,13834,1,0,0:0:0:0:
304,348,14524,6,0,B|180:304|208:376|64:336|64:336|148:288|148:216,1,393.75,2|0,0:0|0:0,0:0:0:0:
28,220,17282,1,2,0:0:0:0:
148,76,18662,1,2,0:0:0:0:
270,278,20041,5,2,0:0:0:0:
165,182,20213,1,0,0:0:0:0:
150,173,20300,1,0,0:0:0:0:
136,163,20386,1,0,0:0:0:0:
229,73,20558,1,0,0:0:0:0:
244,64,20645,1,0,0:0:0:0:
258,54,20731,1,0,0:0:0:0:
289,196,20903,1,0,0:0:0:0:
274,187,20990,1,0,0:0:0:0:
260,177,21076,1,0,0:0:0:0:
394,28,21248,6,0,P|402:48|409:64,1,28.8750008811951,0|0,0:0|0:0,0:0:0:0:
442,126,21420,1,0,0:0:0:0:
274,187,21593,2,0,P|282:167|289:151,1,28.8750008811951,0|0,0:0|0:0,0:0:0:0:
324,81,21765,1,0,0:0:0:0:
498,240,21938,2,0,P|490:220|483:204,1,28.8750008811951,0|0,0:0|0:0,0:0:0:0:
442,126,22110,1,0,0:0:0:0:
234,287,22282,2,0,P|242:267|249:251,1,28.8750008811951,0|0,0:0|0:0,0:0:0:0:
284,160,22454,1,0,0:0:0:0:
339,329,22627,1,0,0:0:0:0:
348,322,22713,1,0,0:0:0:0:
360,313,22800,5,2,0:0:0:0:
304,180,22972,2,0,L|278:155,2,28.8750008811951,0|0|0,0:0|0:0|0:0,0:0:0:0:
369,119,23317,2,0,L|395:94,2,28.8750008811951,0|0|0,0:0|0:0|0:0,0:0:0:0:
305,41,23662,2,0,L|279:16,2,28.8750008811951,0|0|0,0:0|0:0|0:0,0:0:0:0:
443,165,24007,1,0,0:0:0:0:
452,172,24093,1,0,0:0:0:0:
464,181,24180,5,2,0:0:0:0:
325,343,24351,1,0,0:0:0:0:
339,176,24524,2,0,P|362:220|381:261,1,86.6250026435853,8|0,0:0|0:0,0:0:0:0:
387,283,24869,1,2,0:0:0:0:
239,253,25041,1,0,0:0:0:0:
362,97,25213,2,0,P|398:131|429:163,1,86.6250026435853,8|0,0:0|0:0,0:0:0:0:
442,181,25558,5,2,0:0:0:0:
442,181,25903,2,0,P|387:170|313:158,1,115.50000352478,8|0,0:0|0:0,0:0:0:0:
211,161,26420,1,0,0:0:0:0:
270,291,26593,2,0,P|292:268|310:242,1,57.7500017623902,8|0,0:0|0:0,0:0:0:0:
263,100,26938,5,2,0:0:0:0:
178,45,27110,1,0,0:0:0:0:
164,38,27196,1,0,0:0:0:0:
147,29,27282,1,0,0:0:0:0:
276,9,27455,2,0,L|348:0,1,57.7500017623902,8|0,0:0|0:0,0:0:0:0:
349,8,27713,1,0,0:0:0:0:
364,15,27800,1,2,0:0:0:0:
465,145,27972,2,0,L|393:136,1,57.7500017623902,8|0,0:0|0:0,0:0:0:0:
391,144,28230,1,0,0:0:0:0:
350,163,28317,5,2,0:0:0:0:
264,211,28489,1,0,0:0:0:0:
173,161,28662,2,0,P|169:201|167:230,1,57.7500017623902,8|0,0:0|0:0,0:0:0:0:
182,302,28920,1,0,0:0:0:0:
164,298,29007,1,0,0:0:0:0:
147,294,29093,1,0,0:0:0:0:
129,290,29179,1,2,0:0:0:0:
264,211,29351,2,0,P|277:249|290:287,1,57.7500017623902,8|0,0:0|0:0,0:0:0:0:
287,282,29610,1,0,0:0:0:0:
310,329,29696,5,10,0:0:0:0:
412,255,29869,1,0,0:0:0:0:
370,122,30041,1,0,0:0:0:0:
271,91,30213,2,0,L|174:80,1,78.7500030040742,8|0,0:0|0:0,0:0:0:0:
156,172,30472,2,0,L|252:162,1,78.7500030040742,8|0,0:0|0:0,0:0:0:0:
277,243,30731,1,8,0:0:0:0:
403,159,30903,2,0,P|410:136|418:104,1,39.3750015020371,0|8,0:0|0:0,0:0:0:0:
368,246,31075,5,2,0:0:0:0:
271,91,31248,1,0,0:0:0:0:
465,41,31420,2,0,P|486:100|497:147,1,89.2500017023087,8|0,0:0|0:0,0:0:0:0:
495,157,31679,1,0,0:0:0:0:
487,187,31765,1,0,0:0:0:0:
477,217,31851,1,0,0:0:0:0:
463,245,31938,1,2,0:0:0:0:
314,146,32110,2,0,L|414:160,1,89.2500017023087,8|0,0:0|0:0,0:0:0:0:
213,128,32455,5,2,0:0:0:0:
271,313,32627,1,2,0:0:0:0:
164,243,32800,1,0,0:0:0:0:
225,113,32972,1,8,0:0:0:0:
244,88,33058,1,0,0:0:0:0:
270,71,33144,1,0,0:0:0:0:
299,61,33230,1,0,0:0:0:0:
330,60,33316,1,2,0:0:0:0:
346,202,33489,1,8,0:0:0:0:
346,202,33834,101,2,0:0:0:0:
225,113,34007,1,2,0:0:0:0:
114,66,34179,2,0,L|20:48,1,89.2500017023087,8|0,0:0|0:0,0:0:0:0:
4,46,34438,1,0,0:0:0:0:
17,75,34524,1,0,0:0:0:0:
18,107,34610,1,0,0:0:0:0:
12,138,34696,1,2,0:0:0:0:
186,258,34869,1,8,0:0:0:0:
150,158,35041,1,0,0:0:0:0:
41,291,35213,5,2,0:0:0:0:
151,359,35386,1,2,0:0:0:0:
265,308,35558,1,8,0:0:0:0:
250,180,35731,1,0,0:0:0:0:
242,154,35817,2,0,P|208:121|175:92,1,89.2500017023087,2|0,0:0|0:0,0:0:0:0:
156,76,36075,1,2,0:0:0:0:
374,2,36248,1,8,0:0:0:0:
374,2,36593,6,0,P|389:50|402:107,1,89.2500017023087,2|0,0:0|0:0,0:0:0:0:
269,212,36938,2,0,P|279:168|293:126,1,89.2500017023087,8|0,0:0|0:0,0:0:0:0:
277,99,37196,1,0,0:0:0:0:
247,88,37282,1,0,0:0:0:0:
216,81,37369,1,0,0:0:0:0:
184,78,37455,1,2,0:0:0:0:
90,200,37627,2,0,P|134:183|199:168,1,89.2500017023087,8|0,0:0|0:0,0:0:0:0:
347,229,37972,5,2,0:0:0:0:
201,363,38144,1,2,0:0:0:0:
239,261,38317,1,0,0:0:0:0:
421,294,38489,1,8,0:0:0:0:
439,268,38575,1,0,0:0:0:0:
445,237,38662,1,0,0:0:0:0:
440,206,38748,1,0,0:0:0:0:
427,177,38834,1,2,0:0:0:0:
291,351,39007,1,8,0:0:0:0:
240,180,39179,1,0,0:0:0:0:
291,351,39351,6,0,L|264:257,1,89.2500017023087,2|2,0:0|0:0,0:0:0:0:
245,64,39696,1,8,0:0:0:0:
299,167,39869,1,0,0:0:0:0:
270,177,39955,1,0,0:0:0:0:
240,180,40041,1,0,0:0:0:0:
209,177,40127,1,0,0:0:0:0:
181,163,40213,1,2,0:0:0:0:
369,67,40386,2,0,P|408:119|413:200,1,133.875002553463,8|0,0:0|0:0,0:0:0:0:
353,290,40731,6,0,P|335:259|327:235,1,44.6250008511543,8|0,0:0|0:0,0:0:0:0:
299,167,40903,1,2,0:0:0:0:
409,354,41075,1,2,0:0:0:0:
460,159,41248,2,0,L|474:223,1,44.6250008511543,8|0,0:0|0:0,0:0:0:0:
388,108,41420,2,0,L|374:172,1,44.6250008511543,2|8,0:0|0:0,0:0:0:0:
311,55,41593,1,0,0:0:0:0:
480,71,41765,1,8,0:0:0:0:
343,215,41938,2,0,P|309:208|277:204,1,44.6250008511543,0|8,0:0|0:0,0:0:0:0:
221,208,42110,6,0,P|240:265|250:312,1,89.2500017023087,2|0,0:0|0:0,0:0:0:0:
101,300,42455,1,8,0:0:0:0:
157,160,42627,1,0,0:0:0:0:
179,145,42713,1,0,0:0:0:0:
200,129,42800,1,0,0:0:0:0:
222,114,42886,1,0,0:0:0:0:
246,102,42972,1,2,0:0:0:0:
343,214,43144,2,0,P|352:171|367:129,1,89.2500017023087,8|0,0:0|0:0,0:0:0:0:
465,208,43489,5,2,0:0:0:0:
337,363,43662,1,2,0:0:0:0:
231,318,43834,1,0,0:0:0:0:
271,175,44007,1,8,0:0:0:0:
295,164,44093,1,0,0:0:0:0:
319,152,44179,1,0,0:0:0:0:
343,140,44265,1,0,0:0:0:0:
367,129,44351,1,2,0:0:0:0:
217,74,44524,2,0,L|120:66,1,89.2500017023087,8|0,0:0|0:0,0:0:0:0:
3,24,44869,101,2,0:0:0:0:
3,24,45041,1,2,0:0:0:0:
117,232,45213,2,0,L|134:143,1,89.2500017023087,8|0,0:0|0:0,0:0:0:0:
151,123,45472,5,0,0:0:0:0:
175,113,45558,1,0,0:0:0:0:
200,105,45644,1,0,0:0:0:0:
226,99,45731,1,2,0:0:0:0:
371,46,45903,2,0,P|361:106|357:209,1,133.875002553463,8|0,0:0|0:0,0:0:0:0:
372,200,46248,5,2,0:0:0:0:
467,130,46420,1,0,0:0:0:0:
338,308,46593,5,8,0:0:0:0:
268,213,46765,1,2,0:0:0:0:
244,199,46851,2,0,P|192:192|134:185,1,89.2500017023087,2|0,0:0|0:0,0:0:0:0:
131,199,47110,1,2,0:0:0:0:
55,326,47282,1,8,0:0:0:0:
200,290,47455,1,2,0:0:0:0:
63,137,47627,1,2,0:0:0:0:
63,137,47972,101,8,0:0:0:0:
201,160,48144,1,0,0:0:0:0:
208,134,48231,1,0,0:0:0:0:
204,107,48317,1,0,0:0:0:0:
196,81,48403,1,0,0:0:0:0:
178,60,48489,1,2,0:0:0:0:
94,215,48662,2,0,P|125:252|172:274,1,89.2500017023087,8|0,0:0|0:0,0:0:0:0:
301,260,49007,5,2,0:0:0:0:
394,139,49179,1,2,0:0:0:0:
353,339,49351,1,0,0:0:0:0:
265,181,49524,1,8,0:0:0:0:
258,155,49610,1,0,0:0:0:0:
252,128,49696,1,0,0:0:0:0:
247,101,49782,1,0,0:0:0:0:
242,74,49869,1,2,0:0:0:0:
436,140,50041,2,0,L|430:248,1,89.2500017023087,8|0,0:0|0:0,0:0:0:0:
298,315,50386,5,2,0:0:0:0:
298,315,50472,1,2,0:0:0:0:
298,315,50558,1,2,0:0:0:0:
298,315,50644,1,2,0:0:0:0:
269,328,50731,5,2,0:0:0:0:
238,322,50817,1,2,0:0:0:0:
213,302,50903,1,2,0:0:0:0:
197,274,50989,1,2,0:0:0:0:
210,236,51075,5,2,0:0:0:0:
225,198,51162,1,2,0:0:0:0:
242,161,51248,1,2,0:0:0:0:
221,126,51334,1,2,0:0:0:0:
182,116,51420,5,2,0:0:0:0:
146,130,51507,1,2,0:0:0:0:
124,183,51593,5,2,0:0:0:0:
146,226,51679,1,2,0:0:0:0:
184,256,51765,6,0,L|218:282,1,22.3125004255772,2|2,0:0|0:0,0:0:0:0:
221,255,51851,2,0,L|255:281,1,22.3125004255772,2|2,0:0|0:0,0:0:0:0:
262,260,51938,2,0,L|296:286,1,22.3125004255772,2|2,0:0|0:0,0:0:0:0:
299,259,52024,2,0,L|333:285,1,22.3125004255772,2|2,0:0|0:0,0:0:0:0:
367,172,52110,6,0,L|333:146,1,22.3125004255772,2|2,0:0|0:0,0:0:0:0:
330,173,52196,2,0,L|296:147,1,22.3125004255772,2|2,0:0|0:0,0:0:0:0:
289,168,52283,2,0,L|255:142,1,22.3125004255772,2|2,0:0|0:0,0:0:0:0:
252,169,52369,2,0,L|218:143,1,22.3125004255772,2|2,0:0|0:0,0:0:0:0:
205,137,52455,6,0,P|157:129|112:127,1,91.875,4|0,0:1|0:0,0:0:0:0:
39,232,53144,6,0,B|235:164|167:300|362:216,1,330.749989906311,6|0,0:2|0:0,0:0:0:0:
220,79,53834,6,0,P|207:135|308:147,1,183.75,8|0,2:0|2:0,2:2:0:0:
162,28,54524,6,0,P|130:117|205:238,1,236.249992790222,2|0,0:0|0:0,0:0:0:0:
294,233,55041,2,0,B|307:287|307:287|182:287|182:287|196:230,1,236.249992790222,2|0,0:0|0:0,0:0:0:0:
449,82,55558,6,0,B|449:110|440:128|440:128|455:154|455:154|445:190|445:190|462:230|462:230|433:216|348:204|393:248|293:232,1,330.749989906311,2|0,0:0|0:0,0:0:0:0:
198,89,56248,6,0,L|163:84,1,26.25,0|0,0:0|0:0,0:0:0:0:
245,166,56420,2,0,L|210:171,1,26.25,0|0,0:0|0:0,0:0:0:0:
309,100,56593,6,0,L|344:105,1,26.25,0|0,0:0|0:0,0:0:0:0:
262,23,56765,2,0,L|297:18,1,26.25,0|0,0:0|0:0,0:0:0:0:
442,11,56938,5,0,0:0:0:0:
438,26,57024,1,0,0:0:0:0:
436,41,57110,1,0,0:0:0:0:
432,56,57196,1,0,0:0:0:0:
425,83,57282,6,0,B|446:35|446:35|433:226,1,236.249992790222,2|0,0:0|0:0,0:0:0:0:
491,260,57799,2,0,P|504:208|363:205,1,236.249992790222,2|0,0:0|0:0,0:0:0:0:
247,324,58317,2,0,B|292:313|292:313|340:337|340:337|387:319|387:319|399:333|426:346|426:346|400:295|437:209,1,330.749989906311,2|0,0:0|0:0,0:0:0:0:
317,169,59007,6,0,L|338:246,1,68.2499968757631,0|0,0:0|0:0,0:0:0:0:
254,112,59179,2,0,L|233:189,1,68.2499968757631,0|0,0:0|0:0,0:0:0:0:
205,254,59351,1,0,0:0:0:0:
182,278,59524,1,0,0:0:0:0:
163,303,59696,6,0,P|160:259|161:225,1,78.75,0|0,0:0|0:0,0:0:0:0:
214,148,60041,102,0,B|153:186|153:186|336:166,1,236.249992790222,2|0,0:0|0:0,0:0:0:0:
385,242,60558,2,0,B|446:280|446:280|263:260,1,236.249992790222,2|0,0:0|0:0,0:0:0:0:
214,148,61075,2,0,B|100:120|117:178|20:127|20:127|50:91|101:78,1,283.499991348267,2|0,0:0|0:0,0:0:0:0:
294,131,61765,6,0,P|294:168|275:205,1,78.75,2|0,0:0|0:0,0:0:0:0:
219,283,62110,6,0,P|196:259|183:228,1,52.5,0|0,0:0|0:0,0:0:0:0:
214,148,62282,1,2,0:0:0:0:
309,296,62455,6,0,P|289:341|188:369,1,157.5,8|0,0:0|0:0,0:0:0:0:
196,99,62800,6,0,P|214:172|228:255,1,157.5,2|0,0:0|0:0,0:0:0:0:
219,283,63144,1,8,0:0:0:0:
219,283,63489,1,2,0:0:0:0:
328,133,63662,1,2,0:0:0:0:
171,146,63834,1,8,0:0:0:0:
171,146,64179,6,0,P|131:129|222:12,1,257.249992149353,2|0,0:0|0:0,0:0:0:0:
180,72,64869,102,0,L|95:82,1,78.75,0|0,0:0|0:0,0:0:0:0:
63,160,65213,6,0,L|59:216,1,52.5,0|0,0:0|0:0,0:0:0:0:
129,312,65386,2,0,L|126:260,1,52.5,0|0,0:0|0:0,0:0:0:0:
171,146,65558,6,0,P|239:103|255:178,1,183.749994392395,2|0,0:0|0:0,0:0:0:0:
359,182,66075,2,0,P|378:105|443:150,1,183.749994392395,2|0,0:0|0:0,0:0:0:0:
439,269,66593,6,0,B|390:246|337:264|337:264|307:253|269:267|269:267|237:240|183:240,1,257.249992149353,2|0,0:0|0:0,0:0:0:0:
146,177,67282,6,0,L|168:170,7,18.3749994392395,0|0|0|0|0|0|0|0,0:0|0:0|0:0|0:0|0:0|0:0|0:0|0:0,0:0:0:0:
214,104,67627,2,0,L|236:111,7,18.3749994392395,0|0|0|0|0|0|0|0,0:0|0:0|0:0|0:0|0:0|0:0|0:0|0:0,0:0:0:0:
301,135,67972,1,0,0:0:0:0:
256,253,68144,1,0,0:0:0:0:
309,53,68317,6,0,P|352:68|363:189,1,183.749994392395,2|0,0:0|0:0,0:0:0:0:
355,270,68834,2,0,P|312:255|301:134,1,183.749994392395,2|0,0:0|0:0,0:0:0:0:
363,188,69351,2,0,B|313:192|261:171|261:171|220:201|170:184|170:184|135:199|105:186,1,257.249992149353,2|0,0:0|0:0,0:0:0:0:
55,115,70041,102,0,P|100:109|143:115,1,78.75,0|0,0:0|0:0,0:0:0:0:
260,189,70386,2,0,P|265:214|269:245,1,52.5,0|0,0:0|0:0,0:0:0:0:
189,212,70558,2,0,P|188:171|288:118,1,157.5,0|0,0:0|0:0,0:0:0:0:
260,189,70903,1,0,0:0:0:0:
148,279,71075,6,0,P|116:221|147:97,1,183.749994392395,2|0,0:0|0:0,0:0:0:0:
271,19,71593,2,0,P|295:105|259:188,1,183.749994392395,2|0,0:0|0:0,0:0:0:0:
215,270,72110,2,0,P|172:220|206:113,1,183.749994392395,2|0,0:0|0:0,0:0:0:0:
259,188,72627,101,2,0:0:0:0:
337,346,72800,1,8,0:0:0:0:
337,346,73144,101,0,0:0:0:0:
415,188,73317,1,2,0:0:0:0:
415,188,73489,2,0,P|353:170|296:157,1,110.249996635437,8|0,0:0|0:0,0:0:0:0:
283,155,73833,101,0,0:0:0:0:
143,284,74007,1,2,0:0:0:0:
143,284,74179,2,0,P|205:266|262:253,1,110.249996635437,8|0,0:0|0:0,0:0:0:0:
275,251,74523,101,0,0:0:0:0:
147,80,74696,1,2,0:0:0:0:
311,48,74869,2,0,P|293:110|280:167,1,110.249996635437,8|0,0:0|0:0,0:0:0:0:
275,251,75213,101,0,0:0:0:0:
350,277,75386,1,0,0:0:0:0:
336,202,75558,1,8,0:0:0:0:
275,263,75731,101,0,0:0:0:0:
350,289,75904,1,2,0:0:0:0:
336,214,76076,1,0,0:0:0:0:
291,343,76248,1,8,0:0:0:0:
427,305,76420,1,0,0:0:0:0:
372,196,76593,5,2,0:0:0:0:
485,190,76765,1,0,0:0:0:0:
444,289,76938,1,8,0:0:0:0:
362,181,77110,1,0,0:0:0:0:
489,154,77282,1,2,0:0:0:0:
378,81,77455,1,0,0:0:0:0:
365,224,77627,1,8,0:0:0:0:
389,66,77800,1,8,0:0:0:0:
221,111,77972,5,2,0:0:0:0:
360,247,78144,1,0,0:0:0:0:
198,193,78317,1,8,0:0:0:0:
330,329,78489,1,0,0:0:0:0:
158,278,78662,1,2,0:0:0:0:
284,202,78834,1,0,0:0:0:0:
221,344,79007,1,8,0:0:0:0:
174,172,79179,1,0,0:0:0:0:
321,271,79351,5,2,0:0:0:0:
402,171,79524,1,0,0:0:0:0:
210,49,79696,1,8,0:0:0:0:
291,149,79869,1,0,0:0:0:0:
105,227,80041,1,2,0:0:0:0:
186,127,80214,1,0,0:0:0:0:
294,330,80386,1,8,0:0:0:0:
213,230,80559,1,8,0:0:0:0:
379,161,80731,5,8,0:0:0:0:
207,313,80903,1,2,0:0:0:0:
346,100,81075,1,8,0:0:0:0:
317,345,81248,1,2,0:0:0:0:
271,89,81420,5,8,0:0:0:0:
417,302,81593,1,2,0:0:0:0:
180,137,81765,1,8,0:0:0:0:
468,211,81938,1,2,0:0:0:0:
178,227,82110,5,8,0:0:0:0:
453,331,82282,1,2,0:0:0:0:
178,322,82455,1,8,0:0:0:0:
54,103,82627,1,2,0:0:0:0:
140,328,82800,5,8,0:0:0:0:
171,0,82972,1,2,0:0:0:0:
85,225,83145,1,8,0:0:0:0:
284,123,83317,1,2,0:0:0:0:
322,299,83489,5,2,0:0:0:0:
323,262,83575,1,2,0:0:0:0:
343,232,83661,1,2,0:0:0:0:
375,215,83747,1,2,0:0:0:0:
411,218,83833,5,2,0:0:0:0:
441,238,83920,1,2,0:0:0:0:
457,271,84006,1,2,0:0:0:0:
453,307,84092,1,2,0:0:0:0:
432,337,84179,6,0,L|402:329,6,18.3749994392395,2|2|2|2|2|2|2,0:0|0:0|0:0|0:0|0:0|0:0|0:0,0:0:0:0:
337,248,84524,2,0,L|306:256,6,18.3749994392395,10|2|2|2|2|2|2,0:0|0:0|0:0|0:0|0:0|0:0|0:0,0:0:0:0:
229,325,84869,5,10,0:0:0:0:
229,325,85731,6,0,P|180:316|143:309,1,68.2499968757631,2|0,0:0|0:0,0:0:0:0:
43,231,85903,1,8,0:3:0:0:
110,218,85989,1,8,0:3:0:0:
177,205,86075,1,4,0:3:0:0:
244,193,86161,1,4,0:3:0:0:
316,180,86248,6,0,L|433:164,1,105,6|0,1:0|0:0,0:0:0:0:
287,52,86593,1,8,0:0:0:0:
216,261,86765,1,0,0:0:0:0:
216,261,86851,1,0,0:0:0:0:
216,261,86938,2,0,P|226:220|228:148,1,105,0|2,0:0|0:0,0:0:0:0:
116,177,87282,1,8,0:0:0:0:
253,330,87455,1,0,0:0:0:0:
319,146,87627,5,0,0:0:0:0:
399,242,87800,2,0,P|414:269|429:298,1,52.5,2|0,0:0|0:0,0:0:0:0:
447,309,87972,1,8,0:0:0:0:
435,279,88058,1,0,0:0:0:0:
428,248,88144,1,0,0:0:0:0:
425,216,88231,1,0,0:0:0:0:
425,184,88317,1,0,0:0:0:0:
405,52,88489,2,0,P|363:48|332:48,1,52.5,2|0,0:0|0:0,0:0:0:0:
255,111,88662,1,8,0:0:0:0:
339,174,88834,1,2,0:0:0:0:
199,12,89007,6,0,L|123:2,1,52.5,2|0,0:0|0:0,0:0:0:0:
75,115,89179,2,0,L|151:105,1,52.5,0|0,0:0|0:0,0:0:0:0:
245,84,89351,1,8,0:0:0:0:
250,216,89524,1,0,0:0:0:0:
175,177,89696,1,0,0:0:0:0:
260,42,89869,1,2,0:0:0:0:
291,208,90041,2,0,P|281:257|273:324,1,105,8|0,0:0|0:0,0:0:0:0:
351,380,90386,5,0,0:0:0:0:
405,249,90558,2,0,P|397:196|388:145,1,105,2|8,0:0|0:0,0:0:0:0:
326,80,90817,6,0,P|314:111|304:148,1,52.5,0|0,0:0|0:0,0:0:0:0:
301,213,90989,1,0,0:0:0:0:
260,202,91075,1,0,0:0:0:0:
218,194,91162,1,0,0:0:0:0:
177,184,91248,2,0,P|192:224|201:247,1,52.5,2|0,0:0|0:0,0:0:0:0:
214,313,91420,6,0,B|176:319|147:298|147:298|113:311|113:311|86:293|37:299,1,173.250005287171,8|0,0:0|0:0,0:0:0:0:
63,381,91765,5,2,0:0:0:0:
121,202,91938,1,0,0:0:0:0:
224,329,92110,2,0,P|276:348|328:353,1,105,8|0,0:0|0:0,0:0:0:0:
273,180,92455,1,0,0:0:0:0:
266,199,92541,1,0,0:0:0:0:
260,219,92627,1,2,0:0:0:0:
383,110,92800,1,8,0:0:0:0:
230,89,92972,5,0,0:0:0:0:
346,253,93144,1,0,0:0:0:0:
137,200,93317,1,2,0:0:0:0:
251,83,93489,2,0,P|266:56|281:27,1,52.5,8|0,0:0|0:0,0:0:0:0:
299,16,93661,5,0,0:0:0:0:
287,46,93747,1,0,0:0:0:0:
280,77,93833,1,0,0:0:0:0:
277,109,93920,1,0,0:0:0:0:
277,141,94006,1,0,0:0:0:0:
410,297,94179,2,0,P|415:253|414:229,1,52.5,8|0,0:0|0:0,0:0:0:0:
391,145,94351,1,2,0:0:0:0:
288,296,94524,101,2,0:0:0:0:
416,139,94696,1,0,0:0:0:0:
241,129,94869,6,0,B|206:133|179:115|179:115|139:148|60:125,1,173.250005287171,8|0,0:0|0:0,0:0:0:0:
28,193,95213,2,0,P|83:207|130:210,1,68.2499968757631,0|0,0:0|0:0,0:0:0:0:
202,264,95386,2,0,P|168:269|135:279,1,68.2499968757631,2|0,0:0|0:0,0:0:0:0:
62,334,95558,1,8,0:0:0:0:
180,182,95731,1,0,0:0:0:0:
276,348,95903,2,0,P|310:301|309:233,1,105,0|2,0:0|0:0,0:0:0:0:
82,206,96248,6,0,P|148:274|224:243,1,157.500006008148,8|0,0:0|0:0,0:0:0:0:
163,194,96507,1,0,0:0:0:0:
93,124,96593,2,0,P|51:131|18:153,1,73.4999977569581,0|0,0:0|0:0,0:0:0:0:
2,216,96765,1,2,0:0:0:0:
20,286,96851,1,2,0:0:0:0:
89,340,96938,6,0,B|129:321|173:336|173:336|198:327|230:339|230:339|228:314|204:304,1,188.999994232178,8|0,0:0|0:0,0:0:0:0:
156,247,97282,6,0,P|103:249|40:270,1,105,2|0,0:0|0:0,0:0:0:0:
205,304,97627,1,8,0:0:0:0:
200,166,97800,1,0,0:0:0:0:
200,166,97886,1,0,0:0:0:0:
200,166,97972,2,0,P|149:152|83:152,1,105,0|2,0:0|0:0,0:0:0:0:
205,304,98317,1,8,0:0:0:0:
316,191,98489,1,0,0:0:0:0:
288,384,98662,5,0,0:0:0:0:
198,158,98834,1,2,0:0:0:0:
191,147,98920,1,0,0:0:0:0:
185,140,99007,1,8,0:0:0:0:
205,304,99179,1,0,0:0:0:0:
333,171,99351,1,0,0:0:0:0:
166,123,99524,1,2,0:0:0:0:
304,280,99696,1,8,0:0:0:0:
269,84,99869,1,2,0:0:0:0:
150,226,100041,6,0,L|79:213,1,52.5,2|0,0:0|0:0,0:0:0:0:
210,301,100213,2,0,L|139:314,1,52.5,0|0,0:0|0:0,0:0:0:0:
293,220,100386,1,8,0:0:0:0:
252,376,100558,1,0,0:0:0:0:
150,226,100731,1,0,0:0:0:0:
325,308,100903,1,2,0:0:0:0:
218,146,101075,2,0,P|165:125|104:126,1,105,8|0,0:0|0:0,0:0:0:0:
150,226,101420,5,0,0:0:0:0:
319,132,101593,2,0,P|289:83|239:47,1,105,2|8,0:0|0:0,0:0:0:0:
176,29,101851,2,0,L|113:17,1,52.5,0|0,0:0|0:0,0:0:0:0:
37,8,102024,1,0,0:0:0:0:
48,37,102110,1,0,0:0:0:0:
61,65,102196,1,0,0:0:0:0:
72,94,102282,2,0,P|84:138|93:174,1,52.5,2|0,0:0|0:0,0:0:0:0:
42,206,102455,6,0,P|104:218|159:129,1,173.250005287171,8|0,0:0|0:0,0:0:0:0:
85,144,102800,5,2,0:0:0:0:
85,144,103144,5,8,0:0:0:0:
226,315,103317,1,0,0:0:0:0:
101,268,103489,1,0,0:0:0:0:
94,258,103575,1,0,0:0:0:0:
87,249,103662,1,2,0:0:0:0:
235,149,103834,1,8,0:0:0:0:
303,296,104007,1,0,0:0:0:0:
310,306,104093,1,0,0:0:0:0:
317,315,104180,5,0,0:0:0:0:
147,191,104351,1,2,0:0:0:0:
356,101,104524,1,8,0:0:0:0:
207,41,104696,1,0,0:0:0:0:
307,222,104869,6,0,P|351:195|376:174,1,52.5,0|0,0:0|0:0,0:0:0:0:
415,145,105041,2,0,P|436:159|459:172,1,52.5,2|0,0:0|0:0,0:0:0:0:
460,71,105213,6,0,P|421:62|359:60,1,78.75,8|0,0:0|0:0,0:0:0:0:
303,72,105558,101,0,0:0:0:0:
369,228,105731,1,2,0:0:0:0:
291,74,105903,6,0,B|193:44|118:81|118:81|154:92|163:123,1,236.250009012223,8|0,0:0|0:0,0:0:0:0:
91,161,106248,6,0,P|56:116|50:93,1,52.5,2|0,0:0|0:0,0:0:0:0:
50,29,106420,1,2,0:0:0:0:
180,210,106593,1,8,0:0:0:0:
180,210,106765,1,2,0:0:0:0:
336,65,106938,5,2,0:0:0:0:
336,65,107110,1,2,0:0:0:0:
345,302,107282,1,8,0:0:0:0:
345,302,107454,1,2,0:0:0:0:
210,89,107627,5,8,3:0:0:0:
210,89,108317,6,0,P|150:129|225:160,1,183.75,2|0,0:0|0:0,0:0:0:0:
323,131,109007,5,8,0:0:0:0:
317,151,109093,1,0,2:0:0:0:
311,171,109179,1,0,2:0:0:0:
304,190,109265,1,0,2:0:0:0:
296,209,109351,1,0,2:0:0:0:
288,228,109438,1,0,2:0:0:0:
211,250,109524,5,2,0:0:0:0:
205,270,109610,1,0,2:0:0:0:
198,289,109696,1,0,2:0:0:0:
190,308,109782,1,0,2:0:0:0:
182,327,109869,1,0,2:0:0:0:
175,346,109955,1,0,2:0:0:0:
90,320,110041,5,2,0:0:0:0:
79,301,110127,1,0,2:0:0:0:
70,281,110213,1,0,2:0:0:0:
61,261,110300,1,0,2:0:0:0:
52,241,110386,1,8,2:0:0:0:
90,120,110558,6,0,P|137:126|184:136,1,94.499997116089,2|0,0:0|0:0,0:0:0:0:
205,147,110903,1,2,0:0:0:0:
318,225,111075,6,0,P|271:230|224:240,1,78.75,2|0,0:0|0:0,0:0:0:0:
221,245,111420,5,0,0:0:0:0:
221,245,111765,5,8,0:0:0:0:
155,291,111938,1,0,0:0:0:0:
266,299,112110,6,0,P|290:228|189:182,1,204.749990627289,0|0,0:0|0:0,0:0:0:0:
221,245,112455,6,0,B|354:206|297:293|440:246,1,210,2|0,0:0|0:0,0:0:0:0:
306,125,112972,2,0,P|248:124|226:126,1,52.5,2|2,0:0|0:0,0:0:0:0:
153,136,113144,1,8,0:0:0:0:
127,149,113489,1,8,0:0:0:0:
221,245,113662,1,0,0:0:0:0:
333,96,113834,6,0,B|302:142|302:142|347:120|398:113|440:111,1,183.75,2|0,0:0|0:0,0:0:0:0:
273,42,114524,6,0,L|236:97,1,52.5,8|0,0:0|2:0,0:0:0:0:
213,158,114696,1,0,2:0:0:0:
206,168,114782,1,0,2:0:0:0:
198,178,114869,2,0,L|153:131,1,52.5,0|0,2:0|2:0,0:0:0:0:
98,59,115041,6,0,L|55:92,1,52.5,2|0,0:0|2:0,0:0:0:0:
3,220,115213,1,0,2:0:0:0:
12,214,115299,1,0,2:0:0:0:
22,206,115386,2,0,L|65:176,1,52.5,0|0,2:0|2:0,0:0:0:0:
127,297,115558,2,0,L|90:260,1,52.5,2|0,0:0|2:0,0:0:0:0:
11,373,115731,2,0,L|48:336,1,52.5,0|0,2:0|2:0,0:0:0:0:
113,239,115903,21,8,2:0:0:0:
183,140,116075,2,0,P|188:93|186:44,1,94.499997116089,2|0,0:0|0:0,0:0:0:0:
178,25,116420,1,2,0:0:0:0:
301,138,116593,6,0,L|402:180,1,105,2|0,0:0|0:0,0:0:0:0:
197,279,116938,2,0,L|294:239,1,105,0|0,0:0|0:0,0:0:0:0:
407,300,117282,1,8,0:2:0:0:
407,300,117455,1,0,0:2:0:0:
295,373,117627,1,0,0:2:0:0:
295,373,117800,1,0,0:2:0:0:
197,279,117972,6,0,P|187:222|191:159,1,105,8|2,0:0|0:0,0:0:0:0:
303,94,118317,1,2,0:0:0:0:
451,77,118489,2,0,P|452:129|442:180,1,105,8|2,0:0|0:0,0:0:0:0:
351,253,118834,1,2,0:0:0:0:
222,183,119007,5,8,0:0:0:0:
209,202,119093,1,2,0:0:0:0:
197,219,119179,1,2,0:0:0:0:
182,237,119265,1,2,0:0:0:0:
171,254,119351,6,0,B|276:224|234:286|358:250,1,183.75,2|0,0:0|0:0,0:0:0:0:
331,119,120041,6,0,P|309:157|296:181,1,52.5,8|0,0:0|2:0,0:0:0:0:
421,100,120213,2,0,P|408:77|394:54,1,52.5,0|0,2:0|2:0,0:0:0:0:
171,254,120386,6,0,P|149:216|136:192,1,52.5,2|0,0:0|2:0,0:0:0:0:
261,273,120558,2,0,P|248:295|234:318,1,52.5,8|0,0:0|2:0,0:0:0:0:
152,240,120731,2,0,P|138:217|125:194,1,52.5,0|0,2:0|2:0,0:0:0:0:
264,97,120903,2,0,P|251:119|237:142,1,52.5,2|0,0:0|2:0,0:0:0:0:
140,19,121075,1,8,0:0:0:0:
140,19,121248,1,2,0:0:0:0:
76,160,121420,21,2,0:0:0:0:
105,288,121593,2,0,P|144:271|166:262,1,52.5,2|0,0:0|0:0,0:0:0:0:
241,379,121765,1,0,0:0:0:0:
226,384,121851,2,0,P|201:373|177:363,1,52.5,2|0,0:0|0:0,0:0:0:0:
294,304,122110,6,0,L|323:318,6,26.25,2|0|0|0|0|0|0,0:0|0:0|0:0|0:0|0:0|0:0|0:0,0:0:0:0:
244,244,122455,6,0,B|223:188|223:188|245:84,1,157.5,0|0,0:0|0:0,0:0:0:0:
382,164,122800,6,0,L|312:179,1,62.9999980773926,8|0,0:0|0:0,0:0:0:0:
393,141,122972,2,0,L|323:156,1,62.9999980773926,0|0,0:0|0:0,0:0:0:0:
130,164,123144,2,0,L|191:177,1,62.9999980773926,0|0,0:0|0:0,0:0:0:0:
119,141,123316,2,0,L|180:154,1,62.9999980773926,0|0,0:0|0:0,0:0:0:0:
244,244,123489,6,0,L|130:269,1,110.249996635437,2|0,0:0|0:0,0:0:0:0:
119,277,123834,1,0,0:0:0:0:
48,173,124007,1,2,0:0:0:0:
39,144,124093,1,2,0:0:0:0:
30,117,124179,1,8,0:0:0:0:
30,117,124524,2,0,L|86:109,1,52.5,8|0,0:0|0:0,0:0:0:0:
153,34,124696,2,0,L|204:41,1,52.5,0|0,0:0|0:0,0:0:0:0:
303,70,124869,6,0,B|294:113|294:113|308:177|308:177|261:164|195:170,1,220.499993270874,2|0,0:0|0:0,0:0:0:0:
52,304,125558,5,8,0:0:0:0:
70,293,125644,1,0,2:0:0:0:
88,284,125730,1,0,2:0:0:0:
108,275,125816,1,0,2:0:0:0:
127,268,125902,1,2,0:0:0:0:
147,261,125989,1,0,2:0:0:0:
225,284,126075,5,8,0:0:0:0:
243,295,126161,1,0,2:0:0:0:
261,304,126247,1,0,2:0:0:0:
281,313,126333,1,0,2:0:0:0:
300,319,126419,1,2,0:0:0:0:
320,326,126506,1,0,2:0:0:0:
406,277,126593,5,8,0:0:0:0:
407,256,126679,1,0,2:0:0:0:
407,235,126765,1,2,0:0:0:0:
408,214,126851,1,0,2:0:0:0:
407,197,126938,6,0,P|338:180|307:174,1,78.75,2|0,0:0|0:0,0:0:0:0:
307,178,127282,2,0,P|317:216|325:254,1,78.75,0|0,0:0|0:0,0:0:0:0:
225,343,127627,5,2,0:0:0:0:
207,327,127800,1,2,0:0:0:0:
135,219,127972,1,2,0:0:0:0:
153,203,128145,1,2,0:0:0:0:
325,254,128317,5,2,0:0:0:0:
307,238,128490,1,2,0:0:0:0:
199,104,128662,1,2,0:0:0:0:
181,88,128835,1,2,0:0:0:0:
332,53,129007,6,0,L|378:42,1,26.25,2|2,0:0|0:0,0:0:0:0:
419,141,129179,2,0,L|373:130,1,26.25,2|2,0:0|0:0,0:0:0:0:
293,196,129351,2,0,L|339:185,1,26.25,2|2,0:0|0:0,0:0:0:0:
378,308,129523,2,0,L|332:297,1,26.25,2|2,0:0|0:0,0:0:0:0:
261,270,129696,1,2,0:0:0:0:
238,261,129782,1,2,0:0:0:0:
217,254,129869,5,2,0:0:0:0:
196,248,129955,1,2,0:0:0:0:
175,243,130041,2,0,P|161:271|150:297,1,52.5,8|8,0:3|0:3,0:0:0:0:
68,214,130213,2,0,P|57:189|45:166,1,52.5,4|4,0:3|0:3,0:0:0:0:
150,48,130386,5,6,0:0:0:0:
255,193,141420,5,0,0:0:0:0:
255,193,143834,5,0,0:0:0:0:
192,108,144179,1,0,0:0:0:0:
378,174,146075,5,0,0:0:0:0:
295,298,146593,1,0,0:0:0:0:
192,300,146938,6,0,P|175:293|152:283,3,36.749998878479,2|2|2|2,0:0|0:0|0:0|0:0,0:0:0:0:
260,191,147627,2,0,P|243:198|226:205,3,36.749998878479,2|2|2|2,0:0|0:0|0:0|0:0,0:0:0:0:
140,63,148317,6,0,P|157:70|180:80,3,36.749998878479,2|2|2|2,0:0|0:0|0:0|0:0,0:0:0:0:
72,172,149006,2,0,P|88:164|105:157,3,36.749998878479,2|2|2|2,0:0|0:0|0:0|0:0,0:0:0:0:
260,102,149696,5,2,0:0:0:0:
260,102,149782,1,2,0:0:0:0:
260,102,149869,1,2,0:0:0:0:
260,102,149955,1,2,0:0:0:0:
280,117,150041,5,2,0:0:0:0:
300,132,150127,1,2,0:0:0:0:
320,147,150213,1,2,0:0:0:0:
340,162,150300,1,2,0:0:0:0:
367,186,150386,5,2,0:0:0:0:
332,176,150472,1,2,0:0:0:0:
295,170,150558,1,2,0:0:0:0:
259,173,150644,1,2,0:0:0:0:
224,183,150730,1,2,0:0:0:0:
187,187,150817,1,2,0:0:0:0:
151,180,150903,1,2,0:0:0:0:
116,170,150989,1,2,0:0:0:0:
46,217,151075,6,0,L|25:222,6,13.125,2|2|2|2|2|2|2,0:0|0:0|0:0|0:0|0:0|0:0|0:0,0:0:0:0:
108,285,151420,2,0,L|129:290,6,13.125,2|2|2|2|2|2|2,0:0|0:0|0:0|0:0|0:0|0:0|0:0,0:0:0:0:
26,355,151765,6,0,L|18:328,3,26.25,2|0|0|0,0:0|0:0|0:0|0:0,0:0:0:0:
46,217,152110,2,0,L|55:154,1,52.5,0|0,0:0|0:0,0:0:0:0:
85,69,152455,6,0,B|184:22|245:94|245:94|286:63|286:63|340:93|395:87,1,330.749989906311,2|0,0:0|0:0,0:0:0:0:
368,157,153144,6,0,P|332:136|365:19,1,183.75,8|0,0:2|0:0,0:0:0:0:
384,88,153834,2,0,B|365:136|395:219|395:219|349:208|349:208|319:224|286:215,1,236.249992790222,2|0,0:0|0:0,0:0:0:0:
226,194,154351,6,0,B|203:187|173:203|173:203|127:192|127:192|157:275|138:323,1,236.249992790222,2|0,0:0|0:0,0:0:0:0:
220,320,154869,2,0,B|275:307|318:331|318:331|362:308|416:329|416:329|385:294|385:294|398:254|398:254|390:201,1,330.749989906311,2|0,0:0|0:0,0:0:0:0:
311,78,155558,6,0,L|270:66,1,26.25,0|0,0:0|0:0,0:0:0:0:
200,101,155731,2,0,L|174:108,1,26.25,0|0,0:0|0:0,0:0:0:0:
116,202,155903,2,0,L|157:190,1,26.25,0|0,0:0|0:0,0:0:0:0:
227,225,156076,2,0,L|252:232,1,26.25,0|0,0:0|0:0,0:0:0:0:
348,268,156248,1,0,0:0:0:0:
348,268,156593,6,0,B|290:255|290:255|246:272|246:272|168:254,1,183.749994392395,2|0,0:0|0:0,0:0:0:0:
376,239,157110,2,0,B|318:226|318:226|274:243|274:243|196:225,1,183.749994392395,2|0,0:0|0:0,0:0:0:0:
121,139,157627,2,0,B|179:139|179:139|217:111|217:111|264:129|264:129|305:95|360:114,1,257.249992149353,2|0,0:0|0:0,0:0:0:0:
388,264,158317,6,0,P|344:235|324:181,1,105,0|0,0:0|0:0,0:0:0:0:
410,183,158662,5,0,0:0:0:0:
439,206,158834,1,0,0:0:0:0:
460,226,159007,6,0,P|475:275|485:310,1,78.75,0|0,0:0|0:0,0:0:0:0:
399,347,159351,6,0,B|364:326|364:326|210:348,1,183.749994392395,2|0,0:0|0:0,0:0:0:0:
170,244,159869,2,0,B|205:223|205:223|359:245,1,183.749994392395,2|0,0:0|0:0,0:0:0:0:
213,310,160386,2,0,P|101:284|137:175,1,257.249992149353,2|0,0:0|0:0,0:0:0:0:
222,119,161075,2,0,L|191:96,1,36.749998878479,0|0,0:0|0:0,0:0:0:0:
143,27,161248,5,0,0:0:0:0:
164,18,161334,1,0,0:0:0:0:
245,36,161420,5,0,0:0:0:0:
266,50,161507,1,0,0:0:0:0:
287,64,161593,1,2,0:0:0:0:
308,78,161679,1,0,0:0:0:0:
370,153,161765,5,8,0:0:0:0:
391,139,161852,1,0,0:0:0:0:
412,125,161938,1,0,0:0:0:0:
433,111,162024,1,0,0:0:0:0:
464,92,162110,6,0,P|479:58|488:29,1,52.5,2|0,0:0|0:0,0:0:0:0:
382,29,162282,1,0,0:0:0:0:
286,155,162455,2,0,P|299:221|309:285,1,105,8|0,0:0|0:0,0:0:0:0:
217,332,162800,1,0,0:0:0:0:
142,161,162972,1,2,0:0:0:0:
204,253,163144,2,0,P|141:247|89:247,1,105,8|0,0:0|0:0,0:0:0:0:
235,347,163489,6,0,P|268:331|298:320,1,52.5,0|0,0:0|0:0,0:0:0:0:
456,347,163834,2,0,P|423:331|393:320,1,52.5,8|0,0:0|0:0,0:0:0:0:
255,318,164179,2,0,P|288:302|318:291,1,52.5,2|0,0:0|0:0,0:0:0:0:
476,318,164524,2,0,P|443:302|413:291,1,52.5,8|0,0:0|0:0,0:0:0:0:
308,211,164869,6,0,P|297:171|292:140,1,52.5,2|0,0:0|0:0,0:0:0:0:
217,79,165213,2,0,P|211:104|203:129,1,52.5,8|0,0:0|0:0,0:0:0:0:
278,233,165558,2,0,P|267:193|262:162,1,52.5,2|0,0:0|0:0,0:0:0:0:
187,101,165902,2,0,P|181:126|173:151,1,52.5,8|0,0:0|0:0,0:0:0:0:
63,260,166248,6,0,L|118:249,1,52.5,2|0,0:0|0:0,0:0:0:0:
136,335,166593,2,0,L|191:346,1,52.5,8|0,0:0|0:0,0:0:0:0:
94,235,166938,2,0,L|149:224,1,52.5,2|0,0:0|0:0,0:0:0:0:
167,310,167283,2,0,L|222:321,1,52.5,8|0,0:0|0:0,0:0:0:0:
360,286,167627,6,0,L|348:235,1,52.5,2|0,0:0|0:0,0:0:0:0:
455,312,167972,2,0,L|442:363,1,52.5,8|0,0:0|0:0,0:0:0:0:
396,255,168317,2,0,L|383:203,1,52.5,2|0,0:0|0:0,0:0:0:0:
490,280,168662,2,0,L|477:331,1,52.5,8|2,1:1|1:0,0:0:0:0:
362,189,169007,5,8,0:0:0:0:
220,128,169179,1,2,0:0:0:0:
337,281,169351,1,8,0:0:0:0:
307,107,169524,1,2,0:0:0:0:
203,258,169696,1,8,0:0:0:0:
93,203,169869,1,2,0:0:0:0:
221,346,170041,1,8,0:0:0:0:
314,213,170214,1,2,0:0:0:0:
88,179,170386,5,8,0:0:0:0:
239,54,170558,1,2,0:0:0:0:
102,283,170731,1,8,0:0:0:0:
129,77,170903,1,2,0:0:0:0:
205,302,171075,5,8,0:0:0:0:
277,111,171248,1,2,0:0:0:0:
328,324,171420,1,8,0:0:0:0:
423,178,171593,1,2,0:0:0:0:
237,225,171765,5,8,0:0:0:0:
229,221,171851,1,2,0:0:0:0:
218,216,171938,2,0,P|187:201|170:194,1,52.5,2|0,0:0|0:0,0:0:0:0:
85,107,172110,5,8,0:0:0:0:
93,103,172196,1,2,0:0:0:0:
104,98,172283,2,0,P|135:83|152:76,1,52.5,2|0,0:0|0:0,0:0:0:0:
285,105,172455,6,0,L|297:133,1,26.25,2|2,0:0|0:0,0:0:0:0:
328,147,172541,2,0,L|317:171,1,26.25,2|2,0:0|0:0,0:0:0:0:
287,198,172627,2,0,L|299:226,1,26.25,2|2,0:0|0:0,0:0:0:0:
330,240,172713,2,0,L|319:264,1,26.25,2|2,0:0|0:0,0:0:0:0:
258,320,172800,6,0,L|227:311,1,26.25,2|2,0:0|0:0,0:0:0:0:
205,337,172886,2,0,L|174:328,1,26.25,2|2,0:0|0:0,0:0:0:0:
158,334,172972,2,0,L|127:325,1,26.25,2|2,0:0|0:0,0:0:0:0:
105,351,173058,2,0,L|74:342,1,26.25,2|2,0:0|0:0,0:0:0:0:
43,343,173144,5,2,0:0:0:0:
283,325,174007,6,0,P|332:316|374:308,1,78.7500030040742,2|0,0:0|0:0,0:0:0:0:
469,231,174179,1,8,0:3:0:0:
402,218,174265,1,8,0:3:0:0:
335,205,174351,1,4,0:3:0:0:
268,193,174437,1,4,0:3:0:0:
198,174,174524,6,0,P|174:169|138:163,1,52.5,6|0,0:0|0:0,0:0:0:0:
80,89,174696,2,0,P|104:84|140:78,1,52.5,0|0,0:0|0:0,0:0:0:0:
244,63,174869,1,2,0:0:0:0:
266,77,174955,2,0,P|291:81|317:86,1,52.5,0|0,0:0|0:0,0:0:0:0:
412,114,175127,6,0,P|407:148|405:190,1,52.5,0|0,0:0|0:0,0:0:0:0:
404,284,175300,1,0,0:0:0:0:
383,269,175386,2,0,P|339:254|303:247,1,52.5,0|0,0:0|0:0,0:0:0:0:
412,373,175558,1,2,0:0:0:0:
446,360,175644,1,0,0:0:0:0:
467,329,175731,1,0,0:0:0:0:
477,293,175817,6,0,B|481:263|477:209,1,52.5,0|0,0:0|0:0,0:0:0:0:
344,172,175989,1,0,0:0:0:0:
334,200,176075,2,0,B|330:230|334:284,1,52.5,0|0,0:0|0:0,0:0:0:0:
229,325,176248,1,2,0:0:0:0:
237,311,176334,1,0,0:0:0:0:
246,296,176420,2,0,B|248:273|247:244,1,52.5,0|0,0:0|0:0,0:0:0:0:
165,89,176593,5,2,0:0:0:0:
203,71,176679,1,0,0:0:0:0:
243,81,176765,1,0,0:0:0:0:
263,117,176851,1,0,0:0:0:0:
252,158,176938,1,2,0:0:0:0:
212,172,177024,1,0,0:0:0:0:
173,154,177110,1,0,0:0:0:0:
160,114,177196,1,0,0:0:0:0:
225,30,177282,69,2,0:0:0:0:
251,15,177369,1,0,0:0:0:0:
283,0,177455,2,0,P|342:-7|351:-7,1,52.5,0|0,0:0|0:0,0:0:0:0:
273,152,177627,1,2,0:0:0:0:
290,121,177713,2,0,P|333:80|340:75,1,52.5,0|0,0:0|0:0,0:0:0:0:
442,149,177886,1,0,0:0:0:0:
456,170,177972,1,0,0:0:0:0:
468,191,178058,1,0,0:0:0:0:
481,220,178144,2,0,P|443:212|411:208,1,52.5,0|0,0:0|0:0,0:0:0:0:
297,214,178317,1,2,0:0:0:0:
311,235,178403,1,0,0:0:0:0:
323,256,178489,1,0,0:0:0:0:
336,285,178575,6,0,P|298:277|266:273,1,52.5,0|0,0:0|0:0,0:0:0:0:
160,268,178748,1,0,0:0:0:0:
141,253,178834,2,0,P|128:207|122:173,1,52.5,0|0,0:0|0:0,0:0:0:0:
117,82,179007,1,2,0:0:0:0:
96,73,179093,1,0,0:0:0:0:
77,68,179179,2,0,L|23:49,1,52.5,0|0,0:0|0:0,0:0:0:0:
111,187,179351,1,2,0:0:0:0:
132,178,179437,1,0,0:0:0:0:
150,172,179523,2,0,L|204:153,1,52.5,0|0,0:0|0:0,0:0:0:0:
319,108,179696,6,0,B|345:58|345:58|331:212,1,188.999994232178,2|0,0:0|0:0,0:0:0:0:
429,272,180041,5,2,0:0:0:0:
429,272,180127,1,0,0:0:0:0:
429,272,180213,2,0,P|467:259|502:250,1,52.5,0|0,0:0|0:0,0:0:0:0:
392,378,180386,1,2,0:0:0:0:
392,378,180472,1,0,0:0:0:0:
392,378,180558,2,0,P|367:369|342:361,1,52.5,0|0,0:0|0:0,0:0:0:0:
237,277,180731,1,0,0:0:0:0:
237,277,180817,1,0,0:0:0:0:
237,277,180903,2,0,L|227:342,1,52.5,0|0,0:0|0:0,0:0:0:0:
131,237,181075,1,2,0:0:0:0:
138,195,181162,1,0,0:0:0:0:
164,163,181248,1,0,0:0:0:0:
200,144,181334,6,0,P|227:131|278:113,1,52.5,0|0,0:0|0:0,0:0:0:0:
351,254,181507,1,0,0:0:0:0:
331,238,181593,2,0,P|303:225|253:207,1,52.5,0|0,0:0|0:0,0:0:0:0:
308,333,181765,1,2,0:0:0:0:
341,345,181851,1,0,0:0:0:0:
372,340,181938,2,0,P|408:323|439:306,1,52.5,0|0,0:0|0:0,0:0:0:0:
474,202,182110,1,2,0:0:0:0:
474,202,182196,1,0,0:0:0:0:
474,202,182282,2,0,P|434:182|411:164,1,52.5,0|0,0:0|0:0,0:0:0:0:
331,102,182455,1,2,0:0:0:0:
331,102,182541,1,0,0:0:0:0:
331,102,182627,2,0,P|291:122|268:140,1,52.5,0|0,0:0|0:0,0:0:0:0:
198,235,182800,69,2,0:0:0:0:
185,269,182886,1,0,0:0:0:0:
170,300,182972,2,0,P|128:291|99:286,1,52.5,0|0,0:0|0:0,0:0:0:0:
29,164,183144,6,0,B|74:171|117:142|117:142|157:161|157:161|179:148|221:153,1,188.999994232178,2|0,0:0|0:0,0:0:0:0:
321,119,183489,5,2,0:0:0:0:
309,154,183575,1,0,0:0:0:0:
303,182,183662,2,0,P|299:218|298:251,1,52.5,0|0,0:0|0:0,0:0:0:0:
426,346,183834,1,2,0:0:0:0:
448,315,183920,1,0,0:0:0:0:
464,281,184007,1,0,0:0:0:0:
474,250,184093,2,0,P|478:206|478:171,1,52.5,0|0,0:0|0:0,0:0:0:0:
406,78,184265,1,0,0:0:0:0:
371,61,184351,2,0,L|282:75,1,52.5,0|0,0:0|0:0,0:0:0:0:
251,190,184524,2,0,L|340:176,1,52.5,2|0,0:0|0:0,0:0:0:0:
177,97,184696,5,0,0:0:0:0:
164,87,184782,1,2,0:0:0:0:
154,82,184869,2,0,L|165:171,1,78.75,2|0,0:0|0:0,0:0:0:0:
150,269,185213,6,0,L|164:152,1,110.249996635437,0|0,0:0|0:0,0:0:0:0:
303,85,185558,5,6,0:0:0:0:
320,110,185644,1,0,0:0:0:0:
337,140,185731,2,0,P|329:177|314:213,1,52.5,0|0,0:0|0:0,0:0:0:0:
172,281,185903,1,8,0:0:0:0:
196,266,185989,1,0,0:0:0:0:
216,255,186075,1,0,0:0:0:0:
243,243,186162,6,0,P|232:203|235:159,1,52.5,0|0,0:0|0:0,0:0:0:0:
239,69,186334,1,0,0:0:0:0:
263,48,186420,2,0,L|318:32,1,52.5,0|0,0:0|0:0,0:0:0:0:
414,199,186593,1,8,0:0:0:0:
403,169,186679,1,0,0:0:0:0:
393,139,186765,2,0,P|388:107|382:65,1,52.5,0|0,0:0|0:0,0:0:0:0:
496,40,186938,5,0,0:0:0:0:
505,67,187024,1,0,0:0:0:0:
511,91,187110,2,0,P|507:116|503:142,1,52.5,0|0,0:0|0:0,0:0:0:0:
420,271,187282,1,8,0:0:0:0:
395,250,187369,1,0,0:0:0:0:
369,231,187455,2,0,P|337:228|290:222,1,52.5,0|0,0:0|0:0,0:0:0:0:
222,139,187627,1,2,0:0:0:0:
197,160,187714,1,0,0:0:0:0:
171,179,187800,2,0,P|139:182|92:188,1,52.5,0|0,0:0|0:0,0:0:0:0:
42,329,187972,1,8,0:0:0:0:
67,308,188059,1,0,0:0:0:0:
93,289,188145,2,0,P|125:286|172:280,1,52.5,0|0,0:0|0:0,0:0:0:0:
275,334,188317,5,2,0:0:0:0:
301,311,188403,1,0,0:0:0:0:
322,292,188489,2,0,P|334:266|344:228,1,52.5,0|0,0:0|0:0,0:0:0:0:
216,147,188662,1,8,0:0:0:0:
237,160,188748,2,0,P|278:166|304:168,1,52.5,0|0,0:0|0:0,0:0:0:0:
379,43,188920,2,0,P|352:45|326:50,1,52.5,0|0,0:0|0:0,0:0:0:0:
211,70,189093,1,0,0:0:0:0:
184,64,189179,2,0,P|170:24|164:-4,1,52.5,0|0,0:0|0:0,0:0:0:0:
98,104,189351,1,8,0:0:0:0:
116,130,189438,1,0,0:0:0:0:
130,158,189524,1,0,0:0:0:0:
134,189,189610,6,0,L|71:180,1,52.5,0|0,0:0|0:0,0:0:0:0:
5,280,189782,1,0,0:0:0:0:
24,302,189868,2,0,L|87:293,1,52.5,0|0,0:0|0:0,0:0:0:0:
198,297,190041,1,8,0:0:0:0:
220,321,190127,1,0,0:0:0:0:
239,343,190213,2,0,L|302:334,1,52.5,0|0,0:0|0:0,0:0:0:0:
397,282,190386,6,0,L|412:337,1,52.5,2|0,0:0|0:0,0:0:0:0:
410,231,190558,2,0,L|396:281,1,52.5,2|0,0:0|0:0,0:0:0:0:
410,161,190731,6,0,B|390:120|390:120|412:245,1,157.5,8|0,0:0|0:0,0:0:0:0:
487,315,191075,5,8,0:0:0:0:
257,211,191420,1,8,0:0:0:0:
448,46,191765,1,8,0:0:0:0:
201,97,192110,1,8,0:0:0:0:
317,320,192455,1,8,0:0:0:0:
82,226,192800,1,8,0:0:0:0:
327,169,193144,6,0,B|394:165|394:165|299:129,1,157.5,8|0,0:0|0:0,0:0:0:0:
202,132,193489,2,0,B|118:165|118:165|185:169,1,157.5,8|0,0:0|0:0,0:0:0:0:
166,67,193834,6,0,L|55:110,1,105,8|8,0:0|0:0,0:0:0:0:
46,229,194179,6,0,B|130:208|209:271|209:271|170:205,1,236.250009012223,8|0,0:0|0:0,0:0:0:0:
253,160,194524,2,0,L|288:242,1,78.7500030040742,8|0,0:0|0:0,0:0:0:0:
326,316,194696,1,8,0:0:0:0:
403,142,194869,1,8,0:0:0:0:
470,318,195041,1,8,0:0:0:0:
358,169,195213,6,0,L|409:138,3,52.5,2|2|2|2,0:0|0:0|0:0|0:0,0:0:0:0:
248,104,195558,2,0,L|197:73,3,52.5,2|2|2|2,0:0|0:0|0:0|0:0,0:0:0:0:
94,73,195903,5,2,0:1:0:0:
94,73,196593,6,0,L|80:187,1,105,6|0,0:0|0:0,0:0:0:0:
173,305,196938,1,8,0:0:0:0:
291,202,197110,2,0,P|354:183|406:173,1,105,0|2,0:0|0:0,0:0:0:0:
307,308,197455,2,0,P|265:289|245:274,1,52.5,0|0,0:0|0:0,0:0:0:0:
208,226,197627,1,8,0:0:0:0:
291,91,197800,1,0,0:0:0:0:
133,93,197972,6,0,P|91:112|71:127,1,52.5,2|0,0:0|0:0,0:0:0:0:
34,175,198144,1,0,0:0:0:0:
64,329,198317,1,8,0:0:0:0:
219,350,198489,1,0,0:0:0:0:
174,198,198662,2,0,P|113:186|57:177,1,105,2|0,0:0|0:0,0:0:0:0:
176,61,199007,2,0,P|215:47|238:40,1,52.5,8|0,0:0|0:0,0:0:0:0:
304,43,199179,1,0,0:0:0:0:
307,209,199351,6,0,P|277:164|255:105,1,105,2|0,0:0|0:0,0:0:0:0:
414,95,199696,1,8,0:0:0:0:
394,188,199869,1,0,0:0:0:0:
491,384,200041,1,2,0:0:0:0:
403,307,200213,1,0,0:0:0:0:
484,157,200386,1,8,0:0:0:0:
328,132,200558,1,0,0:0:0:0:
184,198,200731,6,0,P|197:253|212:311,1,105,2|0,0:0|0:0,0:0:0:0:
104,182,201075,6,0,P|124:141|141:113,1,52.5,8|0,0:0|0:0,0:0:0:0:
231,130,201248,2,0,P|243:153|254:176,1,52.5,0|0,0:0|0:0,0:0:0:0:
299,259,201420,1,2,0:0:0:0:
337,256,201507,1,0,0:0:0:0:
370,239,201593,1,0,0:0:0:0:
393,209,201679,1,0,0:0:0:0:
400,177,201765,6,0,B|423:136|423:136|416:309,1,204.749990627289,8|0,0:0|0:0,0:0:0:0:
367,355,202110,101,2,0:0:0:0:
225,285,202282,2,0,P|212:249|203:216,1,52.5,0|0,0:0|0:0,0:0:0:0:
197,156,202455,1,8,0:0:0:0:
337,256,202627,2,0,P|350:220|359:187,1,52.5,0|0,0:0|0:0,0:0:0:0:
365,127,202800,1,2,0:0:0:0:
237,34,202972,1,0,0:0:0:0:
220,28,203058,1,0,0:0:0:0:
203,20,203144,1,8,0:0:0:0:
110,147,203317,1,0,0:0:0:0:
127,141,203403,1,0,0:0:0:0:
144,133,203489,5,2,0:0:0:0:
294,86,203662,1,0,0:0:0:0:
314,241,203834,1,8,0:0:0:0:
328,66,204007,1,0,0:0:0:0:
343,253,204179,1,2,0:0:0:0:
211,167,204351,1,0,0:0:0:0:
87,265,204524,2,0,L|106:330,1,52.5,8|0,0:0|0:0,0:0:0:0:
15,200,204696,1,0,0:0:0:0:
170,93,204869,6,0,L|189:28,1,52.5,2|0,0:0|0:0,0:0:0:0:
98,158,205041,1,0,0:0:0:0:
242,199,205213,2,0,B|304:192|304:192|349:215|349:215|404:209,1,157.5,8|0,0:0|0:0,0:0:0:0:
280,274,205558,6,0,L|222:283,1,52.5,2|0,0:0|0:0,0:0:0:0:
298,319,205731,2,0,L|240:328,1,52.5,0|0,0:0|0:0,0:0:0:0:
319,354,205903,1,8,0:0:0:0:
454,275,206075,1,0,0:0:0:0:
344,160,206248,6,0,L|236:168,1,105,2|0,0:0|0:0,0:0:0:0:
160,173,206593,2,0,L|248:167,1,78.7500030040742,8|0,0:0|0:0,0:0:0:0:
389,349,206938,6,0,B|348:335|348:335|280:343,1,105,2|0,0:0|0:0,0:0:0:0:
234,258,207196,2,0,B|274:244|274:244|343:252,1,105,2|0,0:0|0:0,0:0:0:0:
386,169,207455,2,0,L|309:157,1,52.5,0|0,0:0|0:0,0:0:0:0:
257,144,207627,1,2,0:0:0:0:
106,96,207800,5,2,0:0:0:0:
126,79,207886,1,2,0:0:0:0:
148,66,207972,1,8,0:3:0:0:
173,59,208058,1,8,0:3:0:0:
198,52,208144,1,4,0:3:0:0:
224,48,208231,1,4,0:3:0:0:
250,47,208317,6,0,P|335:48|367:51,1,105,6|0,0:0|0:0,0:0:0:0:
426,227,208662,1,8,0:0:0:0:
285,170,208834,1,0,0:0:0:0:
453,90,209007,101,2,0:0:0:0:
494,299,209179,1,0,0:0:0:0:
370,122,209351,1,8,0:0:0:0:
319,295,209524,1,0,0:0:0:0:
171,137,209696,1,2,0:0:0:0:
349,213,209869,1,0,0:0:0:0:
196,296,210041,1,8,0:0:0:0:
282,109,210213,1,0,0:0:0:0:
111,226,210386,6,0,P|92:288|88:339,1,105,2|0,0:0|0:0,0:0:0:0:
219,290,210731,1,8,0:0:0:0:
159,131,210903,1,0,0:0:0:0:
279,69,211075,2,0,L|345:63,1,52.5,2|0,0:0|0:0,0:0:0:0:
404,154,211248,2,0,L|338:148,1,52.5,0|0,0:0|0:0,0:0:0:0:
266,143,211420,1,8,0:0:0:0:
310,249,211593,1,0,0:0:0:0:
164,130,211765,6,0,L|179:23,1,105,2|0,0:0|0:0,0:0:0:0:
81,218,212110,1,8,0:0:0:0:
105,208,212196,1,0,0:0:0:0:
131,206,212282,1,0,0:0:0:0:
156,211,212369,1,0,0:0:0:0:
179,223,212455,1,2,0:0:0:0:
201,236,212541,1,0,0:0:0:0:
226,243,212627,1,0,0:0:0:0:
251,238,212713,1,0,0:0:0:0:
288,223,212800,6,0,B|348:203|348:203|259:212|166:199,1,236.250009012223,8|0,0:0|0:0,0:0:0:0:
90,182,213144,6,0,P|79:123|77:76,1,105,12|2,0:0|0:0,0:0:0:0:
193,8,213489,1,2,0:0:0:0:
359,100,213662,2,0,P|356:152|345:203,1,105,8|2,0:0|0:0,0:0:0:0:
195,137,214007,1,2,0:0:0:0:
277,49,214179,2,0,P|344:15|404:14,1,105,8|2,0:0|0:0,0:0:0:0:
441,241,214524,6,0,P|389:230|345:203,1,105,12|2,0:0|0:0,0:0:0:0:
258,84,214869,1,2,0:0:0:0:
212,253,215041,2,0,L|191:379,1,105,8|2,0:0|0:0,0:0:0:0:
90,194,215386,1,2,0:0:0:0:
234,174,215558,2,0,L|307:167,1,52.5,8|2,0:0|0:0,0:0:0:0:
405,77,215731,2,0,L|332:70,1,52.5,2|2,0:0|0:0,0:0:0:0:
274,28,215903,101,12,0:0:0:0:
162,67,216075,2,0,P|163:114|169:147,1,52.5,2|2,0:0|0:0,0:0:0:0:
255,234,216248,1,8,0:0:0:0:
350,67,216420,2,0,P|348:114|342:147,1,52.5,2|2,0:0|0:0,0:0:0:0:
255,261,216593,1,8,0:0:0:0:
133,59,216765,6,0,P|134:106|140:139,1,52.5,2|2,0:0|0:0,0:0:0:0:
254,299,216938,1,8,0:0:0:0:
375,56,217110,2,0,P|373:103|367:136,1,52.5,2|2,0:0|0:0,0:0:0:0:
220,260,217282,5,8,0:0:0:0:
198,213,217368,1,2,0:0:0:0:
201,161,217454,1,2,0:0:0:0:
228,116,217540,1,2,0:0:0:0:
273,89,217626,1,8,0:0:0:0:
324,86,217713,1,2,0:0:0:0:
372,108,217799,5,2,0:0:0:0:
403,149,217885,1,2,0:0:0:0:
412,200,217971,1,8,0:0:0:0:
396,250,218057,1,2,0:0:0:0:
359,286,218144,1,2,0:0:0:0:
309,300,218230,1,2,0:0:0:0:
309,300,218662,6,0,P|241:277|200:268,1,105,6|0,0:3|0:0,0:0:0:0:
73,269,219007,1,8,0:0:0:0:
73,269,219179,1,0,0:0:0:0:
159,133,219351,1,0,0:0:0:0:
159,133,219524,2,0,P|177:181|191:229,1,84,2|8,0:0|0:0,0:0:0:0:
255,370,219869,1,0,0:0:0:0:
307,239,220041,5,0,0:0:0:0:
154,328,220213,1,2,0:0:0:0:
287,201,220386,2,0,L|380:182,1,84,8|0,0:0|0:0,0:0:0:0:
455,241,220731,1,0,0:0:0:0:
294,109,220903,2,0,L|201:90,1,84,2|8,0:0|0:0,0:0:0:0:
143,36,221248,1,0,0:0:0:0:
180,193,221420,5,2,0:0:0:0:
30,33,221593,1,2,0:0:0:0:
77,238,221765,1,8,0:0:0:0:
77,238,222282,1,2,0:0:0:0:
212,356,222455,1,8,0:0:0:0:
212,356,222972,5,2,0:0:0:0:
287,173,223144,1,8,0:0:0:0:
337,298,223317,1,0,0:0:0:0:
208,231,223489,2,0,P|191:187|187:173,1,42,0|0,0:0|0:0,0:0:0:0:
182,103,223662,1,2,0:0:0:0:
357,225,223834,2,0,P|374:181|378:167,1,42,8|0,0:0|0:0,0:0:0:0:
383,97,224007,1,2,0:0:0:0:
192,191,224179,6,0,P|263:177|302:173,1,84,2|0,0:0|0:0,0:0:0:0:
457,251,224524,1,8,0:0:0:0:
457,251,225041,1,2,0:0:0:0:
316,77,225213,1,8,0:0:0:0:
316,77,225731,5,2,0:0:0:0:
263,317,225903,1,8,0:0:0:0:
263,317,226420,2,0,P|222:308|195:305,1,42,2|0,0:0|0:0,0:0:0:0:
133,306,226593,1,8,0:0:0:0:
247,194,226938,6,0,P|288:185|315:182,1,42,2|0,0:0|0:0,0:0:0:0:
378,79,227110,2,0,P|337:70|310:67,1,42,0|0,0:0|0:0,0:0:0:0:
180,64,227282,1,8,0:0:0:0:
180,64,227800,1,2,0:0:0:0:
28,184,227972,1,8,0:0:0:0:
28,184,228489,6,0,L|86:177,1,42,2|0,0:0|0:0,0:0:0:0:
160,244,228662,2,0,L|218:251,1,42,8|0,0:0|0:0,0:0:0:0:
302,191,228834,1,0,0:0:0:0:
302,191,229179,1,2,0:0:0:0:
277,128,229265,1,2,0:0:0:0:
288,61,229351,1,8,0:0:0:0:
402,131,229524,1,2,0:0:0:0:
388,247,229696,6,0,P|361:280|332:308,1,73.4999977569581,2|0,0:0|0:0,0:0:0:0:
230,347,230041,1,8,0:0:0:0:
230,347,230558,1,2,0:0:0:0:
175,190,230731,1,8,0:0:0:0:
175,190,231248,5,2,0:0:0:0:
273,125,231420,1,8,0:0:0:0:
273,125,231938,1,2,0:0:0:0:
175,60,232110,1,8,0:0:0:0:
175,60,232455,6,0,L|168:100,1,36.749998878479,2|0,0:0|0:0,0:0:0:0:
131,165,232627,2,0,L|137:201,1,36.749998878479,2|0,0:0|0:0,0:0:0:0:
206,255,232800,1,8,0:0:0:0:
206,255,233317,1,2,0:0:0:0:
281,232,233489,1,8,0:0:0:0:
281,232,234007,5,2,0:0:0:0:
322,167,234179,1,8,0:0:0:0:
364,231,234351,2,0,P|277:208|212:203,1,146.999995513916,0|2,0:0|0:0,0:0:0:0:
143,217,234869,1,8,0:0:0:0:
195,275,235041,1,0,0:0:0:0:
256,192,235213,12,8,240731,0:0:0:0:
288,87,243144,6,0,P|297:130|305:168,1,78.75,0|0,0:0|0:0,0:0:0:0:
307,188,243489,1,2,0:0:0:0:
307,188,244869,5,2,0:0:0:0:
307,188,245386,6,0,P|256:178|169:175,1,131.25,0|0,0:0|0:0,0:0:0:0:
156,181,245903,2,0,P|164:135|165:96,1,78.75,0|0,0:0|0:0,0:0:0:0:
153,75,246248,1,2,0:0:0:0:
153,75,248662,5,0,0:0:0:0:
181,175,249007,1,2,0:0:0:0:
181,175,250041,5,0,0:0:0:0:
153,275,250386,1,2,0:0:0:0:
153,275,251075,6,0,P|234:262|302:256,1,146.999995513916,2|2,0:0|0:0,0:0:0:0:
298,256,254524,5,2,0:0:0:0:
214,128,255903,1,2,0:0:0:0:
175,283,256593,1,0,0:0:0:0:
309,149,257282,1,2,0:0:0:0:
251,194,260041,5,2,0:0:0:0:
251,194,261420,6,0,B|239:289|239:289|252:190,1,183.75,2|0,0:0|0:0,0:0:0:0:
