osu file format v14

[General]
AudioFilename: audio.mp3
AudioLeadIn: 0
PreviewTime: 74869
Countdown: 0
SampleSet: Soft
StackLeniency: 0.3
Mode: 0
LetterboxInBreaks: 0
EpilepsyWarning: 1
WidescreenStoryboard: 1

[Editor]
Bookmarks: 9006,31075,53144,75213,86248,101248,106248,108317,130386,144092,146851,152455,174524,196593,197971,218662,223488,230730,240731,243486
DistanceSpacing: 1.2
BeatDivisor: 4
GridSize: 32
TimelineZoom: 2.8

[Metadata]
Title:crystallized
TitleUnicode:crystallized
Artist:Camellia
ArtistUnicode:Camellia
Creator:-ckopoctb-
Version:Moonl1ght's C8H10N4O2
Source:
Tags:dnb chillout dubstep mlg sourpls relax slider Emilia Adore Livstvichka wajinshu
BeatmapID:1265214
BeatmapSetID:539221

[Difficulty]
HPDrainRate:5
CircleSize:4.2
OverallDifficulty:8.4
ApproachRate:9.5
SliderMultiplier:2.4
SliderTickRate:1

[Events]
//Background and Video events
0,0,"thumb-1920-712346.jpg",0,0
//Break Periods
2,130586,140880
2,243686,244858
2,246445,248133
//Storyboard Layer 0 (Background)
//Storyboard Layer 1 (Fail)
//Storyboard Layer 2 (Pass)
//Storyboard Layer 3 (Foreground)
//Storyboard Sound Samples

[TimingPoints]
9007,344.827586206897,4,2,1,30,1,0
31075,-125,4,2,1,50,0,0
41938,-142.857142857143,4,2,1,50,0,0
42282,-100,4,2,1,50,0,0
42627,-133.333333333333,4,2,1,50,0,0
43144,-100,4,2,1,50,0,0
44007,-133.333333333333,4,2,1,50,0,0
44351,-100,4,2,1,50,0,0
45386,-133.333333333333,4,2,1,50,0,0
46248,-100,4,2,1,50,0,0
46593,-133.333333333333,4,2,1,50,0,0
47627,-100,4,2,1,50,0,0
48144,-133.333333333333,4,2,1,50,0,0
49524,-100,4,2,1,50,0,0
50386,-133.333333333333,4,1,1,40,0,0
50731,-133.333333333333,4,1,1,50,0,0
51075,-133.333333333333,4,1,1,60,0,0
51420,-133.333333333333,4,1,1,70,0,0
51765,-66.6666666666667,4,2,1,50,0,0
52455,-100,4,2,1,50,0,0
52972,-100,4,2,1,5,0,0
53144,-200,4,2,1,35,0,0
53834,-133.333333333333,4,2,1,35,0,0
54524,-200,4,2,1,35,0,0
55041,-166.666666666667,4,2,1,35,0,0
55558,-200,4,2,1,35,0,0
56248,-100,4,2,1,35,0,0
56938,-166.666666666667,4,2,1,35,0,0
58317,-125,4,2,1,35,0,0
59007,-55.5555555555556,4,2,1,35,0,0
59179,-66.6666666666667,4,2,1,35,0,0
59351,-76.9230769230769,4,2,1,35,0,0
59696,-100,4,2,1,35,0,0
60041,-125,4,2,1,35,0,0
61765,-100,4,2,1,35,0,0
62282,-133.333333333333,4,2,1,35,0,0
63317,-100,4,2,1,35,0,0
63834,-133.333333333333,4,2,1,35,0,0
64179,-200,4,2,1,35,0,0
64869,-133.333333333333,4,2,1,35,0,0
65213,-90.9090909090909,4,2,1,35,0,0
65558,-83.3333333333333,4,2,1,35,0,0
66593,-133.333333333333,4,2,1,35,0,0
67282,-79.9999999999999,4,2,1,35,0,0
67972,-133.333333333333,4,2,1,35,0,0
68317,-125,4,2,1,35,0,0
69351,-100,4,2,1,35,0,0
72627,-100,4,1,1,55,0,0
80731,-100,4,2,1,65,0,0
83489,-83.3333333333333,4,2,1,40,0,0
84179,-71.4285714285714,4,2,1,40,0,0
84869,-83.3333333333333,4,2,1,40,0,0
85213,-83.3333333333333,4,2,1,10,0,1
85817,-83.3333333333333,4,2,1,20,0,1
85903,-83.3333333333333,4,2,1,30,0,1
86075,-83.3333333333333,4,2,1,40,0,1
86162,-83.3333333333333,4,2,1,50,0,1
86248,-133.333333333333,4,2,1,10,0,1
86593,-100,4,1,1,60,0,1
86765,-83.3333333333333,4,1,1,60,0,1
87110,-90.9090909090909,4,1,1,60,0,1
87282,-66.6666666666667,4,1,1,60,0,1
87627,-83.3333333333333,4,1,1,60,0,1
87800,-71.4285714285714,4,1,1,60,0,1
88144,-83.3333333333333,4,1,1,60,0,1
88317,-90.9090909090909,4,1,1,60,0,1
88662,-83.3333333333333,4,1,1,60,0,1
89007,-71.4285714285714,4,1,1,60,0,1
89351,-83.3333333333333,4,1,1,40,0,1
90041,-83.3333333333333,4,1,1,60,0,1
90386,-66.6666666666667,4,1,1,60,0,1
90731,-100,4,1,1,50,0,1
91420,-66.6666666666667,4,1,1,60,0,1
91765,-71.4285714285714,4,1,1,60,0,1
92110,-83.3333333333333,4,1,1,60,0,1
92282,-66.6666666666667,4,1,1,60,0,1
92627,-83.3333333333333,4,1,1,60,0,1
92800,-71.4285714285714,4,1,1,60,0,1
93144,-83.3333333333333,4,1,1,60,0,1
93317,-71.4285714285714,4,1,1,60,0,1
93662,-83.3333333333333,4,1,1,60,0,1
93834,-71.4285714285714,4,1,1,60,0,1
94179,-76.9230769230769,4,1,1,60,0,1
94524,-66.6666666666667,4,1,1,60,0,1
94869,-66.6666666666667,4,1,1,20,0,1
94955,-66.6666666666667,4,1,1,30,0,1
95041,-66.6666666666667,4,1,1,40,0,1
95127,-66.6666666666667,4,1,1,50,0,1
95213,-83.3333333333333,4,1,1,60,0,1
95300,-76.9230769230769,4,1,1,60,0,1
95558,-66.6666666666667,4,1,1,60,0,1
95903,-83.3333333333333,4,1,1,60,0,1
96248,-100,4,1,1,60,0,1
96593,-83.3333333333333,4,1,1,60,0,1
96765,-90.9090909090909,4,1,1,60,0,1
96938,-66.6666666666667,4,1,1,60,0,1
97282,-100,4,1,1,60,0,1
97627,-83.3333333333333,4,1,1,60,0,1
97800,-76.9230769230769,4,1,1,60,0,1
98144,-83.3333333333333,4,1,1,60,0,1
98317,-66.6666666666667,4,1,1,60,0,1
98662,-83.3333333333333,4,1,1,60,0,1
98834,-71.4285714285714,4,1,1,60,0,1
99179,-83.3333333333333,4,1,1,60,0,1
99351,-71.4285714285714,4,1,1,60,0,1
99696,-83.3333333333333,4,1,1,60,0,1
100041,-66.6666666666667,4,1,1,40,0,1
100386,-83.3333333333333,4,1,1,40,0,1
101075,-83.3333333333333,4,1,1,60,0,1
101420,-66.6666666666667,4,1,1,60,0,1
101765,-83.3333333333333,4,1,1,40,0,1
102455,-100,4,1,1,60,0,1
102713,-100,4,1,1,5,0,1
102800,-100,4,1,1,100,0,1
103144,-83.3333333333333,4,1,1,60,0,1
103317,-66.6666666666667,4,1,1,60,0,1
103662,-83.3333333333333,4,1,1,60,0,1
103834,-66.6666666666667,4,1,1,60,0,1
104179,-83.3333333333333,4,1,1,60,0,1
104351,-66.6666666666667,4,1,1,60,0,1
104696,-83.3333333333333,4,1,1,60,0,1
104869,-66.6666666666667,4,1,1,60,0,1
105213,-100,4,1,1,60,0,1
105558,-83.3333333333333,4,1,1,40,0,1
107282,-100,4,1,1,60,0,1
107627,-200,4,2,1,30,0,0
108317,-133.333333333333,4,2,1,30,0,0
109007,-83.3333333333333,4,2,1,50,0,0
110386,-125,4,2,1,50,0,0
111075,-83.3333333333333,4,2,1,50,0,0
111765,-200,4,2,1,50,0,0
112455,-133.333333333333,4,2,1,50,0,0
112972,-86.9565217391303,4,2,1,50,0,0
113144,-133.333333333333,4,2,1,50,0,0
113489,-83.3333333333333,4,2,1,50,0,0
113834,-133.333333333333,4,2,1,50,0,0
114524,-83.3333333333333,4,2,1,50,0,0
115903,-125,4,2,1,50,0,0
116593,-100,4,2,1,50,0,0
116938,-83.3333333333333,4,2,1,50,0,0
117282,-100,4,2,1,50,0,0
117972,-83.3333333333333,4,2,1,50,0,0
119007,-71.4285714285714,4,2,1,50,0,0
119351,-133.333333333333,4,2,1,50,0,0
120041,-83.3333333333333,4,2,1,50,0,0
121075,-76.9230769230769,4,2,1,50,0,0
121420,-66.6666666666667,4,2,1,50,0,0
121765,-100,4,2,1,50,0,0
122110,-133.333333333333,4,2,1,50,0,0
122455,-100,4,2,1,50,0,0
122800,-83.3333333333333,4,2,1,50,0,0
123489,-100,4,2,1,50,0,0
124007,-83.3333333333333,4,2,1,50,0,0
124179,-100,4,2,1,50,0,0
124524,-83.3333333333333,4,2,1,50,0,0
124869,-133.333333333333,4,2,1,50,0,0
125558,-83.3333333333333,4,2,1,40,0,0
126938,-111.111111111111,4,2,1,50,0,0
127627,-83.3333333333333,4,1,1,60,0,0
130386,1E-298,-69,2,1,70,1,0
141420,344.827586206897,4,2,1,30,1,0
141420,-200,4,2,1,30,0,0
146937,-133.333333333333,4,2,1,40,0,0
148316,-133.333333333333,4,2,1,20,0,0
148488,-133.333333333333,4,2,1,30,0,0
148661,-133.333333333333,4,2,1,40,0,0
148833,-133.333333333333,4,2,1,50,0,0
149006,-133.333333333333,4,2,1,60,0,0
149178,-133.333333333333,4,2,1,70,0,0
149351,-133.333333333333,4,2,1,50,0,0
149695,-100,4,2,1,40,0,0
150040,-100,4,2,1,50,0,0
150385,-100,4,2,1,60,0,0
150730,-100,4,2,1,70,0,0
151075,-66.6666666666667,4,1,1,10,0,0
151161,-66.6666666666667,4,1,1,20,0,0
151247,-66.6666666666667,4,1,1,30,0,0
151333,-66.6666666666667,4,1,1,40,0,0
151420,-66.6666666666667,4,1,1,50,0,0
151506,-66.6666666666667,4,1,1,60,0,0
151592,-66.6666666666667,4,1,1,70,0,0
151678,-66.6666666666667,4,1,1,30,0,0
151764,-100,4,1,1,40,0,0
152109,-133.333333333333,4,1,1,40,0,0
152454,-200,4,3,1,40,0,0
153144,-111.111111111111,4,3,1,40,0,0
153833,-166.666666666666,4,3,1,40,0,0
154868,-200,4,3,1,40,0,0
155557,-100,4,3,1,20,0,0
155730,-100,4,3,1,30,0,0
155902,-100,4,3,1,40,0,0
156075,-100,4,3,1,50,0,0
156247,-133.333333333333,4,3,1,50,0,0
156592,-125,4,3,1,50,0,0
157109,-111.111111111111,4,3,1,50,0,0
157626,-166.666666666667,4,3,1,50,0,0
158316,-55.5555555555556,4,3,1,50,0,0
158661,-83.3333333333333,4,3,1,50,0,0
159006,-100,4,3,1,50,0,0
159351,-125,4,3,1,50,0,0
159868,-100,4,3,1,50,0,0
160385,-166.666666666667,4,3,1,50,0,0
161075,-100,4,1,1,50,0,0
162109,-83.3333333333333,4,1,1,50,0,0
162454,-76.9230769230769,4,1,1,50,0,0
162799,-133.333333333333,4,1,1,50,0,0
163144,-100,4,2,1,60,0,0
168661,-100,4,1,1,60,0,0
169695,-100,4,1,1,70,0,0
170730,-100,4,1,1,80,0,0
171420,-125,4,2,1,60,0,0
172454,-62.5,4,2,1,20,0,0
172540,-62.5,4,2,1,30,0,0
172626,-62.5,4,2,1,40,0,0
172713,-62.5,4,2,1,50,0,0
172799,-62.5,4,2,1,60,0,0
172885,-62.5,4,2,1,70,0,0
172971,-62.5,4,2,1,80,0,0
173057,-62.5,4,2,1,90,0,0
173144,-62.5,4,2,1,100,0,0
173833,-50,4,2,1,30,0,1
173920,-50,4,2,1,40,0,1
174006,-50,4,2,1,50,0,1
174092,-50,4,2,1,60,0,1
174178,-100,4,2,1,60,0,1
174523,-83.3333333333333,4,2,1,60,0,1
179695,-55.5555555555556,4,2,1,60,0,1
180040,-83.3333333333333,4,2,1,60,0,1
183144,-55.5555555555556,4,2,1,60,0,1
183488,-83.3333333333333,4,2,1,60,0,1
184523,-66.6666666666667,4,2,1,60,0,1
184868,-83.3333333333333,4,2,1,60,0,1
190730,-55.5555555555556,4,2,1,60,0,1
191075,-83.3333333333333,4,2,1,60,0,1
193144,-76.9230769230769,4,2,1,60,0,1
193488,-133.333333333333,4,2,1,60,0,1
193833,-90.9090909090909,4,2,1,60,0,1
194868,-66.6666666666667,4,2,1,60,0,1
196247,-55.5555555555556,4,2,1,5,0,1
196592,-55.5555555555556,4,2,1,65,0,0
197454,-83.3333333333333,4,2,1,65,0,0
197971,-66.6666666666667,4,2,1,65,0,0
198316,-83.3333333333333,4,2,1,65,0,0
198488,-76.9230769230769,4,2,1,65,0,0
199006,-66.6666666666667,4,2,1,65,0,0
199695,-83.3333333333333,4,2,1,65,0,0
200730,-66.6666666666667,4,2,1,65,0,0
201075,-100,4,2,1,65,0,0
201764,-83.3333333333333,4,2,1,65,0,0
202109,-66.6666666666667,4,2,1,65,0,0
202454,-83.3333333333333,4,2,1,65,0,0
202971,-83.3333333333333,4,2,1,65,0,0
203144,-66.6666666666667,4,2,1,65,0,0
203488,-83.3333333333333,4,2,1,65,0,0
203661,-66.6666666666667,4,2,1,65,0,0
204006,-83.3333333333333,4,2,1,65,0,0
204178,-66.6666666666667,4,2,1,65,0,0
204868,-76.9230769230769,4,2,1,65,0,0
205213,-83.3333333333333,4,2,1,65,0,0
205902,-100,4,2,1,65,0,0
206247,-66.6666666666667,4,2,1,65,0,0
206592,-71.4285714285714,4,2,1,65,0,0
206937,-83.3333333333333,4,2,1,65,0,0
207282,-66.6666666666667,4,2,1,65,0,0
207626,-100,4,2,1,65,0,0
208316,-83.3333333333333,4,2,1,65,0,0
208661,-66.6666666666667,4,2,1,65,0,0
209006,-83.3333333333333,4,2,1,65,0,0
209178,-66.6666666666667,4,2,1,65,0,0
209523,-83.3333333333333,4,2,1,65,0,0
209695,-66.6666666666667,4,2,1,65,0,0
210040,-83.3333333333333,4,2,1,65,0,0
210213,-66.6666666666667,4,2,1,65,0,0
210557,-83.3333333333333,4,2,1,65,0,0
212799,-66.6666666666667,4,2,1,65,0,0
213144,-100,4,1,1,65,0,0
215557,-66.6666666666667,4,1,1,65,0,0
217626,-83.3333333333333,4,1,1,65,0,0
218316,-50,4,1,1,65,0,0
218488,-50,4,1,1,5,0,0
218661,-100,4,1,1,55,0,0
235213,-133.333333333333,4,1,1,45,0,0
240730,1E-298,-69,2,1,70,1,0
241590,344.827586206897,4,2,1,30,1,0
241590,-200,4,2,1,30,0,0
262279,338.983050847458,4,2,1,40,1,0
262617,335.195530726257,4,2,1,40,1,0
262952,326.086956521739,4,2,1,40,1,0
265479,-100,4,2,1,5,0,0

[Colours]
Combo1 : 163,78,203
Combo2 : 130,132,217
Combo3 : 103,192,226
Combo4 : 248,147,25
SliderBorder : 170,166,227
SliderTrackOverride : 5,0,9

[HitObjects]
256,192,29696,12,8,30731,0:0:0:0:
56,48,31075,5,2,0:0:0:0:
184,112,31248,1,0,0:0:0:0:
72,204,31420,1,8,0:0:0:0:
208,248,31593,5,0,0:0:0:0:
253,262,31679,1,0,0:0:0:0:
301,260,31765,1,0,0:0:0:0:
344,240,31851,1,0,0:0:0:0:
378,206,31937,1,2,0:0:0:0:
184,112,32110,1,8,0:0:0:0:
112,248,32455,5,2,0:0:0:0:
212,352,32627,1,2,0:0:0:0:
346,327,32800,1,0,0:0:0:0:
256,216,32972,1,8,0:0:0:0:
256,216,33058,1,0,0:0:0:0:
212,352,33231,1,0,0:0:0:0:
212,352,33318,1,2,0:0:0:0:
112,248,33489,1,8,0:0:0:0:
378,206,33662,1,0,0:0:0:0:
105,112,33834,5,2,0:0:0:0:
234,47,34007,1,2,0:0:0:0:
363,110,34179,1,8,0:0:0:0:
208,248,34351,5,0,0:0:0:0:
162,262,34437,1,0,0:0:0:0:
114,260,34523,1,0,0:0:0:0:
71,240,34609,1,0,0:0:0:0:
37,206,34695,1,2,0:0:0:0:
213,137,34869,1,8,0:0:0:0:
432,322,35213,5,2,0:0:0:0:
466,181,35386,1,2,0:0:0:0:
466,181,35558,1,8,0:0:0:0:
284,230,35731,5,0,0:0:0:0:
284,230,35817,1,2,0:0:0:0:
284,230,35903,1,0,0:0:0:0:
358,107,36075,5,2,0:0:0:0:
432,322,36248,1,8,0:0:0:0:
143,241,36593,5,2,0:0:0:0:
214,116,36765,1,0,0:0:0:0:
122,4,36938,1,8,0:0:0:0:
31,159,37110,5,0,0:0:0:0:
37,206,37196,1,0,0:0:0:0:
43,254,37282,1,0,0:0:0:0:
49,301,37368,1,0,0:0:0:0:
55,349,37454,1,2,0:0:0:0:
190,117,37627,1,8,0:0:0:0:
458,47,37972,5,2,0:0:0:0:
378,206,38144,1,2,0:0:0:0:
358,212,38231,1,0,0:0:0:0:
335,213,38317,1,0,0:0:0:0:
191,213,38489,1,8,0:0:0:0:
462,199,38662,1,0,0:0:0:0:
170,213,38834,1,2,0:0:0:0:
348,127,39007,1,8,0:0:0:0:
256,337,39351,5,2,0:0:0:0:
139,251,39524,1,2,0:0:0:0:
20,332,39696,1,8,0:0:0:0:
276,268,39869,5,0,0:0:0:0:
317,244,39955,1,0,0:0:0:0:
364,234,40041,1,0,0:0:0:0:
411,238,40127,1,0,0:0:0:0:
455,257,40213,1,2,0:0:0:0:
371,356,40386,1,8,0:0:0:0:
196,164,40731,6,0,L|187:95,1,48,8|0,0:0|0:0,0:0:0:0:
181,45,40903,1,2,0:0:0:0:
205,239,41075,1,2,0:0:0:0:
284,139,41248,6,0,L|275:70,1,48,8|0,0:0|0:0,0:0:0:0:
267,7,41420,2,0,L|273:54,1,48,2|8,0:0|0:0,0:0:0:0:
295,228,41593,2,0,L|288:162,1,48,0|0,0:0|0:0,0:0:0:0:
103,237,41765,6,0,L|96:189,1,48,8|0,0:0|0:0,0:0:0:0:
82,72,41938,2,0,L|92:155,1,83.9999974365235,0|2,0:0|0:0,0:0:0:0:
115,333,42282,1,0,0:0:0:0:
239,202,42455,1,8,0:0:0:0:
411,291,42627,5,0,0:0:0:0:
413,246,42713,1,0,0:0:0:0:
415,201,42799,1,0,0:0:0:0:
417,156,42885,1,0,0:0:0:0:
419,111,42971,1,2,0:0:0:0:
241,237,43144,1,8,0:0:0:0:
176,64,43489,5,2,0:0:0:0:
68,211,43662,1,2,0:0:0:0:
176,64,43834,1,0,0:0:0:0:
195,198,44007,2,0,L|202:276,1,45.0000017166138,8|0,0:0|0:0,0:0:0:0:
203,310,44179,1,0,0:0:0:0:
296,156,44351,1,2,0:0:0:0:
388,311,44524,1,8,0:0:0:0:
29,349,44869,5,2,0:0:0:0:
142,209,45041,1,2,0:0:0:0:
28,70,45213,1,8,0:0:0:0:
176,64,45386,5,0,0:0:0:0:
214,40,45472,1,0,0:0:0:0:
257,28,45558,1,0,0:0:0:0:
302,27,45644,1,0,0:0:0:0:
345,39,45730,1,2,0:0:0:0:
195,198,45903,1,8,0:0:0:0:
430,64,46248,5,2,0:0:0:0:
176,64,46420,1,0,0:0:0:0:
396,160,46593,1,8,0:0:0:0:
195,198,46765,5,2,0:0:0:0:
201,242,46851,1,2,0:0:0:0:
207,287,46937,1,0,0:0:0:0:
213,331,47023,1,0,0:0:0:0:
220,376,47109,1,2,0:0:0:0:
374,172,47282,1,8,0:0:0:0:
92,155,47627,5,2,0:0:0:0:
254,76,47800,1,0,0:0:0:0:
48,122,47972,1,8,0:0:0:0:
207,211,48144,5,0,0:0:0:0:
251,219,48230,1,0,0:0:0:0:
295,214,48316,1,0,0:0:0:0:
337,198,48402,1,0,0:0:0:0:
373,171,48488,1,2,0:0:0:0:
254,76,48662,1,8,0:0:0:0:
59,263,49007,5,2,0:0:0:0:
213,331,49179,1,2,0:0:0:0:
239,336,49265,1,0,0:0:0:0:
260,334,49351,1,0,0:0:0:0:
369,206,49524,1,8,0:0:0:0:
37,231,49869,5,2,0:0:0:0:
396,223,50041,1,8,0:0:0:0:
92,155,50386,6,0,L|84:105,3,45.0000017166138,2|2|2|2,0:0|0:0|0:0|0:0,0:0:0:0:
175,109,50731,6,0,L|167:59,3,45.0000017166138,2|2|2|2,0:0|0:0|0:0|0:0,0:0:0:0:
255,134,51075,6,0,L|247:178,3,45.0000017166138,2|2|2|2,0:0|0:0|0:0|0:0,0:0:0:0:
338,131,51420,6,0,L|345:86,3,45.0000017166138,2|2|2|2,0:0|0:0|0:0|0:0,0:0:0:0:
422,123,51765,6,0,L|429:167,7,45.0000017166138,2|2|2|2|2|2|2|2,0:0|0:0|0:0|0:0|0:0|0:0|0:0|0:0,0:0:0:0:
487,80,52110,6,0,L|479:35,7,45.0000017166138,2|2|2|2|2|2|2|2,0:0|0:0|0:0|0:0|0:0|0:0|0:0|0:0,0:0:0:0:
416,39,52455,6,0,B|312:32|275:169|168:119|171:-1|239:-13|297:9|284:68,1,360,4|0,0:1|0:0,0:0:0:0:
319,149,53144,6,0,B|306:222|306:222|334:269|334:269|320:364,1,210,6|0,0:2|0:0,0:0:0:0:
220,296,53834,6,0,P|125:315|219:237,1,315.000012016297,8|0,2:0|2:0,2:2:0:0:
385,205,54524,6,0,B|492:173|492:173|447:155,1,150,2|0,0:0|0:0,0:0:0:0:
239,147,55041,6,0,B|111:109|111:109|156:91,1,179.999994506836,2|0,0:0|0:0,0:0:0:0:
306,93,55558,6,0,B|349:182|257:219|321:303,1,210,2|0,0:0|0:0,0:0:0:0:
399,238,56248,6,0,L|464:230,1,60,0|0,0:0|0:0,0:0:0:0:
211,226,56420,2,0,L|146:218,1,60,0|0,0:0|0:0,0:0:0:0:
416,316,56593,2,0,L|481:308,1,60,0|0,0:0|0:0,0:0:0:0:
228,304,56765,2,0,L|163:296,1,60,0|0,0:0|0:0,0:0:0:0:
99,276,56938,5,0,0:0:0:0:
75,248,57024,1,0,0:0:0:0:
68,214,57110,1,0,0:0:0:0:
79,180,57196,1,0,0:0:0:0:
103,153,57282,6,0,P|146:111|65:26,1,179.999994506836,2|0,0:0|0:0,0:0:0:0:
84,90,57800,6,0,B|149:75|149:75|193:88|193:88|264:70,1,179.999994506836,2|0,0:0|0:0,0:0:0:0:
319,149,58317,6,0,B|384:200|462:193|487:109|487:109|412:67|375:135,1,336,2|0,0:0|0:0,0:0:0:0:
193,243,59007,6,0,B|204:321|204:321|238:295,1,107.999996704102,0|0,0:0|0:0,0:0:0:0:
307,233,59179,2,0,P|325:189|315:142,1,90.0000034332277,0|0,0:0|0:0,0:0:0:0:
241,177,59351,2,0,B|193:152|136:175|136:175|192:129,1,155.999992858887,0|0,0:0|0:0,0:0:0:0:
287,70,59696,6,0,B|326:58|357:78|357:78|397:59|397:59|415:71|415:71|449:81|495:57,1,180,0|0,0:0|0:0,0:0:0:0:
412,149,60041,6,0,B|392:212|420:246|420:246|391:274|391:274|422:314|389:375,1,240,2|0,0:0|0:0,0:0:0:0:
305,323,60558,6,0,B|276:270|307:230|307:230|278:202|278:202|306:168|286:105,1,240,2|0,0:0|0:0,0:0:0:0:
169,148,61075,6,0,P|89:148|190:56,1,336,2|0,0:0|0:0,0:0:0:0:
129,90,61765,6,0,B|114:146|114:146|127:205|127:205|116:266,1,180,2|0,0:0|0:0,0:0:0:0:
26,284,62110,6,0,L|39:204,1,60,0|0,0:0|0:0,0:0:0:0:
213,266,62282,2,0,B|240:120|240:120|164:149,1,225.000008583069,2|0,0:0|0:0,0:0:0:0:
131,303,62800,6,0,P|173:345|268:340,1,135.000005149841,2|0,0:0|0:0,0:0:0:0:
270,339,63144,1,8,0:0:0:0:
304,229,63317,2,0,P|346:187|441:192,1,120,2|2,0:0|0:0,0:0:0:0:
395,288,63662,1,2,0:0:0:0:
238,124,63834,2,0,L|226:23,1,90.0000034332277,8|0,0:0|0:0,0:0:0:0:
382,86,64179,6,0,B|444:180|344:209|402:300,1,210,2|0,0:0|0:0,0:0:0:0:
454,360,64869,6,0,P|391:378|315:343,1,135.000005149841,0|0,0:0|0:0,0:0:0:0:
285,255,65213,2,0,P|246:253|212:266,1,66.0000020141602,0|0,0:0|0:0,0:0:0:0:
131,303,65386,2,0,P|92:305|58:292,1,66.0000020141602,0|0,0:0|0:0,0:0:0:0:
110,187,65558,6,0,P|114:92|234:162,1,287.999991210938,2|0,0:0|0:0,0:0:0:0:
165,143,66075,6,0,P|252:226|285:103,1,287.999991210938,2|0,0:0|0:0,0:0:0:0:
235,156,66593,6,0,P|239:61|367:145,1,315.000012016297,2|0,0:0|0:0,0:0:0:0:
391,249,67282,6,0,L|396:308,7,37.5,0|0|0|0|0|0|0|0,0:0|0:0|0:0|0:0|0:0|0:0|0:0|0:0,0:0:0:0:
285,255,67627,2,0,L|290:314,7,37.5,0|0|0|0|0|0|0|0,0:0|0:0|0:0|0:0|0:0|0:0|0:0|0:0,0:0:0:0:
184,332,67972,2,0,L|176:233,1,90.0000034332277,0|0,0:0|0:0,0:0:0:0:
66,296,68317,6,0,B|37:243|68:203|68:203|39:175|39:175|67:141|47:78,1,240,2|0,0:0|0:0,0:0:0:0:
158,25,68834,6,0,B|177:86|149:120|149:120|178:148|178:148|147:188|176:241,1,240,2|0,0:0|0:0,0:0:0:0:
260,194,69351,6,0,B|321:212|368:164|368:164|418:269|532:251|555:129|451:101|407:116|396:182,1,420,2|0,0:0|0:0,0:0:0:0:
291,96,70041,6,0,B|230:67|230:67|177:71|177:71|108:41,1,180,0|0,0:0|0:0,0:0:0:0:
52,123,70386,2,0,L|66:189,3,60,0|0|0|0,0:0|0:0|0:0|0:0,0:0:0:0:
156,165,70731,2,0,P|148:230|107:272,1,120,0|0,0:0|0:0,0:0:0:0:
112,268,71075,6,0,B|192:287|241:232|241:232|266:277|266:277|319:234|395:268,1,300,2|0,0:0|0:0,0:0:0:0:
325,329,71593,6,0,P|419:321|323:190,1,300,2|0,0:0|0:0,0:0:0:0:
367,257,72110,6,0,P|287:154|407:105,1,300,2|0,0:0|0:0,0:0:0:0:
367,257,72627,1,2,0:0:0:0:
467,150,72800,6,0,B|480:102|480:102|472:68|472:68|483:26,1,120,8|0,0:0|0:0,0:0:0:0:
303,47,73144,1,0,0:0:0:0:
240,234,73317,2,0,B|248:268|248:268|240:302|240:302|253:350,1,120,2|8,0:0|0:0,0:0:0:0:
374,182,73662,5,0,0:0:0:0:
374,182,73748,1,0,0:0:0:0:
374,182,73834,1,0,0:0:0:0:
156,165,74007,2,0,B|143:117|143:117|151:83|151:83|143:49,1,120,2|8,0:0|0:0,0:0:0:0:
313,55,74351,5,0,0:0:0:0:
313,55,74437,1,0,0:0:0:0:
313,55,74523,1,0,0:0:0:0:
54,118,74696,5,2,0:0:0:0:
257,193,74869,1,8,0:0:0:0:
54,118,75041,1,0,0:0:0:0:
153,314,75213,1,0,0:0:0:0:
240,304,75385,1,0,0:0:0:0:
327,294,75557,1,8,0:0:0:0:
240,304,75731,5,0,0:0:0:0:
327,294,75903,1,2,0:0:0:0:
414,284,76075,1,0,0:0:0:0:
337,127,76248,6,0,L|209:113,1,120,8|0,0:0|0:0,0:0:0:0:
35,203,76593,2,0,L|155:190,1,120,2|0,0:0|0:0,0:0:0:0:
142,48,76938,1,8,0:0:0:0:
229,38,77110,1,0,0:0:0:0:
316,28,77282,1,2,0:0:0:0:
229,38,77455,5,0,0:0:0:0:
316,28,77627,1,8,0:0:0:0:
403,18,77799,1,8,0:0:0:0:
337,127,77972,6,0,L|355:257,1,120,2|0,0:0|0:0,0:0:0:0:
256,320,78317,1,8,0:0:0:0:
176,240,78489,1,0,0:0:0:0:
128,352,78662,1,2,0:0:0:0:
176,240,78834,1,0,0:0:0:0:
96,160,79006,1,8,0:0:0:0:
48,272,79179,1,0,0:0:0:0:
212,156,79351,6,0,L|228:37,1,120,2|0,0:0|0:0,0:0:0:0:
416,144,79696,1,8,0:0:0:0:
352,256,79869,1,0,0:0:0:0:
288,144,80041,1,2,0:0:0:0:
352,256,80213,1,0,0:0:0:0:
288,368,80386,1,8,0:0:0:0:
224,256,80558,1,8,0:0:0:0:
467,150,80731,5,8,0:0:0:0:
228,37,80903,1,2,0:0:0:0:
451,43,81075,5,8,0:0:0:0:
212,156,81247,1,2,0:0:0:0:
337,127,81420,5,8,0:0:0:0:
98,14,81592,1,2,0:0:0:0:
316,28,81765,5,8,0:0:0:0:
77,141,81937,1,2,0:0:0:0:
228,37,82110,5,8,0:0:0:0:
353,245,82282,1,2,0:0:0:0:
337,127,82455,5,8,0:0:0:0:
212,335,82627,1,2,0:0:0:0:
288,144,82800,5,8,0:0:0:0:
413,352,82972,1,2,0:0:0:0:
175,114,83144,5,8,0:0:0:0:
128,352,83316,1,2,0:0:0:0:
325,196,83489,5,2,0:0:0:0:
325,196,83575,1,2,0:0:0:0:
325,196,83662,2,0,P|338:153|334:118,1,71.9999978027344,2|2,0:0|0:0,0:0:0:0:
88,210,83834,5,2,0:0:0:0:
88,210,83920,1,2,0:0:0:0:
88,210,84007,2,0,P|75:167|79:132,1,71.9999978027344,2|2,0:0|0:0,0:0:0:0:
177,155,84179,6,0,L|219:144,7,41.9999987182618,2|2|2|2|2|2|2|2,0:0|0:0|0:0|0:0|0:0|0:0|0:0|0:0,0:0:0:0:
232,62,84524,6,0,L|272:72,7,41.9999987182618,10|2|2|2|2|2|2|2,0:0|0:0|0:0|0:0|0:0|0:0|0:0|0:0,0:0:0:0:
304,80,84869,6,0,P|384:48|352:192,1,287.999991210938,10|0,0:0|0:0,0:0:0:0:
161,169,85731,5,2,0:0:0:0:
161,169,85817,1,0,0:0:0:0:
161,169,85903,2,0,L|177:249,1,71.9999978027344,8|8,0:3|0:3,0:0:0:0:
206,303,86075,1,4,0:3:0:0:
241,328,86161,1,4,0:3:0:0:
279,346,86248,6,0,P|354:349|390:325,1,90.0000034332277,6|0,1:0|0:0,0:0:0:0:
318,233,86593,2,0,P|325:193|350:164,1,60,8|0,0:0|0:0,0:0:0:0:
462,178,86765,2,0,B|479:104|479:104|448:37,1,143.999995605469,0|0,0:0|0:0,0:0:0:0:
304,80,87110,6,0,L|218:70,1,66.0000020141602,2|0,0:0|0:0,0:0:0:0:
158,69,87282,2,0,P|105:114|174:113,1,180.000006866455,8|0,0:0|0:0,0:0:0:0:
394,227,87627,6,0,L|406:314,1,71.9999978027344,0|0,0:0|0:0,0:0:0:0:
279,346,87800,2,0,B|222:362|222:362|193:345|193:345|121:368,1,167.999994873047,2|8,0:0|0:0,0:0:0:0:
76,140,88144,6,0,P|56:95|61:54,1,71.9999978027344,0|0,0:0|0:0,0:0:0:0:
238,72,88317,2,0,B|278:57|278:57|313:66|313:66|343:50|388:55,1,132.00000402832,0|2,0:0|0:0,0:0:0:0:
390,172,88662,6,0,L|472:178,1,71.9999978027344,8|0,0:0|0:0,0:0:0:0:
318,233,88834,6,0,L|236:239,1,71.9999978027344,2|0,0:0|0:0,0:0:0:0:
88,210,89007,2,0,B|-18:234|-18:234|41:258,1,167.999994873047,2|0,0:0|0:0,0:0:0:0:
303,138,89351,5,8,0:0:0:0:
303,138,89438,1,0,0:0:0:0:
303,138,89524,2,0,P|313:88|303:48,1,71.9999978027344,0|0,0:0|0:0,0:0:0:0:
128,298,89696,5,0,0:0:0:0:
128,298,89783,1,0,0:0:0:0:
128,298,89869,2,0,P|118:348|128:388,1,71.9999978027344,2|0,0:0|0:0,0:0:0:0:
279,346,90041,6,0,P|318:347|356:331,1,71.9999978027344,8|0,0:0|0:0,0:0:0:0:
291,216,90213,2,0,P|272:178|274:143,1,71.9999978027344,0|0,0:0|0:0,0:0:0:0:
373,118,90386,2,0,B|433:79|400:11|400:11|351:51|366:73,1,180.000006866455,0|2,0:0|0:0,0:0:0:0:
189,83,90731,6,0,L|111:90,3,60,8|0|0|0,0:0|0:0|0:0|0:0,0:0:0:0:
76,140,91075,6,0,L|16:134,3,60,0|0|2|0,0:0|0:0|0:0|0:0,0:0:0:0:
136,249,91420,6,0,B|102:216|134:183|168:175|215:227|174:342|174:342|237:291,1,270.000010299683,8|0,0:0|0:0,0:0:0:0:
303,273,91765,6,0,B|351:232|410:253|410:253|364:199,1,167.999994873047,2|0,0:0|0:0,0:0:0:0:
272,149,92110,2,0,P|271:112|259:77,1,71.9999978027344,8|0,0:0|0:0,0:0:0:0:
129,88,92282,2,0,B|57:94|32:27|32:27|97:34,1,180.000006866455,0|0,0:0|0:0,0:0:0:0:
363,53,92627,6,0,P|403:51|437:65,1,71.9999978027344,2|0,0:0|0:0,0:0:0:0:
375,212,92800,2,0,B|395:325|395:325|431:267,1,167.999994873047,8|0,0:0|0:0,0:0:0:0:
231,184,93144,6,0,P|190:165|136:175,1,71.9999978027344,0|0,0:0|0:0,0:0:0:0:
61,218,93317,2,0,P|37:280|83:249,1,167.999994873047,2|8,0:0|0:0,0:0:0:0:
307,230,93662,6,0,P|342:227|374:211,1,71.9999978027344,0|0,0:0|0:0,0:0:0:0:
312,125,93834,2,0,B|329:89|316:63|316:63|338:35|338:35|315:-5|315:-5|301:24,1,167.999994873047,0|0,0:0|0:0,0:0:0:0:
51,140,94179,6,0,P|47:186|61:220,1,77.9999964294435,8|0,0:0|0:0,0:0:0:0:
180,236,94351,2,0,P|185:286|170:316,1,77.9999964294435,2|0,0:0|0:0,0:0:0:0:
177,148,94524,2,0,B|121:163|102:114|139:75|205:102|205:102|250:125|324:89,1,270.000010299683,2|0,0:0|0:0,0:0:0:0:
394,90,94869,6,0,L|440:94,7,45.0000017166138,8|0|0|0|0|0|0|0,0:0|0:0|0:0|0:0|0:0|0:0|0:0|0:0,0:0:0:0:
497,152,95213,2,0,P|506:200|495:239,1,77.9999964294435,0|0,0:0|0:0,0:0:0:0:
472,301,95385,2,0,P|434:332|395:342,1,77.9999964294435,2|0,0:0|0:0,0:0:0:0:
388,239,95558,6,0,B|291:175|274:239|274:239|334:266|349:142,1,270.000010299683,8|0,0:0|0:0,0:0:0:0:
201,101,95903,2,0,P|144:97|177:147,1,143.999995605469,0|2,0:0|0:0,0:0:0:0:
347,155,96162,1,0,0:0:0:0:
347,155,96248,6,0,B|383:133|413:147|413:147|440:117|440:117|481:149|531:119,1,180,8|0,0:0|0:0,0:0:0:0:
371,58,96593,2,0,P|334:46|293:50,1,71.9999978027344,0|0,0:0|0:0,0:0:0:0:
176,147,96765,2,0,P|140:148|106:136,1,71.9999978027344,2|0,0:0|0:0,0:0:0:0:
153,47,96938,2,0,B|151:151|151:151|101:217,1,180.000006866455,8|2,0:0|0:0,0:0:0:0:
272,238,97282,6,0,P|332:226|401:246,1,120,2|0,0:0|0:0,0:0:0:0:
285,343,97627,2,0,P|240:347|199:332,1,71.9999978027344,8|0,0:0|0:0,0:0:0:0:
105,211,97800,2,0,B|13:257|13:257|73:268,1,155.999992858887,0|0,0:0|0:0,0:0:0:0:
252,113,98144,6,0,P|254:74|240:34,1,71.9999978027344,2|0,0:0|0:0,0:0:0:0:
65,266,98317,2,0,B|33:317|66:376|66:376|106:340|83:304,1,180.000006866455,8|0,0:0|0:0,0:0:0:0:
285,343,98662,6,0,L|377:327,1,71.9999978027344,0|0,0:0|0:0,0:0:0:0:
347,155,98834,2,0,B|367:39|367:39|406:123,1,167.999994873047,2|8,0:0|0:0,0:0:0:0:
435,272,99179,6,0,P|451:313|449:371,1,71.9999978027344,0|0,0:0|0:0,0:0:0:0:
254,269,99351,2,0,B|202:240|202:240|157:245|157:245|92:202,1,167.999994873047,0|2,0:0|0:0,0:0:0:0:
244,42,99696,6,0,L|326:30,1,71.9999978027344,8|0,0:0|0:0,0:0:0:0:
418,165,99869,2,0,L|347:155,1,71.9999978027344,2|0,0:0|0:0,0:0:0:0:
176,147,100041,2,0,B|144:127|104:137|104:137|75:105|75:105|40:126|-10:123,1,180.000006866455,2|0,0:0|0:0,0:0:0:0:
153,307,100386,5,8,0:0:0:0:
153,307,100472,1,0,0:0:0:0:
153,307,100558,2,0,P|190:336|224:338,1,71.9999978027344,0|0,0:0|0:0,0:0:0:0:
376,308,100731,5,0,0:0:0:0:
376,308,100817,1,0,0:0:0:0:
376,308,100903,2,0,P|419:290|438:262,1,71.9999978027344,2|0,0:0|0:0,0:0:0:0:
359,224,101075,6,0,P|345:180|347:152,1,71.9999978027344,8|0,0:0|0:0,0:0:0:0:
439,120,101248,2,0,P|439:84|426:50,1,71.9999978027344,0|0,0:0|0:0,0:0:0:0:
252,113,101420,2,0,B|210:93|144:119|144:119|99:140|73:106|82:61|109:45|159:51|159:102,1,270.000010299683,0|0,0:0|0:0,0:0:0:0:
212,215,101765,5,8,0:0:0:0:
212,215,101851,1,0,0:0:0:0:
212,215,101938,2,0,P|222:259|217:294,1,71.9999978027344,0|0,0:0|0:0,0:0:0:0:
19,141,102110,5,0,0:0:0:0:
19,141,102196,1,0,0:0:0:0:
19,141,102283,2,0,P|9:97|14:62,1,71.9999978027344,2|0,0:0|0:0,0:0:0:0:
252,113,102455,6,0,B|300:96|334:117|334:117|365:88|365:88|392:119|416:114|416:114,1,180,8|0,0:0|0:0,0:0:0:0:
409,114,102800,1,2,0:0:0:0:
376,308,103144,6,0,P|336:326|269:325,1,71.9999978027344,8|0,0:0|0:0,0:0:0:0:
212,215,103317,2,0,B|92:248|92:248|153:278,1,180.000006866455,0|0,0:0|0:0,0:0:0:0:
354,160,103662,6,0,P|364:117|357:66,1,71.9999978027344,2|0,0:0|0:0,0:0:0:0:
153,79,103834,2,0,P|123:43|207:56,1,180.000006866455,8|0,0:0|0:0,0:0:0:0:
254,269,104179,6,0,L|254:376,1,71.9999978027344,0|0,0:0|0:0,0:0:0:0:
97,250,104351,2,0,B|-10:184|-10:184|53:164,1,180.000006866455,2|8,0:0|0:0,0:0:0:0:
284,172,104696,6,0,P|328:158|365:163,1,71.9999978027344,0|0,0:0|0:0,0:0:0:0:
388,239,104869,2,0,B|466:272|497:212|497:212|448:187|420:216,1,180.000006866455,0|2,0:0|0:0,0:0:0:0:
215,195,105213,6,0,B|148:176|148:176|102:185|102:185|25:163,1,180,8|0,0:0|0:0,0:0:0:0:
143,47,105558,5,0,0:0:0:0:
143,47,105644,1,0,0:0:0:0:
143,47,105731,2,0,P|184:25|219:22,1,71.9999978027344,2|0,0:0|0:0,0:0:0:0:
287,134,105903,5,8,0:0:0:0:
287,134,105989,1,0,0:0:0:0:
287,134,106076,2,0,P|328:156|363:159,1,71.9999978027344,0|0,0:0|0:0,0:0:0:0:
444,131,106248,5,2,0:0:0:0:
444,131,106334,1,0,0:0:0:0:
444,131,106421,2,0,P|450:177|441:210,1,71.9999978027344,2|0,0:0|0:0,0:0:0:0:
225,205,106593,5,8,0:0:0:0:
225,205,106679,1,0,0:0:0:0:
225,205,106766,2,0,P|218:251|227:284,1,71.9999978027344,2|0,0:0|0:0,0:0:0:0:
322,241,106938,6,0,L|411:251,1,71.9999978027344,2|0,0:0|0:0,0:0:0:0:
254,341,107110,6,0,L|165:351,1,71.9999978027344,2|0,0:0|0:0,0:0:0:0:
131,265,107282,6,0,P|65:252|8:294,1,120,8|2,0:0|0:0,0:0:0:0:
83,334,107627,6,0,B|123:223|50:219|88:117,1,210,8|0,3:0|0:0,0:0:0:0:
181,170,108317,6,0,P|290:105|165:110,1,315.000012016297,2|0,0:0|0:0,0:0:0:0:
153,264,109007,5,8,0:0:0:0:
153,264,109093,1,0,2:0:0:0:
153,264,109179,2,0,P|202:276|245:270,1,71.9999978027344,0|0,2:0|2:0,0:0:0:0:
380,264,109351,6,0,P|331:276|288:270,1,71.9999978027344,0|0,2:0|2:0,0:0:0:0:
200,151,109524,5,2,0:0:0:0:
200,151,109610,1,0,2:0:0:0:
200,151,109696,2,0,P|179:104|178:61,1,71.9999978027344,0|0,2:0|2:0,0:0:0:0:
317,80,109869,6,0,P|337:33|338:-9,1,71.9999978027344,0|0,2:0|2:0,0:0:0:0:
84,128,110041,5,2,0:0:0:0:
84,128,110127,1,0,2:0:0:0:
84,128,110213,2,0,P|63:174|62:217,1,71.9999978027344,0|0,2:0|2:0,0:0:0:0:
226,232,110386,6,0,B|335:209|348:386|479:309|453:188|385:176|327:198|335:254,1,336,8|0,2:0|0:0,0:0:0:0:
242,334,111075,6,0,B|85:348|85:348|131:301,1,215.999993408203,2|0,0:0|0:0,0:0:0:0:
226,232,111420,6,0,B|290:149|221:99|221:99|182:148|222:183,1,215.999993408203,0|0,0:0|0:0,0:0:0:0:
97,250,111765,6,0,B|69:182|69:182|82:127|82:127|54:52,1,210,8|0,0:0|0:0,0:0:0:0:
178,19,112455,6,0,B|206:94|206:94|193:149|193:149|227:234,1,225.000008583069,2|0,0:0|0:0,0:0:0:0:
338,295,112972,6,0,L|338:199,1,69.0000013160706,2|2,0:0|0:0,0:0:0:0:
336,64,113144,2,0,L|336:176,1,90.0000034332277,8|2,0:0|0:0,0:0:0:0:
225,300,113489,6,0,L|225:204,1,69.0000013160706,8|0,0:0|0:0,0:0:0:0:
97,319,113662,6,0,L|97:223,1,69.0000013160706,0|0,0:0|0:0,0:0:0:0:
155,130,113834,6,0,P|127:16|85:129,1,315.000012016297,2|0,0:0|0:0,0:0:0:0:
267,229,114524,5,8,0:0:0:0:
267,229,114610,1,0,2:0:0:0:
267,229,114696,2,0,P|316:231|353:218,1,71.9999978027344,0|0,2:0|2:0,0:0:0:0:
351,102,114869,6,0,P|400:100|437:113,1,71.9999978027344,0|0,2:0|2:0,0:0:0:0:
433,270,115041,5,2,0:0:0:0:
433,270,115127,1,0,2:0:0:0:
433,270,115213,2,0,P|426:318|407:352,1,71.9999978027344,0|0,2:0|2:0,0:0:0:0:
171,199,115386,6,0,P|157:165|154:129,1,71.9999978027344,0|0,2:0|2:0,0:0:0:0:
491,157,115558,5,2,0:0:0:0:
491,157,115644,1,0,2:0:0:0:
491,157,115731,2,0,P|504:123|507:87,1,71.9999978027344,0|0,2:0|2:0,0:0:0:0:
173,49,115903,6,0,B|64:26|51:203|-80:126|-54:5|14:-7|72:15|64:71,1,336,8|0,2:0|0:0,0:0:0:0:
159,146,116593,6,0,B|136:280|136:280|85:238,1,180,2|0,0:0|0:0,0:0:0:0:
44,179,116938,2,0,B|108:145|156:181|156:181|206:156|206:156|234:178|283:177,1,215.999993408203,0|0,0:0|0:0,0:0:0:0:
322,293,117282,6,0,P|399:293|441:260,1,120,8|0,0:2|0:2,0:0:0:0:
351,102,117627,2,0,P|299:73|240:78,1,120,0|0,0:2|0:2,0:0:0:0:
256,243,117972,6,0,P|242:281|243:315,1,71.9999978027344,8|0,0:0|0:0,0:0:0:0:
364,171,118144,2,0,P|363:135|350:101,1,71.9999978027344,2|0,0:0|0:0,0:0:0:0:
234,257,118317,6,0,P|214:310|216:358,1,71.9999978027344,2|0,0:0|0:0,0:0:0:0:
385,156,118489,2,0,P|385:106|366:59,1,71.9999978027344,8|0,0:0|0:0,0:0:0:0:
240,78,118662,6,0,L|169:90,3,71.9999978027344,2|0|2|0,0:0|0:0|0:0|0:0,0:0:0:0:
92,87,119007,2,0,L|36:74,7,41.9999987182618,8|0|2|0|2|0|2|0,0:0|0:0|0:0|0:0|0:0|0:0|0:0|0:0,0:0:0:0:
44,179,119351,2,0,P|16:280|102:192,1,315.000012016297,2|0,0:0|0:0,0:0:0:0:
282,123,120041,5,8,0:0:0:0:
282,123,120127,1,0,2:0:0:0:
282,123,120213,2,0,P|326:104|369:103,1,71.9999978027344,0|0,2:0|2:0,0:0:0:0:
302,278,120386,6,0,P|266:272|234:256,1,71.9999978027344,2|0,0:0|2:0,0:0:0:0:
124,149,120558,5,8,0:0:0:0:
124,149,120644,1,0,2:0:0:0:
124,149,120730,2,0,P|97:108|89:66,1,71.9999978027344,0|0,2:0|2:0,0:0:0:0:
397,285,120903,6,0,P|385:318|364:347,1,71.9999978027344,2|0,0:0|2:0,0:0:0:0:
222,145,121075,6,0,B|175:100|209:45|209:45|246:69|241:97,1,155.999992858887,8|2,0:0|0:0,0:0:0:0:
413,173,121420,2,0,P|483:125|412:114,1,180.000006866455,2|2,0:0|0:0,0:0:0:0:
288,202,121765,6,0,L|191:214,1,60,0|2,0:0|0:0,0:0:0:0:
150,219,121938,2,0,L|53:231,1,60,0|0,0:0|0:0,0:0:0:0:
239,77,122110,2,0,B|300:71|300:71|327:83|327:83|395:76,1,135.000005149841,2|0,0:0|0:0,0:0:0:0:
328,221,122455,6,0,B|371:336|371:336|406:264,1,180,0|0,0:0|0:0,0:0:0:0:
159,101,122800,6,0,P|121:85|84:87,1,71.9999978027344,8|0,0:0|0:0,0:0:0:0:
166,241,122972,2,0,P|204:257|241:255,1,71.9999978027344,0|0,0:0|0:0,0:0:0:0:
142,82,123144,6,0,P|90:70|43:81,1,71.9999978027344,0|0,0:0|0:0,0:0:0:0:
182,259,123316,2,0,P|234:271|281:260,1,71.9999978027344,0|0,0:0|0:0,0:0:0:0:
315,159,123489,6,0,B|359:78|399:54|486:70|525:145|461:205|416:191|398:156,1,300,2|0,0:0|0:0,0:0:0:0:
396,284,124007,6,0,P|396:325|411:358,1,71.9999978027344,2|2,0:0|0:0,0:0:0:0:
493,301,124179,2,0,B|516:241|516:241|494:182,1,120,8|2,0:0|0:0,0:0:0:0:
315,159,124524,6,0,L|225:136,1,71.9999978027344,8|0,0:0|0:0,0:0:0:0:
141,53,124696,2,0,L|71:70,1,71.9999978027344,0|0,0:0|0:0,0:0:0:0:
150,219,124869,2,0,P|126:311|80:186,1,315.000012016297,2|0,0:0|0:0,0:0:0:0:
210,117,125558,5,8,0:0:0:0:
210,117,125644,1,0,2:0:0:0:
210,117,125731,2,0,P|215:71|204:35,1,71.9999978027344,0|0,2:0|2:0,0:0:0:0:
54,125,125903,6,0,P|47:160|53:195,1,71.9999978027344,2|0,0:0|2:0,0:0:0:0:
326,273,126075,5,8,0:0:0:0:
326,273,126161,1,0,2:0:0:0:
326,273,126248,2,0,P|370:285|407:281,1,71.9999978027344,0|0,2:0|2:0,0:0:0:0:
370,78,126420,6,0,P|325:65|288:69,1,71.9999978027344,2|0,0:0|2:0,0:0:0:0:
98,259,126593,5,8,0:0:0:0:
98,259,126679,1,0,2:0:0:0:
98,259,126766,2,0,P|93:305|104:341,1,71.9999978027344,2|0,0:0|2:0,0:0:0:0:
191,294,126938,6,0,B|249:275|265:212|265:212|278:277|326:295|326:295|377:289|417:255|409:198|356:171|330:204|330:245,1,431.999986816407,2|2,0:0|0:0,0:0:0:0:
160,194,127800,5,2,0:0:0:0:
160,194,127886,1,0,0:0:0:0:
160,194,127972,1,2,0:0:0:0:
239,77,128144,5,2,0:0:0:0:
239,77,128230,1,0,0:0:0:0:
239,77,128316,1,2,0:0:0:0:
411,172,128489,5,2,0:0:0:0:
411,172,128575,1,0,0:0:0:0:
411,172,128661,1,2,0:0:0:0:
135,82,128834,5,2,0:0:0:0:
135,82,128920,1,0,0:0:0:0:
135,82,129007,2,0,P|119:118|119:160,1,71.9999978027344,2|2,0:0|0:0,0:0:0:0:
132,254,129179,5,2,0:0:0:0:
132,254,129265,1,2,0:0:0:0:
132,254,129352,2,0,P|160:281|199:295,1,71.9999978027344,2|2,0:0|0:0,0:0:0:0:
325,294,129524,6,0,P|357:279|383:254,1,71.9999978027344,2|2,0:0|0:0,0:0:0:0:
310,138,129696,2,0,L|299:62,1,71.9999978027344,2|2,0:0|0:0,0:0:0:0:
200,222,129869,2,0,L|189:293,1,71.9999978027344,2|2,0:0|0:0,0:0:0:0:
326,125,130041,2,0,L|312:26,1,71.9999978027344,8|8,0:3|0:3,0:0:0:0:
183,234,130214,2,0,L|170:327,1,71.9999978027344,4|4,0:3|0:3,0:0:0:0:
256,192,130386,6,0,B|304:30|461:-65|630:47|746:32|746:32|642:86|572:277|389:291|256:192|256:192|422:185|557:307|506:503|556:608|556:608|474:527|272:520|200:350|256:192|256:192|307:349|233:519|30:526|-49:608|-49:608|-2:503|-56:310|83:188|256:192|256:192|116:288|-65:273|-138:84|-237:29|-237:29|-125:46|42:-67|203:29|256:192|256:192|116:91|74:-88|232:-215|257:-322|257:-322|272:-214|431:-87|391:91|256:192,1,5760,6|6,0:0|0:0,0:0:0:0:
80,256,141420,6,0,B|109:213|169:215|210:254|210:254|190:224|171:167|223:102|293:117|306:176|275:207|275:207|310:217|329:258|329:258|383:212|377:132|319:84|319:84|391:115|464:80|464:80|417:10|352:32,1,930,6|8,0:0|0:0,0:0:0:0:
309,19,144178,6,0,B|265:36|245:106|245:106|242:214|365:189|346:59|246:106|246:106|168:124|195:211|195:211|259:244|226:348|151:319|151:319|98:288|32:280|24:356|24:356|86:397|113:325,1,930,0|0,0:0|0:0,0:0:0:0:
173,269,146937,6,0,L|270:245,1,90.0000034332277,2|2,0:0|0:0,0:0:0:0:
355,219,147282,6,0,L|452:195,1,90.0000034332277,2|2,0:0|0:0,0:0:0:0:
285,131,147626,6,0,L|188:107,1,90.0000034332277,2|2,0:0|0:0,0:0:0:0:
103,81,147971,6,0,L|6:57,1,90.0000034332277,2|2,0:0|0:0,0:0:0:0:
79,199,148316,5,2,0:0:0:0:
72,241,148488,1,2,0:0:0:0:
104,269,148661,1,2,0:0:0:0:
145,254,148833,1,2,0:0:0:0:
153,212,149006,1,2,0:0:0:0:
121,184,149178,1,2,0:0:0:0:
48,252,149351,6,0,P|47:302|66:344,1,90.0000034332277,2|2,0:0|0:0,0:0:0:0:
158,275,149695,6,0,L|183:334,3,60,2|2|2|2,0:0|0:0|0:0|0:0,0:0:0:0:
259,283,150040,6,0,L|310:321,3,60,2|2|2|2,0:0|0:0|0:0|0:0,0:0:0:0:
337,233,150385,6,0,L|400:240,3,60,2|2|2|2,0:0|0:0|0:0|0:0,0:0:0:0:
376,151,150730,6,0,L|434:126,3,60,2|2|2|2,0:0|0:0|0:0|0:0,0:0:0:0:
362,65,151075,6,0,L|397:14,7,45.0000017166138,2|2|2|2|2|2|2|0,0:0|0:0|0:0|0:0|0:0|0:0|0:0|0:0,0:0:0:0:
283,35,151420,6,0,L|224:10,5,60,2|0|0|2|0|0,0:0|0:0|0:0|0:0|0:0|0:0,0:0:0:0:
219,103,151764,6,0,L|198:178,3,60,2|0|0|0,0:0|0:0|0:0|0:0,0:0:0:0:
122,217,152109,6,0,L|141:286,3,45.0000017166138,0|0|0|0,0:0|0:0|0:0|0:0,0:0:0:0:
181,330,152454,6,0,B|267:315|267:315|310:330|310:330|390:313,1,210,2|0,0:0|0:0,0:0:0:0:
318,237,153144,6,0,B|349:190|325:141|325:142|257:92|256:30|307:-2|375:-11|419:-7|428:106|406:127|345:138,1,377.999988464356,8|0,0:2|0:0,0:0:0:0:
233,189,153833,6,0,B|126:138|126:138|200:118,1,179.999994506836,2|0,0:0|0:0,0:0:0:0:
340,185,154351,6,0,B|447:134|447:134|373:114,1,179.999994506836,2|0,0:0|0:0,0:0:0:0:
225,51,154868,6,0,B|183:33|146:55|146:55|106:20|106:20|53:48|12:30,1,210,2|0,0:0|0:0,0:0:0:0:
80,141,155557,6,0,P|77:178|88:205,1,60,0|0,0:0|0:0,0:0:0:0:
80,141,155730,6,0,P|83:177|98:202,1,60,0|0,0:0|0:0,0:0:0:0:
80,141,155902,6,0,P|89:176|109:198,1,60,0|0,0:0|0:0,0:0:0:0:
80,141,156075,6,0,P|95:174|118:192,1,60,0|0,0:0|0:0,0:0:0:0:
194,236,156247,6,0,L|247:257,3,45.0000017166138,0|0|0|0,0:0|0:0|0:0|0:0,0:0:0:0:
285,131,156592,6,0,P|332:65|411:177,1,240,2|0,0:0|0:0,0:0:0:0:
215,130,157109,6,0,P|263:54|342:166,1,269.999991760254,2|0,0:0|0:0,0:0:0:0:
146,102,157626,6,0,P|197:35|276:147,1,251.999992309571,2|0,0:0|0:0,0:0:0:0:
215,199,158316,6,0,P|272:233|334:221,1,107.999996704102,0|0,0:0|0:0,0:0:0:0:
394,198,158488,2,0,B|411:286|411:286|358:261,1,107.999996704102,0|0,0:0|0:0,0:0:0:0:
284,130,158661,2,0,B|322:38|322:38|363:103,1,143.999995605469,0|0,0:0|0:0,0:0:0:0:
307,231,159006,2,0,B|256:245|224:216|224:216|187:241|187:241|120:217,1,180,0|0,0:0|0:0,0:0:0:0:
26,151,159351,6,0,P|32:72|147:115,1,240,2|0,0:0|0:0,0:0:0:0:
82,118,159868,6,0,P|88:39|185:146,1,300,2|0,0:0|0:0,0:0:0:0:
146,111,160385,6,0,P|152:32|281:77,1,251.999992309571,2|0,0:0|0:0,0:0:0:0:
354,117,161075,6,0,P|380:143|395:169,3,60,0|0|0|0,0:0|0:0|0:0|0:0,0:0:0:0:
392,255,161420,6,0,P|375:280|353:300,3,60,0|0|2|0,0:0|0:0|0:0|0:0,0:0:0:0:
286,212,161764,6,0,L|214:218,1,60,8|0,0:0|0:0,0:0:0:0:
181,330,161937,2,0,L|121:325,1,60,0|0,0:0|0:0,0:0:0:0:
110,199,162109,2,0,B|63:113|113:57|113:57|159:116|153:158,1,215.999993408203,2|0,0:0|0:0,0:0:0:0:
231,122,162454,2,0,B|328:86|328:86|266:59,1,155.999992858887,8|0,0:0|0:0,0:0:0:0:
48,252,162799,2,0,L|33:361,1,90.0000034332277,0|2,0:0|0:0,0:0:0:0:
247,318,163144,5,8,0:0:0:0:
353,300,163316,1,0,0:0:0:0:
459,283,163488,1,0,0:0:0:0:
141,335,163661,5,0,0:0:0:0:
247,317,163833,1,8,0:0:0:0:
353,300,164005,1,0,0:0:0:0:
297,183,164178,6,0,L|278:55,1,120,2|0,0:0|0:0,0:0:0:0:
216,217,164523,5,8,0:0:0:0:
110,199,164695,1,0,0:0:0:0:
4,182,164867,1,2,0:0:0:0:
322,234,165040,5,0,0:0:0:0:
216,216,165212,1,8,0:0:0:0:
110,199,165384,1,0,0:0:0:0:
392,162,165557,6,0,L|411:34,1,120,2|0,0:0|0:0,0:0:0:0:
216,47,165902,1,8,0:0:0:0:
131,132,166075,1,0,0:0:0:0:
216,216,166247,1,2,0:0:0:0:
131,132,166420,5,0,0:0:0:0:
46,217,166593,1,8,0:0:0:0:
131,301,166765,1,0,0:0:0:0:
392,255,166937,6,0,L|534:229,1,120,2|0,0:0|0:0,0:0:0:0:
322,234,167282,1,8,0:0:0:0:
241,145,167454,1,0,0:0:0:0:
324,61,167626,1,2,0:0:0:0:
239,318,167799,5,0,0:0:0:0:
158,229,167971,1,8,0:0:0:0:
241,145,168143,1,0,0:0:0:0:
118,61,168316,6,0,L|-24:35,1,120,2|0,0:0|0:0,0:0:0:0:
131,301,168661,5,8,1:1:0:0:
325,85,168833,1,2,1:0:0:0:
307,272,169006,5,8,0:0:0:0:
216,47,169178,1,2,0:0:0:0:
179,346,169351,5,8,0:0:0:0:
118,61,169523,1,2,0:0:0:0:
131,301,169695,5,8,0:0:0:0:
230,53,169867,1,2,0:0:0:0:
342,305,170040,5,8,0:0:0:0:
148,89,170212,1,2,0:0:0:0:
179,346,170385,5,8,0:0:0:0:
309,22,170557,1,2,0:0:0:0:
346,342,170730,5,8,0:0:0:0:
230,53,170902,1,2,0:0:0:0:
239,318,171075,5,8,0:0:0:0:
429,72,171247,1,2,0:0:0:0:
392,255,171420,6,0,L|356:306,3,48,8|0|2|0,0:0|0:0|0:0|0:0,0:0:0:0:
308,228,171764,6,0,L|280:188,3,48,8|2|2|0,0:0|0:0|0:0|0:0,0:0:0:0:
204,231,172109,6,0,L|159:212,3,48,8|2|2|0,0:0|0:0|0:0|0:0,0:0:0:0:
209,134,172454,6,0,L|197:52,7,48,2|2|2|2|2|2|2|2,0:0|0:0|0:0|0:0|0:0|0:0|0:0|0:0,0:0:0:0:
289,76,172799,6,0,L|301:-6,8,48,2|2|2|2|2|2|2|2|2,0:0|0:0|0:0|0:0|0:0|0:0|0:0|0:0|0:0,0:0:0:0:
392,162,173833,6,0,P|402:197|402:225,1,60,0|0,0:0|0:0,0:0:0:0:
395,186,173920,6,0,P|398:222|394:249,1,60,0|0,0:0|0:0,0:0:0:0:
394,210,174006,6,0,P|391:246|381:272,1,60,2|0,0:0|0:0,0:0:0:0:
388,234,174092,6,0,P|379:269|365:293,1,60,0|0,0:0|0:0,0:0:0:0:
379,256,174178,6,0,P|364:289|346:311,1,60,8|8,0:3|0:3,0:0:0:0:
261,331,174351,6,0,P|225:334|198:330,1,60,4|4,0:3|0:3,0:0:0:0:
230,228,174523,5,6,0:0:0:0:
230,228,174609,1,0,0:0:0:0:
230,228,174695,2,0,P|230:181|218:151,1,71.9999978027344,0|0,0:0|0:0,0:0:0:0:
109,131,174868,5,2,0:0:0:0:
109,131,174954,1,0,0:0:0:0:
109,131,175040,2,0,P|109:84|121:54,1,71.9999978027344,0|0,0:0|0:0,0:0:0:0:
289,76,175213,6,0,L|379:52,1,71.9999978027344,0|0,0:0|0:0,0:0:0:0:
461,180,175385,6,0,L|371:156,1,71.9999978027344,0|0,0:0|0:0,0:0:0:0:
266,302,175557,5,2,0:0:0:0:
266,302,175643,1,0,0:0:0:0:
266,302,175729,2,0,P|225:325|193:330,1,71.9999978027344,0|0,0:0|0:0,0:0:0:0:
42,241,175902,5,0,0:0:0:0:
42,241,175988,1,0,0:0:0:0:
42,241,176074,2,0,P|11:204|1:174,1,71.9999978027344,0|0,0:0|0:0,0:0:0:0:
285,146,176247,6,0,P|293:99|286:68,1,71.9999978027344,2|0,0:0|0:0,0:0:0:0:
131,301,176420,2,0,P|126:336|135:371,1,71.9999978027344,0|0,0:0|0:0,0:0:0:0:
290,140,176592,6,0,P|299:91|291:57,1,71.9999978027344,2|0,0:0|0:0,0:0:0:0:
125,306,176765,2,0,P|121:344|130:381,1,71.9999978027344,0|0,0:0|0:0,0:0:0:0:
266,302,176937,5,2,0:0:0:0:
300,272,177023,1,0,0:0:0:0:
343,261,177109,1,0,0:0:0:0:
387,270,177195,1,0,0:0:0:0:
428,292,177282,6,0,P|457:256|465:222,1,71.9999978027344,2|0,0:0|0:0,0:0:0:0:
456,125,177454,6,0,P|444:91|420:65,1,71.9999978027344,0|0,0:0|0:0,0:0:0:0:
285,146,177626,5,2,0:0:0:0:
285,146,177713,1,0,0:0:0:0:
285,146,177799,2,0,P|241:143|205:125,1,71.9999978027344,0|0,0:0|0:0,0:0:0:0:
117,60,177971,5,0,0:0:0:0:
117,60,178058,1,0,0:0:0:0:
117,60,178144,2,0,P|73:63|37:81,1,71.9999978027344,0|0,0:0|0:0,0:0:0:0:
117,230,178316,6,0,L|133:315,1,71.9999978027344,2|0,0:0|0:0,0:0:0:0:
271,216,178488,6,0,L|284:145,1,71.9999978027344,0|0,0:0|0:0,0:0:0:0:
350,51,178661,5,0,0:0:0:0:
350,51,178748,1,0,0:0:0:0:
350,51,178834,2,0,P|394:54|430:72,1,71.9999978027344,0|0,0:0|0:0,0:0:0:0:
396,228,179006,6,0,P|415:276|444:307,1,71.9999978027344,2|0,0:0|0:0,0:0:0:0:
512,63,179178,6,0,P|493:15|464:-16,1,71.9999978027344,0|0,0:0|0:0,0:0:0:0:
271,216,179351,6,0,P|224:218|180:200,1,71.9999978027344,2|0,0:0|0:0,0:0:0:0:
73,177,179523,6,0,P|37:173|2:181,1,71.9999978027344,0|0,0:0|0:0,0:0:0:0:
45,273,179695,6,0,L|62:332,7,53.9999983520508,2|0|0|0|0|0|0|0,0:0|0:0|0:0|0:0|0:0|0:0|0:0|0:0,0:0:0:0:
150,354,180040,6,0,L|245:324,1,71.9999978027344,2|0,0:0|0:0,0:0:0:0:
271,216,180213,6,0,L|339:237,1,71.9999978027344,0|0,0:0|0:0,0:0:0:0:
459,299,180385,5,2,0:0:0:0:
459,299,180471,1,0,0:0:0:0:
459,299,180557,2,0,P|470:245|464:190,1,71.9999978027344,0|0,0:0|0:0,0:0:0:0:
342,123,180730,5,0,0:0:0:0:
342,123,180816,1,0,0:0:0:0:
342,123,180902,2,0,P|307:79|261:49,1,71.9999978027344,0|0,0:0|0:0,0:0:0:0:
198,148,181075,5,2,0:0:0:0:
163,167,181161,1,0,0:0:0:0:
135,195,181247,1,0,0:0:0:0:
117,230,181333,1,0,0:0:0:0:
104,268,181420,6,0,P|75:290|35:295,1,71.9999978027344,0|0,0:0|0:0,0:0:0:0:
52,147,181592,6,0,L|43:53,1,71.9999978027344,0|0,0:0|0:0,0:0:0:0:
271,216,181764,6,0,L|264:287,1,71.9999978027344,2|0,0:0|0:0,0:0:0:0:
202,86,181937,5,0,0:0:0:0:
202,86,182023,1,0,0:0:0:0:
202,86,182109,2,0,P|190:38|198:-4,1,71.9999978027344,2|0,0:0|0:0,0:0:0:0:
442,72,182282,5,0,0:0:0:0:
442,72,182368,1,0,0:0:0:0:
442,72,182454,2,0,P|490:60|532:68,1,71.9999978027344,2|0,0:0|0:0,0:0:0:0:
409,227,182626,6,0,P|361:239|319:231,1,71.9999978027344,0|0,0:0|0:0,0:0:0:0:
127,201,182799,6,0,P|108:235|107:288,1,71.9999978027344,2|0,0:0|0:0,0:0:0:0:
342,123,182971,6,0,P|336:87|318:56,1,71.9999978027344,0|0,0:0|0:0,0:0:0:0:
202,86,183144,6,0,P|164:79|122:54,7,53.9999983520508,2|0|0|0|0|0|0|0,0:0|0:0|0:0|0:0|0:0|0:0|0:0|0:0,0:0:0:0:
413,140,183488,6,0,P|457:146|488:164,1,71.9999978027344,2|0,0:0|0:0,0:0:0:0:
339,237,183661,6,0,P|340:281|328:315,1,71.9999978027344,0|0,0:0|0:0,0:0:0:0:
195,222,183833,5,2,0:0:0:0:
195,222,183920,1,0,0:0:0:0:
195,222,184006,2,0,P|150:204|104:201,1,71.9999978027344,0|0,0:0|0:0,0:0:0:0:
44,145,184178,5,0,0:0:0:0:
44,145,184265,1,0,0:0:0:0:
44,145,184351,2,0,P|42:96|55:52,1,71.9999978027344,0|0,0:0|0:0,0:0:0:0:
240,31,184523,6,0,B|290:-9|353:12|353:12|350:49|313:57,1,180.000006866455,2|0,0:0|0:0,0:0:0:0:
195,222,184868,6,0,L|204:297,1,71.9999978027344,2|0,0:0|0:0,0:0:0:0:
339,237,185040,6,0,L|347:165,1,71.9999978027344,0|0,0:0|0:0,0:0:0:0:
150,73,185213,5,0,0:0:0:0:
150,73,185299,1,0,0:0:0:0:
150,73,185385,2,0,P|103:55|61:53,1,71.9999978027344,0|0,0:0|0:0,0:0:0:0:
132,297,185557,5,6,0:0:0:0:
132,297,185643,1,0,0:0:0:0:
132,297,185729,2,0,P|182:297|222:285,1,71.9999978027344,0|0,0:0|0:0,0:0:0:0:
277,201,185902,5,8,0:0:0:0:
310,180,185988,1,0,0:0:0:0:
347,165,186074,1,0,0:0:0:0:
386,158,186160,1,0,0:0:0:0:
427,171,186247,6,0,P|451:145|459:111,1,71.9999978027344,0|0,0:0|0:0,0:0:0:0:
159,139,186420,6,0,P|134:165|126:199,1,71.9999978027344,0|0,0:0|0:0,0:0:0:0:
339,237,186592,6,0,L|415:259,1,71.9999978027344,8|0,0:0|0:0,0:0:0:0:
132,297,186764,6,0,L|56:319,1,71.9999978027344,0|0,0:0|0:0,0:0:0:0:
155,143,186937,5,0,0:0:0:0:
155,143,187023,1,0,0:0:0:0:
155,143,187109,2,0,P|156:95|142:55,1,71.9999978027344,0|0,0:0|0:0,0:0:0:0:
318,55,187282,6,0,P|357:44|413:47,1,71.9999978027344,8|0,0:0|0:0,0:0:0:0:
427,171,187454,6,0,P|444:207|451:263,1,71.9999978027344,0|0,0:0|0:0,0:0:0:0:
272,305,187626,5,2,0:0:0:0:
272,305,187713,1,0,0:0:0:0:
272,305,187799,2,0,P|219:301|187:280,1,71.9999978027344,0|0,0:0|0:0,0:0:0:0:
113,132,187971,5,8,0:0:0:0:
113,132,188058,1,0,0:0:0:0:
113,132,188144,2,0,P|60:136|28:157,1,71.9999978027344,0|0,0:0|0:0,0:0:0:0:
270,192,188316,5,2,0:0:0:0:
312,180,188402,1,0,0:0:0:0:
345,152,188488,1,0,0:0:0:0:
363,112,188574,1,0,0:0:0:0:
379,78,188661,6,0,P|409:62|456:57,1,71.9999978027344,8|0,0:0|0:0,0:0:0:0:
339,326,188833,6,0,P|303:320|271:304,1,71.9999978027344,0|0,0:0|0:0,0:0:0:0:
171,223,189006,6,0,L|96:199,1,71.9999978027344,0|0,0:0|0:0,0:0:0:0:
208,94,189178,5,0,0:0:0:0:
208,94,189264,1,0,0:0:0:0:
208,94,189351,2,0,P|234:53|240:21,1,71.9999978027344,8|0,0:0|0:0,0:0:0:0:
7,206,189523,6,0,P|17:240|38:269,1,71.9999978027344,0|0,0:0|0:0,0:0:0:0:
201,211,189695,6,0,P|239:195|288:192,1,71.9999978027344,0|0,0:0|0:0,0:0:0:0:
382,258,189868,6,0,P|417:252|450:238,1,71.9999978027344,0|0,0:0|0:0,0:0:0:0:
208,94,190040,5,8,0:0:0:0:
162,79,190126,1,0,0:0:0:0:
114,76,190212,1,0,0:0:0:0:
67,86,190298,1,0,0:0:0:0:
37,102,190385,6,0,P|5:135|-6:167,1,71.9999978027344,2|0,0:0|0:0,0:0:0:0:
38,269,190557,6,0,P|53:301|79:325,1,71.9999978027344,2|0,0:0|0:0,0:0:0:0:
219,316,190730,6,0,L|285:301,7,53.9999983520508,8|0|0|0|0|0|0|0,0:0|0:0|0:0|0:0|0:0|0:0|0:0|0:0,0:0:0:0:
405,182,191075,6,0,P|424:134|421:92,1,71.9999978027344,8|0,0:0|0:0,0:0:0:0:
151,155,191247,6,0,P|155:190|170:222,1,71.9999978027344,2|0,0:0|0:0,0:0:0:0:
434,180,191420,6,0,P|457:122|454:71,1,71.9999978027344,8|0,0:0|0:0,0:0:0:0:
130,147,191592,6,0,P|134:190|153:228,1,71.9999978027344,2|0,0:0|0:0,0:0:0:0:
470,177,191764,6,0,P|497:108|493:47,1,71.9999978027344,8|0,0:0|0:0,0:0:0:0:
104,138,191936,6,0,P|110:189|133:236,1,71.9999978027344,2|0,0:0|0:0,0:0:0:0:
277,128,192109,5,8,0:0:0:0:
277,128,192195,1,0,0:0:0:0:
277,128,192282,2,0,P|310:100|355:87,1,71.9999978027344,2|0,0:0|0:0,0:0:0:0:
334,336,192454,5,8,0:0:0:0:
334,336,192540,1,0,0:0:0:0:
334,336,192627,2,0,P|293:321|259:288,1,71.9999978027344,2|0,0:0|0:0,0:0:0:0:
202,203,192799,6,0,P|171:167|130:148,1,71.9999978027344,8|0,0:0|0:0,0:0:0:0:
37,102,192971,6,0,P|45:55|71:18,1,71.9999978027344,2|0,0:0|0:0,0:0:0:0:
216,76,193144,6,0,B|378:37|378:37|327:100,1,233.999989288331,8|0,0:0|0:0,0:0:0:0:
261,171,193488,2,0,B|242:240|299:258|261:326,1,135.000005149841,8|0,0:0|0:0,0:0:0:0:
382,258,193833,6,0,L|478:237,1,66.0000020141602,8|0,0:0|0:0,0:0:0:0:
130,258,194006,6,0,L|34:237,1,66.0000020141602,8|0,0:0|0:0,0:0:0:0:
401,169,194178,6,0,L|516:143,1,66.0000020141602,8|0,0:0|0:0,0:0:0:0:
98,169,194351,6,0,L|-17:143,1,66.0000020141602,8|0,0:0|0:0,0:0:0:0:
411,84,194523,6,0,L|535:56,1,66.0000020141602,8|0,0:0|0:0,0:0:0:0:
83,84,194696,6,0,L|-41:56,1,66.0000020141602,8|0,0:0|0:0,0:0:0:0:
240,98,194868,6,0,L|292:89,7,45.0000017166138,8|0|0|0|8|0|0|0,0:0|0:0|0:0|0:0|0:0|0:0|0:0|0:0,0:0:0:0:
356,161,195213,6,0,L|400:168,7,45.0000017166138,2|0|2|0|2|0|2|0,0:0|0:0|0:0|0:0|0:0|0:0|0:0|0:0,0:0:0:0:
446,243,195557,6,0,L|498:234,7,45.0000017166138,2|0|2|0|2|0|2|0,0:0|0:0|0:0|0:0|0:0|0:0|0:0|0:0,0:0:0:0:
486,316,195902,6,0,B|382:309|345:446|238:396|241:276|309:264|367:286|354:345,1,360.000013732911,2|8,0:1|0:1,0:0:0:0:
130,258,196420,5,2,0:1:0:0:
130,258,196592,2,0,B|114:194|114:194|132:118|132:118|117:41,1,215.999993408203,6|0,0:0|0:0,0:0:0:0:
393,47,196937,5,8,0:0:0:0:
393,47,197109,2,0,B|380:118|380:118|398:194|398:194|382:258,1,215.999993408203,0|2,0:0|0:0,0:0:0:0:
265,262,197454,6,0,P|180:240|105:278,1,143.999995605469,0|8,0:0|0:0,0:0:0:0:
354,343,197799,2,0,L|431:328,1,71.9999978027344,0|0,0:0|0:0,0:0:0:0:
382,257,197971,2,0,B|427:146|427:146|441:214,1,180.000006866455,2|0,0:0|0:0,0:0:0:0:
310,160,198316,6,0,P|283:116|280:83,1,71.9999978027344,8|0,0:0|0:0,0:0:0:0:
420,111,198488,2,0,P|433:35|383:77,1,155.999992858887,0|2,0:0|0:0,0:0:0:0:
207,183,198833,6,0,P|162:194|113:187,1,77.9999964294435,0|0,0:0|0:0,0:0:0:0:
37,110,199006,2,0,B|23:186|23:186|37:228|37:228|23:304,1,180.000006866455,8|0,0:0|0:0,0:0:0:0:
175,281,199351,2,0,B|222:367|319:329|319:329|316:256|263:261,1,270.000010299683,2|0,0:0|0:0,0:0:0:0:
161,115,199695,6,0,L|176:30,1,71.9999978027344,8|0,0:0|0:0,0:0:0:0:
264,261,199868,6,0,L|251:331,1,71.9999978027344,0|0,0:0|0:0,0:0:0:0:
333,111,200040,6,0,L|348:26,1,71.9999978027344,2|0,0:0|0:0,0:0:0:0:
437,258,200213,6,0,L|424:328,1,71.9999978027344,0|0,0:0|0:0,0:0:0:0:
321,195,200385,6,0,P|277:179|211:186,1,71.9999978027344,8|0,0:0|0:0,0:0:0:0:
175,281,200557,6,0,P|139:277|106:263,1,71.9999978027344,0|0,0:0|0:0,0:0:0:0:
114,150,200730,6,0,B|132:43|51:12|51:12|11:71|43:121,1,270.000010299683,2|0,0:0|0:0,0:0:0:0:
19,225,201075,6,0,L|28:302,3,60,8|0|0|0,0:0|0:0|0:0|0:0,0:0:0:0:
106,263,201420,6,0,L|115:340,3,60,2|0|0|0,0:0|0:0|0:0|0:0,0:0:0:0:
229,315,201764,6,0,B|271:346|320:320|320:320|351:348|351:348|394:322|423:328,1,215.999993408203,8|0,0:0|0:0,0:0:0:0:
379,204,202109,2,0,B|397:71|397:71|432:133,1,180.000006866455,2|0,0:0|0:0,0:0:0:0:
492,310,202454,6,0,P|443:328|392:321,1,71.9999978027344,8|0,0:0|0:0,0:0:0:0:
277,261,202626,2,0,B|222:253|222:253|179:262|179:262|99:248,1,143.999995605469,0|2,0:0|0:0,0:0:0:0:
114,150,202971,6,0,L|201:161,1,71.9999978027344,0|0,0:0|0:0,0:0:0:0:
310,160,203144,2,0,B|367:94|336:41|336:41|279:64|272:98,1,180.000006866455,8|0,0:0|0:0,0:0:0:0:
135,254,203488,6,0,P|117:300|124:349,1,71.9999978027344,2|0,0:0|0:0,0:0:0:0:
229,315,203661,2,0,B|357:301|357:301|260:240,1,180.000006866455,0|8,0:0|0:0,0:0:0:0:
114,150,204006,6,0,P|96:104|103:55,1,71.9999978027344,0|0,0:0|0:0,0:0:0:0:
285,71,204178,2,0,B|356:44|356:44|393:56|393:56|461:32,1,180.000006866455,2|0,0:0|0:0,0:0:0:0:
379,204,204523,2,0,P|430:267|429:193,1,180.000006866455,8|0,0:0|0:0,0:0:0:0:
218,120,204868,6,0,B|59:100|59:100|117:153,1,233.999989288331,2|0,0:0|0:0,0:0:0:0:
112,257,205213,2,0,B|159:263|186:236|186:236|233:246|233:246|265:207|323:213,1,215.999993408203,8|0,0:0|0:0,0:0:0:0:
440,259,205557,6,0,L|530:260,1,71.9999978027344,2|0,0:0|0:0,0:0:0:0:
362,123,205730,6,0,L|272:124,1,71.9999978027344,0|0,0:0|0:0,0:0:0:0:
113,149,205902,6,0,P|62:100|61:27,1,120,8|0,0:0|0:0,0:0:0:0:
218,120,206247,2,0,B|232:177|232:177|218:244|218:244|232:309,1,180.000006866455,2|0,0:0|0:0,0:0:0:0:
351,282,206592,6,0,B|418:323|467:293|467:293|444:246|405:249,1,167.999994873047,8|0,0:0|0:0,0:0:0:0:
376,193,206937,6,0,L|360:113,3,71.9999978027344,2|0|0|2,0:0|0:0|0:0|0:0,0:0:0:0:
218,120,207282,2,0,B|178:93|132:117|132:117|73:149|31:96|67:34|134:37|137:100,1,270.000010299683,0|0,0:0|0:0,0:0:0:0:
174,206,207626,6,0,P|180:292|139:338,1,120,2|2,0:0|0:0,0:0:0:0:
292,295,207971,2,0,L|366:278,3,60,8|8|4|4,0:3|0:3|0:3|0:3,0:0:0:0:
290,123,208316,6,0,L|299:38,1,71.9999978027344,6|0,0:0|0:0,0:0:0:0:
174,206,208488,6,0,L|166:277,1,71.9999978027344,0|0,0:0|0:0,0:0:0:0:
310,212,208661,2,0,B|382:192|382:192|413:206|413:206|486:186,1,180.000006866455,8|0,0:0|0:0,0:0:0:0:
218,120,209006,6,0,L|116:101,1,71.9999978027344,2|0,0:0|0:0,0:0:0:0:
88,193,209178,2,0,B|-26:207|-26:207|42:149,1,180.000006866455,0|8,0:0|0:0,0:0:0:0:
290,123,209523,6,0,P|328:108|365:106,1,71.9999978027344,0|0,0:0|0:0,0:0:0:0:
399,196,209695,2,0,B|432:250|501:243|501:243|493:177|443:159,1,180.000006866455,2|0,0:0|0:0,0:0:0:0:
218,120,210040,6,0,P|199:77|203:42,1,71.9999978027344,8|0,0:0|0:0,0:0:0:0:
310,212,210213,2,0,B|295:338|295:338|246:288,1,180.000006866455,0|2,0:0|0:0,0:0:0:0:
174,206,210557,6,0,P|95:205|23:270,1,143.999995605469,0|8,0:0|0:0,0:0:0:0:
297,335,210902,6,0,P|335:338|376:325,1,71.9999978027344,0|0,0:0|0:0,0:0:0:0:
450,250,211075,6,0,P|471:218|480:176,1,71.9999978027344,2|0,0:0|0:0,0:0:0:0:
358,105,211247,6,0,P|348:70|327:41,1,71.9999978027344,0|0,0:0|0:0,0:0:0:0:
147,106,211420,6,0,L|36:86,1,71.9999978027344,8|0,0:0|0:0,0:0:0:0:
239,224,211592,6,0,L|350:204,1,71.9999978027344,0|0,0:0|0:0,0:0:0:0:
42,239,211764,6,0,P|18:320|128:304,1,215.999993408203,2|0,0:0|0:0,0:0:0:0:
134,229,212109,6,0,L|146:153,3,71.9999978027344,8|0|0|0,0:0|0:0|0:0|0:0,0:0:0:0:
218,120,212454,6,0,L|206:44,3,71.9999978027344,2|0|0|0,0:0|0:0|0:0|0:0,0:0:0:0:
358,105,212799,6,0,B|447:141|513:74|513:74|450:11|403:52,1,270.000010299683,8|0,0:0|0:0,0:0:0:0:
358,105,213144,5,12,0:0:0:0:
108,189,213316,1,2,0:0:0:0:
108,189,213488,1,2,0:0:0:0:
450,250,213661,5,8,0:0:0:0:
119,323,213833,1,2,0:0:0:0:
119,323,214006,1,2,0:0:0:0:
309,211,214178,5,8,0:0:0:0:
54,53,214351,1,2,0:0:0:0:
54,53,214523,1,12,0:0:0:0:
358,105,214695,1,2,0:0:0:0:
134,229,214868,1,2,0:0:0:0:
450,250,215040,1,8,0:0:0:0:
119,323,215213,1,2,0:0:0:0:
450,250,215385,1,2,0:0:0:0:
190,179,215557,6,0,B|154:137|182:69|182:69|227:103|215:143,1,180.000006866455,8|2,0:0|0:0,0:0:0:0:
375,239,215902,5,12,0:0:0:0:
375,239,215988,1,0,0:0:0:0:
375,239,216075,2,0,L|366:336,1,90.0000034332277,2|2,0:0|0:0,0:0:0:0:
181,268,216247,5,8,0:0:0:0:
181,268,216333,1,0,0:0:0:0:
181,268,216420,2,0,L|190:171,1,90.0000034332277,2|2,0:0|0:0,0:0:0:0:
319,130,216592,5,8,0:0:0:0:
319,130,216678,1,0,0:0:0:0:
319,130,216765,2,0,L|328:33,1,90.0000034332277,2|2,0:0|0:0,0:0:0:0:
79,205,216937,5,8,0:0:0:0:
79,205,217023,1,0,0:0:0:0:
79,205,217110,2,0,L|70:302,1,90.0000034332277,2|2,0:0|0:0,0:0:0:0:
415,128,217282,5,8,0:0:0:0:
415,128,217368,1,2,0:0:0:0:
415,128,217455,2,0,L|424:31,1,90.0000034332277,2|2,0:0|0:0,0:0:0:0:
253,77,217626,6,0,P|214:66|166:72,1,71.9999978027344,8|2,0:0|0:0,0:0:0:0:
62,104,217799,6,0,P|33:126|14:156,1,71.9999978027344,2|2,0:0|0:0,0:0:0:0:
133,216,217971,6,0,P|152:246|180:268,1,71.9999978027344,8|2,0:0|0:0,0:0:0:0:
301,304,218144,6,0,P|336:304|371:294,1,71.9999978027344,2|2,0:0|0:0,0:0:0:0:
323,191,218316,6,0,P|329:128|288:205,1,240,0|0,0:0|0:0,0:0:0:0:
441,207,218661,6,0,L|449:77,1,120,6|0,0:3|0:0,0:0:0:0:
318,151,219006,1,8,0:0:0:0:
209,56,219178,1,0,0:0:0:0:
122,172,219351,2,0,P|56:169|22:129,1,120,0|2,0:0|0:0,0:0:0:0:
318,151,219695,5,8,0:0:0:0:
244,275,219868,1,0,0:0:0:0:
387,272,220040,1,0,0:0:0:0:
122,172,220213,1,2,0:0:0:0:
349,128,220385,2,0,P|389:86|448:86,1,120,8|0,0:0|0:0,0:0:0:0:
424,229,220730,5,0,0:0:0:0:
332,339,220902,1,2,0:0:0:0:
268,209,221075,1,8,0:0:0:0:
189,329,221247,1,0,0:0:0:0:
124,199,221420,2,0,L|106:74,1,120,2|2,0:0|0:0,0:0:0:0:
217,119,221764,5,8,0:0:0:0:
33,253,221937,1,0,0:0:0:0:
189,329,222109,1,0,0:0:0:0:
33,253,222282,1,2,0:0:0:0:
268,209,222454,2,0,P|335:189|390:214,1,120,8|0,0:0|0:0,0:0:0:0:
474,314,222799,5,0,0:0:0:0:
476,180,222971,1,2,0:0:0:0:
476,49,223144,1,8,0:0:0:0:
476,180,223316,1,0,0:0:0:0:
474,314,223488,2,0,P|407:334|352:309,1,120,0|2,0:0|0:0,0:0:0:0:
213,214,223833,5,8,0:0:0:0:
293,52,224006,1,2,0:0:0:0:
414,191,224178,1,2,0:0:0:0:
213,214,224351,1,0,0:0:0:0:
359,112,224523,2,0,P|376:31|356:-5,1,120,8|0,0:0|0:0,0:0:0:0:
157,101,224868,5,0,0:0:0:0:
256,250,225040,1,2,0:0:0:0:
81,349,225213,1,8,0:0:0:0:
256,250,225385,1,0,0:0:0:0:
80,150,225557,2,0,L|62:28,1,120,0|2,0:0|0:0,0:0:0:0:
232,93,225902,5,8,0:0:0:0:
402,149,226075,1,0,0:0:0:0:
230,202,226247,1,0,0:0:0:0:
405,246,226420,1,2,0:0:0:0:
234,300,226592,2,0,B|166:314|166:314|79:283,1,120,8|0,0:0|0:0,0:0:0:0:
193,132,226937,5,2,0:0:0:0:
341,30,227109,1,0,0:0:0:0:
401,200,227282,1,8,0:0:0:0:
341,30,227454,1,0,0:0:0:0:
193,132,227626,2,0,L|51:111,1,120,0|2,0:0|0:0,0:0:0:0:
162,271,227971,5,8,0:0:0:0:
313,172,228144,1,0,0:0:0:0:
439,298,228316,1,0,0:0:0:0:
313,172,228488,1,2,0:0:0:0:
162,271,228661,2,0,L|20:250,1,120,8|0,0:0|0:0,0:0:0:0:
313,172,229006,5,0,0:0:0:0:
432,305,229178,2,0,L|503:293,2,60,2|2|8,0:0|0:0|0:0,0:0:0:0:
253,333,229523,1,2,0:0:0:0:
401,200,229695,2,0,P|416:133|391:69,1,120,2|0,0:0|0:0,0:0:0:0:
232,149,230040,5,8,0:0:0:0:
104,21,230213,1,0,0:0:0:0:
232,149,230385,1,0,0:0:0:0:
106,282,230557,1,2,0:0:0:0:
104,135,230730,2,0,P|89:68|114:4,1,120,8|0,0:0|0:0,0:0:0:0:
336,90,231247,5,2,0:0:0:0:
473,130,231420,1,8,0:0:0:0:
336,90,231764,5,0,0:0:0:0:
473,130,231937,1,2,0:0:0:0:
218,52,232109,1,8,0:0:0:0:
473,130,232282,1,0,0:0:0:0:
313,172,232454,2,0,P|233:202|208:256,1,120,2|2,0:0|0:0,0:0:0:0:
348,285,232799,5,8,0:0:0:0:
206,309,232971,1,0,0:0:0:0:
63,333,233144,1,0,0:0:0:0:
348,285,233316,1,2,0:0:0:0:
116,254,233488,2,0,L|101:113,1,120,8|0,0:0|0:0,0:0:0:0:
203,30,233833,5,0,0:0:0:0:
257,163,234006,1,2,0:0:0:0:
308,28,234178,1,8,0:0:0:0:
381,163,234351,1,0,0:0:0:0:
435,30,234524,1,0,0:0:0:0:
486,165,234696,1,2,0:0:0:0:
217,127,234868,6,0,P|129:121|72:163,1,120,8|0,0:0|0:0,0:0:0:0:
206,309,235213,6,0,L|309:325,1,90.0000034332277,2|0,0:0|0:0,0:0:0:0:
390,337,235557,1,8,0:0:0:0:
390,337,236075,5,2,0:0:0:0:
390,337,236247,1,8,0:0:0:0:
390,337,236592,5,0,0:0:0:0:
390,337,236764,1,2,0:0:0:0:
390,337,236937,1,8,0:0:0:0:
390,337,237282,5,0,0:0:0:0:
390,337,237454,1,2,0:0:0:0:
390,337,237626,1,8,0:0:0:0:
390,337,237799,1,0,0:0:0:0:
390,337,237971,6,0,P|408:268|389:218,1,90.0000034332277,2|2,0:0|0:0,0:0:0:0:
370,174,238316,1,8,0:0:0:0:
370,174,238833,5,2,0:0:0:0:
370,174,239005,1,8,0:0:0:0:
370,174,239351,5,0,0:0:0:0:
370,174,239523,1,2,0:0:0:0:
370,174,239695,1,2,0:0:0:0:
370,174,240040,5,0,0:0:0:0:
370,174,240212,1,2,0:0:0:0:
370,174,240384,1,2,0:0:0:0:
370,174,240557,1,2,0:0:0:0:
370,174,240730,6,0,B|583:-85|583:-85|369:176|369:176|649:106|649:106|367:175|367:175|649:4|649:4|368:175|368:175|466:-85|466:-85|369:174|369:174|371:-85|371:-85|368:174|368:174|239:-85|239:-85|369:176|369:176|75:-85|75:-85|369:176|369:176|-232:-85|-232:-85|365:175|365:175|-299:95|-299:95|372:176|372:176|-264:287|-264:287|371:176|371:176|-90:406|-90:406|367:176|367:176|139:407|139:407|369:176|369:176|619:407|619:407|367:176|367:176|649:288|649:288|366:177|366:177|649:189|649:189|369:176|369:176|481:406|481:406|367:177|367:177|378:407|378:407|368:175|368:175|279:407|279:407|369:179,1,13260,8|8,0:0|0:0,0:0:0:0:
131,206,242279,6,0,L|139:121,1,60,0|0,0:0|0:0,0:0:0:0:
141,74,242624,1,0,0:0:0:0:
234,207,242796,6,0,L|242:122,1,60,0|0,0:0|0:0,0:0:0:0:
244,75,243141,1,0,0:0:0:0:
245,78,243486,1,2,0:0:0:0:
234,207,245383,5,0,0:0:0:0:
234,207,245900,1,0,0:0:0:0:
234,207,246245,1,2,0:0:0:0:
234,207,248658,5,0,0:0:0:0:
234,207,249003,1,2,0:0:0:0:
234,207,250038,5,0,0:0:0:0:
234,207,250383,1,2,0:0:0:0:
232,207,251072,1,2,0:0:0:0:
199,183,251762,6,0,B|244:260|294:211|297:175|265:144|212:149|188:124|188:124|168:97|163:33|234:12|274:32|268:88|242:119|189:125|189:125|163:156|117:133|105:85|114:48|133:21|133:21|81:63|32:92|-3:69|-3:69|14:19|73:29|91:62|91:62|63:123|79:165|117:192|152:190|152:190|115:237|120:311|184:322|184:322|219:292|202:246|179:211|155:198|155:198|88:233|88:233|13:263|-15:209|8:173|52:172|90:210|90:210|97:235,1,1680,2|0,0:0|0:0,0:0:0:0:
95,230,257279,6,0,B|126:207|193:225|193:225|169:285|206:344|286:300|278:230|193:222|193:222|169:166|202:96|266:73|304:159|251:192|208:212|208:212|137:170|146:101|197:71|226:66|226:66|182:-1|130:116|120:15|120:15|170:-10|226:-11|273:42|264:81|264:81|317:37|379:48|391:108|364:151|314:147|268:116|264:89|264:89|294:18|337:3|389:22|410:50|415:86|415:86|427:22|496:5|534:73|515:121|468:144|414:99|414:99|389:123|380:165|338:180|295:163|295:163|328:206|275:217|273:222|273:222|306:260|306:312|346:280|346:280|333:239|323:191|393:180|393:180|423:192|448:240|414:280|359:286|359:286|388:319|430:316|430:316|468:293|479:243|476:217|425:166|425:166|471:176|471:176|506:209|533:197|544:148|497:124,1,2910,2|0,0:0|0:0,0:0:0:0:
